  0
SECTION
  2
HEADER
  9
$ACADVER
  1
AC1015
  9
$ACADMAINTVER
 70
     6
  9
$DWGCODEPAGE
  3
ANSI_1252
  9
$INSBASE
 10
0.0
 20
0.0
 30
0.0
  9
$EXTMIN
 10
37.30858356067952
 20
49.26325278123909
 30
0.0
  9
$EXTMAX
 10
81.30858356067953
 20
83.2665171593611
 30
0.0
  9
$LIMMIN
 10
39.425148
 20
35.40259199999999
  9
$LIMMAX
 10
81.03339699999999
 20
82.60000899999999
  9
$ORTHOMODE
 70
     1
  9
$REGENMODE
 70
     1
  9
$FILLMODE
 70
     1
  9
$QTEXTMODE
 70
     0
  9
$MIRRTEXT
 70
     1
  9
$LTSCALE
 40
1.0
  9
$ATTMODE
 70
     1
  9
$TEXTSIZE
 40
0.25
  9
$TRACEWID
 40
0.05
  9
$TEXTSTYLE
  7
STANDARD
  9
$CLAYER
  8
Dimensions
  9
$CELTYPE
  6
CONTINUOUS
  9
$CECOLOR
 62
   256
  9
$CELTSCALE
 40
1.0
  9
$DISPSILH
 70
     0
  9
$DIMSCALE
 40
1.0
  9
$DIMASZ
 40
0.38
  9
$DIMEXO
 40
0.125
  9
$DIMDLI
 40
0.6
  9
$DIMRND
 40
0.000001
  9
$DIMDLE
 40
0.0
  9
$DIMEXE
 40
0.125
  9
$DIMTP
 40
0.0
  9
$DIMTM
 40
0.0
  9
$DIMTXT
 40
0.38
  9
$DIMCEN
 40
0.18
  9
$DIMTSZ
 40
0.0
  9
$DIMTOL
 70
     0
  9
$DIMLIM
 70
     0
  9
$DIMTIH
 70
     1
  9
$DIMTOH
 70
     1
  9
$DIMSE1
 70
     0
  9
$DIMSE2
 70
     0
  9
$DIMTAD
 70
     0
  9
$DIMZIN
 70
     0
  9
$DIMBLK
  1

  9
$DIMASO
 70
     1
  9
$DIMSHO
 70
     1
  9
$DIMPOST
  1

  9
$DIMAPOST
  1

  9
$DIMALT
 70
     0
  9
$DIMALTD
 70
     6
  9
$DIMALTF
 40
25.4
  9
$DIMLFAC
 40
1.0
  9
$DIMTOFL
 70
     0
  9
$DIMTVP
 40
0.0
  9
$DIMTIX
 70
     0
  9
$DIMSOXD
 70
     0
  9
$DIMSAH
 70
     0
  9
$DIMBLK1
  1

  9
$DIMBLK2
  1

  9
$DIMSTYLE
  2
STANDARD
  9
$DIMCLRD
 70
   256
  9
$DIMCLRE
 70
   256
  9
$DIMCLRT
 70
   256
  9
$DIMTFAC
 40
1.0
  9
$DIMGAP
 40
0.18
  9
$DIMJUST
 70
     0
  9
$DIMSD1
 70
     0
  9
$DIMSD2
 70
     0
  9
$DIMTOLJ
 70
     1
  9
$DIMTZIN
 70
     0
  9
$DIMALTZ
 70
     0
  9
$DIMALTTZ
 70
     0
  9
$DIMUPT
 70
     1
  9
$DIMDEC
 70
     4
  9
$DIMTDEC
 70
     4
  9
$DIMALTU
 70
     2
  9
$DIMALTTD
 70
     6
  9
$DIMTXSTY
  7
STANDARD
  9
$DIMAUNIT
 70
     0
  9
$DIMADEC
 70
     0
  9
$DIMALTRND
 40
0.0
  9
$DIMAZIN
 70
     0
  9
$DIMDSEP
 70
    46
  9
$DIMATFIT
 70
     3
  9
$DIMFRAC
 70
     0
  9
$DIMLDRBLK
  1

  9
$DIMLUNIT
 70
     5
  9
$DIMLWD
 70
    -2
  9
$DIMLWE
 70
    -2
  9
$DIMTMOVE
 70
     0
  9
$LUNITS
 70
     2
  9
$LUPREC
 70
     6
  9
$SKETCHINC
 40
0.1
  9
$FILLETRAD
 40
0.5
  9
$AUNITS
 70
     0
  9
$AUPREC
 70
     3
  9
$MENU
  1
.
  9
$ELEVATION
 40
0.0
  9
$PELEVATION
 40
0.0
  9
$THICKNESS
 40
0.0
  9
$LIMCHECK
 70
     0
  9
$CHAMFERA
 40
2.5
  9
$CHAMFERB
 40
2.5
  9
$CHAMFERC
 40
0.0
  9
$CHAMFERD
 40
0.0
  9
$SKPOLY
 70
     1
  9
$TDCREATE
 40
2444971.791666666
  9
$TDUCREATE
 40
2444972.000000000
  9
$TDUPDATE
 40
2452345.650648379
  9
$TDUUPDATE
 40
2452345.858981713
  9
$TDINDWG
 40
0.1660759259
  9
$TDUSRTIMER
 40
0.1660759259
  9
$USRTIMER
 70
     1
  9
$ANGBASE
 50
0.0
  9
$ANGDIR
 70
     0
  9
$PDMODE
 70
     0
  9
$PDSIZE
 40
-1.0
  9
$PLINEWID
 40
0.0
  9
$SPLFRAME
 70
     0
  9
$SPLINETYPE
 70
     6
  9
$SPLINESEGS
 70
     8
  9
$HANDSEED
  5
D8A
  9
$SURFTAB1
 70
     6
  9
$SURFTAB2
 70
     6
  9
$SURFTYPE
 70
     6
  9
$SURFU
 70
     6
  9
$SURFV
 70
     6
  9
$UCSBASE
  2

  9
$UCSNAME
  2

  9
$UCSORG
 10
0.0
 20
0.0
 30
0.0
  9
$UCSXDIR
 10
1.0
 20
0.0
 30
0.0
  9
$UCSYDIR
 10
0.0
 20
1.0
 30
0.0
  9
$UCSORTHOREF
  2

  9
$UCSORTHOVIEW
 70
     0
  9
$UCSORGTOP
 10
0.0
 20
0.0
 30
0.0
  9
$UCSORGBOTTOM
 10
0.0
 20
0.0
 30
0.0
  9
$UCSORGLEFT
 10
0.0
 20
0.0
 30
0.0
  9
$UCSORGRIGHT
 10
0.0
 20
0.0
 30
0.0
  9
$UCSORGFRONT
 10
0.0
 20
0.0
 30
0.0
  9
$UCSORGBACK
 10
0.0
 20
0.0
 30
0.0
  9
$PUCSBASE
  2

  9
$PUCSNAME
  2

  9
$PUCSORG
 10
0.0
 20
0.0
 30
0.0
  9
$PUCSXDIR
 10
1.0
 20
0.0
 30
0.0
  9
$PUCSYDIR
 10
0.0
 20
1.0
 30
0.0
  9
$PUCSORTHOREF
  2

  9
$PUCSORTHOVIEW
 70
     0
  9
$PUCSORGTOP
 10
0.0
 20
0.0
 30
0.0
  9
$PUCSORGBOTTOM
 10
0.0
 20
0.0
 30
0.0
  9
$PUCSORGLEFT
 10
0.0
 20
0.0
 30
0.0
  9
$PUCSORGRIGHT
 10
0.0
 20
0.0
 30
0.0
  9
$PUCSORGFRONT
 10
0.0
 20
0.0
 30
0.0
  9
$PUCSORGBACK
 10
0.0
 20
0.0
 30
0.0
  9
$USERI1
 70
     0
  9
$USERI2
 70
     0
  9
$USERI3
 70
     0
  9
$USERI4
 70
     0
  9
$USERI5
 70
     0
  9
$USERR1
 40
0.0
  9
$USERR2
 40
0.0
  9
$USERR3
 40
0.0
  9
$USERR4
 40
0.0
  9
$USERR5
 40
0.0
  9
$WORLDVIEW
 70
     1
  9
$SHADEDGE
 70
     3
  9
$SHADEDIF
 70
    70
  9
$TILEMODE
 70
     1
  9
$MAXACTVP
 70
    16
  9
$PINSBASE
 10
0.0
 20
0.0
 30
0.0
  9
$PLIMCHECK
 70
     0
  9
$PEXTMIN
 10
1.000000000000000E+20
 20
1.000000000000000E+20
 30
1.000000000000000E+20
  9
$PEXTMAX
 10
-1.000000000000000E+20
 20
-1.000000000000000E+20
 30
-1.000000000000000E+20
  9
$PLIMMIN
 10
0.0
 20
0.0
  9
$PLIMMAX
 10
12.0
 20
9.0
  9
$UNITMODE
 70
     1
  9
$VISRETAIN
 70
     0
  9
$PLINEGEN
 70
     1
  9
$PSLTSCALE
 70
     1
  9
$TREEDEPTH
 70
  3020
  9
$CMLSTYLE
  2
STANDARD
  9
$CMLJUST
 70
     0
  9
$CMLSCALE
 40
1.0
  9
$PROXYGRAPHICS
 70
     1
  9
$MEASUREMENT
 70
     0
  9
$CELWEIGHT
370
    -1
  9
$ENDCAPS
280
     0
  9
$JOINSTYLE
280
     0
  9
$LWDISPLAY
290
     0
  9
$INSUNITS
 70
     0
  9
$HYPERLINKBASE
  1

  9
$STYLESHEET
  1

  9
$XEDIT
290
     1
  9
$CEPSNTYPE
380
     0
  9
$PSTYLEMODE
290
     1
  9
$FINGERPRINTGUID
  2
{CA12BC54-2594-11D4-8360-004F4908EF25}
  9
$VERSIONGUID
  2
{43F50C28-4C04-11D4-8360-004F4908EF25}
  9
$EXTNAMES
290
     1
  9
$PSVPSCALE
 40
0.0
  9
$OLESTARTUP
290
     0
  0
ENDSEC
  0
SECTION
  2
CLASSES
  0
CLASS
  1
ACDBDICTIONARYWDFLT
  2
AcDbDictionaryWithDefault
  3
AutoCAD 2000
 90
        0
280
     0
281
     0
  0
CLASS
  1
ACDBPLACEHOLDER
  2
AcDbPlaceHolder
  3
AutoCAD 2000
 90
        0
280
     0
281
     0
  0
CLASS
  1
LAYOUT
  2
AcDbLayout
  3
AutoCAD 2000
 90
        0
280
     0
281
     0
  0
CLASS
  1
DICTIONARYVAR
  2
AcDbDictionaryVar
  3
AutoCAD 2000
 90
        0
280
     0
281
     0
  0
ENDSEC
  0
SECTION
  2
TABLES
  0
TABLE
  2
VPORT
  5
8
330
0
100
AcDbSymbolTable
 70
     2
  0
VPORT
  5
D89
330
8
100
AcDbSymbolTableRecord
100
AcDbViewportTableRecord
  2
*Active
 70
     0
 10
0.0
 20
0.0
 11
1.0
 21
1.0
 12
59.57348050308873
 22
65.57423546364081
 13
0.0
 23
0.0
 14
1.0
 24
1.0
 15
0.0
 25
0.0
 16
0.0
 26
0.0
 36
1.0
 17
0.0
 27
0.0
 37
0.0
 40
48.91418331879131
 41
1.378947368421052
 42
50.0
 43
0.0
 44
0.0
 50
0.0
 51
0.0
 71
     0
 72
   100
 73
     1
 74
     1
 75
     0
 76
     0
 77
     0
 78
     0
281
     0
 65
     1
110
0.0
120
0.0
130
0.0
111
1.0
121
0.0
131
0.0
112
0.0
122
1.0
132
0.0
 79
     0
146
0.0
  0
ENDTAB
  0
TABLE
  2
LTYPE
  5
5
330
0
100
AcDbSymbolTable
 70
     4
  0
LTYPE
  5
13
330
5
100
AcDbSymbolTableRecord
100
AcDbLinetypeTableRecord
  2
BYBLOCK
 70
     0
  3

 72
    65
 73
     0
 40
0.0
  0
LTYPE
  5
14
330
5
100
AcDbSymbolTableRecord
100
AcDbLinetypeTableRecord
  2
BYLAYER
 70
     0
  3

 72
    65
 73
     0
 40
0.0
  0
LTYPE
  5
15
330
5
100
AcDbSymbolTableRecord
100
AcDbLinetypeTableRecord
  2
CONTINUOUS
 70
     0
  3
Solid line
 72
    65
 73
     0
 40
0.0
  0
LTYPE
  5
1F
330
5
100
AcDbSymbolTableRecord
100
AcDbLinetypeTableRecord
  2
HIDDEN
 70
     0
  3
_____________________                     _____________________
 72
    65
 73
     2
 40
0.375
 49
0.25
 74
     0
 49
-0.125
 74
     0
  0
LTYPE
  5
20
330
5
100
AcDbSymbolTableRecord
100
AcDbLinetypeTableRecord
  2
CENTER
 70
     0
  3
____________________        ________        ____________________
 72
    65
 73
     4
 40
2.0
 49
1.25
 74
     0
 49
-0.25
 74
     0
 49
0.25
 74
     0
 49
-0.25
 74
     0
  0
LTYPE
  5
21
330
5
100
AcDbSymbolTableRecord
100
AcDbLinetypeTableRecord
  2
PHANTOM
 70
     0
  3
________________      ______      ______      ________________
 72
    65
 73
     6
 40
2.5
 49
1.290322999999999
 74
     0
 49
-0.241935
 74
     0
 49
0.241935
 74
     0
 49
-0.241935
 74
     0
 49
0.241935
 74
     0
 49
-0.241935
 74
     0
  0
ENDTAB
  0
TABLE
  2
LAYER
  5
2
330
0
100
AcDbSymbolTable
 70
     7
  0
LAYER
  5
F
330
2
100
AcDbSymbolTableRecord
100
AcDbLayerTableRecord
  2
0
 70
     0
 62
     7
  6
CONTINUOUS
370
    -3
390
24D
  0
LAYER
  5
1E
330
2
100
AcDbSymbolTableRecord
100
AcDbLayerTableRecord
  2
N0
 70
     0
 62
   255
  6
CONTINUOUS
370
    -3
390
24D
  0
LAYER
  5
22
330
2
100
AcDbSymbolTableRecord
100
AcDbLayerTableRecord
  2
OBJ
 70
     0
 62
   255
  6
CONTINUOUS
370
    -3
390
24D
  0
LAYER
  5
26
330
2
100
AcDbSymbolTableRecord
100
AcDbLayerTableRecord
  2
DEFPOINTS
 70
     0
 62
   255
  6
CONTINUOUS
290
     0
370
    -3
390
24D
  0
LAYER
  5
283
330
2
100
AcDbSymbolTableRecord
100
AcDbLayerTableRecord
  2
TitleBlock&Notes
 70
     0
 62
     3
  6
CONTINUOUS
370
    -3
390
24D
  0
LAYER
  5
284
330
2
100
AcDbSymbolTableRecord
100
AcDbLayerTableRecord
  2
B.O.M
 70
     0
 62
    -3
  6
CONTINUOUS
370
    -3
390
24D
  0
LAYER
  5
CFA
330
2
100
AcDbSymbolTableRecord
100
AcDbLayerTableRecord
  2
Dimensions
 70
     0
 62
     1
  6
CONTINUOUS
370
    -3
390
24D
  0
ENDTAB
  0
TABLE
  2
STYLE
  5
3
330
0
100
AcDbSymbolTable
 70
     1
  0
STYLE
  5
10
330
3
100
AcDbSymbolTableRecord
100
AcDbTextStyleTableRecord
  2
STANDARD
 70
     0
 40
0.0
 41
1.0
 50
0.0
 71
     0
 42
0.25
  3
SIMPLEX.SHX
  4

  0
ENDTAB
  0
TABLE
  2
VIEW
  5
6
330
0
100
AcDbSymbolTable
 70
     0
  0
ENDTAB
  0
TABLE
  2
UCS
  5
7
330
0
100
AcDbSymbolTable
 70
     0
  0
ENDTAB
  0
TABLE
  2
APPID
  5
9
330
0
100
AcDbSymbolTable
 70
     1
  0
APPID
  5
11
330
9
100
AcDbSymbolTableRecord
100
AcDbRegAppTableRecord
  2
ACAD
 70
     0
  0
ENDTAB
  0
TABLE
  2
DIMSTYLE
  5
A
330
0
100
AcDbSymbolTable
 70
     1
100
AcDbDimStyleTable
 71
     1
340
249
  0
DIMSTYLE
105
249
102
{ACAD_REACTORS
330
CEC
330
D1D
330
D2B
330
D39
330
D47
102
}
330
A
100
AcDbSymbolTableRecord
100
AcDbDimStyleTableRecord
  2
STANDARD
 70
     0
340
10
  0
ENDTAB
  0
TABLE
  2
BLOCK_RECORD
  5
1
330
0
100
AcDbSymbolTable
 70
    19
  0
BLOCK_RECORD
  5
19
330
1
100
AcDbSymbolTableRecord
100
AcDbBlockTableRecord
  2
*MODEL_SPACE
340
250
  0
BLOCK_RECORD
  5
16
330
1
100
AcDbSymbolTableRecord
100
AcDbBlockTableRecord
  2
*PAPER_SPACE
340
251
  0
BLOCK_RECORD
  5
29
330
1
100
AcDbSymbolTableRecord
100
AcDbBlockTableRecord
  2
_X65
340
0
  0
BLOCK_RECORD
  5
37
330
1
100
AcDbSymbolTableRecord
100
AcDbBlockTableRecord
  2
_D66
340
0
  0
BLOCK_RECORD
  5
44
330
1
100
AcDbSymbolTableRecord
100
AcDbBlockTableRecord
  2
_D67
340
0
  0
BLOCK_RECORD
  5
51
330
1
100
AcDbSymbolTableRecord
100
AcDbBlockTableRecord
  2
_D68
340
0
  0
BLOCK_RECORD
  5
5E
330
1
100
AcDbSymbolTableRecord
100
AcDbBlockTableRecord
  2
_D69
340
0
  0
BLOCK_RECORD
  5
6B
330
1
100
AcDbSymbolTableRecord
100
AcDbBlockTableRecord
  2
_D70
340
0
  0
BLOCK_RECORD
  5
78
330
1
100
AcDbSymbolTableRecord
100
AcDbBlockTableRecord
  2
_D71
340
0
  0
BLOCK_RECORD
  5
85
330
1
100
AcDbSymbolTableRecord
100
AcDbBlockTableRecord
  2
_D72
340
0
  0
BLOCK_RECORD
  5
92
330
1
100
AcDbSymbolTableRecord
100
AcDbBlockTableRecord
  2
_D73
340
0
  0
BLOCK_RECORD
  5
9F
330
1
100
AcDbSymbolTableRecord
100
AcDbBlockTableRecord
  2
_D74
340
0
  0
BLOCK_RECORD
  5
AC
330
1
100
AcDbSymbolTableRecord
100
AcDbBlockTableRecord
  2
_D75
340
0
  0
BLOCK_RECORD
  5
B9
330
1
100
AcDbSymbolTableRecord
100
AcDbBlockTableRecord
  2
_D76
340
0
  0
BLOCK_RECORD
  5
C6
330
1
100
AcDbSymbolTableRecord
100
AcDbBlockTableRecord
  2
_D77
340
0
  0
BLOCK_RECORD
  5
CED
330
1
100
AcDbSymbolTableRecord
100
AcDbBlockTableRecord
  2
*D13
340
0
  0
BLOCK_RECORD
  5
D1E
330
1
100
AcDbSymbolTableRecord
100
AcDbBlockTableRecord
  2
*D15
340
0
  0
BLOCK_RECORD
  5
D2C
330
1
100
AcDbSymbolTableRecord
100
AcDbBlockTableRecord
  2
*D16
340
0
  0
BLOCK_RECORD
  5
D3A
330
1
100
AcDbSymbolTableRecord
100
AcDbBlockTableRecord
  2
*D17
340
0
  0
BLOCK_RECORD
  5
D48
330
1
100
AcDbSymbolTableRecord
100
AcDbBlockTableRecord
  2
*D18
340
0
  0
ENDTAB
  0
ENDSEC
  0
SECTION
  2
BLOCKS
  0
BLOCK
  5
1A
330
19
100
AcDbEntity
  8
0
100
AcDbBlockBegin
  2
*MODEL_SPACE
 70
     0
 10
0.0
 20
0.0
 30
0.0
  3
*MODEL_SPACE
  1

  0
ENDBLK
  5
1B
330
19
100
AcDbEntity
  8
0
100
AcDbBlockEnd
  0
BLOCK
  5
17
330
16
100
AcDbEntity
 67
     1
  8
0
100
AcDbBlockBegin
  2
*PAPER_SPACE
 70
     0
 10
0.0
 20
0.0
 30
0.0
  3
*PAPER_SPACE
  1

  0
ENDBLK
  5
18
330
16
100
AcDbEntity
 67
     1
  8
0
100
AcDbBlockEnd
  0
BLOCK
  5
2A
330
29
100
AcDbEntity
  8
0
100
AcDbBlockBegin
  2
_X65
 70
     0
 10
0.0
 20
0.0
 30
0.0
  3
_X65
  1

  0
LINE
  5
2B
330
29
100
AcDbEntity
  8
N0
  6
Continuous
 62
   255
100
AcDbLine
 10
30.822314
 20
14.984444
 30
0.0
 11
31.26895499999999
 21
15.431085
 31
0.0
  0
LINE
  5
2C
330
29
100
AcDbEntity
  8
N0
  6
Continuous
 62
   255
100
AcDbLine
 10
30.636459
 20
15.063754
 30
0.0
 11
30.984281
 21
15.411576
 31
0.0
  0
LINE
  5
2D
330
29
100
AcDbEntity
  8
N0
  6
Continuous
 62
   255
100
AcDbLine
 10
30.474024
 20
15.166484
 30
0.0
 11
30.543629
 21
15.236089
 31
0.0
  0
LINE
  5
2E
330
29
100
AcDbEntity
  8
N0
  6
Continuous
 62
   255
100
AcDbLine
 10
31.036955
 20
14.93392
 30
0.0
 11
31.500674
 21
15.397639
 31
0.0
  0
LINE
  5
2F
330
29
100
AcDbEntity
  8
N0
  6
Continuous
 62
   255
100
AcDbLine
 10
31.292644
 20
14.924444
 30
0.0
 11
31.69916699999999
 21
15.330967
 31
0.0
  0
LINE
  5
30
330
29
100
AcDbEntity
  8
N0
  6
Continuous
 62
   255
100
AcDbLine
 10
31.628446
 20
14.99508099999999
 30
0.0
 11
31.872211
 21
15.23884599999999
 31
0.0
  0
LINE
  5
31
330
29
100
AcDbEntity
  8
N0
  6
Continuous
 62
   255
100
AcDbLine
 10
30.95724
 20
14.94795499999999
 30
0.0
 11
31.423164
 21
15.413879
 31
0.0
  0
LINE
  5
32
330
29
100
AcDbEntity
  8
N0
  6
Continuous
 62
   255
100
AcDbLine
 10
30.753678
 20
15.00955799999999
 30
0.0
 11
31.17614899999999
 21
15.432028
 31
0.0
  0
LINE
  5
33
330
29
100
AcDbEntity
  8
N0
  6
Continuous
 62
   255
100
AcDbLine
 10
30.57652299999999
 20
15.09756799999999
 30
0.0
 11
30.860761
 21
15.381806
 31
0.0
  0
LINE
  5
34
330
29
100
AcDbEntity
  8
N0
  6
Continuous
 62
   255
100
AcDbLine
 10
31.196194
 20
14.921744
 30
0.0
 11
31.632175
 21
15.357725
 31
0.0
  0
LINE
  5
35
330
29
100
AcDbEntity
  8
N0
  6
Continuous
 62
   255
100
AcDbLine
 10
31.4947
 20
14.955085
 30
0.0
 11
31.813658
 21
15.27404299999999
 31
0.0
  0
ENDBLK
  5
36
330
29
100
AcDbEntity
  8
0
100
AcDbBlockEnd
  0
BLOCK
  5
38
330
37
100
AcDbEntity
  8
0
100
AcDbBlockBegin
  2
_D66
 70
     0
 10
0.0
 20
0.0
 30
0.0
  3
_D66
  1

  0
LINE
  5
39
330
37
100
AcDbEntity
  8
N0
  6
Continuous
 62
   255
100
AcDbLine
 10
75.12969100000001
 20
60.65625999999999
 30
0.0
 11
77.365952
 21
60.65625999999999
 31
0.0
  0
LINE
  5
3A
330
37
100
AcDbEntity
  8
N0
  6
Continuous
 62
   255
100
AcDbLine
 10
71.129691
 20
69.78126
 30
0.0
 11
77.365952
 21
69.78126
 31
0.0
  0
LINE
  5
3B
330
37
100
AcDbEntity
  8
N0
  6
Continuous
 62
   255
100
AcDbLine
 10
77.239952
 20
60.81625999999999
 30
0.0
 11
77.239952
 21
65.015427
 31
0.0
  0
LINE
  5
3C
330
37
100
AcDbEntity
  8
N0
  6
Continuous
 62
   255
100
AcDbLine
 10
77.239952
 20
69.62125999999999
 30
0.0
 11
77.239952
 21
65.422093
 31
0.0
  0
SOLID
  5
3D
330
37
100
AcDbEntity
  8
N0
  6
Continuous
 62
   255
100
AcDbTrace
 10
77.213285
 20
60.81625999999999
 30
0.0
 11
77.26661899999999
 21
60.81625999999999
 31
0.0
 12
77.239952
 22
60.65625999999999
 32
0.0
 13
77.239952
 23
60.65625999999999
 33
0.0
  0
SOLID
  5
3E
330
37
100
AcDbEntity
  8
N0
  6
Continuous
 62
   255
100
AcDbTrace
 10
77.213285
 20
69.62125999999999
 30
0.0
 11
77.26661899999999
 21
69.62125999999999
 31
0.0
 12
77.239952
 22
69.78126
 32
0.0
 13
77.239952
 23
69.78126
 33
0.0
  0
TEXT
  5
3F
330
37
100
AcDbEntity
  8
N0
  6
Continuous
 62
   255
100
AcDbText
 10
77.364952
 20
65.13542700000001
 30
0.0
 40
0.4945962488156946
  1
B
 50
90.0
 41
1.073420999999999
 72
     3
 11
77.364952
 21
65.489367
 31
0.0
100
AcDbText
  0
POINT
  5
40
330
37
100
AcDbEntity
  8
DEFPOINTS
  6
Continuous
 62
   255
100
AcDbPoint
 10
75.003691
 20
60.65625999999999
 30
0.0
  0
POINT
  5
41
330
37
100
AcDbEntity
  8
DEFPOINTS
  6
Continuous
 62
   255
100
AcDbPoint
 10
71.003691
 20
69.78126
 30
0.0
  0
POINT
  5
42
330
37
100
AcDbEntity
  8
DEFPOINTS
  6
Continuous
 62
   255
100
AcDbPoint
 10
77.239952
 20
69.78126
 30
0.0
  0
ENDBLK
  5
43
330
37
100
AcDbEntity
  8
0
100
AcDbBlockEnd
  0
BLOCK
  5
45
330
44
100
AcDbEntity
  8
0
100
AcDbBlockBegin
  2
_D67
 70
     0
 10
0.0
 20
0.0
 30
0.0
  3
_D67
  1

  0
LINE
  5
46
330
44
100
AcDbEntity
  8
N0
  6
Continuous
 62
   255
100
AcDbLine
 10
67.503691
 20
72.53026
 30
0.0
 11
67.503691
 21
67.88267799999999
 31
0.0
  0
LINE
  5
47
330
44
100
AcDbEntity
  8
N0
  6
Continuous
 62
   255
100
AcDbLine
 10
72.503691
 20
66.78225999999999
 30
0.0
 11
72.503691
 21
68.13467800000001
 31
0.0
  0
LINE
  5
48
330
44
100
AcDbEntity
  8
N0
  6
Continuous
 62
   255
100
AcDbLine
 10
67.663691
 20
68.008678
 30
0.0
 11
69.80035699999999
 21
68.008678
 31
0.0
  0
LINE
  5
49
330
44
100
AcDbEntity
  8
N0
  6
Continuous
 62
   255
100
AcDbLine
 10
72.34369100000001
 20
68.008678
 30
0.0
 11
70.20702400000001
 21
68.008678
 31
0.0
  0
SOLID
  5
4A
330
44
100
AcDbEntity
  8
N0
  6
Continuous
 62
   255
100
AcDbTrace
 10
67.663691
 20
68.03534499999999
 30
0.0
 11
67.663691
 21
67.98201099999999
 31
0.0
 12
67.503691
 22
68.008678
 32
0.0
 13
67.503691
 23
68.008678
 33
0.0
  0
SOLID
  5
4B
330
44
100
AcDbEntity
  8
N0
  6
Continuous
 62
   255
100
AcDbTrace
 10
72.34369100000001
 20
68.03534499999999
 30
0.0
 11
72.34369100000001
 21
67.98201099999999
 31
0.0
 12
72.503691
 22
68.008678
 32
0.0
 13
72.503691
 23
68.008678
 33
0.0
  0
TEXT
  5
4C
330
44
100
AcDbEntity
  8
N0
  6
Continuous
 62
   255
100
AcDbText
 10
69.92035699999999
 20
67.883678
 30
0.0
 40
0.4768606166639363
  1
C
 41
1.073420999999999
 72
     3
 11
70.28598000000001
 21
67.883678
 31
0.0
100
AcDbText
  0
POINT
  5
4D
330
44
100
AcDbEntity
  8
DEFPOINTS
  6
Continuous
 62
   255
100
AcDbPoint
 10
67.503691
 20
72.65626000000001
 30
0.0
  0
POINT
  5
4E
330
44
100
AcDbEntity
  8
DEFPOINTS
  6
Continuous
 62
   255
100
AcDbPoint
 10
72.503691
 20
66.65626
 30
0.0
  0
POINT
  5
4F
330
44
100
AcDbEntity
  8
DEFPOINTS
  6
Continuous
 62
   255
100
AcDbPoint
 10
72.503691
 20
68.008678
 30
0.0
  0
ENDBLK
  5
50
330
44
100
AcDbEntity
  8
0
100
AcDbBlockEnd
  0
BLOCK
  5
52
330
51
100
AcDbEntity
  8
0
100
AcDbBlockBegin
  2
_D68
 70
     0
 10
0.0
 20
0.0
 30
0.0
  3
_D68
  1

  0
LINE
  5
53
330
51
100
AcDbEntity
  8
N0
  6
Continuous
 62
   255
100
AcDbLine
 10
67.503691
 20
70.14346899999999
 30
0.0
 11
67.503691
 21
67.88267799999999
 31
0.0
  0
LINE
  5
54
330
51
100
AcDbEntity
  8
N0
  6
Continuous
 62
   255
100
AcDbLine
 10
66.503691
 20
72.53026
 30
0.0
 11
66.503691
 21
67.88267799999999
 31
0.0
  0
LINE
  5
55
330
51
100
AcDbEntity
  8
N0
  6
Continuous
 62
   255
100
AcDbLine
 10
67.663691
 20
68.008678
 30
0.0
 11
67.823691
 21
68.008678
 31
0.0
  0
LINE
  5
56
330
51
100
AcDbEntity
  8
N0
  6
Continuous
 62
   255
100
AcDbLine
 10
66.343691
 20
68.008678
 30
0.0
 11
66.18369100000001
 21
68.008678
 31
0.0
  0
SOLID
  5
57
330
51
100
AcDbEntity
  8
N0
  6
Continuous
 62
   255
100
AcDbTrace
 10
67.663691
 20
68.03534499999999
 30
0.0
 11
67.663691
 21
67.98201099999999
 31
0.0
 12
67.503691
 22
68.008678
 32
0.0
 13
67.503691
 23
68.008678
 33
0.0
  0
SOLID
  5
58
330
51
100
AcDbEntity
  8
N0
  6
Continuous
 62
   255
100
AcDbTrace
 10
66.343691
 20
68.03534499999999
 30
0.0
 11
66.343691
 21
67.98201099999999
 31
0.0
 12
66.503691
 22
68.008678
 32
0.0
 13
66.503691
 23
68.008678
 33
0.0
  0
TEXT
  5
59
330
51
100
AcDbEntity
  8
N0
  6
Continuous
 62
   255
100
AcDbText
 10
66.79535699999999
 20
67.883678
 30
0.0
 40
0.4175961291473281
  1
%%cK
 41
1.073420999999999
 72
     3
 11
67.49976
 21
67.883678
 31
0.0
100
AcDbText
  0
POINT
  5
5A
330
51
100
AcDbEntity
  8
DEFPOINTS
  6
Continuous
 62
   255
100
AcDbPoint
 10
67.503691
 20
70.269469
 30
0.0
  0
POINT
  5
5B
330
51
100
AcDbEntity
  8
DEFPOINTS
  6
Continuous
 62
   255
100
AcDbPoint
 10
66.503691
 20
72.65626000000001
 30
0.0
  0
POINT
  5
5C
330
51
100
AcDbEntity
  8
DEFPOINTS
  6
Continuous
 62
   255
100
AcDbPoint
 10
66.503691
 20
68.008678
 30
0.0
  0
ENDBLK
  5
5D
330
51
100
AcDbEntity
  8
0
100
AcDbBlockEnd
  0
BLOCK
  5
5F
330
5E
100
AcDbEntity
  8
0
100
AcDbBlockBegin
  2
_D69
 70
     0
 10
0.0
 20
0.0
 30
0.0
  3
_D69
  1

  0
LINE
  5
60
330
5E
100
AcDbEntity
  8
N0
  6
Continuous
 62
   255
100
AcDbLine
 10
64.877691
 20
60.65625999999999
 30
0.0
 11
63.66550400000001
 21
60.65625999999999
 31
0.0
  0
LINE
  5
61
330
5E
100
AcDbEntity
  8
N0
  6
Continuous
 62
   255
100
AcDbLine
 10
64.877691
 20
61.40626
 30
0.0
 11
63.66550400000001
 21
61.40626
 31
0.0
  0
LINE
  5
62
330
5E
100
AcDbEntity
  8
N0
  6
Continuous
 62
   255
100
AcDbLine
 10
63.791504
 20
60.81625999999999
 30
0.0
 11
63.791504
 21
61.24626
 31
0.0
  0
LINE
  5
63
330
5E
100
AcDbEntity
  8
N0
  6
Continuous
 62
   255
100
AcDbLine
 10
63.791504
 20
61.40626
 30
0.0
 11
63.791504
 21
61.56626
 31
0.0
  0
SOLID
  5
64
330
5E
100
AcDbEntity
  8
N0
  6
Continuous
 62
   255
100
AcDbTrace
 10
63.764837
 20
60.81625999999999
 30
0.0
 11
63.81816999999999
 21
60.81625999999999
 31
0.0
 12
63.791504
 22
60.65625999999999
 32
0.0
 13
63.791504
 23
60.65625999999999
 33
0.0
  0
SOLID
  5
65
330
5E
100
AcDbEntity
  8
N0
  6
Continuous
 62
   255
100
AcDbTrace
 10
63.764837
 20
61.24626
 30
0.0
 11
63.81816999999999
 21
61.24626
 31
0.0
 12
63.791504
 22
61.40626
 32
0.0
 13
63.791504
 23
61.40626
 33
0.0
  0
TEXT
  5
66
330
5E
100
AcDbEntity
  8
N0
  6
Continuous
 62
   255
100
AcDbText
 10
63.916504
 20
61.68625999999999
 30
0.0
 40
0.3777978611325279
  1
3/4
 50
90.0
 41
1.073420999999999
 72
     3
 11
63.916504
 21
62.787001
 31
0.0
100
AcDbText
  0
POINT
  5
67
330
5E
100
AcDbEntity
  8
DEFPOINTS
  6
Continuous
 62
   255
100
AcDbPoint
 10
65.003691
 20
60.65625999999999
 30
0.0
  0
POINT
  5
68
330
5E
100
AcDbEntity
  8
DEFPOINTS
  6
Continuous
 62
   255
100
AcDbPoint
 10
65.003691
 20
61.40626
 30
0.0
  0
POINT
  5
69
330
5E
100
AcDbEntity
  8
DEFPOINTS
  6
Continuous
 62
   255
100
AcDbPoint
 10
63.791504
 20
61.40626
 30
0.0
  0
ENDBLK
  5
6A
330
5E
100
AcDbEntity
  8
0
100
AcDbBlockEnd
  0
BLOCK
  5
6C
330
6B
100
AcDbEntity
  8
0
100
AcDbBlockBegin
  2
_D70
 70
     0
 10
0.0
 20
0.0
 30
0.0
  3
_D70
  1

  0
LINE
  5
6D
330
6B
100
AcDbEntity
  8
N0
  6
Continuous
 62
   255
100
AcDbLine
 10
59.450885
 20
56.07938100000001
 30
0.0
 11
59.450885
 21
55.157927
 31
0.0
  0
LINE
  5
6E
330
6B
100
AcDbEntity
  8
N0
  6
Continuous
 62
   255
100
AcDbLine
 10
43.93526
 20
56.07938100000001
 30
0.0
 11
43.93526
 21
55.157927
 31
0.0
  0
LINE
  5
6F
330
6B
100
AcDbEntity
  8
N0
  6
Continuous
 62
   255
100
AcDbLine
 10
59.29088499999999
 20
55.283927
 30
0.0
 11
51.896405
 21
55.283927
 31
0.0
  0
LINE
  5
70
330
6B
100
AcDbEntity
  8
N0
  6
Continuous
 62
   255
100
AcDbLine
 10
44.09525999999999
 20
55.283927
 30
0.0
 11
51.489739
 21
55.283927
 31
0.0
  0
SOLID
  5
71
330
6B
100
AcDbEntity
  8
N0
  6
Continuous
 62
   255
100
AcDbTrace
 10
59.29088499999999
 20
55.310594
 30
0.0
 11
59.29088499999999
 21
55.25725999999999
 31
0.0
 12
59.450885
 22
55.283927
 32
0.0
 13
59.450885
 23
55.283927
 33
0.0
  0
SOLID
  5
72
330
6B
100
AcDbEntity
  8
N0
  6
Continuous
 62
   255
100
AcDbTrace
 10
44.09525999999999
 20
55.310594
 30
0.0
 11
44.09525999999999
 21
55.25725999999999
 31
0.0
 12
43.93526
 22
55.283927
 32
0.0
 13
43.93526
 23
55.283927
 33
0.0
  0
TEXT
  5
73
330
6B
100
AcDbEntity
  8
N0
  6
Continuous
 62
   255
100
AcDbText
 10
51.60973900000001
 20
55.158927
 30
0.0
 40
0.5036894621530964
  1
F
 41
1.073420999999999
 72
     3
 11
51.94444
 21
55.158927
 31
0.0
100
AcDbText
  0
POINT
  5
74
330
6B
100
AcDbEntity
  8
DEFPOINTS
  6
Continuous
 62
   255
100
AcDbPoint
 10
59.450885
 20
56.205381
 30
0.0
  0
POINT
  5
75
330
6B
100
AcDbEntity
  8
DEFPOINTS
  6
Continuous
 62
   255
100
AcDbPoint
 10
43.93526
 20
56.205381
 30
0.0
  0
POINT
  5
76
330
6B
100
AcDbEntity
  8
DEFPOINTS
  6
Continuous
 62
   255
100
AcDbPoint
 10
43.93526
 20
55.283927
 30
0.0
  0
ENDBLK
  5
77
330
6B
100
AcDbEntity
  8
0
100
AcDbBlockEnd
  0
BLOCK
  5
79
330
78
100
AcDbEntity
  8
0
100
AcDbBlockBegin
  2
_D71
 70
     0
 10
0.0
 20
0.0
 30
0.0
  3
_D71
  1

  0
LINE
  5
7A
330
78
100
AcDbEntity
  8
N0
  6
Continuous
 62
   255
100
AcDbLine
 10
65.628691
 20
56.07938100000001
 30
0.0
 11
65.628691
 21
55.714635
 31
0.0
  0
LINE
  5
7B
330
78
100
AcDbEntity
  8
N0
  6
Continuous
 62
   255
100
AcDbLine
 10
74.378691
 20
56.07938100000001
 30
0.0
 11
74.378691
 21
55.714635
 31
0.0
  0
LINE
  5
7C
330
78
100
AcDbEntity
  8
N0
  6
Continuous
 62
   255
100
AcDbLine
 10
65.788691
 20
55.840635
 30
0.0
 11
69.80035699999999
 21
55.840635
 31
0.0
  0
LINE
  5
7D
330
78
100
AcDbEntity
  8
N0
  6
Continuous
 62
   255
100
AcDbLine
 10
74.21869100000001
 20
55.840635
 30
0.0
 11
70.20702400000001
 21
55.840635
 31
0.0
  0
SOLID
  5
7E
330
78
100
AcDbEntity
  8
N0
  6
Continuous
 62
   255
100
AcDbTrace
 10
65.788691
 20
55.867302
 30
0.0
 11
65.788691
 21
55.813968
 31
0.0
 12
65.628691
 22
55.840635
 32
0.0
 13
65.628691
 23
55.840635
 33
0.0
  0
SOLID
  5
7F
330
78
100
AcDbEntity
  8
N0
  6
Continuous
 62
   255
100
AcDbTrace
 10
74.21869100000001
 20
55.867302
 30
0.0
 11
74.21869100000001
 21
55.813968
 31
0.0
 12
74.378691
 22
55.840635
 32
0.0
 13
74.378691
 23
55.840635
 33
0.0
  0
TEXT
  5
80
330
78
100
AcDbEntity
  8
N0
  6
Continuous
 62
   255
100
AcDbText
 10
69.92035699999999
 20
55.71563499999999
 30
0.0
 40
0.5067790091392189
  1
E
 41
1.073420999999999
 72
     3
 11
70.25711099999999
 21
55.71563499999999
 31
0.0
100
AcDbText
  0
POINT
  5
81
330
78
100
AcDbEntity
  8
DEFPOINTS
  6
Continuous
 62
   255
100
AcDbPoint
 10
65.628691
 20
56.205381
 30
0.0
  0
POINT
  5
82
330
78
100
AcDbEntity
  8
DEFPOINTS
  6
Continuous
 62
   255
100
AcDbPoint
 10
74.378691
 20
56.205381
 30
0.0
  0
POINT
  5
83
330
78
100
AcDbEntity
  8
DEFPOINTS
  6
Continuous
 62
   255
100
AcDbPoint
 10
74.378691
 20
55.840635
 30
0.0
  0
ENDBLK
  5
84
330
78
100
AcDbEntity
  8
0
100
AcDbBlockEnd
  0
BLOCK
  5
86
330
85
100
AcDbEntity
  8
0
100
AcDbBlockBegin
  2
_D72
 70
     0
 10
0.0
 20
0.0
 30
0.0
  3
_D72
  1

  0
LINE
  5
87
330
85
100
AcDbEntity
  8
N0
  6
Continuous
 62
   255
100
AcDbLine
 10
65.003691
 20
56.65525999999999
 30
0.0
 11
65.003691
 21
55.157927
 31
0.0
  0
LINE
  5
88
330
85
100
AcDbEntity
  8
N0
  6
Continuous
 62
   255
100
AcDbLine
 10
75.003691
 20
56.65525999999999
 30
0.0
 11
75.003691
 21
55.157927
 31
0.0
  0
LINE
  5
89
330
85
100
AcDbEntity
  8
N0
  6
Continuous
 62
   255
100
AcDbLine
 10
65.163691
 20
55.283927
 30
0.0
 11
69.80035699999999
 21
55.283927
 31
0.0
  0
LINE
  5
8A
330
85
100
AcDbEntity
  8
N0
  6
Continuous
 62
   255
100
AcDbLine
 10
74.84369100000001
 20
55.283927
 30
0.0
 11
70.20702400000001
 21
55.283927
 31
0.0
  0
SOLID
  5
8B
330
85
100
AcDbEntity
  8
N0
  6
Continuous
 62
   255
100
AcDbTrace
 10
65.163691
 20
55.310594
 30
0.0
 11
65.163691
 21
55.25725999999999
 31
0.0
 12
65.003691
 22
55.283927
 32
0.0
 13
65.003691
 23
55.283927
 33
0.0
  0
SOLID
  5
8C
330
85
100
AcDbEntity
  8
N0
  6
Continuous
 62
   255
100
AcDbTrace
 10
74.84369100000001
 20
55.310594
 30
0.0
 11
74.84369100000001
 21
55.25725999999999
 31
0.0
 12
75.003691
 22
55.283927
 32
0.0
 13
75.003691
 23
55.283927
 33
0.0
  0
TEXT
  5
8D
330
85
100
AcDbEntity
  8
N0
  6
Continuous
 62
   255
100
AcDbText
 10
69.92035699999999
 20
55.158927
 30
0.0
 40
0.4744862453781023
  1
D
 41
1.073420999999999
 72
     3
 11
70.259906
 21
55.158927
 31
0.0
100
AcDbText
  0
POINT
  5
8E
330
85
100
AcDbEntity
  8
DEFPOINTS
  6
Continuous
 62
   255
100
AcDbPoint
 10
65.003691
 20
56.78125999999999
 30
0.0
  0
POINT
  5
8F
330
85
100
AcDbEntity
  8
DEFPOINTS
  6
Continuous
 62
   255
100
AcDbPoint
 10
75.003691
 20
56.78125999999999
 30
0.0
  0
POINT
  5
90
330
85
100
AcDbEntity
  8
DEFPOINTS
  6
Continuous
 62
   255
100
AcDbPoint
 10
75.003691
 20
55.283927
 30
0.0
  0
ENDBLK
  5
91
330
85
100
AcDbEntity
  8
0
100
AcDbBlockEnd
  0
BLOCK
  5
93
330
92
100
AcDbEntity
  8
0
100
AcDbBlockBegin
  2
_D73
 70
     0
 10
0.0
 20
0.0
 30
0.0
  3
_D73
  1

  0
LINE
  5
94
330
92
100
AcDbEntity
  8
N0
  6
Continuous
 62
   255
100
AcDbLine
 10
45.56807199999999
 20
72.53026
 30
0.0
 11
45.56807199999999
 21
66.292084
 31
0.0
  0
LINE
  5
95
330
92
100
AcDbEntity
  8
N0
  6
Continuous
 62
   255
100
AcDbLine
 10
57.81807199999999
 20
72.53026
 30
0.0
 11
57.81807199999999
 21
66.292084
 31
0.0
  0
LINE
  5
96
330
92
100
AcDbEntity
  8
N0
  6
Continuous
 62
   255
100
AcDbLine
 10
45.72807199999999
 20
66.41808399999999
 30
0.0
 11
51.489739
 21
66.41808399999999
 31
0.0
  0
LINE
  5
97
330
92
100
AcDbEntity
  8
N0
  6
Continuous
 62
   255
100
AcDbLine
 10
57.658072
 20
66.41808399999999
 30
0.0
 11
51.896405
 21
66.41808399999999
 31
0.0
  0
SOLID
  5
98
330
92
100
AcDbEntity
  8
N0
  6
Continuous
 62
   255
100
AcDbTrace
 10
45.72807199999999
 20
66.444751
 30
0.0
 11
45.72807199999999
 21
66.391417
 31
0.0
 12
45.56807199999999
 22
66.41808399999999
 32
0.0
 13
45.56807199999999
 23
66.41808399999999
 33
0.0
  0
SOLID
  5
99
330
92
100
AcDbEntity
  8
N0
  6
Continuous
 62
   255
100
AcDbTrace
 10
57.658072
 20
66.444751
 30
0.0
 11
57.658072
 21
66.391417
 31
0.0
 12
57.81807199999999
 22
66.41808399999999
 32
0.0
 13
57.81807199999999
 23
66.41808399999999
 33
0.0
  0
TEXT
  5
9A
330
92
100
AcDbEntity
  8
N0
  6
Continuous
 62
   255
100
AcDbText
 10
51.60973900000001
 20
66.29308399999999
 30
0.0
 40
0.4834268194864803
  1
A
 41
1.073420999999999
 72
     3
 11
52.005107
 21
66.29308399999999
 31
0.0
100
AcDbText
  0
POINT
  5
9B
330
92
100
AcDbEntity
  8
DEFPOINTS
  6
Continuous
 62
   255
100
AcDbPoint
 10
45.56807199999999
 20
72.65626000000001
 30
0.0
  0
POINT
  5
9C
330
92
100
AcDbEntity
  8
DEFPOINTS
  6
Continuous
 62
   255
100
AcDbPoint
 10
57.81807199999999
 20
72.65626000000001
 30
0.0
  0
POINT
  5
9D
330
92
100
AcDbEntity
  8
DEFPOINTS
  6
Continuous
 62
   255
100
AcDbPoint
 10
57.81807199999999
 20
66.41808399999999
 30
0.0
  0
ENDBLK
  5
9E
330
92
100
AcDbEntity
  8
0
100
AcDbBlockEnd
  0
BLOCK
  5
A0
330
9F
100
AcDbEntity
  8
0
100
AcDbBlockBegin
  2
_D74
 70
     0
 10
0.0
 20
0.0
 30
0.0
  3
_D74
  1

  0
LINE
  5
A1
330
9F
100
AcDbEntity
  8
N0
  6
Continuous
 62
   255
100
AcDbLine
 10
49.411822
 20
68.923209
 30
0.0
 11
49.411822
 21
68.04173699999999
 31
0.0
  0
LINE
  5
A2
330
9F
100
AcDbEntity
  8
N0
  6
Continuous
 62
   255
100
AcDbLine
 10
53.97432199999999
 20
68.923209
 30
0.0
 11
53.97432199999999
 21
68.04173699999999
 31
0.0
  0
LINE
  5
A3
330
9F
100
AcDbEntity
  8
N0
  6
Continuous
 62
   255
100
AcDbLine
 10
49.571822
 20
68.167737
 30
0.0
 11
50.906405
 21
68.167737
 31
0.0
  0
LINE
  5
A4
330
9F
100
AcDbEntity
  8
N0
  6
Continuous
 62
   255
100
AcDbLine
 10
53.81432199999999
 20
68.167737
 30
0.0
 11
52.479739
 21
68.167737
 31
0.0
  0
SOLID
  5
A5
330
9F
100
AcDbEntity
  8
N0
  6
Continuous
 62
   255
100
AcDbTrace
 10
49.571822
 20
68.19440400000001
 30
0.0
 11
49.571822
 21
68.141071
 31
0.0
 12
49.411822
 22
68.167737
 32
0.0
 13
49.411822
 23
68.167737
 33
0.0
  0
SOLID
  5
A6
330
9F
100
AcDbEntity
  8
N0
  6
Continuous
 62
   255
100
AcDbTrace
 10
53.81432199999999
 20
68.19440400000001
 30
0.0
 11
53.81432199999999
 21
68.141071
 31
0.0
 12
53.97432199999999
 22
68.167737
 32
0.0
 13
53.97432199999999
 23
68.167737
 33
0.0
  0
TEXT
  5
A7
330
9F
100
AcDbEntity
  8
N0
  6
Continuous
 62
   255
100
AcDbText
 10
51.02640499999999
 20
68.042737
 30
0.0
 40
0.3129944355476564
  1
4 9/16
 41
1.073420999999999
 72
     3
 11
52.786273
 21
68.042737
 31
0.0
100
AcDbText
  0
POINT
  5
A8
330
9F
100
AcDbEntity
  8
DEFPOINTS
  6
Continuous
 62
   255
100
AcDbPoint
 10
49.411822
 20
69.04920899999999
 30
0.0
  0
POINT
  5
A9
330
9F
100
AcDbEntity
  8
DEFPOINTS
  6
Continuous
 62
   255
100
AcDbPoint
 10
53.97432199999999
 20
69.04920899999999
 30
0.0
  0
POINT
  5
AA
330
9F
100
AcDbEntity
  8
DEFPOINTS
  6
Continuous
 62
   255
100
AcDbPoint
 10
53.97432199999999
 20
68.167737
 30
0.0
  0
ENDBLK
  5
AB
330
9F
100
AcDbEntity
  8
0
100
AcDbBlockEnd
  0
BLOCK
  5
AD
330
AC
100
AcDbEntity
  8
0
100
AcDbBlockBegin
  2
_D75
 70
     0
 10
0.0
 20
0.0
 30
0.0
  3
_D75
  1

  0
LINE
  5
AE
330
AC
100
AcDbEntity
  8
N0
  6
Continuous
 62
   255
100
AcDbLine
 10
44.442072
 20
57.65626
 30
0.0
 11
42.94953999999999
 21
57.65626
 31
0.0
  0
LINE
  5
AF
330
AC
100
AcDbEntity
  8
N0
  6
Continuous
 62
   255
100
AcDbLine
 10
44.442072
 20
60.65625999999999
 30
0.0
 11
42.94953999999999
 21
60.65625999999999
 31
0.0
  0
LINE
  5
B0
330
AC
100
AcDbEntity
  8
N0
  6
Continuous
 62
   255
100
AcDbLine
 10
43.07554
 20
57.81626
 30
0.0
 11
43.07554
 21
58.952927
 31
0.0
  0
LINE
  5
B1
330
AC
100
AcDbEntity
  8
N0
  6
Continuous
 62
   255
100
AcDbLine
 10
43.07554
 20
60.49625999999999
 30
0.0
 11
43.07554
 21
59.359593
 31
0.0
  0
SOLID
  5
B2
330
AC
100
AcDbEntity
  8
N0
  6
Continuous
 62
   255
100
AcDbTrace
 10
43.04887299999999
 20
57.81626
 30
0.0
 11
43.102206
 21
57.81626
 31
0.0
 12
43.07554
 22
57.65626
 32
0.0
 13
43.07554
 23
57.65626
 33
0.0
  0
SOLID
  5
B3
330
AC
100
AcDbEntity
  8
N0
  6
Continuous
 62
   255
100
AcDbTrace
 10
43.04887299999999
 20
60.49625999999999
 30
0.0
 11
43.102206
 21
60.49625999999999
 31
0.0
 12
43.07554
 22
60.65625999999999
 32
0.0
 13
43.07554
 23
60.65625999999999
 33
0.0
  0
TEXT
  5
B4
330
AC
100
AcDbEntity
  8
N0
  6
Continuous
 62
   255
100
AcDbText
 10
43.20054
 20
59.072927
 30
0.0
 40
0.4711604300642468
  1
H
 50
90.0
 41
1.073420999999999
 72
     3
 11
43.20054
 21
59.410096
 31
0.0
100
AcDbText
  0
POINT
  5
B5
330
AC
100
AcDbEntity
  8
DEFPOINTS
  6
Continuous
 62
   255
100
AcDbPoint
 10
44.56807199999999
 20
57.65626
 30
0.0
  0
POINT
  5
B6
330
AC
100
AcDbEntity
  8
DEFPOINTS
  6
Continuous
 62
   255
100
AcDbPoint
 10
44.56807199999999
 20
60.65625999999999
 30
0.0
  0
POINT
  5
B7
330
AC
100
AcDbEntity
  8
DEFPOINTS
  6
Continuous
 62
   255
100
AcDbPoint
 10
43.07554
 20
60.65625999999999
 30
0.0
  0
ENDBLK
  5
B8
330
AC
100
AcDbEntity
  8
0
100
AcDbBlockEnd
  0
BLOCK
  5
BA
330
B9
100
AcDbEntity
  8
0
100
AcDbBlockBegin
  2
_D76
 70
     0
 10
0.0
 20
0.0
 30
0.0
  3
_D76
  1

  0
LINE
  5
BB
330
B9
100
AcDbEntity
  8
N0
  6
Continuous
 62
   255
100
AcDbLine
 10
44.442072
 20
60.65625999999999
 30
0.0
 11
42.94953999999999
 21
60.65625999999999
 31
0.0
  0
LINE
  5
BC
330
B9
100
AcDbEntity
  8
N0
  6
Continuous
 62
   255
100
AcDbLine
 10
44.442072
 20
72.65626000000001
 30
0.0
 11
42.94953999999999
 21
72.65626000000001
 31
0.0
  0
LINE
  5
BD
330
B9
100
AcDbEntity
  8
N0
  6
Continuous
 62
   255
100
AcDbLine
 10
43.07554
 20
60.81625999999999
 30
0.0
 11
43.07554
 21
66.452927
 31
0.0
  0
LINE
  5
BE
330
B9
100
AcDbEntity
  8
N0
  6
Continuous
 62
   255
100
AcDbLine
 10
43.07554
 20
72.49625999999999
 30
0.0
 11
43.07554
 21
66.859593
 31
0.0
  0
SOLID
  5
BF
330
B9
100
AcDbEntity
  8
N0
  6
Continuous
 62
   255
100
AcDbTrace
 10
43.04887299999999
 20
60.81625999999999
 30
0.0
 11
43.102206
 21
60.81625999999999
 31
0.0
 12
43.07554
 22
60.65625999999999
 32
0.0
 13
43.07554
 23
60.65625999999999
 33
0.0
  0
SOLID
  5
C0
330
B9
100
AcDbEntity
  8
N0
  6
Continuous
 62
   255
100
AcDbTrace
 10
43.04887299999999
 20
72.49625999999999
 30
0.0
 11
43.102206
 21
72.49625999999999
 31
0.0
 12
43.07554
 22
72.65626000000001
 32
0.0
 13
43.07554
 23
72.65626000000001
 33
0.0
  0
TEXT
  5
C1
330
B9
100
AcDbEntity
  8
N0
  6
Continuous
 62
   255
100
AcDbText
 10
43.20054
 20
66.57292700000001
 30
0.0
 40
0.459477688623548
  1
G
 50
90.0
 41
1.073420999999999
 72
     3
 11
43.20054
 21
66.92522199999999
 31
0.0
100
AcDbText
  0
POINT
  5
C2
330
B9
100
AcDbEntity
  8
DEFPOINTS
  6
Continuous
 62
   255
100
AcDbPoint
 10
44.56807199999999
 20
60.65625999999999
 30
0.0
  0
POINT
  5
C3
330
B9
100
AcDbEntity
  8
DEFPOINTS
  6
Continuous
 62
   255
100
AcDbPoint
 10
44.56807199999999
 20
72.65626000000001
 30
0.0
  0
POINT
  5
C4
330
B9
100
AcDbEntity
  8
DEFPOINTS
  6
Continuous
 62
   255
100
AcDbPoint
 10
43.07554
 20
72.65626000000001
 30
0.0
  0
ENDBLK
  5
C5
330
B9
100
AcDbEntity
  8
0
100
AcDbBlockEnd
  0
BLOCK
  5
C7
330
C6
100
AcDbEntity
  8
0
100
AcDbBlockBegin
  2
_D77
 70
     0
 10
0.0
 20
0.0
 30
0.0
  3
_D77
  1

  0
LINE
  5
C8
330
C6
100
AcDbEntity
  8
N0
  6
Continuous
 62
   255
100
AcDbLine
 10
44.442072
 20
72.65626000000001
 30
0.0
 11
42.94953999999999
 21
72.65626000000001
 31
0.0
  0
LINE
  5
C9
330
C6
100
AcDbEntity
  8
N0
  6
Continuous
 62
   255
100
AcDbLine
 10
44.442072
 20
75.65626
 30
0.0
 11
42.94953999999999
 21
75.65626
 31
0.0
  0
LINE
  5
CA
330
C6
100
AcDbEntity
  8
N0
  6
Continuous
 62
   255
100
AcDbLine
 10
43.07554
 20
72.81626
 30
0.0
 11
43.07554
 21
73.952927
 31
0.0
  0
LINE
  5
CB
330
C6
100
AcDbEntity
  8
N0
  6
Continuous
 62
   255
100
AcDbLine
 10
43.07554
 20
75.49625999999999
 30
0.0
 11
43.07554
 21
74.359593
 31
0.0
  0
SOLID
  5
CC
330
C6
100
AcDbEntity
  8
N0
  6
Continuous
 62
   255
100
AcDbTrace
 10
43.04887299999999
 20
72.81626
 30
0.0
 11
43.102206
 21
72.81626
 31
0.0
 12
43.07554
 22
72.65626000000001
 32
0.0
 13
43.07554
 23
72.65626000000001
 33
0.0
  0
SOLID
  5
CD
330
C6
100
AcDbEntity
  8
N0
  6
Continuous
 62
   255
100
AcDbTrace
 10
43.04887299999999
 20
75.49625999999999
 30
0.0
 11
43.102206
 21
75.49625999999999
 31
0.0
 12
43.07554
 22
75.65626
 32
0.0
 13
43.07554
 23
75.65626
 33
0.0
  0
TEXT
  5
CE
330
C6
100
AcDbEntity
  8
N0
  6
Continuous
 62
   255
100
AcDbText
 10
43.20054
 20
74.07292700000001
 30
0.0
 40
0.4711604300642369
  1
H
 50
90.0
 41
1.073420999999999
 72
     3
 11
43.20054
 21
74.410096
 31
0.0
100
AcDbText
  0
POINT
  5
CF
330
C6
100
AcDbEntity
  8
DEFPOINTS
  6
Continuous
 62
   255
100
AcDbPoint
 10
44.56807199999999
 20
72.65626000000001
 30
0.0
  0
POINT
  5
D0
330
C6
100
AcDbEntity
  8
DEFPOINTS
  6
Continuous
 62
   255
100
AcDbPoint
 10
44.56807199999999
 20
75.65626
 30
0.0
  0
POINT
  5
D1
330
C6
100
AcDbEntity
  8
DEFPOINTS
  6
Continuous
 62
   255
100
AcDbPoint
 10
43.07554
 20
75.65626
 30
0.0
  0
ENDBLK
  5
D2
330
C6
100
AcDbEntity
  8
0
100
AcDbBlockEnd
  0
BLOCK
  5
CF8
330
CED
100
AcDbEntity
  8
0
 62
   255
100
AcDbBlockBegin
  2
*D13
 70
     1
 10
0.0
 20
0.0
 30
0.0
  3
*D13
  1

  0
LINE
  5
D05
330
CED
100
AcDbEntity
  8
Dimensions
  6
Continuous
370
    -2
100
AcDbLine
 10
59.950885
 20
56.65625999999999
 30
0.0
 11
59.950885
 21
55.32886796224522
 31
0.0
  0
LINE
  5
D06
330
CED
100
AcDbEntity
  8
Dimensions
  6
Continuous
370
    -2
100
AcDbLine
 10
43.43525999999999
 20
56.65625999999999
 30
0.0
 11
43.43525999999999
 21
55.32886796224522
 31
0.0
  0
LINE
  5
D07
330
CED
100
AcDbEntity
  8
Dimensions
  6
Continuous
370
    -2
100
AcDbLine
 10
59.570885
 20
55.45386796224522
 30
0.0
 11
51.64553166880246
 21
55.45386796224522
 31
0.0
  0
LINE
  5
D08
330
CED
100
AcDbEntity
  8
Dimensions
  6
Continuous
370
    -2
100
AcDbLine
 10
43.81526
 20
55.45386796224522
 30
0.0
 11
50.38076976404055
 21
55.45386796224522
 31
0.0
  0
SOLID
  5
D09
330
CED
100
AcDbEntity
  8
Dimensions
  6
Continuous
100
AcDbTrace
 10
59.570885
 20
55.51720129557855
 30
0.0
 11
59.570885
 21
55.39053462891189
 31
0.0
 12
59.950885
 22
55.45386796224522
 32
0.0
 13
59.950885
 23
55.45386796224522
 33
0.0
  0
SOLID
  5
D0A
330
CED
100
AcDbEntity
  8
Dimensions
  6
Continuous
100
AcDbTrace
 10
43.81526
 20
55.51720129557855
 30
0.0
 11
43.81526
 21
55.39053462891189
 31
0.0
 12
43.43525999999999
 22
55.45386796224522
 32
0.0
 13
43.43525999999999
 23
55.45386796224522
 33
0.0
  0
MTEXT
  5
D0B
330
CED
100
AcDbEntity
  8
Dimensions
  6
Continuous
100
AcDbMText
 10
51.01315071642151
 20
55.45386796224522
 30
0.0
 40
0.38
 41
0.0
 71
     5
 72
     1
  1
\A1;16{\H1.000000x;\S1/2;}
 73
     1
 44
1.0
  0
POINT
  5
D0C
330
CED
100
AcDbEntity
  8
DEFPOINTS
  6
Continuous
 62
     0
100
AcDbPoint
 10
59.950885
 20
56.78125999999999
 30
0.0
  0
POINT
  5
D0D
330
CED
100
AcDbEntity
  8
DEFPOINTS
  6
Continuous
 62
     0
100
AcDbPoint
 10
43.43525999999999
 20
56.78125999999999
 30
0.0
  0
POINT
  5
D0E
330
CED
100
AcDbEntity
  8
DEFPOINTS
  6
Continuous
 62
     0
100
AcDbPoint
 10
43.43525999999999
 20
55.45386796224522
 30
0.0
  0
ENDBLK
  5
CF9
330
CED
100
AcDbEntity
  8
0
 62
   255
100
AcDbBlockEnd
  0
BLOCK
  5
D29
330
D1E
100
AcDbEntity
  8
0
100
AcDbBlockBegin
  2
*D15
 70
     1
 10
0.0
 20
0.0
 30
0.0
  3
*D15
  1

  0
LINE
  5
D1F
330
D1E
100
AcDbEntity
  8
Dimensions
  6
Continuous
370
    -2
100
AcDbLine
 10
65.003691
 20
56.65625999999999
 30
0.0
 11
65.003691
 21
55.32886796224522
 31
0.0
  0
LINE
  5
D20
330
D1E
100
AcDbEntity
  8
Dimensions
  6
Continuous
370
    -2
100
AcDbLine
 10
75.003691
 20
56.65625999999999
 30
0.0
 11
75.003691
 21
55.32886796224522
 31
0.0
  0
LINE
  5
D21
330
D1E
100
AcDbEntity
  8
Dimensions
  6
Continuous
370
    -2
100
AcDbLine
 10
65.383691
 20
55.45386796224522
 30
0.0
 11
69.44706939800688
 21
55.45386796224522
 31
0.0
  0
LINE
  5
D22
330
D1E
100
AcDbEntity
  8
Dimensions
  6
Continuous
370
    -2
100
AcDbLine
 10
74.623691
 20
55.45386796224522
 30
0.0
 11
70.34992654086401
 21
55.45386796224522
 31
0.0
  0
SOLID
  5
D23
330
D1E
100
AcDbEntity
  8
Dimensions
  6
Continuous
100
AcDbTrace
 10
65.383691
 20
55.51720129557855
 30
0.0
 11
65.383691
 21
55.39053462891189
 31
0.0
 12
65.003691
 22
55.45386796224522
 32
0.0
 13
65.003691
 23
55.45386796224522
 33
0.0
  0
SOLID
  5
D24
330
D1E
100
AcDbEntity
  8
Dimensions
  6
Continuous
100
AcDbTrace
 10
74.623691
 20
55.51720129557855
 30
0.0
 11
74.623691
 21
55.39053462891189
 31
0.0
 12
75.003691
 22
55.45386796224522
 32
0.0
 13
75.003691
 23
55.45386796224522
 33
0.0
  0
MTEXT
  5
D25
330
D1E
100
AcDbEntity
  8
Dimensions
  6
Continuous
100
AcDbMText
 10
69.89849796943545
 20
55.45386796224522
 30
0.0
 40
0.38
 41
0.0
 71
     5
 72
     1
  1
\A1;10
 73
     1
 44
1.0
  0
POINT
  5
D26
330
D1E
100
AcDbEntity
  8
DEFPOINTS
  6
Continuous
 62
     0
100
AcDbPoint
 10
65.003691
 20
56.78125999999999
 30
0.0
  0
POINT
  5
D27
330
D1E
100
AcDbEntity
  8
DEFPOINTS
  6
Continuous
 62
     0
100
AcDbPoint
 10
75.003691
 20
56.78125999999999
 30
0.0
  0
POINT
  5
D28
330
D1E
100
AcDbEntity
  8
DEFPOINTS
  6
Continuous
 62
     0
100
AcDbPoint
 10
75.003691
 20
55.45386796224522
 30
0.0
  0
ENDBLK
  5
D2A
330
D1E
100
AcDbEntity
  8
0
100
AcDbBlockEnd
  0
BLOCK
  5
D37
330
D2C
100
AcDbEntity
  8
0
100
AcDbBlockBegin
  2
*D16
 70
     1
 10
0.0
 20
0.0
 30
0.0
  3
*D16
  1

  0
LINE
  5
D2D
330
D2C
100
AcDbEntity
  8
Dimensions
  6
Continuous
370
    -2
100
AcDbLine
 10
45.56807199999999
 20
66.53126
 30
0.0
 11
45.56807199999999
 21
66.44383486147791
 31
0.0
  0
LINE
  5
D2E
330
D2C
100
AcDbEntity
  8
Dimensions
  6
Continuous
370
    -2
100
AcDbLine
 10
57.81807199999999
 20
66.53126
 30
0.0
 11
57.81807199999999
 21
66.44383486147791
 31
0.0
  0
LINE
  5
D2F
330
D2C
100
AcDbEntity
  8
Dimensions
  6
Continuous
370
    -2
100
AcDbLine
 10
45.94807199999999
 20
66.56883486147791
 30
0.0
 11
50.90121794336514
 21
66.56883486147791
 31
0.0
  0
LINE
  5
D30
330
D2C
100
AcDbEntity
  8
Dimensions
  6
Continuous
370
    -2
100
AcDbLine
 10
57.43807199999999
 20
66.56883486147791
 30
0.0
 11
52.18407508622228
 21
66.56883486147791
 31
0.0
  0
SOLID
  5
D31
330
D2C
100
AcDbEntity
  8
Dimensions
  6
Continuous
100
AcDbTrace
 10
45.94807199999999
 20
66.63216819481124
 30
0.0
 11
45.94807199999999
 21
66.50550152814457
 31
0.0
 12
45.56807199999999
 22
66.56883486147791
 32
0.0
 13
45.56807199999999
 23
66.56883486147791
 33
0.0
  0
SOLID
  5
D32
330
D2C
100
AcDbEntity
  8
Dimensions
  6
Continuous
100
AcDbTrace
 10
57.43807199999999
 20
66.63216819481124
 30
0.0
 11
57.43807199999999
 21
66.50550152814457
 31
0.0
 12
57.81807199999999
 22
66.56883486147791
 32
0.0
 13
57.81807199999999
 23
66.56883486147791
 33
0.0
  0
MTEXT
  5
D33
330
D2C
100
AcDbEntity
  8
Dimensions
  6
Continuous
100
AcDbMText
 10
51.54264651479372
 20
66.56883486147791
 30
0.0
 40
0.38
 41
0.0
 71
     5
 72
     1
  1
\A1;12{\H1.000000x;\S1/4;}
 73
     1
 44
1.0
  0
POINT
  5
D34
330
D2C
100
AcDbEntity
  8
DEFPOINTS
  6
Continuous
 62
     0
100
AcDbPoint
 10
45.56807199999999
 20
66.65626
 30
0.0
  0
POINT
  5
D35
330
D2C
100
AcDbEntity
  8
DEFPOINTS
  6
Continuous
 62
     0
100
AcDbPoint
 10
57.81807199999999
 20
66.65626
 30
0.0
  0
POINT
  5
D36
330
D2C
100
AcDbEntity
  8
DEFPOINTS
  6
Continuous
 62
     0
100
AcDbPoint
 10
57.81807199999999
 20
66.56883486147791
 30
0.0
  0
ENDBLK
  5
D38
330
D2C
100
AcDbEntity
  8
0
100
AcDbBlockEnd
  0
BLOCK
  5
D45
330
D3A
100
AcDbEntity
  8
0
100
AcDbBlockBegin
  2
*D17
 70
     1
 10
0.0
 20
0.0
 30
0.0
  3
*D17
  1

  0
LINE
  5
D3B
330
D3A
100
AcDbEntity
  8
Dimensions
  6
Continuous
370
    -2
100
AcDbLine
 10
43.31026
 20
56.78125999999999
 30
0.0
 11
42.05896231979694
 21
56.78125999999999
 31
0.0
  0
LINE
  5
D3C
330
D3A
100
AcDbEntity
  8
Dimensions
  6
Continuous
370
    -2
100
AcDbLine
 10
44.52119699999999
 20
76.28126
 30
0.0
 11
42.05896231979694
 21
76.28126
 31
0.0
  0
LINE
  5
D3D
330
D3A
100
AcDbEntity
  8
Dimensions
  6
Continuous
370
    -2
100
AcDbLine
 10
42.18396231979694
 20
57.16126
 30
0.0
 11
42.18396231979694
 21
65.84660221383204
 31
0.0
  0
LINE
  5
D3E
330
D3A
100
AcDbEntity
  8
Dimensions
  6
Continuous
370
    -2
100
AcDbLine
 10
42.18396231979694
 20
75.90126000000001
 30
0.0
 11
42.18396231979694
 21
67.09326888049871
 31
0.0
  0
SOLID
  5
D3F
330
D3A
100
AcDbEntity
  8
Dimensions
  6
Continuous
100
AcDbTrace
 10
42.12062898646361
 20
57.16126
 30
0.0
 11
42.24729565313027
 21
57.16126
 31
0.0
 12
42.18396231979694
 22
56.78125999999999
 32
0.0
 13
42.18396231979694
 23
56.78125999999999
 33
0.0
  0
SOLID
  5
D40
330
D3A
100
AcDbEntity
  8
Dimensions
  6
Continuous
100
AcDbTrace
 10
42.12062898646361
 20
75.90126000000001
 30
0.0
 11
42.24729565313027
 21
75.90126000000001
 31
0.0
 12
42.18396231979694
 22
76.28126
 32
0.0
 13
42.18396231979694
 23
76.28126
 33
0.0
  0
MTEXT
  5
D41
330
D3A
100
AcDbEntity
  8
Dimensions
  6
Continuous
100
AcDbMText
 10
42.18396231979693
 20
66.46993554716539
 30
0.0
 40
0.38
 41
0.0
 71
     5
 72
     1
  1
\A1;19{\H1.000000x;\S1/2;}
 73
     1
 44
1.0
  0
POINT
  5
D42
330
D3A
100
AcDbEntity
  8
DEFPOINTS
  6
Continuous
 62
     0
100
AcDbPoint
 10
43.43525999999999
 20
56.78125999999999
 30
0.0
  0
POINT
  5
D43
330
D3A
100
AcDbEntity
  8
DEFPOINTS
  6
Continuous
 62
     0
100
AcDbPoint
 10
44.64619699999999
 20
76.28126
 30
0.0
  0
POINT
  5
D44
330
D3A
100
AcDbEntity
  8
DEFPOINTS
  6
Continuous
 62
     0
100
AcDbPoint
 10
42.18396231979694
 20
76.28126
 30
0.0
  0
ENDBLK
  5
D46
330
D3A
100
AcDbEntity
  8
0
100
AcDbBlockEnd
  0
BLOCK
  5
D53
330
D48
100
AcDbEntity
  8
0
100
AcDbBlockBegin
  2
*D18
 70
     1
 10
0.0
 20
0.0
 30
0.0
  3
*D18
  1

  0
LINE
  5
D67
330
D48
100
AcDbEntity
  8
Dimensions
  6
Continuous
370
    -2
100
AcDbLine
 10
49.31807199999999
 20
71.65626
 30
0.0
 11
48.22065940072162
 21
71.65626
 31
0.0
  0
LINE
  5
D68
330
D48
100
AcDbEntity
  8
Dimensions
  6
Continuous
370
    -2
100
AcDbLine
 10
48.34565940072162
 20
71.27626000000001
 30
0.0
 11
48.34565940072162
 21
68.04681269023586
 31
0.0
  0
LINE
  5
D69
330
D48
100
AcDbEntity
  8
Dimensions
  6
Continuous
370
    -2
100
AcDbLine
 10
48.34565940072162
 20
61.03625999999999
 30
0.0
 11
48.34565940072162
 21
67.30681269023584
 31
0.0
  0
SOLID
  5
D6A
330
D48
100
AcDbEntity
  8
Dimensions
  6
Continuous
100
AcDbTrace
 10
48.28232606738829
 20
71.27626000000001
 30
0.0
 11
48.40899273405495
 21
71.27626000000001
 31
0.0
 12
48.34565940072162
 22
71.65626
 32
0.0
 13
48.34565940072162
 23
71.65626
 33
0.0
  0
SOLID
  5
D6B
330
D48
100
AcDbEntity
  8
Dimensions
  6
Continuous
100
AcDbTrace
 10
48.28232606738829
 20
61.03625999999999
 30
0.0
 11
48.40899273405495
 21
61.03625999999999
 31
0.0
 12
48.34565940072162
 22
60.65625999999999
 32
0.0
 13
48.34565940072162
 23
60.65625999999999
 33
0.0
  0
MTEXT
  5
D6C
330
D48
100
AcDbEntity
  8
Dimensions
  6
Continuous
100
AcDbMText
 10
48.34565940072161
 20
67.67681269023587
 30
0.0
 40
0.38
 41
0.0
 71
     5
 72
     1
  1
\A1;11
 73
     1
 44
1.0
  0
POINT
  5
D6D
330
D48
100
AcDbEntity
  8
DEFPOINTS
  6
Continuous
 62
     0
100
AcDbPoint
 10
49.44307199999999
 20
71.65626
 30
0.0
  0
POINT
  5
D6E
330
D48
100
AcDbEntity
  8
DEFPOINTS
  6
Continuous
 62
     0
100
AcDbPoint
 10
45.56807199999999
 20
60.65625999999999
 30
0.0
  0
POINT
  5
D6F
330
D48
100
AcDbEntity
  8
DEFPOINTS
  6
Continuous
 62
     0
100
AcDbPoint
 10
48.34565940072162
 20
60.65625999999999
 30
0.0
  0
ENDBLK
  5
D54
330
D48
100
AcDbEntity
  8
0
100
AcDbBlockEnd
  0
ENDSEC
  0
SECTION
  2
ENTITIES
  0
LINE
  5
D3
330
19
100
AcDbEntity
  8
OBJ
  6
Continuous
 62
   255
100
AcDbLine
 10
44.56807199999999
 20
75.65626
 30
0.0
 11
44.56807199999999
 21
72.65626000000001
 31
0.0
  0
LINE
  5
D4
330
19
100
AcDbEntity
  8
OBJ
  6
Continuous
 62
   255
100
AcDbLine
 10
44.56807199999999
 20
72.65626000000001
 30
0.0
 11
58.81807199999999
 21
72.65626000000001
 31
0.0
  0
LINE
  5
D5
330
19
100
AcDbEntity
  8
OBJ
  6
Continuous
 62
   255
100
AcDbLine
 10
44.56807199999999
 20
75.65626
 30
0.0
 11
58.81807199999999
 21
75.65626
 31
0.0
  0
LINE
  5
D6
330
19
100
AcDbEntity
  8
OBJ
  6
Continuous
 62
   255
100
AcDbLine
 10
58.81807199999999
 20
75.65626
 30
0.0
 11
58.81807199999999
 21
72.65626000000001
 31
0.0
  0
LINE
  5
D7
330
19
100
AcDbEntity
  8
OBJ
  6
Continuous
 62
   255
100
AcDbLine
 10
44.56807199999999
 20
60.65625999999999
 30
0.0
 11
58.81807199999999
 21
60.65625999999999
 31
0.0
  0
LINE
  5
D8
330
19
100
AcDbEntity
  8
OBJ
  6
Continuous
 62
   255
100
AcDbLine
 10
44.56807199999999
 20
57.65626
 30
0.0
 11
58.81807199999999
 21
57.65626
 31
0.0
  0
LINE
  5
D9
330
19
100
AcDbEntity
  8
OBJ
  6
Continuous
 62
   255
100
AcDbLine
 10
44.56807199999999
 20
60.65625999999999
 30
0.0
 11
44.56807199999999
 21
57.65626
 31
0.0
  0
LINE
  5
DA
330
19
100
AcDbEntity
  8
OBJ
  6
Continuous
 62
   255
100
AcDbLine
 10
58.81807199999999
 20
60.65625999999999
 30
0.0
 11
58.81807199999999
 21
57.65626
 31
0.0
  0
LINE
  5
DB
330
19
100
AcDbEntity
  8
OBJ
  6
Continuous
 62
   255
100
AcDbLine
 10
44.56807199999999
 20
72.65626000000001
 30
0.0
 11
44.56807199999999
 21
60.65625999999999
 31
0.0
  0
LINE
  5
DC
330
19
100
AcDbEntity
  8
OBJ
  6
Continuous
 62
   255
100
AcDbLine
 10
45.56807199999999
 20
72.65626000000001
 30
0.0
 11
45.56807199999999
 21
60.65625999999999
 31
0.0
  0
LINE
  5
DD
330
19
100
AcDbEntity
  8
OBJ
  6
Continuous
 62
   255
100
AcDbLine
 10
57.81807199999999
 20
72.65626000000001
 30
0.0
 11
57.81807199999999
 21
60.65625999999999
 31
0.0
  0
LINE
  5
DE
330
19
100
AcDbEntity
  8
OBJ
  6
Continuous
 62
   255
100
AcDbLine
 10
58.81807199999999
 20
72.65626000000001
 30
0.0
 11
58.81807199999999
 21
60.65625999999999
 31
0.0
  0
LINE
  5
111
330
19
100
AcDbEntity
  8
OBJ
  6
Continuous
 62
   255
100
AcDbLine
 10
44.56807199999999
 20
57.53125999999999
 30
0.0
 11
45.56807199999999
 21
57.53125999999999
 31
0.0
  0
LINE
  5
113
330
19
100
AcDbEntity
  8
OBJ
  6
Continuous
 62
   255
100
AcDbLine
 10
43.43525999999999
 20
56.78125999999999
 30
0.0
 11
44.56807199999999
 21
56.78125999999999
 31
0.0
  0
LINE
  5
114
330
19
100
AcDbEntity
  8
OBJ
  6
Continuous
 62
   255
100
AcDbLine
 10
44.44307199999999
 20
57.65626
 30
0.0
 11
44.44307199999999
 21
56.90625999999999
 31
0.0
  0
LINE
  5
115
330
19
100
AcDbEntity
  8
OBJ
  6
Continuous
 62
   255
100
AcDbLine
 10
43.43525999999999
 20
56.90625999999999
 30
0.0
 11
44.44307199999999
 21
56.90625999999999
 31
0.0
  0
LINE
  5
116
330
19
100
AcDbEntity
  8
OBJ
  6
Continuous
 62
   255
100
AcDbLine
 10
43.43525999999999
 20
56.78125999999999
 30
0.0
 11
43.43525999999999
 21
56.90625999999999
 31
0.0
  0
LINE
  5
117
330
19
100
AcDbEntity
  8
OBJ
  6
Continuous
 62
   255
100
AcDbLine
 10
45.69307199999999
 20
57.65626
 30
0.0
 11
44.44307199999999
 21
57.65626
 31
0.0
  0
LINE
  5
118
330
19
100
AcDbEntity
  8
OBJ
  6
Continuous
 62
   255
100
AcDbLine
 10
44.56807199999999
 20
57.53125999999999
 30
0.0
 11
44.56807199999999
 21
56.78125999999999
 31
0.0
  0
LINE
  5
119
330
19
100
AcDbEntity
  8
OBJ
  6
Continuous
 62
   255
100
AcDbLine
 10
45.56807199999999
 20
57.53125999999999
 30
0.0
 11
45.568072
 21
56.78125999999999
 31
0.0
  0
LINE
  5
11A
330
19
100
AcDbEntity
  8
OBJ
  6
Continuous
 62
   255
100
AcDbLine
 10
45.69307199999999
 20
57.65626
 30
0.0
 11
45.69307199999999
 21
56.78125999999998
 31
0.0
  0
LINE
  5
11C
330
19
100
AcDbEntity
  8
OBJ
  6
Continuous
 62
   255
100
AcDbLine
 10
58.81807199999999
 20
57.53125999999999
 30
0.0
 11
58.81807199999999
 21
56.78125999999999
 31
0.0
  0
LINE
  5
11D
330
19
100
AcDbEntity
  8
OBJ
  6
Continuous
 62
   255
100
AcDbLine
 10
59.950885
 20
56.90625999999999
 30
0.0
 11
58.943072
 21
56.90625999999999
 31
0.0
  0
LINE
  5
11E
330
19
100
AcDbEntity
  8
OBJ
  6
Continuous
 62
   255
100
AcDbLine
 10
59.950885
 20
56.78125999999999
 30
0.0
 11
58.81807199999999
 21
56.78125999999999
 31
0.0
  0
LINE
  5
11F
330
19
100
AcDbEntity
  8
OBJ
  6
Continuous
 62
   255
100
AcDbLine
 10
59.950885
 20
56.78125999999999
 30
0.0
 11
59.950885
 21
56.90625999999999
 31
0.0
  0
LINE
  5
120
330
19
100
AcDbEntity
  8
OBJ
  6
Continuous
 62
   255
100
AcDbLine
 10
58.81807199999999
 20
57.53125999999999
 30
0.0
 11
57.81807199999999
 21
57.53125999999999
 31
0.0
  0
LINE
  5
121
330
19
100
AcDbEntity
  8
OBJ
  6
Continuous
 62
   255
100
AcDbLine
 10
57.693072
 20
57.65626
 30
0.0
 11
58.943072
 21
57.65626
 31
0.0
  0
LINE
  5
123
330
19
100
AcDbEntity
  8
OBJ
  6
Continuous
 62
   255
100
AcDbLine
 10
58.943072
 20
57.65626
 30
0.0
 11
58.943072
 21
56.90625999999999
 31
0.0
  0
LINE
  5
124
330
19
100
AcDbEntity
  8
OBJ
  6
Continuous
 62
   255
100
AcDbLine
 10
57.81807199999999
 20
57.53125999999999
 30
0.0
 11
57.818072
 21
56.78125999999999
 31
0.0
  0
LINE
  5
125
330
19
100
AcDbEntity
  8
OBJ
  6
Continuous
 62
   255
100
AcDbLine
 10
57.693072
 20
57.65626
 30
0.0
 11
57.69307199999999
 21
56.78125999999998
 31
0.0
  0
LINE
  5
12D
330
19
100
AcDbEntity
  8
OBJ
  6
Continuous
 62
   255
100
AcDbLine
 10
65.003691
 20
57.65626
 30
0.0
 11
75.003691
 21
57.65626
 31
0.0
  0
LINE
  5
130
330
19
100
AcDbEntity
  8
OBJ
  6
Continuous
 62
   255
100
AcDbLine
 10
67.253691
 20
72.65626000000001
 30
0.0
 11
72.753691
 21
72.65626000000001
 31
0.0
  0
LINE
  5
131
330
19
100
AcDbEntity
  8
OBJ
  6
Continuous
 62
   255
100
AcDbLine
 10
68.253691
 20
72.65626000000001
 30
0.0
 11
68.253691
 21
60.65625999999999
 31
0.0
  0
LINE
  5
132
330
19
100
AcDbEntity
  8
OBJ
  6
Continuous
 62
   255
100
AcDbLine
 10
67.253691
 20
72.65626000000001
 30
0.0
 11
67.253691
 21
60.65625999999999
 31
0.0
  0
LINE
  5
133
330
19
100
AcDbEntity
  8
OBJ
  6
Continuous
 62
   255
100
AcDbLine
 10
67.253691
 20
60.65625999999999
 30
0.0
 11
67.253691
 21
57.65626
 31
0.0
  0
LINE
  5
134
330
19
100
AcDbEntity
  8
OBJ
  6
Continuous
 62
   255
100
AcDbLine
 10
65.003691
 20
56.90625999999999
 30
0.0
 11
75.003691
 21
56.90625999999999
 31
0.0
  0
LINE
  5
135
330
19
100
AcDbEntity
  8
OBJ
  6
Continuous
 62
   255
100
AcDbLine
 10
65.003691
 20
56.78125999999999
 30
0.0
 11
75.003691
 21
56.78125999999999
 31
0.0
  0
LINE
  5
136
330
19
100
AcDbEntity
  8
OBJ
  6
Continuous
 62
   255
100
AcDbLine
 10
65.003691
 20
56.78125999999999
 30
0.0
 11
65.003691
 21
57.65626
 31
0.0
  0
LINE
  5
139
330
19
100
AcDbEntity
  8
OBJ
  6
Continuous
 62
   255
100
AcDbLine
 10
68.253691
 20
71.65625999999999
 30
0.0
 11
71.75369100000001
 21
71.65626
 31
0.0
  0
LINE
  5
13A
330
19
100
AcDbEntity
  8
OBJ
  6
Continuous
 62
   255
100
AcDbLine
 10
67.253691
 20
75.65626
 30
0.0
 11
67.253691
 21
72.65626000000001
 31
0.0
  0
LINE
  5
14A
330
19
100
AcDbEntity
  8
OBJ
  6
Continuous
 62
   255
100
AcDbLine
 10
72.753691
 20
72.65626000000001
 30
0.0
 11
72.753691
 21
60.65625999999999
 31
0.0
  0
LINE
  5
14B
330
19
100
AcDbEntity
  8
OBJ
  6
Continuous
 62
   255
100
AcDbLine
 10
71.75369100000001
 20
72.65626000000001
 30
0.0
 11
71.75369100000001
 21
60.65625999999999
 31
0.0
  0
LINE
  5
14C
330
19
100
AcDbEntity
  8
OBJ
  6
Continuous
 62
   255
100
AcDbLine
 10
72.753691
 20
60.65625999999999
 30
0.0
 11
72.753691
 21
57.65626
 31
0.0
  0
LINE
  5
14E
330
19
100
AcDbEntity
  8
OBJ
  6
Continuous
 62
   255
100
AcDbLine
 10
75.003691
 20
56.78125999999999
 30
0.0
 11
75.003691
 21
57.65626
 31
0.0
  0
LINE
  5
150
330
19
100
AcDbEntity
  8
OBJ
  6
Continuous
 62
   255
100
AcDbLine
 10
72.753691
 20
75.65626
 30
0.0
 11
72.753691
 21
72.65626000000001
 31
0.0
  0
LINE
  5
158
330
19
100
AcDbEntity
  8
OBJ
  6
Continuous
 62
   255
100
AcDbLine
 10
68.253691
 20
60.65625999999999
 30
0.0
 11
68.253691
 21
57.65626
 31
0.0
  0
LINE
  5
159
330
19
100
AcDbEntity
  8
OBJ
  6
Continuous
 62
   255
100
AcDbLine
 10
71.75369100000001
 20
60.65625999999999
 30
0.0
 11
71.75369100000001
 21
57.65626
 31
0.0
  0
LINE
  5
190
330
19
100
AcDbEntity
  8
N0
  6
Continuous
 62
   255
100
AcDbLine
 10
45.53682199999999
 20
76.234385
 30
0.0
 11
45.48994699999999
 21
76.28126
 31
0.0
  0
LINE
  5
191
330
19
100
AcDbEntity
  8
N0
  6
Continuous
 62
   255
100
AcDbLine
 10
45.48994699999999
 20
76.28126
 30
0.0
 11
44.64619699999999
 21
76.28126
 31
0.0
  0
LINE
  5
192
330
19
100
AcDbEntity
  8
N0
  6
Continuous
 62
   255
100
AcDbLine
 10
44.64619699999999
 20
76.28126
 30
0.0
 11
44.59932199999999
 21
76.234385
 31
0.0
  0
LINE
  5
193
330
19
100
AcDbEntity
  8
N0
  6
Continuous
 62
   255
100
AcDbLine
 10
44.59932199999999
 20
76.234385
 30
0.0
 11
44.59932199999999
 21
75.65626
 31
0.0
  0
LINE
  5
194
330
19
100
AcDbEntity
  8
N0
  6
Continuous
 62
   255
100
AcDbLine
 10
44.59932199999999
 20
75.65626
 30
0.0
 11
45.53682199999999
 21
75.65626
 31
0.0
  0
LINE
  5
195
330
19
100
AcDbEntity
  8
N0
  6
Continuous
 62
   255
100
AcDbLine
 10
45.53682199999999
 20
75.65626
 30
0.0
 11
45.53682199999999
 21
76.234385
 31
0.0
  0
LINE
  5
196
330
19
100
AcDbEntity
  8
N0
  6
Continuous
 62
   255
100
AcDbLine
 10
45.53682199999999
 20
76.234385
 30
0.0
 11
44.59932199999999
 21
76.234385
 31
0.0
  0
LINE
  5
19C
330
19
100
AcDbEntity
  8
N0
  6
Continuous
 62
   255
100
AcDbLine
 10
45.53682199999999
 20
56.953135
 30
0.0
 11
45.48994699999999
 21
56.90625999999999
 31
0.0
  0
LINE
  5
19D
330
19
100
AcDbEntity
  8
N0
  6
Continuous
 62
   255
100
AcDbLine
 10
45.48994699999999
 20
56.90625999999999
 30
0.0
 11
44.64619699999999
 21
56.90625999999999
 31
0.0
  0
LINE
  5
19E
330
19
100
AcDbEntity
  8
N0
  6
Continuous
 62
   255
100
AcDbLine
 10
44.64619699999999
 20
56.90625999999999
 30
0.0
 11
44.59932199999999
 21
56.953135
 31
0.0
  0
LINE
  5
19F
330
19
100
AcDbEntity
  8
N0
  6
Continuous
 62
   255
100
AcDbLine
 10
44.59932199999999
 20
56.953135
 30
0.0
 11
44.59932199999999
 21
57.53125999999999
 31
0.0
  0
LINE
  5
1A0
330
19
100
AcDbEntity
  8
N0
  6
Continuous
 62
   255
100
AcDbLine
 10
44.59932199999999
 20
57.53125999999999
 30
0.0
 11
45.53682199999999
 21
57.53125999999999
 31
0.0
  0
LINE
  5
1A1
330
19
100
AcDbEntity
  8
N0
  6
Continuous
 62
   255
100
AcDbLine
 10
45.53682199999999
 20
57.53125999999999
 30
0.0
 11
45.53682199999999
 21
56.953135
 31
0.0
  0
LINE
  5
1A2
330
19
100
AcDbEntity
  8
N0
  6
Continuous
 62
   255
100
AcDbLine
 10
45.53682199999999
 20
56.953135
 30
0.0
 11
44.59932199999999
 21
56.953135
 31
0.0
  0
LINE
  5
1AD
330
19
100
AcDbEntity
  8
N0
  6
Continuous
 62
   255
100
AcDbLine
 10
58.786822
 20
76.234385
 30
0.0
 11
58.73994699999999
 21
76.28126
 31
0.0
  0
LINE
  5
1AE
330
19
100
AcDbEntity
  8
N0
  6
Continuous
 62
   255
100
AcDbLine
 10
58.73994699999999
 20
76.28126
 30
0.0
 11
57.89619699999999
 21
76.28126
 31
0.0
  0
LINE
  5
1AF
330
19
100
AcDbEntity
  8
N0
  6
Continuous
 62
   255
100
AcDbLine
 10
57.89619699999999
 20
76.28126
 30
0.0
 11
57.849322
 21
76.234385
 31
0.0
  0
LINE
  5
1B0
330
19
100
AcDbEntity
  8
N0
  6
Continuous
 62
   255
100
AcDbLine
 10
57.849322
 20
76.234385
 30
0.0
 11
57.849322
 21
75.65626
 31
0.0
  0
LINE
  5
1B1
330
19
100
AcDbEntity
  8
N0
  6
Continuous
 62
   255
100
AcDbLine
 10
57.849322
 20
75.65626
 30
0.0
 11
58.786822
 21
75.65626
 31
0.0
  0
LINE
  5
1B2
330
19
100
AcDbEntity
  8
N0
  6
Continuous
 62
   255
100
AcDbLine
 10
58.786822
 20
75.65626
 30
0.0
 11
58.786822
 21
76.234385
 31
0.0
  0
LINE
  5
1B3
330
19
100
AcDbEntity
  8
N0
  6
Continuous
 62
   255
100
AcDbLine
 10
58.786822
 20
76.234385
 30
0.0
 11
57.849322
 21
76.234385
 31
0.0
  0
LINE
  5
1B9
330
19
100
AcDbEntity
  8
N0
  6
Continuous
 62
   255
100
AcDbLine
 10
68.222441
 20
76.234385
 30
0.0
 11
68.175566
 21
76.28126
 31
0.0
  0
LINE
  5
1BA
330
19
100
AcDbEntity
  8
N0
  6
Continuous
 62
   255
100
AcDbLine
 10
68.175566
 20
76.28126
 30
0.0
 11
67.331816
 21
76.28126
 31
0.0
  0
LINE
  5
1BB
330
19
100
AcDbEntity
  8
N0
  6
Continuous
 62
   255
100
AcDbLine
 10
67.331816
 20
76.28126
 30
0.0
 11
67.284941
 21
76.234385
 31
0.0
  0
LINE
  5
1BC
330
19
100
AcDbEntity
  8
N0
  6
Continuous
 62
   255
100
AcDbLine
 10
67.284941
 20
76.234385
 30
0.0
 11
67.284941
 21
75.65626
 31
0.0
  0
LINE
  5
1BD
330
19
100
AcDbEntity
  8
N0
  6
Continuous
 62
   255
100
AcDbLine
 10
67.284941
 20
75.65626
 30
0.0
 11
68.222441
 21
75.65626
 31
0.0
  0
LINE
  5
1BE
330
19
100
AcDbEntity
  8
N0
  6
Continuous
 62
   255
100
AcDbLine
 10
68.222441
 20
75.65626
 30
0.0
 11
68.222441
 21
76.234385
 31
0.0
  0
LINE
  5
1BF
330
19
100
AcDbEntity
  8
N0
  6
Continuous
 62
   255
100
AcDbLine
 10
68.222441
 20
76.234385
 30
0.0
 11
67.284941
 21
76.234385
 31
0.0
  0
LINE
  5
1C5
330
19
100
AcDbEntity
  8
N0
  6
Continuous
 62
   255
100
AcDbLine
 10
72.722441
 20
76.234385
 30
0.0
 11
72.675566
 21
76.28126
 31
0.0
  0
LINE
  5
1C6
330
19
100
AcDbEntity
  8
N0
  6
Continuous
 62
   255
100
AcDbLine
 10
72.675566
 20
76.28126
 30
0.0
 11
71.83181600000001
 21
76.28126
 31
0.0
  0
LINE
  5
1C7
330
19
100
AcDbEntity
  8
N0
  6
Continuous
 62
   255
100
AcDbLine
 10
71.83181600000001
 20
76.28126
 30
0.0
 11
71.784941
 21
76.234385
 31
0.0
  0
LINE
  5
1C8
330
19
100
AcDbEntity
  8
N0
  6
Continuous
 62
   255
100
AcDbLine
 10
71.784941
 20
76.234385
 30
0.0
 11
71.784941
 21
75.65626
 31
0.0
  0
LINE
  5
1C9
330
19
100
AcDbEntity
  8
N0
  6
Continuous
 62
   255
100
AcDbLine
 10
71.784941
 20
75.65626
 30
0.0
 11
72.722441
 21
75.65626
 31
0.0
  0
LINE
  5
1CA
330
19
100
AcDbEntity
  8
N0
  6
Continuous
 62
   255
100
AcDbLine
 10
72.722441
 20
75.65626
 30
0.0
 11
72.722441
 21
76.234385
 31
0.0
  0
LINE
  5
1CB
330
19
100
AcDbEntity
  8
N0
  6
Continuous
 62
   255
100
AcDbLine
 10
72.722441
 20
76.234385
 30
0.0
 11
71.784941
 21
76.234385
 31
0.0
  0
LINE
  5
257
330
19
100
AcDbEntity
  8
N0
  6
Continuous
 62
   255
100
AcDbLine
 10
58.786822
 20
56.953135
 30
0.0
 11
57.849322
 21
56.953135
 31
0.0
  0
LINE
  5
258
330
19
100
AcDbEntity
  8
N0
  6
Continuous
 62
   255
100
AcDbLine
 10
58.73994699999999
 20
56.90625999999999
 30
0.0
 11
57.89619699999999
 21
56.90625999999999
 31
0.0
  0
LINE
  5
259
330
19
100
AcDbEntity
  8
N0
  6
Continuous
 62
   255
100
AcDbLine
 10
57.849322
 20
56.953135
 30
0.0
 11
57.849322
 21
57.53125999999999
 31
0.0
  0
LINE
  5
25A
330
19
100
AcDbEntity
  8
N0
  6
Continuous
 62
   255
100
AcDbLine
 10
57.89619699999999
 20
56.90625999999999
 30
0.0
 11
57.849322
 21
56.953135
 31
0.0
  0
LINE
  5
25B
330
19
100
AcDbEntity
  8
N0
  6
Continuous
 62
   255
100
AcDbLine
 10
58.786822
 20
57.53125999999999
 30
0.0
 11
58.786822
 21
56.953135
 31
0.0
  0
LINE
  5
25C
330
19
100
AcDbEntity
  8
OBJ
  6
Continuous
 62
   255
100
AcDbLine
 10
58.81807199999999
 20
57.53125999999999
 30
0.0
 11
58.81807199999999
 21
56.90625999999999
 31
0.0
  0
LINE
  5
25D
330
19
100
AcDbEntity
  8
N0
  6
Continuous
 62
   255
100
AcDbLine
 10
58.786822
 20
56.953135
 30
0.0
 11
58.73994699999999
 21
56.90625999999999
 31
0.0
  0
LINE
  5
25E
330
19
100
AcDbEntity
  8
N0
  6
Continuous
 62
   255
100
AcDbLine
 10
67.25369099999999
 20
60.65625999999999
 30
0.0
 11
68.253691
 21
60.65625999999999
 31
0.0
  0
LINE
  5
25F
330
19
100
AcDbEntity
  8
N0
  6
Continuous
 62
   255
100
AcDbLine
 10
71.75369100000001
 20
60.65625999999999
 30
0.0
 11
72.753691
 21
60.65625999999998
 31
0.0
  0
LINE
  5
263
330
19
100
AcDbEntity
  8
OBJ
  6
Continuous
 62
   255
100
AcDbLine
 10
49.44307199999999
 20
71.65626
 30
0.0
 11
53.943072
 21
71.65626
 31
0.0
  0
LINE
  5
264
330
19
100
AcDbEntity
  8
OBJ
  6
Continuous
 62
   255
100
AcDbLine
 10
49.44307199999999
 20
72.65626000000001
 30
0.0
 11
49.44307199999999
 21
71.65626
 31
0.0
  0
LINE
  5
267
330
19
100
AcDbEntity
  8
OBJ
  6
Continuous
 62
   255
100
AcDbLine
 10
53.943072
 20
72.65626000000001
 30
0.0
 11
53.943072
 21
71.65626
 31
0.0
  0
LINE
  5
26A
330
19
100
AcDbEntity
  8
N0
  6
Continuous
 62
   255
100
AcDbLine
 10
68.253691
 20
72.65626000000001
 30
0.0
 11
68.253691
 21
75.65626000000001
 31
0.0
  0
LINE
  5
26B
330
19
100
AcDbEntity
  8
N0
  6
Continuous
 62
   255
100
AcDbLine
 10
71.75369100000001
 20
72.65626000000001
 30
0.0
 11
71.75369100000001
 21
75.65626
 31
0.0
  0
LINE
  5
270
330
19
100
AcDbEntity
  8
N0
  6
Continuous
 62
   255
100
AcDbLine
 10
68.253691
 20
75.65626000000001
 30
0.0
 11
67.253691
 21
75.65626
 31
0.0
  0
LINE
  5
271
330
19
100
AcDbEntity
  8
N0
  6
Continuous
 62
   255
100
AcDbLine
 10
72.753691
 20
75.65626
 30
0.0
 11
71.75369100000001
 21
75.65626
 31
0.0
  0
LINE
  5
272
330
19
100
AcDbEntity
  8
N0
  6
Continuous
 62
   255
100
AcDbLine
 10
45.568072
 20
56.78125999999998
 30
0.0
 11
45.69307199999999
 21
56.78125999999998
 31
0.0
  0
LINE
  5
273
330
19
100
AcDbEntity
  8
N0
  6
Continuous
 62
   255
100
AcDbLine
 10
57.69307199999999
 20
56.78125999999999
 30
0.0
 11
57.818072
 21
56.78125999999999
 31
0.0
  0
LINE
  5
278
330
19
100
AcDbEntity
  8
N0
  6
HIDDEN
 62
   255
 48
0.5
100
AcDbLine
 10
52.94307199999999
 20
72.65626000000001
 30
0.0
 11
52.94307199999999
 21
71.65626
 31
0.0
  0
LINE
  5
279
330
19
100
AcDbEntity
  8
N0
  6
HIDDEN
 62
   255
 48
0.5
100
AcDbLine
 10
50.44307199999999
 20
72.65626000000001
 30
0.0
 11
50.44307199999999
 21
71.65626
 31
0.0
  0
LINE
  5
27A
330
19
100
AcDbEntity
  8
N0
  6
HIDDEN
 62
   255
 48
0.5
100
AcDbLine
 10
50.47432199999999
 20
72.65626000000001
 30
0.0
 11
50.47432199999999
 21
71.65626
 31
0.0
  0
LINE
  5
27B
330
19
100
AcDbEntity
  8
N0
  6
HIDDEN
 62
   255
 48
0.5
100
AcDbLine
 10
52.91182199999999
 20
72.65626000000001
 30
0.0
 11
52.91182199999999
 21
71.65626
 31
0.0
  0
LINE
  5
27F
330
19
100
AcDbEntity
  8
N0
  6
HIDDEN
 62
   255
 48
0.5
100
AcDbLine
 10
68.753691
 20
72.65626000000001
 30
0.0
 11
68.753691
 21
71.65626
 31
0.0
  0
LINE
  5
280
330
19
100
AcDbEntity
  8
N0
  6
HIDDEN
 62
   255
 48
0.5
100
AcDbLine
 10
68.78494100000001
 20
72.65626000000001
 30
0.0
 11
68.78494100000001
 21
71.65626
 31
0.0
  0
LINE
  5
281
330
19
100
AcDbEntity
  8
N0
  6
HIDDEN
 62
   255
 48
0.5
100
AcDbLine
 10
71.253691
 20
72.65626000000001
 30
0.0
 11
71.253691
 21
71.65626
 31
0.0
  0
LINE
  5
282
330
19
100
AcDbEntity
  8
N0
  6
HIDDEN
 62
   255
 48
0.5
100
AcDbLine
 10
71.222441
 20
72.65626000000001
 30
0.0
 11
71.222441
 21
71.65626
 31
0.0
  0
LWPOLYLINE
  5
778
330
19
100
AcDbEntity
  8
TitleBlock&Notes
100
AcDbPolyline
 90
        4
 70
     1
 43
0.0
 10
37.30858356067952
 20
49.2665171593611
 10
81.30858356067951
 20
49.2665171593611
 10
81.30858356067953
 20
83.26651715936108
 10
37.30858356067953
 20
83.2665171593611
  0
LINE
  5
779
330
19
100
AcDbEntity
  8
TitleBlock&Notes
  6
Continuous
 62
     3
100
AcDbLine
 10
68.75717649027945
 20
50.93275479616109
 30
0.0
 11
69.16865034867948
 21
50.93993708776108
 31
0.0
  0
LINE
  5
77A
330
19
100
AcDbEntity
  8
TitleBlock&Notes
  6
Continuous
 62
     3
100
AcDbLine
 10
68.75717649027945
 20
50.91691238056109
 30
0.0
 11
69.18354850227946
 21
50.92435472536109
 31
0.0
  0
LINE
  5
77B
330
19
100
AcDbEntity
  8
TitleBlock&Notes
  6
Continuous
 62
     3
100
AcDbLine
 10
68.75717649027945
 20
50.9010699649611
 30
0.0
 11
69.19934395227949
 21
50.9087880049611
 31
0.0
  0
LINE
  5
77C
330
19
100
AcDbEntity
  8
TitleBlock&Notes
  6
Continuous
 62
     3
100
AcDbLine
 10
68.75717649027945
 20
50.8852275493611
 30
0.0
 11
69.21612009627946
 21
50.89323843136108
 31
0.0
  0
LINE
  5
77D
330
19
100
AcDbEntity
  8
TitleBlock&Notes
  6
Continuous
 62
     3
100
AcDbLine
 10
68.75717649027945
 20
50.86938513376108
 30
0.0
 11
69.2339773994795
 21
50.8777077073611
 31
0.0
  0
LINE
  5
77E
330
19
100
AcDbEntity
  8
TitleBlock&Notes
  6
Continuous
 62
     3
100
AcDbLine
 10
68.75717649027945
 20
50.85354271816108
 30
0.0
 11
69.25303858227948
 21
50.86219801096109
 31
0.0
  0
LINE
  5
77F
330
19
100
AcDbEntity
  8
TitleBlock&Notes
  6
Continuous
 62
     3
100
AcDbLine
 10
68.75717649027945
 20
50.83770030256108
 30
0.0
 11
69.27345630267945
 21
50.84671199536109
 31
0.0
  0
LINE
  5
780
330
19
100
AcDbEntity
  8
TitleBlock&Notes
  6
Continuous
 62
     3
100
AcDbLine
 10
68.75717649027945
 20
50.82185788696108
 30
0.0
 11
69.29542444227951
 21
50.83125302656109
 31
0.0
  0
LINE
  5
781
330
19
100
AcDbEntity
  8
TitleBlock&Notes
  6
Continuous
 62
     3
100
AcDbLine
 10
68.75717649027945
 20
50.80601547136109
 30
0.0
 11
69.31919572827945
 21
50.81582553976109
 31
0.0
  0
LINE
  5
782
330
19
100
AcDbEntity
  8
TitleBlock&Notes
  6
Continuous
 62
     3
100
AcDbLine
 10
68.75717649027945
 20
50.79017305576108
 30
0.0
 11
69.34511024547948
 21
50.80043547496107
 31
0.0
  0
LINE
  5
783
330
19
100
AcDbEntity
  8
TitleBlock&Notes
  6
Continuous
 62
     3
100
AcDbLine
 10
68.75717649027945
 20
50.77433064016108
 30
0.0
 11
69.37364509467946
 21
50.78509114816109
 31
0.0
  0
LINE
  5
784
330
19
100
AcDbEntity
  8
TitleBlock&Notes
  6
Continuous
 62
     3
100
AcDbLine
 10
68.75717649027945
 20
50.75848822456109
 30
0.0
 11
69.4055076902795
 21
50.76980491456108
 31
0.0
  0
LINE
  5
785
330
19
100
AcDbEntity
  8
TitleBlock&Notes
  6
Continuous
 62
     3
100
AcDbLine
 10
68.75717649027945
 20
50.74264580896109
 30
0.0
 11
69.44183146347949
 21
50.75459653456109
 31
0.0
  0
LINE
  5
786
330
19
100
AcDbEntity
  8
TitleBlock&Notes
  6
Continuous
 62
     3
100
AcDbLine
 10
68.75717649027945
 20
50.72680339336108
 30
0.0
 11
69.48465985347946
 21
50.73950168776109
 31
0.0
  0
LINE
  5
787
330
19
100
AcDbEntity
  8
TitleBlock&Notes
  6
Continuous
 62
     3
100
AcDbLine
 10
68.75717649027945
 20
50.71096097776109
 30
0.0
 11
69.53851149747949
 21
50.72459925736109
 31
0.0
  0
LINE
  5
788
330
19
100
AcDbEntity
  8
TitleBlock&Notes
  6
Continuous
 62
     3
100
AcDbLine
 10
68.75717649027945
 20
51.22702896976109
 30
0.0
 11
69.00379261827949
 21
51.22702896976109
 31
0.0
  0
LINE
  5
789
330
19
100
AcDbEntity
  8
TitleBlock&Notes
  6
Continuous
 62
     3
100
AcDbLine
 10
68.75717649027945
 20
51.2179181977611
 30
0.0
 11
69.00525892707948
 21
51.2222484973611
 31
0.0
  0
LINE
  5
78A
330
19
100
AcDbEntity
  8
TitleBlock&Notes
  6
Continuous
 62
     3
100
AcDbLine
 10
68.75717649027945
 20
51.20207578216107
 30
0.0
 11
69.01034483427946
 21
51.20649486496109
 31
0.0
  0
LINE
  5
78B
330
19
100
AcDbEntity
  8
TitleBlock&Notes
  6
Continuous
 62
     3
100
AcDbLine
 10
68.75717649027945
 20
51.18623336656108
 30
0.0
 11
69.0158242466795
 21
51.19074808336108
 31
0.0
  0
LINE
  5
78C
330
19
100
AcDbEntity
  8
TitleBlock&Notes
  6
Continuous
 62
     3
100
AcDbLine
 10
68.75717649027945
 20
51.1703909509611
 30
0.0
 11
69.02170619307947
 21
51.17500835056109
 31
0.0
  0
LINE
  5
78D
330
19
100
AcDbEntity
  8
TitleBlock&Notes
  6
Continuous
 62
     3
100
AcDbLine
 10
68.75717649027945
 20
51.15454857496108
 30
0.0
 11
69.02800045467947
 21
51.15927582496109
 31
0.0
  0
LINE
  5
78E
330
19
100
AcDbEntity
  8
TitleBlock&Notes
  6
Continuous
 62
     3
100
AcDbLine
 10
68.75717649027945
 20
51.13870615936107
 30
0.0
 11
69.03471807987951
 21
51.14355066496108
 31
0.0
  0
LINE
  5
78F
330
19
100
AcDbEntity
  8
TitleBlock&Notes
  6
Continuous
 62
     3
100
AcDbLine
 10
68.75717649027945
 20
51.12286374376108
 30
0.0
 11
69.04187122587948
 21
51.12783310816109
 31
0.0
  0
LINE
  5
790
330
19
100
AcDbEntity
  8
TitleBlock&Notes
  6
Continuous
 62
     3
100
AcDbLine
 10
68.75717649027945
 20
51.10702132816109
 30
0.0
 11
69.04947343587949
 21
51.11212339216109
 31
0.0
  0
LINE
  5
791
330
19
100
AcDbEntity
  8
TitleBlock&Notes
  6
Continuous
 62
     3
100
AcDbLine
 10
68.75717649027945
 20
51.09117891256109
 30
0.0
 11
69.05753975787951
 21
51.09642175456109
 31
0.0
  0
LINE
  5
792
330
19
100
AcDbEntity
  8
TitleBlock&Notes
  6
Continuous
 62
     3
100
AcDbLine
 10
68.75717649027945
 20
51.07533649696109
 30
0.0
 11
69.06608698227947
 21
51.08072855176108
 31
0.0
  0
LINE
  5
793
330
19
100
AcDbEntity
  8
TitleBlock&Notes
  6
Continuous
 62
     3
100
AcDbLine
 10
68.75717649027945
 20
51.05949408136108
 30
0.0
 11
69.07513372107951
 21
51.06504406096108
 31
0.0
  0
LINE
  5
794
330
19
100
AcDbEntity
  8
TitleBlock&Notes
  6
Continuous
 62
     3
100
AcDbLine
 10
68.75717649027945
 20
51.04365166576108
 30
0.0
 11
69.08470092267947
 21
51.0493686385611
 31
0.0
  0
LINE
  5
795
330
19
100
AcDbEntity
  8
TitleBlock&Notes
  6
Continuous
 62
     3
100
AcDbLine
 10
68.75717649027945
 20
51.0278092501611
 30
0.0
 11
69.0948119510795
 21
51.03370272016109
 31
0.0
  0
LINE
  5
796
330
19
100
AcDbEntity
  8
TitleBlock&Notes
  6
Continuous
 62
     3
100
AcDbLine
 10
68.75717649027945
 20
51.01196683456108
 30
0.0
 11
69.10549314027952
 21
51.01804674136108
 31
0.0
  0
LINE
  5
797
330
19
100
AcDbEntity
  8
TitleBlock&Notes
  6
Continuous
 62
     3
100
AcDbLine
 10
68.75717649027945
 20
50.99612441896107
 30
0.0
 11
69.11677422987948
 21
51.00240121696109
 31
0.0
  0
LINE
  5
798
330
19
100
AcDbEntity
  8
TitleBlock&Notes
  6
Continuous
 62
     3
100
AcDbLine
 10
68.75717649027945
 20
50.98028200336108
 30
0.0
 11
69.12868899867948
 21
50.98676678056108
 31
0.0
  0
LINE
  5
799
330
19
100
AcDbEntity
  8
TitleBlock&Notes
  6
Continuous
 62
     3
100
AcDbLine
 10
68.75717649027945
 20
50.96443958776109
 30
0.0
 11
69.14127597747948
 21
50.9711440657611
 31
0.0
  0
LINE
  5
79A
330
19
100
AcDbEntity
  8
TitleBlock&Notes
  6
Continuous
 62
     3
100
AcDbLine
 10
68.75717649027945
 20
50.9485971721611
 30
0.0
 11
69.1545793994795
 21
50.95553386456109
 31
0.0
  0
LINE
  5
79B
330
19
100
AcDbEntity
  8
TitleBlock&Notes
  6
Continuous
 62
     3
100
AcDbLine
 10
68.75717649027945
 20
51.88962737656108
 30
0.0
 11
68.97678684387948
 21
51.88962737656108
 31
0.0
  0
LINE
  5
79C
330
19
100
AcDbEntity
  8
TitleBlock&Notes
  6
Continuous
 62
     3
100
AcDbLine
 10
68.75717649027945
 20
51.69474552016108
 30
0.0
 11
68.97497649027949
 21
51.69474552016108
 31
0.0
  0
LINE
  5
79D
330
19
100
AcDbEntity
  8
TitleBlock&Notes
  6
Continuous
 62
     3
100
AcDbLine
 10
68.75717649027945
 20
51.61679276176108
 30
0.0
 11
68.97497649027949
 21
51.61679276176108
 31
0.0
  0
LINE
  5
79E
330
19
100
AcDbEntity
  8
TitleBlock&Notes
  6
Continuous
 62
     3
100
AcDbLine
 10
68.75717649027945
 20
51.59929760056108
 30
0.0
 11
68.97497649027949
 21
51.60309931936108
 31
0.0
  0
LINE
  5
79F
330
19
100
AcDbEntity
  8
TitleBlock&Notes
  6
Continuous
 62
     3
100
AcDbLine
 10
68.75717649027945
 20
51.58345518496108
 30
0.0
 11
68.97497649027949
 21
51.58725690376108
 31
0.0
  0
LINE
  5
7A0
330
19
100
AcDbEntity
  8
TitleBlock&Notes
  6
Continuous
 62
     3
100
AcDbLine
 10
68.75717649027945
 20
51.56761276936109
 30
0.0
 11
68.97497649027949
 21
51.57141448816108
 31
0.0
  0
LINE
  5
7A1
330
19
100
AcDbEntity
  8
TitleBlock&Notes
  6
Continuous
 62
     3
100
AcDbLine
 10
68.75717649027945
 20
51.55177035376109
 30
0.0
 11
68.97497649027949
 21
51.55557207256108
 31
0.0
  0
LINE
  5
7A2
330
19
100
AcDbEntity
  8
TitleBlock&Notes
  6
Continuous
 62
     3
100
AcDbLine
 10
68.75717649027945
 20
51.53592793816108
 30
0.0
 11
68.97497649027949
 21
51.53972965696109
 31
0.0
  0
LINE
  5
7A3
330
19
100
AcDbEntity
  8
TitleBlock&Notes
  6
Continuous
 62
     3
100
AcDbLine
 10
68.75717649027945
 20
51.52008552256109
 30
0.0
 11
68.97497649027949
 21
51.52388724136109
 31
0.0
  0
LINE
  5
7A4
330
19
100
AcDbEntity
  8
TitleBlock&Notes
  6
Continuous
 62
     3
100
AcDbLine
 10
68.75717649027945
 20
51.50424310696109
 30
0.0
 11
68.97497649027949
 21
51.50804482576109
 31
0.0
  0
LINE
  5
7A5
330
19
100
AcDbEntity
  8
TitleBlock&Notes
  6
Continuous
 62
     3
100
AcDbLine
 10
68.75717649027945
 20
51.48840069136108
 30
0.0
 11
68.97497649027949
 21
51.49220241016109
 31
0.0
  0
LINE
  5
7A6
330
19
100
AcDbEntity
  8
TitleBlock&Notes
  6
Continuous
 62
     3
100
AcDbLine
 10
68.75717649027945
 20
51.47255827576109
 30
0.0
 11
68.97497649027949
 21
51.47635999456109
 31
0.0
  0
LINE
  5
7A7
330
19
100
AcDbEntity
  8
TitleBlock&Notes
  6
Continuous
 62
     3
100
AcDbLine
 10
68.75717649027945
 20
51.45671586016108
 30
0.0
 11
68.97497649027949
 21
51.46051757896109
 31
0.0
  0
LINE
  5
7A8
330
19
100
AcDbEntity
  8
TitleBlock&Notes
  6
Continuous
 62
     3
100
AcDbLine
 10
68.75717649027945
 20
51.44087344456108
 30
0.0
 11
68.97497649027949
 21
51.4446751633611
 31
0.0
  0
LINE
  5
7A9
330
19
100
AcDbEntity
  8
TitleBlock&Notes
  6
Continuous
 62
     3
100
AcDbLine
 10
68.75717649027945
 20
51.4250310685611
 30
0.0
 11
68.97497649027949
 21
51.42883274776107
 31
0.0
  0
LINE
  5
7AA
330
19
100
AcDbEntity
  8
TitleBlock&Notes
  6
Continuous
 62
     3
100
AcDbLine
 10
68.75717649027945
 20
51.40918865296109
 30
0.0
 11
68.97497649027949
 21
51.41299033216109
 31
0.0
  0
LINE
  5
7AB
330
19
100
AcDbEntity
  8
TitleBlock&Notes
  6
Continuous
 62
     3
100
AcDbLine
 10
68.75717649027945
 20
51.39334623736108
 30
0.0
 11
68.97497649027949
 21
51.39714795616108
 31
0.0
  0
LINE
  5
7AC
330
19
100
AcDbEntity
  8
TitleBlock&Notes
  6
Continuous
 62
     3
100
AcDbLine
 10
68.75717649027945
 20
51.37750382176109
 30
0.0
 11
68.97497649027949
 21
51.38130554056108
 31
0.0
  0
LINE
  5
7AD
330
19
100
AcDbEntity
  8
TitleBlock&Notes
  6
Continuous
 62
     3
100
AcDbLine
 10
68.75717649027945
 20
51.36166140616109
 30
0.0
 11
68.97600664467947
 21
51.36548110336109
 31
0.0
  0
LINE
  5
7AE
330
19
100
AcDbEntity
  8
TitleBlock&Notes
  6
Continuous
 62
     3
100
AcDbLine
 10
68.75717649027945
 20
51.34581899056108
 30
0.0
 11
68.97779640627949
 21
51.34966993216107
 31
0.0
  0
LINE
  5
7AF
330
19
100
AcDbEntity
  8
TitleBlock&Notes
  6
Continuous
 62
     3
100
AcDbLine
 10
68.75717649027945
 20
51.32997657496109
 30
0.0
 11
68.9799331826795
 21
51.33386481976109
 31
0.0
  0
LINE
  5
7B0
330
19
100
AcDbEntity
  8
TitleBlock&Notes
  6
Continuous
 62
     3
100
AcDbLine
 10
68.75717649027945
 20
51.87213225496108
 30
0.0
 11
68.97502789107952
 21
51.87593484496109
 31
0.0
  0
LINE
  5
7B1
330
19
100
AcDbEntity
  8
TitleBlock&Notes
  6
Continuous
 62
     3
100
AcDbLine
 10
68.75717649027945
 20
51.85628983936108
 30
0.0
 11
68.97497649027949
 21
51.86009155816107
 31
0.0
  0
LINE
  5
7B2
330
19
100
AcDbEntity
  8
TitleBlock&Notes
  6
Continuous
 62
     3
100
AcDbLine
 10
68.75717649027945
 20
51.84044742376108
 30
0.0
 11
68.97497649027949
 21
51.84424914256108
 31
0.0
  0
LINE
  5
7B3
330
19
100
AcDbEntity
  8
TitleBlock&Notes
  6
Continuous
 62
     3
100
AcDbLine
 10
68.75717649027945
 20
51.82460500816109
 30
0.0
 11
68.97497649027949
 21
51.82840672696109
 31
0.0
  0
LINE
  5
7B4
330
19
100
AcDbEntity
  8
TitleBlock&Notes
  6
Continuous
 62
     3
100
AcDbLine
 10
68.75717649027945
 20
51.80876259256109
 30
0.0
 11
68.97497649027949
 21
51.81256431136109
 31
0.0
  0
LINE
  5
7B5
330
19
100
AcDbEntity
  8
TitleBlock&Notes
  6
Continuous
 62
     3
100
AcDbLine
 10
68.75717649027945
 20
51.79292017696109
 30
0.0
 11
68.97497649027949
 21
51.79672189576109
 31
0.0
  0
LINE
  5
7B6
330
19
100
AcDbEntity
  8
TitleBlock&Notes
  6
Continuous
 62
     3
100
AcDbLine
 10
68.75717649027945
 20
51.77707776136109
 30
0.0
 11
68.97497649027949
 21
51.78087948016108
 31
0.0
  0
LINE
  5
7B7
330
19
100
AcDbEntity
  8
TitleBlock&Notes
  6
Continuous
 62
     3
100
AcDbLine
 10
68.75717649027945
 20
51.76123534576108
 30
0.0
 11
68.97497649027949
 21
51.76503706456109
 31
0.0
  0
LINE
  5
7B8
330
19
100
AcDbEntity
  8
TitleBlock&Notes
  6
Continuous
 62
     3
100
AcDbLine
 10
68.75717649027945
 20
51.74539293016108
 30
0.0
 11
68.97497649027949
 21
51.7491946489611
 31
0.0
  0
LINE
  5
7B9
330
19
100
AcDbEntity
  8
TitleBlock&Notes
  6
Continuous
 62
     3
100
AcDbLine
 10
68.75717649027945
 20
51.7295505145611
 30
0.0
 11
68.97497649027949
 21
51.73335223336109
 31
0.0
  0
LINE
  5
7BA
330
19
100
AcDbEntity
  8
TitleBlock&Notes
  6
Continuous
 62
     3
100
AcDbLine
 10
68.75717649027945
 20
51.71370809896107
 30
0.0
 11
68.97497649027949
 21
51.7175098177611
 31
0.0
  0
LINE
  5
7BB
330
19
100
AcDbEntity
  8
TitleBlock&Notes
  6
Continuous
 62
     3
100
AcDbLine
 10
68.75717649027945
 20
51.69786568336109
 30
0.0
 11
68.97497649027949
 21
51.70166740216108
 31
0.0
  0
LINE
  5
7BC
330
19
100
AcDbEntity
  8
TitleBlock&Notes
  6
Continuous
 62
     3
100
AcDbLine
 10
68.75717649027945
 20
51.30498172816108
 30
0.0
 11
68.98474664187943
 21
51.30498172816108
 31
0.0
  0
LINE
  5
7BD
330
19
100
AcDbEntity
  8
TitleBlock&Notes
  6
Continuous
 62
     3
100
AcDbLine
 10
68.75717649027945
 20
51.31413415936108
 30
0.0
 11
68.98241962707952
 21
51.31806580576109
 31
0.0
  0
LINE
  5
7BE
330
19
100
AcDbEntity
  8
TitleBlock&Notes
  6
Continuous
 62
     3
100
AcDbLine
 10
68.75717649027945
 20
51.96758013496108
 30
0.0
 11
68.9918558318795
 21
51.96758013496108
 31
0.0
  0
LINE
  5
7BF
330
19
100
AcDbEntity
  8
TitleBlock&Notes
  6
Continuous
 62
     3
100
AcDbLine
 10
68.75717649027945
 20
51.98613289336108
 30
0.0
 11
68.99674754067948
 21
51.98613289336108
 31
0.0
  0
LINE
  5
7C0
330
19
100
AcDbEntity
  8
TitleBlock&Notes
  6
Continuous
 62
     3
100
AcDbLine
 10
68.75717649027945
 20
52.27939116856109
 30
0.0
 11
69.15663772827952
 21
52.27939116856109
 31
0.0
  0
LINE
  5
7C1
330
19
100
AcDbEntity
  8
TitleBlock&Notes
  6
Continuous
 62
     3
100
AcDbLine
 10
68.75717649027945
 20
52.04553289336108
 30
0.0
 11
69.01598027067947
 21
52.04553289336108
 31
0.0
  0
LINE
  5
7C2
330
19
100
AcDbEntity
  8
TitleBlock&Notes
  6
Continuous
 62
     3
100
AcDbLine
 10
68.75717649027945
 20
52.3387911685611
 30
0.0
 11
69.21592423467948
 21
52.3387911685611
 31
0.0
  0
LINE
  5
7C3
330
19
100
AcDbEntity
  8
TitleBlock&Notes
  6
Continuous
 62
     3
100
AcDbLine
 10
68.75717649027945
 20
52.31899116856109
 30
0.0
 11
69.19463408667948
 21
52.31899116856109
 31
0.0
  0
LINE
  5
7C4
330
19
100
AcDbEntity
  8
TitleBlock&Notes
  6
Continuous
 62
     3
100
AcDbLine
 10
68.75717649027945
 20
52.29919116856108
 30
0.0
 11
69.17492861187949
 21
52.29919116856108
 31
0.0
  0
LINE
  5
7C5
330
19
100
AcDbEntity
  8
TitleBlock&Notes
  6
Continuous
 62
     3
100
AcDbLine
 10
68.75717649027945
 20
52.02573289336109
 30
0.0
 11
69.00894909267951
 21
52.02573289336109
 31
0.0
  0
LINE
  5
7C6
330
19
100
AcDbEntity
  8
TitleBlock&Notes
  6
Continuous
 62
     3
100
AcDbLine
 10
68.75717649027945
 20
52.00593289336109
 30
0.0
 11
69.00254383227951
 21
52.00593289336109
 31
0.0
  0
TEXT
  5
7C7
330
19
100
AcDbEntity
  8
TitleBlock&Notes
  6
Continuous
 62
     3
100
AcDbText
 10
68.14656401307951
 20
49.7822815777611
 30
0.0
 40
0.2772
  1
 POWER
 41
0.8
 51
11.0
100
AcDbText
  0
LINE
  5
7C8
330
19
100
AcDbEntity
  8
TitleBlock&Notes
  6
Continuous
 62
     3
100
AcDbLine
 10
68.18536654827951
 20
50.44750142536109
 30
0.0
 11
73.41196938027948
 21
50.53873210336107
 31
0.0
  0
LINE
  5
7CB
330
19
100
AcDbEntity
  8
TitleBlock&Notes
  6
Continuous
 62
     3
100
AcDbLine
 10
62.49858356067951
 20
50.58587443816108
 30
0.0
 11
69.6196768058795
 21
50.71017357136108
 31
0.0
  0
LINE
  5
7CC
330
19
100
AcDbEntity
  8
TitleBlock&Notes
  6
Continuous
 62
     3
100
AcDbLine
 10
62.49858356067951
 20
50.57003202256108
 30
0.0
 11
70.85597649027945
 21
50.71591085896109
 31
0.0
  0
LINE
  5
7CD
330
19
100
AcDbEntity
  8
TitleBlock&Notes
  6
Continuous
 62
     3
100
AcDbLine
 10
62.49858356067951
 20
50.55418960696108
 30
0.0
 11
71.13285672027945
 21
50.70490142536108
 31
0.0
  0
LINE
  5
7CE
330
19
100
AcDbEntity
  8
TitleBlock&Notes
  6
Continuous
 62
     3
100
AcDbLine
 10
73.41196938027948
 20
53.01994237336109
 30
0.0
 11
62.49858356067951
 21
53.01994237336109
 31
0.0
  0
LINE
  5
7CF
330
19
100
AcDbEntity
  8
TitleBlock&Notes
  6
Continuous
 62
     3
100
AcDbLine
 10
73.41196938027948
 20
52.63017858136109
 30
0.0
 11
62.49858356067951
 21
52.63017858136109
 31
0.0
  0
LINE
  5
7D0
330
19
100
AcDbEntity
  8
TitleBlock&Notes
  6
Continuous
 62
     3
100
AcDbLine
 10
62.49858356067951
 20
50.44750142536109
 30
0.0
 11
73.41196938027948
 21
50.44750142536109
 31
0.0
  0
LINE
  5
7D1
330
19
100
AcDbEntity
  8
TitleBlock&Notes
  6
Continuous
 62
     3
100
AcDbLine
 10
62.49858356067951
 20
50.53834719136109
 30
0.0
 11
72.04046793027948
 21
50.70490142536108
 31
0.0
  0
LINE
  5
7D2
330
19
100
AcDbEntity
  8
TitleBlock&Notes
  6
Continuous
 62
     3
100
AcDbLine
 10
62.49858356067951
 20
50.52250477576109
 30
0.0
 11
72.94807917987947
 21
50.70490142536108
 31
0.0
  0
LINE
  5
7D3
330
19
100
AcDbEntity
  8
TitleBlock&Notes
  6
Continuous
 62
     3
100
AcDbLine
 10
62.49858356067951
 20
50.50666236016109
 30
0.0
 11
73.41196938027948
 21
50.6971562197611
 31
0.0
  0
LINE
  5
7D4
330
19
100
AcDbEntity
  8
TitleBlock&Notes
  6
Continuous
 62
     3
100
AcDbLine
 10
62.49858356067951
 20
50.49081994456109
 30
0.0
 11
73.41196938027948
 21
50.68131380416108
 31
0.0
  0
LINE
  5
7D5
330
19
100
AcDbEntity
  8
TitleBlock&Notes
  6
Continuous
 62
     3
100
AcDbLine
 10
62.49858356067951
 20
50.47497752896109
 30
0.0
 11
73.41196938027948
 21
50.66547138856108
 31
0.0
  0
LINE
  5
7D6
330
19
100
AcDbEntity
  8
TitleBlock&Notes
  6
Continuous
 62
     3
100
AcDbLine
 10
62.49858356067951
 20
50.4591351529611
 30
0.0
 11
73.41196938027948
 21
50.64962901256108
 31
0.0
  0
LINE
  5
7D7
330
19
100
AcDbEntity
  8
TitleBlock&Notes
  6
Continuous
 62
     3
100
AcDbLine
 10
62.73969916947951
 20
50.44750142536109
 30
0.0
 11
73.41196938027948
 21
50.63378659696109
 31
0.0
  0
LINE
  5
7D8
330
19
100
AcDbEntity
  8
TitleBlock&Notes
  6
Continuous
 62
     3
100
AcDbLine
 10
63.64731041907945
 20
50.44750142536109
 30
0.0
 11
73.41196938027948
 21
50.61794418136108
 31
0.0
  0
LINE
  5
7D9
330
19
100
AcDbEntity
  8
TitleBlock&Notes
  6
Continuous
 62
     3
100
AcDbLine
 10
64.55492162907948
 20
50.44750142536109
 30
0.0
 11
73.41196938027948
 21
50.60210176576109
 31
0.0
  0
LINE
  5
7DA
330
19
100
AcDbEntity
  8
TitleBlock&Notes
  6
Continuous
 62
     3
100
AcDbLine
 10
65.4625328390795
 20
50.44750142536109
 30
0.0
 11
73.41196938027948
 21
50.5862593501611
 31
0.0
  0
LINE
  5
7DB
330
19
100
AcDbEntity
  8
TitleBlock&Notes
  6
Continuous
 62
     3
100
AcDbLine
 10
66.37014408867949
 20
50.44750142536109
 30
0.0
 11
73.41196938027948
 21
50.57041693456109
 31
0.0
  0
LINE
  5
7DC
330
19
100
AcDbEntity
  8
TitleBlock&Notes
  6
Continuous
 62
     3
100
AcDbLine
 10
67.27775529867945
 20
50.44750142536109
 30
0.0
 11
73.41196938027948
 21
50.55457451896109
 31
0.0
  0
LINE
  5
7DF
330
19
100
AcDbEntity
  8
TitleBlock&Notes
  6
Continuous
 62
     3
100
AcDbLine
 10
62.49858356067951
 20
53.72151715936109
 30
0.0
 11
81.30858356067951
 21
53.72151715936109
 31
0.0
  0
LINE
  5
7E0
330
19
100
AcDbEntity
  8
TitleBlock&Notes
 62
     3
100
AcDbLine
 10
62.49858356067951
 20
49.26651715936109
 30
0.0
 11
81.30858356067951
 21
49.2665171593611
 31
0.0
  0
LINE
  5
7E6
330
19
100
AcDbEntity
  8
TitleBlock&Notes
 62
     3
100
AcDbLine
 10
68.76858356067952
 20
49.26651715936109
 30
0.0
 11
59.46994251803764
 21
49.26325278123909
 31
0.0
  0
LINE
  5
7ED
330
19
100
AcDbEntity
  8
TitleBlock&Notes
  6
Continuous
 62
     3
100
AcDbLine
 10
67.81667649027946
 20
50.85296863696109
 30
0.0
 11
68.38097649027947
 21
50.86281854296108
 31
0.0
  0
LINE
  5
7EE
330
19
100
AcDbEntity
  8
TitleBlock&Notes
  6
Continuous
 62
     3
100
AcDbLine
 10
67.77707649027951
 20
52.18990142536108
 30
0.0
 11
67.77707649027951
 21
50.74450142536107
 31
0.0
  0
LINE
  5
7EF
330
19
100
AcDbEntity
  8
TitleBlock&Notes
  6
Continuous
 62
     3
100
AcDbLine
 10
68.42057649027947
 20
52.48690142536108
 30
0.0
 11
68.42057649027947
 21
50.74450142536107
 31
0.0
  0
LINE
  5
7F0
330
19
100
AcDbEntity
  8
TitleBlock&Notes
  6
Continuous
 62
     3
100
AcDbLine
 10
68.71757649027948
 20
52.48690142536108
 30
0.0
 11
68.71757649027948
 21
50.74450142536107
 31
0.0
  0
LINE
  5
7F1
330
19
100
AcDbEntity
  8
TitleBlock&Notes
  6
Continuous
 62
     3
100
AcDbLine
 10
67.81667649027946
 20
50.70490142536108
 30
0.0
 11
67.81667649027946
 21
52.15030142536109
 31
0.0
  0
LINE
  5
7F2
330
19
100
AcDbEntity
  8
TitleBlock&Notes
  6
Continuous
 62
     3
100
AcDbLine
 10
68.38097649027947
 20
52.52650142536109
 30
0.0
 11
68.38097649027947
 21
50.70490142536108
 31
0.0
  0
LINE
  5
7F3
330
19
100
AcDbEntity
  8
TitleBlock&Notes
  6
Continuous
 62
     3
100
AcDbLine
 10
68.75717649027945
 20
50.70490142536108
 30
0.0
 11
68.75717649027945
 21
52.52650142536109
 31
0.0
  0
LINE
  5
7F4
330
19
100
AcDbEntity
  8
TitleBlock&Notes
  6
Continuous
 62
     3
100
AcDbLine
 10
68.73737649027948
 20
52.50670142536108
 30
0.0
 11
68.73737649027948
 21
50.72470142536108
 31
0.0
  0
LINE
  5
7F5
330
19
100
AcDbEntity
  8
TitleBlock&Notes
  6
Continuous
 62
     3
100
AcDbLine
 10
68.4007764902795
 20
52.50670142536108
 30
0.0
 11
68.4007764902795
 21
50.72470142536108
 31
0.0
  0
LINE
  5
7F6
330
19
100
AcDbEntity
  8
TitleBlock&Notes
  6
Continuous
 62
     3
100
AcDbLine
 10
67.79687649027948
 20
52.17010142536109
 30
0.0
 11
67.79687649027948
 21
50.72470142536108
 31
0.0
  0
LINE
  5
7F7
330
19
100
AcDbEntity
  8
TitleBlock&Notes
  6
Continuous
 62
     3
100
AcDbLine
 10
67.27217649027946
 20
50.70490142536108
 30
0.0
 11
67.27217649027946
 21
51.08110142536109
 31
0.0
  0
LINE
  5
7F8
330
19
100
AcDbEntity
  8
TitleBlock&Notes
  6
Continuous
 62
     3
100
AcDbLine
 10
67.23257649027948
 20
50.74450142536107
 30
0.0
 11
67.23257649027948
 21
51.04150142536109
 31
0.0
  0
LINE
  5
7F9
330
19
100
AcDbEntity
  8
TitleBlock&Notes
  6
Continuous
 62
     3
100
AcDbLine
 10
67.25237649027949
 20
51.06130142536108
 30
0.0
 11
67.25237649027949
 21
50.72470142536108
 31
0.0
  0
LINE
  5
7FA
330
19
100
AcDbEntity
  8
TitleBlock&Notes
  6
Continuous
 62
     3
100
AcDbLine
 10
65.81647684707945
 20
50.84973985096109
 30
0.0
 11
66.14357649027947
 21
50.85544937896108
 31
0.0
  0
LINE
  5
7FB
330
19
100
AcDbEntity
  8
TitleBlock&Notes
  6
Continuous
 62
     3
100
AcDbLine
 10
67.4800764902795
 20
52.18990142536108
 30
0.0
 11
67.4800764902795
 21
50.74450142536107
 31
0.0
  0
LINE
  5
7FC
330
19
100
AcDbEntity
  8
TitleBlock&Notes
  6
Continuous
 62
     3
100
AcDbLine
 10
67.44047649027947
 20
52.15030142536109
 30
0.0
 11
67.44047649027947
 21
50.70490142536108
 31
0.0
  0
LINE
  5
7FD
330
19
100
AcDbEntity
  8
TitleBlock&Notes
  6
Continuous
 62
     3
100
AcDbLine
 10
67.46027649027951
 20
52.17010142536109
 30
0.0
 11
67.46027649027951
 21
50.72470142536108
 31
0.0
  0
LINE
  5
7FE
330
19
100
AcDbEntity
  8
TitleBlock&Notes
  6
Continuous
 62
     3
100
AcDbLine
 10
66.18317649027949
 20
50.74450142536107
 30
0.0
 11
66.18317649027949
 21
52.48690142536108
 31
0.0
  0
LINE
  5
7FF
330
19
100
AcDbEntity
  8
TitleBlock&Notes
  6
Continuous
 62
     3
100
AcDbLine
 10
66.14357649027947
 20
52.52650142536109
 30
0.0
 11
66.14357649027947
 21
50.70490142536108
 31
0.0
  0
LINE
  5
800
330
19
100
AcDbEntity
  8
TitleBlock&Notes
  6
Continuous
 62
     3
100
AcDbLine
 10
66.16337649027944
 20
50.72470142536108
 30
0.0
 11
66.16337649027944
 21
52.50670142536108
 31
0.0
  0
ARC
  5
801
330
19
100
AcDbEntity
  8
TitleBlock&Notes
  6
Continuous
 62
     3
100
AcDbCircle
 10
65.25257649027949
 20
51.23950142536108
 30
0.0
 40
0.4950000000000001
100
AcDbArc
 50
180.0000000000004
 51
269.9999931700005
  0
ARC
  5
802
330
19
100
AcDbEntity
  8
TitleBlock&Notes
  6
Continuous
 62
     3
100
AcDbCircle
 10
65.25257649027949
 20
51.23950142536108
 30
0.0
 40
0.5346000000000001
100
AcDbArc
 50
180.0000000000004
 51
269.9999934300003
  0
ARC
  5
803
330
19
100
AcDbEntity
  8
TitleBlock&Notes
  6
Continuous
 62
     3
100
AcDbCircle
 10
65.25257649027949
 20
51.23950142536108
 30
0.0
 40
0.5148000000000001
100
AcDbArc
 50
180.0000000000004
 51
269.9999934300003
  0
LINE
  5
804
330
19
100
AcDbEntity
  8
TitleBlock&Notes
  6
Continuous
 62
     3
100
AcDbLine
 10
63.86657649027951
 20
50.74450142536107
 30
0.0
 11
64.16357649027948
 21
51.59590142536109
 31
0.0
  0
LINE
  5
805
330
19
100
AcDbEntity
  8
TitleBlock&Notes
  6
Continuous
 62
     3
100
AcDbLine
 10
64.16357649027948
 20
50.74450142536107
 30
0.0
 11
64.16357649027948
 21
51.59590142536109
 31
0.0
  0
LINE
  5
806
330
19
100
AcDbEntity
  8
TitleBlock&Notes
  6
Continuous
 62
     3
100
AcDbLine
 10
63.89470278627951
 20
50.70490142536108
 30
0.0
 11
64.12397649027951
 21
51.36215268376108
 31
0.0
  0
LINE
  5
807
330
19
100
AcDbEntity
  8
TitleBlock&Notes
  6
Continuous
 62
     3
100
AcDbLine
 10
64.12397649027951
 20
51.36215268376108
 30
0.0
 11
64.12397649027951
 21
50.70490142536108
 31
0.0
  0
LINE
  5
808
330
19
100
AcDbEntity
  8
TitleBlock&Notes
  6
Continuous
 62
     3
100
AcDbLine
 10
64.14377649027949
 20
51.47902705456108
 30
0.0
 11
63.88063963827951
 21
50.72470142536108
 31
0.0
  0
LINE
  5
809
330
19
100
AcDbEntity
  8
TitleBlock&Notes
  6
Continuous
 62
     3
100
AcDbLine
 10
64.14377649027949
 20
51.47902705456108
 30
0.0
 11
64.14377649027949
 21
50.72470142536108
 31
0.0
  0
LINE
  5
80A
330
19
100
AcDbEntity
  8
TitleBlock&Notes
  6
Continuous
 62
     3
100
AcDbLine
 10
64.46057649027949
 20
50.74450142536107
 30
0.0
 11
64.46057649027949
 21
52.48690142536108
 31
0.0
  0
LINE
  5
80B
330
19
100
AcDbEntity
  8
TitleBlock&Notes
  6
Continuous
 62
     3
100
AcDbLine
 10
64.5001764902795
 20
50.70490142536108
 30
0.0
 11
64.5001764902795
 21
52.52650142536109
 31
0.0
  0
LINE
  5
80C
330
19
100
AcDbEntity
  8
TitleBlock&Notes
  6
Continuous
 62
     3
100
AcDbLine
 10
64.48037649027951
 20
52.50670142536108
 30
0.0
 11
64.48037649027951
 21
50.72470142536108
 31
0.0
  0
ARC
  5
80D
330
19
100
AcDbEntity
  8
TitleBlock&Notes
  6
Continuous
 62
     3
100
AcDbCircle
 10
65.45057649027949
 20
51.23950142536108
 30
0.0
 40
0.4950000000000001
100
AcDbArc
 50
270.0000000000008
 51
0.0000000000008142
  0
ARC
  5
80E
330
19
100
AcDbEntity
  8
TitleBlock&Notes
  6
Continuous
 62
     3
100
AcDbCircle
 10
65.45057649027949
 20
51.23950142536108
 30
0.0
 40
0.5346000000000001
100
AcDbArc
 50
270.0000000000008
 51
0.0000000000008142
  0
ARC
  5
80F
330
19
100
AcDbEntity
  8
TitleBlock&Notes
  6
Continuous
 62
     3
100
AcDbCircle
 10
65.45057649027949
 20
51.23950142536108
 30
0.0
 40
0.5148000000000001
100
AcDbArc
 50
270.0000000000008
 51
0.0000000000008142
  0
LINE
  5
810
330
19
100
AcDbEntity
  8
TitleBlock&Notes
  6
Continuous
 62
     3
100
AcDbLine
 10
63.27257649027949
 20
50.74450142536107
 30
0.0
 11
63.27257649027949
 21
51.59590142536109
 31
0.0
  0
LINE
  5
811
330
19
100
AcDbEntity
  8
TitleBlock&Notes
  6
Continuous
 62
     3
100
AcDbLine
 10
63.31217649027946
 20
50.70490142536108
 30
0.0
 11
63.31217649027946
 21
51.36215268376108
 31
0.0
  0
LINE
  5
812
330
19
100
AcDbEntity
  8
TitleBlock&Notes
  6
Continuous
 62
     3
100
AcDbLine
 10
63.29237649027946
 20
51.47902705456108
 30
0.0
 11
63.29237649027946
 21
50.72470142536108
 31
0.0
  0
LINE
  5
813
330
19
100
AcDbEntity
  8
TitleBlock&Notes
  6
Continuous
 62
     3
100
AcDbLine
 10
62.93597649027947
 20
50.70490142536108
 30
0.0
 11
62.93597649027947
 21
52.52650142536109
 31
0.0
  0
LINE
  5
814
330
19
100
AcDbEntity
  8
TitleBlock&Notes
  6
Continuous
 62
     3
100
AcDbLine
 10
62.97557649027948
 20
50.74450142536107
 30
0.0
 11
62.97557649027948
 21
52.48690142536108
 31
0.0
  0
LINE
  5
815
330
19
100
AcDbEntity
  8
TitleBlock&Notes
  6
Continuous
 62
     3
100
AcDbLine
 10
62.95577649027951
 20
50.72470142536108
 30
0.0
 11
62.95577649027951
 21
52.50670142536108
 31
0.0
  0
LINE
  5
816
330
19
100
AcDbEntity
  8
TitleBlock&Notes
  6
Continuous
 62
     3
100
AcDbLine
 10
63.27257649027949
 20
51.59590142536109
 30
0.0
 11
63.5695764902795
 21
50.74450142536107
 31
0.0
  0
LINE
  5
817
330
19
100
AcDbEntity
  8
TitleBlock&Notes
  6
Continuous
 62
     3
100
AcDbLine
 10
63.54145015467948
 20
50.70490142536108
 30
0.0
 11
63.31217649027946
 21
51.36215268376108
 31
0.0
  0
LINE
  5
818
330
19
100
AcDbEntity
  8
TitleBlock&Notes
  6
Continuous
 62
     3
100
AcDbLine
 10
63.29237649027946
 20
51.47902705456108
 30
0.0
 11
63.55551330267948
 21
50.72470142536108
 31
0.0
  0
LINE
  5
819
330
19
100
AcDbEntity
  8
TitleBlock&Notes
  6
Continuous
 62
     3
100
AcDbLine
 10
63.31217649027946
 20
50.85355436056108
 30
0.0
 11
63.48852071547951
 21
50.8566324685611
 31
0.0
  0
LINE
  5
81A
330
19
100
AcDbEntity
  8
TitleBlock&Notes
  6
Continuous
 62
     3
100
AcDbLine
 10
62.49858356067951
 20
49.26651715936109
 30
0.0
 11
62.49858356067951
 21
53.72151715936109
 31
0.0
  0
LINE
  5
81B
330
19
100
AcDbEntity
  8
TitleBlock&Notes
  6
Continuous
 62
     3
100
AcDbLine
 10
63.5695764902795
 20
50.74450142536107
 30
0.0
 11
63.86657649027951
 21
50.74450142536107
 31
0.0
  0
LINE
  5
81C
330
19
100
AcDbEntity
  8
TitleBlock&Notes
  6
Continuous
 62
     3
100
AcDbLine
 10
63.54145015467948
 20
50.70490142536108
 30
0.0
 11
63.89470278627951
 21
50.70490142536108
 31
0.0
  0
LINE
  5
81D
330
19
100
AcDbEntity
  8
TitleBlock&Notes
  6
Continuous
 62
     3
100
AcDbLine
 10
63.55551330267948
 20
50.72470142536108
 30
0.0
 11
63.88063963827951
 21
50.72470142536108
 31
0.0
  0
TEXT
  5
81E
330
19
100
AcDbEntity
  8
TitleBlock&Notes
  6
Continuous
 62
     3
100
AcDbText
 10
63.27321923787947
 20
49.78228157776108
 30
0.0
 40
0.2772
  1
 SPEED
 41
0.8
 51
11.0
100
AcDbText
  0
LINE
  5
81F
330
19
100
AcDbEntity
  8
TitleBlock&Notes
  6
Continuous
 62
     3
100
AcDbLine
 10
62.49858356067951
 20
50.64924410056109
 30
0.0
 11
66.14357649027947
 21
50.71286767816108
 31
0.0
  0
LINE
  5
820
330
19
100
AcDbEntity
  8
TitleBlock&Notes
  6
Continuous
 62
     3
100
AcDbLine
 10
62.49858356067951
 20
50.63340168496107
 30
0.0
 11
66.59480059107952
 21
50.70490142536108
 31
0.0
  0
LINE
  5
821
330
19
100
AcDbEntity
  8
TitleBlock&Notes
  6
Continuous
 62
     3
100
AcDbLine
 10
62.49858356067951
 20
50.61755926936108
 30
0.0
 11
67.50241180107948
 21
50.70490142536108
 31
0.0
  0
LINE
  5
822
330
19
100
AcDbEntity
  8
TitleBlock&Notes
  6
Continuous
 62
     3
100
AcDbLine
 10
62.49858356067951
 20
50.68092893176109
 30
0.0
 11
63.87196692147949
 21
50.70490142536108
 31
0.0
  0
LINE
  5
823
330
19
100
AcDbEntity
  8
TitleBlock&Notes
  6
Continuous
 62
     3
100
AcDbLine
 10
62.49858356067951
 20
50.66508651616108
 30
0.0
 11
65.16691072107952
 21
50.71166233336109
 31
0.0
  0
LINE
  5
824
330
19
100
AcDbEntity
  8
TitleBlock&Notes
  6
Continuous
 62
     3
100
AcDbLine
 10
62.49858356067951
 20
50.60171685376109
 30
0.0
 11
68.41002305067949
 21
50.70490142536108
 31
0.0
  0
TEXT
  5
825
330
19
100
AcDbEntity
  8
TitleBlock&Notes
  6
Continuous
 62
     3
100
AcDbText
 10
62.54159106147947
 20
49.7822815777611
 30
0.0
 40
0.2772
  1
The
 41
0.8
 51
11.0
100
AcDbText
  0
LINE
  5
826
330
19
100
AcDbEntity
  8
TitleBlock&Notes
  6
Continuous
 62
     3
100
AcDbLine
 10
62.93597649027947
 20
50.70490142536108
 30
0.0
 11
63.31217649027946
 21
50.70490142536108
 31
0.0
  0
LINE
  5
827
330
19
100
AcDbEntity
  8
TitleBlock&Notes
  6
Continuous
 62
     3
100
AcDbLine
 10
62.97557649027948
 20
50.74450142536107
 30
0.0
 11
63.27257649027949
 21
50.74450142536107
 31
0.0
  0
LINE
  5
828
330
19
100
AcDbEntity
  8
TitleBlock&Notes
  6
Continuous
 62
     3
100
AcDbLine
 10
62.95577649027951
 20
50.72470142536108
 30
0.0
 11
63.29237649027946
 21
50.72470142536108
 31
0.0
  0
LINE
  5
829
330
19
100
AcDbEntity
  8
TitleBlock&Notes
  6
Continuous
 62
     3
100
AcDbLine
 10
62.49858356067951
 20
50.69677134736108
 30
0.0
 11
62.96435571147948
 21
50.70490142536108
 31
0.0
  0
LINE
  5
82A
330
19
100
AcDbEntity
  8
TitleBlock&Notes
  6
Continuous
 62
     3
100
AcDbLine
 10
62.49858356067951
 20
50.83935304816108
 30
0.0
 11
62.93597649027947
 21
50.84698776976107
 31
0.0
  0
LINE
  5
82B
330
19
100
AcDbEntity
  8
TitleBlock&Notes
  6
Continuous
 62
     3
100
AcDbLine
 10
62.49858356067951
 20
50.82351063256109
 30
0.0
 11
62.93597649027947
 21
50.83114535416109
 31
0.0
  0
LINE
  5
82C
330
19
100
AcDbEntity
  8
TitleBlock&Notes
  6
Continuous
 62
     3
100
AcDbLine
 10
62.49858356067951
 20
50.80766821696109
 30
0.0
 11
62.93597649027947
 21
50.81530293856108
 31
0.0
  0
LINE
  5
82D
330
19
100
AcDbEntity
  8
TitleBlock&Notes
  6
Continuous
 62
     3
100
AcDbLine
 10
62.49858356067951
 20
50.79182580136109
 30
0.0
 11
62.93597649027947
 21
50.79946052296108
 31
0.0
  0
LINE
  5
82E
330
19
100
AcDbEntity
  8
TitleBlock&Notes
  6
Continuous
 62
     3
100
AcDbLine
 10
62.49858356067951
 20
50.77598338576108
 30
0.0
 11
62.93597649027947
 21
50.78361810736109
 31
0.0
  0
LINE
  5
82F
330
19
100
AcDbEntity
  8
TitleBlock&Notes
  6
Continuous
 62
     3
100
AcDbLine
 10
62.49858356067951
 20
50.76014097016108
 30
0.0
 11
62.93597649027947
 21
50.76777569176108
 31
0.0
  0
LINE
  5
830
330
19
100
AcDbEntity
  8
TitleBlock&Notes
  6
Continuous
 62
     3
100
AcDbLine
 10
62.49858356067951
 20
50.74429855456108
 30
0.0
 11
62.93597649027947
 21
50.75193327616108
 31
0.0
  0
LINE
  5
831
330
19
100
AcDbEntity
  8
TitleBlock&Notes
  6
Continuous
 62
     3
100
AcDbLine
 10
62.49858356067951
 20
50.72845613896108
 30
0.0
 11
62.93597649027947
 21
50.73609086056109
 31
0.0
  0
LINE
  5
832
330
19
100
AcDbEntity
  8
TitleBlock&Notes
  6
Continuous
 62
     3
100
AcDbLine
 10
62.49858356067951
 20
50.71261372336109
 30
0.0
 11
62.93597649027947
 21
50.72024844496109
 31
0.0
  0
LINE
  5
833
330
19
100
AcDbEntity
  8
TitleBlock&Notes
  6
Continuous
 62
     3
100
AcDbLine
 10
63.31217649027946
 20
50.83771194496108
 30
0.0
 11
63.49401371067948
 21
50.84088592456108
 31
0.0
  0
LINE
  5
834
330
19
100
AcDbEntity
  8
TitleBlock&Notes
  6
Continuous
 62
     3
100
AcDbLine
 10
63.31217649027946
 20
50.82186952936108
 30
0.0
 11
63.49950666627952
 21
50.82513938056109
 31
0.0
  0
LINE
  5
835
330
19
100
AcDbEntity
  8
TitleBlock&Notes
  6
Continuous
 62
     3
100
AcDbLine
 10
63.31217649027946
 20
50.80602711376108
 30
0.0
 11
63.50499966147949
 21
50.80939287616108
 31
0.0
  0
LINE
  5
836
330
19
100
AcDbEntity
  8
TitleBlock&Notes
  6
Continuous
 62
     3
100
AcDbLine
 10
63.31217649027946
 20
50.79018469816109
 30
0.0
 11
63.51049265667949
 21
50.79364633216108
 31
0.0
  0
LINE
  5
837
330
19
100
AcDbEntity
  8
TitleBlock&Notes
  6
Continuous
 62
     3
100
AcDbLine
 10
63.31217649027946
 20
50.77434228256109
 30
0.0
 11
63.51598561227948
 21
50.7778997881611
 31
0.0
  0
LINE
  5
838
330
19
100
AcDbEntity
  8
TitleBlock&Notes
  6
Continuous
 62
     3
100
AcDbLine
 10
63.31217649027946
 20
50.75849986696109
 30
0.0
 11
63.52147860747948
 21
50.76215328376109
 31
0.0
  0
LINE
  5
839
330
19
100
AcDbEntity
  8
TitleBlock&Notes
  6
Continuous
 62
     3
100
AcDbLine
 10
63.31217649027946
 20
50.7426574909611
 30
0.0
 11
63.52697156307947
 21
50.74640673976109
 31
0.0
  0
LINE
  5
83A
330
19
100
AcDbEntity
  8
TitleBlock&Notes
  6
Continuous
 62
     3
100
AcDbLine
 10
63.31217649027946
 20
50.72681507536107
 30
0.0
 11
63.5324645582795
 21
50.73066019576109
 31
0.0
  0
LINE
  5
83B
330
19
100
AcDbEntity
  8
TitleBlock&Notes
  6
Continuous
 62
     3
100
AcDbLine
 10
63.31217649027946
 20
50.71097265976108
 30
0.0
 11
63.53795751387949
 21
50.71491365176107
 31
0.0
  0
LINE
  5
83C
330
19
100
AcDbEntity
  8
TitleBlock&Notes
  6
Continuous
 62
     3
100
AcDbLine
 10
66.18317649027949
 20
50.74450142536107
 30
0.0
 11
67.23257649027948
 21
50.74450142536107
 31
0.0
  0
LINE
  5
83D
330
19
100
AcDbEntity
  8
TitleBlock&Notes
  6
Continuous
 62
     3
100
AcDbLine
 10
67.25237649027949
 20
50.72470142536108
 30
0.0
 11
66.16337649027944
 21
50.72470142536108
 31
0.0
  0
LINE
  5
83E
330
19
100
AcDbEntity
  8
TitleBlock&Notes
  6
Continuous
 62
     3
100
AcDbLine
 10
66.14357649027947
 20
50.70490142536108
 30
0.0
 11
67.27217649027946
 21
50.70490142536108
 31
0.0
  0
LINE
  5
83F
330
19
100
AcDbEntity
  8
TitleBlock&Notes
  6
Continuous
 62
     3
100
AcDbLine
 10
64.5001764902795
 20
50.71586686336109
 30
0.0
 11
65.10207094827951
 21
50.72637294136109
 31
0.0
  0
TEXT
  5
840
330
19
100
AcDbEntity
  8
TitleBlock&Notes
  6
Continuous
 62
     3
100
AcDbText
 10
64.46953230747948
 20
49.7822815777611
 30
0.0
 40
0.2772
  1
 of
 41
1.098901099999999
 51
11.0
100
AcDbText
  0
LINE
  5
841
330
19
100
AcDbEntity
  8
TitleBlock&Notes
  6
Continuous
 62
     3
100
AcDbLine
 10
64.46057649027949
 20
50.74450142536107
 30
0.0
 11
64.16357649027948
 21
50.74450142536107
 31
0.0
  0
LINE
  5
842
330
19
100
AcDbEntity
  8
TitleBlock&Notes
  6
Continuous
 62
     3
100
AcDbLine
 10
64.12397649027951
 20
50.70490142536108
 30
0.0
 11
64.5001764902795
 21
50.70490142536108
 31
0.0
  0
LINE
  5
843
330
19
100
AcDbEntity
  8
TitleBlock&Notes
  6
Continuous
 62
     3
100
AcDbLine
 10
64.14377649027949
 20
50.72470142536108
 30
0.0
 11
64.48037649027951
 21
50.72470142536108
 31
0.0
  0
LINE
  5
844
330
19
100
AcDbEntity
  8
TitleBlock&Notes
  6
Continuous
 62
     3
100
AcDbLine
 10
63.94488457947952
 20
50.84875590976108
 30
0.0
 11
64.12397649027951
 21
50.85188197336108
 31
0.0
  0
LINE
  5
845
330
19
100
AcDbEntity
  8
TitleBlock&Notes
  6
Continuous
 62
     3
100
AcDbLine
 10
63.93932430387947
 20
50.8328164345611
 30
0.0
 11
64.12397649027951
 21
50.83603955776109
 31
0.0
  0
LINE
  5
846
330
19
100
AcDbEntity
  8
TitleBlock&Notes
  6
Continuous
 62
     3
100
AcDbLine
 10
63.9337640282795
 20
50.8168769593611
 30
0.0
 11
64.12397649027951
 21
50.82019714216109
 31
0.0
  0
LINE
  5
847
330
19
100
AcDbEntity
  8
TitleBlock&Notes
  6
Continuous
 62
     3
100
AcDbLine
 10
63.92820375267951
 20
50.80093752376109
 30
0.0
 11
64.12397649027951
 21
50.80435472656107
 31
0.0
  0
LINE
  5
848
330
19
100
AcDbEntity
  8
TitleBlock&Notes
  6
Continuous
 62
     3
100
AcDbLine
 10
63.92264347707947
 20
50.78499804856108
 30
0.0
 11
64.12397649027951
 21
50.78851231096108
 31
0.0
  0
LINE
  5
849
330
19
100
AcDbEntity
  8
TitleBlock&Notes
  6
Continuous
 62
     3
100
AcDbLine
 10
63.91708320147948
 20
50.76905857336108
 30
0.0
 11
64.12397649027951
 21
50.77266989536109
 31
0.0
  0
LINE
  5
84A
330
19
100
AcDbEntity
  8
TitleBlock&Notes
  6
Continuous
 62
     3
100
AcDbLine
 10
63.91152288627947
 20
50.75311909816108
 30
0.0
 11
64.12397649027951
 21
50.75682747976109
 31
0.0
  0
LINE
  5
84B
330
19
100
AcDbEntity
  8
TitleBlock&Notes
  6
Continuous
 62
     3
100
AcDbLine
 10
63.90596261067948
 20
50.73717962296108
 30
0.0
 11
64.12397649027951
 21
50.74098506416109
 31
0.0
  0
LINE
  5
84C
330
19
100
AcDbEntity
  8
TitleBlock&Notes
  6
Continuous
 62
     3
100
AcDbLine
 10
63.90040233507949
 20
50.72124014776109
 30
0.0
 11
64.12397649027951
 21
50.72514264856108
 31
0.0
  0
LINE
  5
84D
330
19
100
AcDbEntity
  8
TitleBlock&Notes
  6
Continuous
 62
     3
100
AcDbLine
 10
63.89484205947946
 20
50.70530071216109
 30
0.0
 11
64.12397649027951
 21
50.70930027256109
 31
0.0
  0
LINE
  5
84E
330
19
100
AcDbEntity
  8
TitleBlock&Notes
  6
Continuous
 62
     3
100
AcDbLine
 10
64.5001764902795
 20
50.84260614856109
 30
0.0
 11
64.88687270787948
 21
50.8493559685611
 31
0.0
  0
LINE
  5
84F
330
19
100
AcDbEntity
  8
TitleBlock&Notes
  6
Continuous
 62
     3
100
AcDbLine
 10
64.5001764902795
 20
50.82676373296109
 30
0.0
 11
64.9041916886795
 21
50.83381585936109
 31
0.0
  0
LINE
  5
850
330
19
100
AcDbEntity
  8
TitleBlock&Notes
  6
Continuous
 62
     3
100
AcDbLine
 10
64.5001764902795
 20
50.81092131736109
 30
0.0
 11
64.92311442987949
 21
50.81830374736108
 31
0.0
  0
LINE
  5
851
330
19
100
AcDbEntity
  8
TitleBlock&Notes
  6
Continuous
 62
     3
100
AcDbLine
 10
64.5001764902795
 20
50.79507890176109
 30
0.0
 11
64.94392446747946
 21
50.80282458256109
 31
0.0
  0
LINE
  5
852
330
19
100
AcDbEntity
  8
TitleBlock&Notes
  6
Continuous
 62
     3
100
AcDbLine
 10
64.5001764902795
 20
50.77923648616108
 30
0.0
 11
64.96701792027946
 21
50.78738525536107
 31
0.0
  0
LINE
  5
853
330
19
100
AcDbEntity
  8
TitleBlock&Notes
  6
Continuous
 62
     3
100
AcDbLine
 10
64.5001764902795
 20
50.76339407056108
 30
0.0
 11
64.99297797747947
 21
50.77199598256109
 31
0.0
  0
LINE
  5
854
330
19
100
AcDbEntity
  8
TitleBlock&Notes
  6
Continuous
 62
     3
100
AcDbLine
 10
64.5001764902795
 20
50.7475516945611
 30
0.0
 11
65.02273013067946
 21
50.75667288136108
 31
0.0
  0
LINE
  5
855
330
19
100
AcDbEntity
  8
TitleBlock&Notes
  6
Continuous
 62
     3
100
AcDbLine
 10
64.5001764902795
 20
50.73170927896109
 30
0.0
 11
65.05791730467951
 21
50.74144466176108
 31
0.0
  0
TEXT
  5
856
330
19
100
AcDbEntity
  8
TitleBlock&Notes
  6
Continuous
 62
     3
100
AcDbText
 10
65.18450187267949
 20
49.7822815777611
 30
0.0
 40
0.2772
  1
 AIR
 41
1.098901099999999
 51
11.0
100
AcDbText
  0
LINE
  5
857
330
19
100
AcDbEntity
  8
TitleBlock&Notes
  6
Continuous
 62
     3
100
AcDbLine
 10
65.70357570267948
 20
50.76855707896109
 30
0.0
 11
66.14357649027947
 21
50.7762373405611
 31
0.0
  0
LINE
  5
858
330
19
100
AcDbEntity
  8
TitleBlock&Notes
  6
Continuous
 62
     3
100
AcDbLine
 10
65.67028010187947
 20
50.75213349376108
 30
0.0
 11
66.14357649027947
 21
50.76039492496107
 31
0.0
  0
LINE
  5
859
330
19
100
AcDbEntity
  8
TitleBlock&Notes
  6
Continuous
 62
     3
100
AcDbLine
 10
65.6290467998795
 20
50.73557134816109
 30
0.0
 11
66.14357649027947
 21
50.74455250936108
 31
0.0
  0
LINE
  5
85A
330
19
100
AcDbEntity
  8
TitleBlock&Notes
  6
Continuous
 62
     3
100
AcDbLine
 10
65.57134801587948
 20
50.71872182536108
 30
0.0
 11
66.14357649027947
 21
50.72871009376108
 31
0.0
  0
LINE
  5
85B
330
19
100
AcDbEntity
  8
TitleBlock&Notes
  6
Continuous
 62
     3
100
AcDbLine
 10
65.2525764110795
 20
50.74450142536107
 30
0.0
 11
65.45057649027949
 21
50.74450142536107
 31
0.0
  0
LINE
  5
85C
330
19
100
AcDbEntity
  8
TitleBlock&Notes
  6
Continuous
 62
     3
100
AcDbLine
 10
65.2525764110795
 20
50.70490142536108
 30
0.0
 11
65.45057649027949
 21
50.70490142536108
 31
0.0
  0
LINE
  5
85D
330
19
100
AcDbEntity
  8
TitleBlock&Notes
  6
Continuous
 62
     3
100
AcDbLine
 10
65.2525764110795
 20
50.72470142536108
 30
0.0
 11
65.45057649027949
 21
50.72470142536108
 31
0.0
  0
LINE
  5
85E
330
19
100
AcDbEntity
  8
TitleBlock&Notes
  6
Continuous
 62
     3
100
AcDbLine
 10
65.79846648987947
 20
50.83358305096108
 30
0.0
 11
66.14357649027947
 21
50.83960696336109
 31
0.0
  0
LINE
  5
85F
330
19
100
AcDbEntity
  8
TitleBlock&Notes
  6
Continuous
 62
     3
100
AcDbLine
 10
65.77863579987951
 20
50.81739449176109
 30
0.0
 11
66.14357649027947
 21
50.82376458736108
 31
0.0
  0
LINE
  5
860
330
19
100
AcDbEntity
  8
TitleBlock&Notes
  6
Continuous
 62
     3
100
AcDbLine
 10
65.75661693267949
 20
50.80116775816108
 30
0.0
 11
66.14357649027947
 21
50.80792217176109
 31
0.0
  0
LINE
  5
861
330
19
100
AcDbEntity
  8
TitleBlock&Notes
  6
Continuous
 62
     3
100
AcDbLine
 10
65.73187485267951
 20
50.78489346496109
 30
0.0
 11
66.14357649027947
 21
50.7920797561611
 31
0.0
  0
TEXT
  5
862
330
19
100
AcDbEntity
  8
TitleBlock&Notes
  6
Continuous
 62
     3
100
AcDbText
 10
66.23929202667952
 20
49.7822815777611
 30
0.0
 40
0.2772
  1
 with the
 41
0.8
 51
11.0
100
AcDbText
  0
LINE
  5
863
330
19
100
AcDbEntity
  8
TitleBlock&Notes
  6
Continuous
 62
     3
100
AcDbLine
 10
67.44047649027947
 20
50.70490142536108
 30
0.0
 11
67.81667649027946
 21
50.70490142536108
 31
0.0
  0
LINE
  5
864
330
19
100
AcDbEntity
  8
TitleBlock&Notes
  6
Continuous
 62
     3
100
AcDbLine
 10
67.46027649027951
 20
50.72470142536108
 30
0.0
 11
67.79687649027948
 21
50.72470142536108
 31
0.0
  0
LINE
  5
865
330
19
100
AcDbEntity
  8
TitleBlock&Notes
  6
Continuous
 62
     3
100
AcDbLine
 10
67.4800764902795
 20
50.74450142536107
 30
0.0
 11
67.77707649027951
 21
50.74450142536107
 31
0.0
  0
LINE
  5
866
330
19
100
AcDbEntity
  8
TitleBlock&Notes
  6
Continuous
 62
     3
100
AcDbLine
 10
67.27217649027946
 20
50.84346435976109
 30
0.0
 11
67.44047649027947
 21
50.84640204616109
 31
0.0
  0
LINE
  5
867
330
19
100
AcDbEntity
  8
TitleBlock&Notes
  6
Continuous
 62
     3
100
AcDbLine
 10
67.27217649027946
 20
50.82762194416108
 30
0.0
 11
67.44047649027947
 21
50.8305596305611
 31
0.0
  0
LINE
  5
868
330
19
100
AcDbEntity
  8
TitleBlock&Notes
  6
Continuous
 62
     3
100
AcDbLine
 10
67.27217649027946
 20
50.81177952856108
 30
0.0
 11
67.44047649027947
 21
50.81471721496109
 31
0.0
  0
LINE
  5
869
330
19
100
AcDbEntity
  8
TitleBlock&Notes
  6
Continuous
 62
     3
100
AcDbLine
 10
67.27217649027946
 20
50.79593711296109
 30
0.0
 11
67.44047649027947
 21
50.79887479936109
 31
0.0
  0
LINE
  5
86A
330
19
100
AcDbEntity
  8
TitleBlock&Notes
  6
Continuous
 62
     3
100
AcDbLine
 10
67.27217649027946
 20
50.78009469736108
 30
0.0
 11
67.44047649027947
 21
50.78303238376108
 31
0.0
  0
LINE
  5
86B
330
19
100
AcDbEntity
  8
TitleBlock&Notes
  6
Continuous
 62
     3
100
AcDbLine
 10
67.27217649027946
 20
50.76425228176109
 30
0.0
 11
67.44047649027947
 21
50.76718996816108
 31
0.0
  0
LINE
  5
86C
330
19
100
AcDbEntity
  8
TitleBlock&Notes
  6
Continuous
 62
     3
100
AcDbLine
 10
67.27217649027946
 20
50.74840986616108
 30
0.0
 11
67.44047649027947
 21
50.75134755256108
 31
0.0
  0
LINE
  5
86D
330
19
100
AcDbEntity
  8
TitleBlock&Notes
  6
Continuous
 62
     3
100
AcDbLine
 10
67.27217649027946
 20
50.73256745056109
 30
0.0
 11
67.44047649027947
 21
50.73550513696108
 31
0.0
  0
LINE
  5
86E
330
19
100
AcDbEntity
  8
TitleBlock&Notes
  6
Continuous
 62
     3
100
AcDbLine
 10
67.27217649027946
 20
50.7167250349611
 30
0.0
 11
67.44047649027947
 21
50.71966272136108
 31
0.0
  0
LINE
  5
86F
330
19
100
AcDbEntity
  8
TitleBlock&Notes
  6
Continuous
 62
     3
100
AcDbLine
 10
67.81667649027946
 20
50.83712622136108
 30
0.0
 11
68.38097649027947
 21
50.8469761273611
 31
0.0
  0
LINE
  5
870
330
19
100
AcDbEntity
  8
TitleBlock&Notes
  6
Continuous
 62
     3
100
AcDbLine
 10
67.81667649027946
 20
50.82128380576109
 30
0.0
 11
68.38097649027947
 21
50.83113371176108
 31
0.0
  0
LINE
  5
871
330
19
100
AcDbEntity
  8
TitleBlock&Notes
  6
Continuous
 62
     3
100
AcDbLine
 10
67.81667649027946
 20
50.80544139016109
 30
0.0
 11
68.38097649027947
 21
50.81529129616108
 31
0.0
  0
LINE
  5
872
330
19
100
AcDbEntity
  8
TitleBlock&Notes
  6
Continuous
 62
     3
100
AcDbLine
 10
67.81667649027946
 20
50.78959897456108
 30
0.0
 11
68.38097649027947
 21
50.79944888056107
 31
0.0
  0
LINE
  5
873
330
19
100
AcDbEntity
  8
TitleBlock&Notes
  6
Continuous
 62
     3
100
AcDbLine
 10
67.81667649027946
 20
50.77375655896108
 30
0.0
 11
68.38097649027947
 21
50.78360646496108
 31
0.0
  0
LINE
  5
874
330
19
100
AcDbEntity
  8
TitleBlock&Notes
  6
Continuous
 62
     3
100
AcDbLine
 10
67.81667649027946
 20
50.75791414336108
 30
0.0
 11
68.38097649027947
 21
50.76776404936109
 31
0.0
  0
LINE
  5
875
330
19
100
AcDbEntity
  8
TitleBlock&Notes
  6
Continuous
 62
     3
100
AcDbLine
 10
67.81667649027946
 20
50.74207172776109
 30
0.0
 11
68.38097649027947
 21
50.75192163376108
 31
0.0
  0
LINE
  5
876
330
19
100
AcDbEntity
  8
TitleBlock&Notes
  6
Continuous
 62
     3
100
AcDbLine
 10
67.81667649027946
 20
50.72622935176108
 30
0.0
 11
68.38097649027947
 21
50.73607921816109
 31
0.0
  0
LINE
  5
877
330
19
100
AcDbEntity
  8
TitleBlock&Notes
  6
Continuous
 62
     3
100
AcDbLine
 10
67.81667649027946
 20
50.71038693616109
 30
0.0
 11
68.38097649027947
 21
50.72023680256108
 31
0.0
  0
LINE
  5
878
330
19
100
AcDbEntity
  8
TitleBlock&Notes
  6
Continuous
 62
     3
100
AcDbLine
 10
68.42057649027947
 20
50.74450142536107
 30
0.0
 11
68.71757649027948
 21
50.74450142536107
 31
0.0
  0
LINE
  5
879
330
19
100
AcDbEntity
  8
TitleBlock&Notes
  6
Continuous
 62
     3
100
AcDbLine
 10
68.38097649027947
 20
50.70490142536108
 30
0.0
 11
68.75717649027945
 21
50.70490142536108
 31
0.0
  0
LINE
  5
87A
330
19
100
AcDbEntity
  8
TitleBlock&Notes
  6
Continuous
 62
     3
100
AcDbLine
 10
68.73737649027948
 20
50.72470142536108
 30
0.0
 11
68.4007764902795
 21
50.72470142536108
 31
0.0
  0
LINE
  5
87B
330
19
100
AcDbEntity
  8
TitleBlock&Notes
  6
Continuous
 62
     3
100
AcDbLine
 10
63.65116979547946
 20
51.69474552016108
 30
0.0
 11
63.78498314547949
 21
51.69474552016108
 31
0.0
  0
LINE
  5
87C
330
19
100
AcDbEntity
  8
TitleBlock&Notes
  6
Continuous
 62
     3
100
AcDbLine
 10
63.64912639587951
 20
51.70375883656108
 30
0.0
 11
63.78757441107946
 21
51.7061754661611
 31
0.0
  0
LINE
  5
87D
330
19
100
AcDbEntity
  8
TitleBlock&Notes
  6
Continuous
 62
     3
100
AcDbLine
 10
63.60698843187947
 20
51.88962737656108
 30
0.0
 11
63.82916450907948
 21
51.88962737656108
 31
0.0
  0
LINE
  5
87E
330
19
100
AcDbEntity
  8
TitleBlock&Notes
  6
Continuous
 62
     3
100
AcDbLine
 10
63.60977441067952
 20
51.87733846696108
 30
0.0
 11
63.82723907787948
 21
51.88113432496109
 31
0.0
  0
LINE
  5
87F
330
19
100
AcDbEntity
  8
TitleBlock&Notes
  6
Continuous
 62
     3
100
AcDbLine
 10
63.6133518746795
 20
51.86155850056109
 30
0.0
 11
63.82363322067952
 21
51.86522898496107
 31
0.0
  0
LINE
  5
880
330
19
100
AcDbEntity
  8
TitleBlock&Notes
  6
Continuous
 62
     3
100
AcDbLine
 10
63.61692933867949
 20
51.84577853416109
 30
0.0
 11
63.82002732387949
 21
51.84932364496108
 31
0.0
  0
LINE
  5
881
330
19
100
AcDbEntity
  8
TitleBlock&Notes
  6
Continuous
 62
     3
100
AcDbLine
 10
63.62050676307951
 20
51.8299985677611
 30
0.0
 11
63.81642146667948
 21
51.83341826536109
 31
0.0
  0
LINE
  5
882
330
19
100
AcDbEntity
  8
TitleBlock&Notes
  6
Continuous
 62
     3
100
AcDbLine
 10
63.6240842270795
 20
51.81421860136109
 30
0.0
 11
63.81281556987949
 21
51.81751292536109
 31
0.0
  0
LINE
  5
883
330
19
100
AcDbEntity
  8
TitleBlock&Notes
  6
Continuous
 62
     3
100
AcDbLine
 10
63.6276616910795
 20
51.79843863496108
 30
0.0
 11
63.80920971267948
 21
51.80160758536108
 31
0.0
  0
LINE
  5
884
330
19
100
AcDbEntity
  8
TitleBlock&Notes
  6
Continuous
 62
     3
100
AcDbLine
 10
63.63123911547946
 20
51.7826586685611
 30
0.0
 11
63.80560381587949
 21
51.78570220576109
 31
0.0
  0
LINE
  5
885
330
19
100
AcDbEntity
  8
TitleBlock&Notes
  6
Continuous
 62
     3
100
AcDbLine
 10
63.63481657947946
 20
51.76687870216109
 30
0.0
 11
63.80199791907946
 21
51.76979686576109
 31
0.0
  0
LINE
  5
886
330
19
100
AcDbEntity
  8
TitleBlock&Notes
  6
Continuous
 62
     3
100
AcDbLine
 10
63.63839404347944
 20
51.75109873576108
 30
0.0
 11
63.79839206187949
 21
51.75389152576108
 31
0.0
  0
LINE
  5
887
330
19
100
AcDbEntity
  8
TitleBlock&Notes
  6
Continuous
 62
     3
100
AcDbLine
 10
63.64197146787947
 20
51.7353187693611
 30
0.0
 11
63.79478616507946
 21
51.73798614616108
 31
0.0
  0
LINE
  5
888
330
19
100
AcDbEntity
  8
TitleBlock&Notes
  6
Continuous
 62
     3
100
AcDbLine
 10
63.64554893187953
 20
51.71953880296108
 30
0.0
 11
63.79118030787952
 21
51.72208080616108
 31
0.0
  0
LINE
  5
889
330
19
100
AcDbEntity
  8
TitleBlock&Notes
  6
Continuous
 62
     3
100
AcDbLine
 10
63.58931586267951
 20
51.96758013496108
 30
0.0
 11
63.84683707827948
 21
51.96758013496108
 31
0.0
  0
LINE
  5
88A
330
19
100
AcDbEntity
  8
TitleBlock&Notes
  6
Continuous
 62
     3
100
AcDbLine
 10
63.85132589667946
 20
51.9873801349611
 30
0.0
 11
63.58482704427945
 21
51.9873801349611
 31
0.0
  0
LINE
  5
88B
330
19
100
AcDbEntity
  8
TitleBlock&Notes
  6
Continuous
 62
     3
100
AcDbLine
 10
63.57164333307947
 20
52.04553289336108
 30
0.0
 11
63.86450960787946
 21
52.04553289336108
 31
0.0
  0
LINE
  5
88C
330
19
100
AcDbEntity
  8
TitleBlock&Notes
  6
Continuous
 62
     3
100
AcDbLine
 10
63.51862570467949
 20
52.27939116856109
 30
0.0
 11
63.91752723627949
 21
52.27939116856109
 31
0.0
  0
LINE
  5
88D
330
19
100
AcDbEntity
  8
TitleBlock&Notes
  6
Continuous
 62
     3
100
AcDbLine
 10
63.50515920987949
 20
52.3387911685611
 30
0.0
 11
63.9309937310795
 21
52.3387911685611
 31
0.0
  0
LINE
  5
88E
330
19
100
AcDbEntity
  8
TitleBlock&Notes
  6
Continuous
 62
     3
100
AcDbLine
 10
63.92201609427947
 20
52.29919116856109
 30
0.0
 11
63.5141368862795
 21
52.29919116856109
 31
0.0
  0
LINE
  5
88F
330
19
100
AcDbEntity
  8
TitleBlock&Notes
  6
Continuous
 62
     3
100
AcDbLine
 10
63.9265049126795
 20
52.31899116856109
 30
0.0
 11
63.50964802827949
 21
52.31899116856109
 31
0.0
  0
LINE
  5
890
330
19
100
AcDbEntity
  8
TitleBlock&Notes
  6
Continuous
 62
     3
100
AcDbLine
 10
63.57613215147946
 20
52.02573289336109
 30
0.0
 11
63.86002078947946
 21
52.02573289336109
 31
0.0
  0
LINE
  5
891
330
19
100
AcDbEntity
  8
TitleBlock&Notes
  6
Continuous
 62
     3
100
AcDbLine
 10
63.58033822587946
 20
52.00718013496109
 30
0.0
 11
63.85581471507946
 21
52.00718013496109
 31
0.0
  0
LINE
  5
892
330
19
100
AcDbEntity
  8
TitleBlock&Notes
  6
Continuous
 62
     3
100
AcDbLine
 10
63.97354923747949
 20
52.52650142536109
 30
0.0
 11
63.71807649027949
 21
51.39962327296109
 31
0.0
  0
LINE
  5
893
330
19
100
AcDbEntity
  8
TitleBlock&Notes
  6
Continuous
 62
     3
100
AcDbLine
 10
63.98936286387947
 20
52.50670142536108
 30
0.0
 11
63.71807649027949
 21
51.31007013016109
 31
0.0
  0
LINE
  5
894
330
19
100
AcDbEntity
  8
TitleBlock&Notes
  6
Continuous
 62
     3
100
AcDbLine
 10
63.71807649027949
 20
51.22051698736109
 30
0.0
 11
64.00517649027951
 21
52.48690142536108
 31
0.0
  0
LINE
  5
898
330
19
100
AcDbEntity
  8
TitleBlock&Notes
  6
Continuous
 62
     3
100
AcDbLine
 10
63.71807649027949
 20
51.39962327296109
 30
0.0
 11
63.46260374307946
 21
52.52650142536109
 31
0.0
  0
LINE
  5
899
330
19
100
AcDbEntity
  8
TitleBlock&Notes
  6
Continuous
 62
     3
100
AcDbLine
 10
63.71807649027949
 20
51.31007013016109
 30
0.0
 11
63.44679011667949
 21
52.50670142536108
 31
0.0
  0
LINE
  5
89A
330
19
100
AcDbEntity
  8
TitleBlock&Notes
  6
Continuous
 62
     3
100
AcDbLine
 10
63.71807649027949
 20
51.22051698736109
 30
0.0
 11
63.43097649027946
 21
52.48690142536108
 31
0.0
  0
LINE
  5
89B
330
19
100
AcDbEntity
  8
TitleBlock&Notes
  6
Continuous
 62
     3
100
AcDbLine
 10
62.49858356067951
 20
51.22702896976109
 30
0.0
 11
62.93597649027947
 21
51.22702896976109
 31
0.0
  0
LINE
  5
89C
330
19
100
AcDbEntity
  8
TitleBlock&Notes
  6
Continuous
 62
     3
100
AcDbLine
 10
62.49858356067951
 20
51.21957094336109
 30
0.0
 11
62.92585306707949
 21
51.22702896976109
 31
0.0
  0
LINE
  5
89D
330
19
100
AcDbEntity
  8
TitleBlock&Notes
  6
Continuous
 62
     3
100
AcDbLine
 10
62.49858356067951
 20
51.20372852776108
 30
0.0
 11
62.93597649027947
 21
51.21136324936109
 31
0.0
  0
LINE
  5
89E
330
19
100
AcDbEntity
  8
TitleBlock&Notes
  6
Continuous
 62
     3
100
AcDbLine
 10
62.49858356067951
 20
51.18788611216109
 30
0.0
 11
62.93597649027947
 21
51.1955208337611
 31
0.0
  0
LINE
  5
89F
330
19
100
AcDbEntity
  8
TitleBlock&Notes
  6
Continuous
 62
     3
100
AcDbLine
 10
62.49858356067951
 20
51.17204369656109
 30
0.0
 11
62.93597649027947
 21
51.17967841816109
 31
0.0
  0
LINE
  5
8A0
330
19
100
AcDbEntity
  8
TitleBlock&Notes
  6
Continuous
 62
     3
100
AcDbLine
 10
62.49858356067951
 20
51.15620132056109
 30
0.0
 11
62.93597649027947
 21
51.16383604216109
 31
0.0
  0
LINE
  5
8A1
330
19
100
AcDbEntity
  8
TitleBlock&Notes
  6
Continuous
 62
     3
100
AcDbLine
 10
62.49858356067951
 20
51.14035890496109
 30
0.0
 11
62.93597649027947
 21
51.14799362656111
 31
0.0
  0
LINE
  5
8A2
330
19
100
AcDbEntity
  8
TitleBlock&Notes
  6
Continuous
 62
     3
100
AcDbLine
 10
62.49858356067951
 20
51.12451648936109
 30
0.0
 11
62.93597649027947
 21
51.13215121096108
 31
0.0
  0
LINE
  5
8A3
330
19
100
AcDbEntity
  8
TitleBlock&Notes
  6
Continuous
 62
     3
100
AcDbLine
 10
62.49858356067951
 20
51.10867407376109
 30
0.0
 11
62.93597649027947
 21
51.11630879536107
 31
0.0
  0
LINE
  5
8A4
330
19
100
AcDbEntity
  8
TitleBlock&Notes
  6
Continuous
 62
     3
100
AcDbLine
 10
62.49858356067951
 20
51.09283165816108
 30
0.0
 11
62.93597649027947
 21
51.10046637976108
 31
0.0
  0
LINE
  5
8A5
330
19
100
AcDbEntity
  8
TitleBlock&Notes
  6
Continuous
 62
     3
100
AcDbLine
 10
62.49858356067951
 20
51.07698924256109
 30
0.0
 11
62.93597649027947
 21
51.08462396416109
 31
0.0
  0
LINE
  5
8A6
330
19
100
AcDbEntity
  8
TitleBlock&Notes
  6
Continuous
 62
     3
100
AcDbLine
 10
62.49858356067951
 20
51.06114682696108
 30
0.0
 11
62.93597649027947
 21
51.06878154856108
 31
0.0
  0
LINE
  5
8A7
330
19
100
AcDbEntity
  8
TitleBlock&Notes
  6
Continuous
 62
     3
100
AcDbLine
 10
62.49858356067951
 20
51.04530441136109
 30
0.0
 11
62.93597649027947
 21
51.05293913296108
 31
0.0
  0
LINE
  5
8A8
330
19
100
AcDbEntity
  8
TitleBlock&Notes
  6
Continuous
 62
     3
100
AcDbLine
 10
62.49858356067951
 20
51.02946199576109
 30
0.0
 11
62.93597649027947
 21
51.03709671736108
 31
0.0
  0
LINE
  5
8A9
330
19
100
AcDbEntity
  8
TitleBlock&Notes
  6
Continuous
 62
     3
100
AcDbLine
 10
62.49858356067951
 20
51.01361958016109
 30
0.0
 11
62.93597649027947
 21
51.02125430176108
 31
0.0
  0
LINE
  5
8AA
330
19
100
AcDbEntity
  8
TitleBlock&Notes
  6
Continuous
 62
     3
100
AcDbLine
 10
62.49858356067951
 20
50.99777716456109
 30
0.0
 11
62.93597649027947
 21
51.0054118861611
 31
0.0
  0
LINE
  5
8AB
330
19
100
AcDbEntity
  8
TitleBlock&Notes
  6
Continuous
 62
     3
100
AcDbLine
 10
62.49858356067951
 20
50.98193474896109
 30
0.0
 11
62.93597649027947
 21
50.98956947056108
 31
0.0
  0
LINE
  5
8AC
330
19
100
AcDbEntity
  8
TitleBlock&Notes
  6
Continuous
 62
     3
100
AcDbLine
 10
62.49858356067951
 20
50.96609233336109
 30
0.0
 11
62.93597649027947
 21
50.97372705496109
 31
0.0
  0
LINE
  5
8AD
330
19
100
AcDbEntity
  8
TitleBlock&Notes
  6
Continuous
 62
     3
100
AcDbLine
 10
62.49858356067951
 20
50.95024991776107
 30
0.0
 11
62.93597649027947
 21
50.95788463936108
 31
0.0
  0
LINE
  5
8AE
330
19
100
AcDbEntity
  8
TitleBlock&Notes
  6
Continuous
 62
     3
100
AcDbLine
 10
62.49858356067951
 20
50.93440750216109
 30
0.0
 11
62.93597649027947
 21
50.94204222376109
 31
0.0
  0
LINE
  5
8AF
330
19
100
AcDbEntity
  8
TitleBlock&Notes
  6
Continuous
 62
     3
100
AcDbLine
 10
62.49858356067951
 20
50.91856512616108
 30
0.0
 11
62.93597649027947
 21
50.92619984776108
 31
0.0
  0
LINE
  5
8B0
330
19
100
AcDbEntity
  8
TitleBlock&Notes
  6
Continuous
 62
     3
100
AcDbLine
 10
62.49858356067951
 20
50.90272271056108
 30
0.0
 11
62.93597649027947
 21
50.91035743216109
 31
0.0
  0
LINE
  5
8B1
330
19
100
AcDbEntity
  8
TitleBlock&Notes
  6
Continuous
 62
     3
100
AcDbLine
 10
62.49858356067951
 20
50.88688029496108
 30
0.0
 11
62.93597649027947
 21
50.89451501656109
 31
0.0
  0
LINE
  5
8B2
330
19
100
AcDbEntity
  8
TitleBlock&Notes
  6
Continuous
 62
     3
100
AcDbLine
 10
62.49858356067951
 20
50.87103787936108
 30
0.0
 11
62.93597649027947
 21
50.87867260096109
 31
0.0
  0
LINE
  5
8B3
330
19
100
AcDbEntity
  8
TitleBlock&Notes
  6
Continuous
 62
     3
100
AcDbLine
 10
62.49858356067951
 20
50.85519546376108
 30
0.0
 11
62.93597649027947
 21
50.86283018536109
 31
0.0
  0
LINE
  5
8B4
330
19
100
AcDbEntity
  8
TitleBlock&Notes
  6
Continuous
 62
     3
100
AcDbLine
 10
62.49858356067951
 20
51.61679276176108
 30
0.0
 11
62.93597649027947
 21
51.61679276176108
 31
0.0
  0
LINE
  5
8B5
330
19
100
AcDbEntity
  8
TitleBlock&Notes
  6
Continuous
 62
     3
100
AcDbLine
 10
62.49858356067951
 20
51.69474552016108
 30
0.0
 11
62.93597649027947
 21
51.69474552016108
 31
0.0
  0
LINE
  5
8B6
330
19
100
AcDbEntity
  8
TitleBlock&Notes
  6
Continuous
 62
     3
100
AcDbLine
 10
62.49858356067951
 20
51.60095034616109
 30
0.0
 11
62.93597649027947
 21
51.60858506776108
 31
0.0
  0
LINE
  5
8B7
330
19
100
AcDbEntity
  8
TitleBlock&Notes
  6
Continuous
 62
     3
100
AcDbLine
 10
62.49858356067951
 20
51.58510793056109
 30
0.0
 11
62.93597649027947
 21
51.59274265216108
 31
0.0
  0
LINE
  5
8B8
330
19
100
AcDbEntity
  8
TitleBlock&Notes
  6
Continuous
 62
     3
100
AcDbLine
 10
62.49858356067951
 20
51.56926551496107
 30
0.0
 11
62.93597649027947
 21
51.57690023656108
 31
0.0
  0
LINE
  5
8B9
330
19
100
AcDbEntity
  8
TitleBlock&Notes
  6
Continuous
 62
     3
100
AcDbLine
 10
62.49858356067951
 20
51.55342309936108
 30
0.0
 11
62.93597649027947
 21
51.56105782096108
 31
0.0
  0
LINE
  5
8BA
330
19
100
AcDbEntity
  8
TitleBlock&Notes
  6
Continuous
 62
     3
100
AcDbLine
 10
62.49858356067951
 20
51.53758068376108
 30
0.0
 11
62.93597649027947
 21
51.54521540536109
 31
0.0
  0
LINE
  5
8BB
330
19
100
AcDbEntity
  8
TitleBlock&Notes
  6
Continuous
 62
     3
100
AcDbLine
 10
62.49858356067951
 20
51.52173826816109
 30
0.0
 11
62.93597649027947
 21
51.52937298976109
 31
0.0
  0
LINE
  5
8BC
330
19
100
AcDbEntity
  8
TitleBlock&Notes
  6
Continuous
 62
     3
100
AcDbLine
 10
62.49858356067951
 20
51.50589585256109
 30
0.0
 11
62.93597649027947
 21
51.51353057416109
 31
0.0
  0
LINE
  5
8BD
330
19
100
AcDbEntity
  8
TitleBlock&Notes
  6
Continuous
 62
     3
100
AcDbLine
 10
62.49858356067951
 20
51.49005343696108
 30
0.0
 11
62.93597649027947
 21
51.49768815856109
 31
0.0
  0
LINE
  5
8BE
330
19
100
AcDbEntity
  8
TitleBlock&Notes
  6
Continuous
 62
     3
100
AcDbLine
 10
62.49858356067951
 20
51.47421102136108
 30
0.0
 11
62.93597649027947
 21
51.48184574296109
 31
0.0
  0
LINE
  5
8BF
330
19
100
AcDbEntity
  8
TitleBlock&Notes
  6
Continuous
 62
     3
100
AcDbLine
 10
62.49858356067951
 20
51.45836860576108
 30
0.0
 11
62.93597649027947
 21
51.4660033273611
 31
0.0
  0
LINE
  5
8C0
330
19
100
AcDbEntity
  8
TitleBlock&Notes
  6
Continuous
 62
     3
100
AcDbLine
 10
62.49858356067951
 20
51.44252619016109
 30
0.0
 11
62.93597649027947
 21
51.45016091176108
 31
0.0
  0
LINE
  5
8C1
330
19
100
AcDbEntity
  8
TitleBlock&Notes
  6
Continuous
 62
     3
100
AcDbLine
 10
62.49858356067951
 20
51.42668381416108
 30
0.0
 11
62.93597649027947
 21
51.43431853576108
 31
0.0
  0
LINE
  5
8C2
330
19
100
AcDbEntity
  8
TitleBlock&Notes
  6
Continuous
 62
     3
100
AcDbLine
 10
62.49858356067951
 20
51.41084139856109
 30
0.0
 11
62.93597649027947
 21
51.41847612016109
 31
0.0
  0
LINE
  5
8C3
330
19
100
AcDbEntity
  8
TitleBlock&Notes
  6
Continuous
 62
     3
100
AcDbLine
 10
62.49858356067951
 20
51.39499898296108
 30
0.0
 11
62.93597649027947
 21
51.40263370456109
 31
0.0
  0
LINE
  5
8C4
330
19
100
AcDbEntity
  8
TitleBlock&Notes
  6
Continuous
 62
     3
100
AcDbLine
 10
62.49858356067951
 20
51.37915656736108
 30
0.0
 11
62.93597649027947
 21
51.38679128896108
 31
0.0
  0
LINE
  5
8C5
330
19
100
AcDbEntity
  8
TitleBlock&Notes
  6
Continuous
 62
     3
100
AcDbLine
 10
62.49858356067951
 20
51.36331415176108
 30
0.0
 11
62.93597649027947
 21
51.37094887336108
 31
0.0
  0
LINE
  5
8C6
330
19
100
AcDbEntity
  8
TitleBlock&Notes
  6
Continuous
 62
     3
100
AcDbLine
 10
62.49858356067951
 20
51.34747173616108
 30
0.0
 11
62.93597649027947
 21
51.35510645776108
 31
0.0
  0
LINE
  5
8C7
330
19
100
AcDbEntity
  8
TitleBlock&Notes
  6
Continuous
 62
     3
100
AcDbLine
 10
62.49858356067951
 20
51.33162932056109
 30
0.0
 11
62.93597649027947
 21
51.33926404216109
 31
0.0
  0
LINE
  5
8C8
330
19
100
AcDbEntity
  8
TitleBlock&Notes
  6
Continuous
 62
     3
100
AcDbLine
 10
62.49858356067951
 20
51.84210016936109
 30
0.0
 11
62.93597649027947
 21
51.8497348909611
 31
0.0
  0
LINE
  5
8C9
330
19
100
AcDbEntity
  8
TitleBlock&Notes
  6
Continuous
 62
     3
100
AcDbLine
 10
62.49858356067951
 20
51.82625775376109
 30
0.0
 11
62.93597649027947
 21
51.83389247536108
 31
0.0
  0
LINE
  5
8CA
330
19
100
AcDbEntity
  8
TitleBlock&Notes
  6
Continuous
 62
     3
100
AcDbLine
 10
62.49858356067951
 20
51.81041533816109
 30
0.0
 11
62.93597649027947
 21
51.81805005976109
 31
0.0
  0
LINE
  5
8CB
330
19
100
AcDbEntity
  8
TitleBlock&Notes
  6
Continuous
 62
     3
100
AcDbLine
 10
62.49858356067951
 20
51.79457292256108
 30
0.0
 11
62.93597649027947
 21
51.80220764416109
 31
0.0
  0
LINE
  5
8CC
330
19
100
AcDbEntity
  8
TitleBlock&Notes
  6
Continuous
 62
     3
100
AcDbLine
 10
62.49858356067951
 20
51.77873050696108
 30
0.0
 11
62.93597649027947
 21
51.78636522856109
 31
0.0
  0
LINE
  5
8CD
330
19
100
AcDbEntity
  8
TitleBlock&Notes
  6
Continuous
 62
     3
100
AcDbLine
 10
62.49858356067951
 20
51.76288809136107
 30
0.0
 11
62.93597649027947
 21
51.77052281296109
 31
0.0
  0
LINE
  5
8CE
330
19
100
AcDbEntity
  8
TitleBlock&Notes
  6
Continuous
 62
     3
100
AcDbLine
 10
62.49858356067951
 20
51.74704567576108
 30
0.0
 11
62.93597649027947
 21
51.75468039736109
 31
0.0
  0
LINE
  5
8CF
330
19
100
AcDbEntity
  8
TitleBlock&Notes
  6
Continuous
 62
     3
100
AcDbLine
 10
62.49858356067951
 20
51.7312032601611
 30
0.0
 11
62.93597649027947
 21
51.73883798176108
 31
0.0
  0
LINE
  5
8D0
330
19
100
AcDbEntity
  8
TitleBlock&Notes
  6
Continuous
 62
     3
100
AcDbLine
 10
62.49858356067951
 20
51.71536084456109
 30
0.0
 11
62.93597649027947
 21
51.72299556616109
 31
0.0
  0
LINE
  5
8D1
330
19
100
AcDbEntity
  8
TitleBlock&Notes
  6
Continuous
 62
     3
100
AcDbLine
 10
62.49858356067951
 20
51.69951842896109
 30
0.0
 11
62.93597649027947
 21
51.7071531505611
 31
0.0
  0
LINE
  5
8D2
330
19
100
AcDbEntity
  8
TitleBlock&Notes
  6
Continuous
 62
     3
100
AcDbLine
 10
62.49858356067951
 20
51.30498172816108
 30
0.0
 11
62.93597649027947
 21
51.30498172816108
 31
0.0
  0
LINE
  5
8D3
330
19
100
AcDbEntity
  8
TitleBlock&Notes
  6
Continuous
 62
     3
100
AcDbLine
 10
62.49858356067951
 20
51.31578690496109
 30
0.0
 11
62.93597649027947
 21
51.3234216265611
 31
0.0
  0
LINE
  5
8D4
330
19
100
AcDbEntity
  8
TitleBlock&Notes
  6
Continuous
 62
     3
100
AcDbLine
 10
62.78716650147949
 20
51.30498172816108
 30
0.0
 11
62.93597649027947
 21
51.30757921096109
 31
0.0
  0
LINE
  5
8D5
330
19
100
AcDbEntity
  8
TitleBlock&Notes
  6
Continuous
 62
     3
100
AcDbLine
 10
63.66884232507948
 20
51.61679276176108
 30
0.0
 11
63.76731061587951
 21
51.61679276176108
 31
0.0
  0
LINE
  5
8D6
330
19
100
AcDbEntity
  8
TitleBlock&Notes
  6
Continuous
 62
     3
100
AcDbLine
 10
63.67138452627949
 20
51.60557922976108
 30
0.0
 11
63.76513942707948
 21
51.60721573936108
 31
0.0
  0
LINE
  5
8D7
330
19
100
AcDbEntity
  8
TitleBlock&Notes
  6
Continuous
 62
     3
100
AcDbLine
 10
63.6749619902795
 20
51.58979926336108
 30
0.0
 11
63.76153356987947
 21
51.59131039936109
 31
0.0
  0
LINE
  5
8D8
330
19
100
AcDbEntity
  8
TitleBlock&Notes
  6
Continuous
 62
     3
100
AcDbLine
 10
63.67853941467952
 20
51.57401929696109
 30
0.0
 11
63.7579276730795
 21
51.57540501976108
 31
0.0
  0
LINE
  5
8D9
330
19
100
AcDbEntity
  8
TitleBlock&Notes
  6
Continuous
 62
     3
100
AcDbLine
 10
63.68211687867952
 20
51.55823933056108
 30
0.0
 11
63.75432181587949
 21
51.55949967976109
 31
0.0
  0
LINE
  5
8DA
330
19
100
AcDbEntity
  8
TitleBlock&Notes
  6
Continuous
 62
     3
100
AcDbLine
 10
63.6856943426795
 20
51.54245936416109
 30
0.0
 11
63.7507159190795
 21
51.54359433976108
 31
0.0
  0
LINE
  5
8DB
330
19
100
AcDbEntity
  8
TitleBlock&Notes
  6
Continuous
 62
     3
100
AcDbLine
 10
63.68927176707946
 20
51.52667939776108
 30
0.0
 11
63.7471100618795
 21
51.52768896016109
 31
0.0
  0
LINE
  5
8DC
330
19
100
AcDbEntity
  8
TitleBlock&Notes
  6
Continuous
 62
     3
100
AcDbLine
 10
63.69284923107946
 20
51.5108994313611
 30
0.0
 11
63.74350416507944
 21
51.5117836201611
 31
0.0
  0
LINE
  5
8DD
330
19
100
AcDbEntity
  8
TitleBlock&Notes
  6
Continuous
 62
     3
100
AcDbLine
 10
63.69642669507946
 20
51.49511946496108
 30
0.0
 11
63.7398983078795
 21
51.49587828016108
 31
0.0
  0
LINE
  5
8DE
330
19
100
AcDbEntity
  8
TitleBlock&Notes
  6
Continuous
 62
     3
100
AcDbLine
 10
63.70000411947948
 20
51.4793394985611
 30
0.0
 11
63.73629241107951
 21
51.47997290056108
 31
0.0
  0
LINE
  5
8DF
330
19
100
AcDbEntity
  8
TitleBlock&Notes
  6
Continuous
 62
     3
100
AcDbLine
 10
63.70358158347947
 20
51.46355953216109
 30
0.0
 11
63.7326865538795
 21
51.46406756056109
 31
0.0
  0
LINE
  5
8E0
330
19
100
AcDbEntity
  8
TitleBlock&Notes
  6
Continuous
 62
     3
100
AcDbLine
 10
63.70715904747947
 20
51.44777956576108
 30
0.0
 11
63.72908065707947
 21
51.44816222056109
 31
0.0
  0
LINE
  5
8E1
330
19
100
AcDbEntity
  8
TitleBlock&Notes
  6
Continuous
 62
     3
100
AcDbLine
 10
63.71073647187949
 20
51.43199959936108
 30
0.0
 11
63.72547476027948
 21
51.4322568409611
 31
0.0
  0
LINE
  5
8E2
330
19
100
AcDbEntity
  8
TitleBlock&Notes
  6
Continuous
 62
     3
100
AcDbLine
 10
63.71431393587947
 20
51.41621963296109
 30
0.0
 11
63.72186890307947
 21
51.41635150096108
 31
0.0
  0
LINE
  5
8E3
330
19
100
AcDbEntity
  8
TitleBlock&Notes
  6
Continuous
 62
     3
100
AcDbLine
 10
63.71789139987948
 20
51.40043966656108
 30
0.0
 11
63.71826300627948
 21
51.40044612136108
 31
0.0
  0
LINE
  5
8E4
330
19
100
AcDbEntity
  8
TitleBlock&Notes
  6
Continuous
 62
     3
100
AcDbLine
 10
63.31217649027946
 20
51.2337722557611
 30
0.0
 11
63.35668930587953
 21
51.23454924736108
 31
0.0
  0
LINE
  5
8E5
330
19
100
AcDbEntity
  8
TitleBlock&Notes
  6
Continuous
 62
     3
100
AcDbLine
 10
63.31217649027946
 20
51.21792984016109
 30
0.0
 11
63.36218226147951
 21
51.21880270336109
 31
0.0
  0
LINE
  5
8E6
330
19
100
AcDbEntity
  8
TitleBlock&Notes
  6
Continuous
 62
     3
100
AcDbLine
 10
63.31217649027946
 20
51.2020874641611
 30
0.0
 11
63.36767525667951
 21
51.20305619896107
 31
0.0
  0
LINE
  5
8E7
330
19
100
AcDbEntity
  8
TitleBlock&Notes
  6
Continuous
 62
     3
100
AcDbLine
 10
63.31217649027946
 20
51.18624504856107
 30
0.0
 11
63.3731682122795
 21
51.18730965496109
 31
0.0
  0
LINE
  5
8E8
330
19
100
AcDbEntity
  8
TitleBlock&Notes
  6
Continuous
 62
     3
100
AcDbLine
 10
63.31217649027946
 20
51.17040263296108
 30
0.0
 11
63.37866120747951
 21
51.17156311096109
 31
0.0
  0
LINE
  5
8E9
330
19
100
AcDbEntity
  8
TitleBlock&Notes
  6
Continuous
 62
     3
100
AcDbLine
 10
63.31217649027946
 20
51.15456021736108
 30
0.0
 11
63.38415416307952
 21
51.15581656696109
 31
0.0
  0
LINE
  5
8EA
330
19
100
AcDbEntity
  8
TitleBlock&Notes
  6
Continuous
 62
     3
100
AcDbLine
 10
63.31217649027946
 20
51.13871780176109
 30
0.0
 11
63.38964715827952
 21
51.14007006256108
 31
0.0
  0
LINE
  5
8EB
330
19
100
AcDbEntity
  8
TitleBlock&Notes
  6
Continuous
 62
     3
100
AcDbLine
 10
63.31217649027946
 20
51.12287538616109
 30
0.0
 11
63.39514011387951
 21
51.12432351856109
 31
0.0
  0
LINE
  5
8EC
330
19
100
AcDbEntity
  8
TitleBlock&Notes
  6
Continuous
 62
     3
100
AcDbLine
 10
63.31217649027946
 20
51.10703297056108
 30
0.0
 11
63.40063310907951
 21
51.10857697456108
 31
0.0
  0
LINE
  5
8ED
330
19
100
AcDbEntity
  8
TitleBlock&Notes
  6
Continuous
 62
     3
100
AcDbLine
 10
63.31217649027946
 20
51.36051158056109
 30
0.0
 11
63.31274550267952
 21
51.36052152016109
 31
0.0
  0
LINE
  5
8EE
330
19
100
AcDbEntity
  8
TitleBlock&Notes
  6
Continuous
 62
     3
100
AcDbLine
 10
63.31217649027946
 20
51.34466916496109
 30
0.0
 11
63.3182384582795
 21
51.34477497616107
 31
0.0
  0
LINE
  5
8EF
330
19
100
AcDbEntity
  8
TitleBlock&Notes
  6
Continuous
 62
     3
100
AcDbLine
 10
63.31217649027946
 20
51.32882674936109
 30
0.0
 11
63.32373145347951
 21
51.32902843216109
 31
0.0
  0
LINE
  5
8F0
330
19
100
AcDbEntity
  8
TitleBlock&Notes
  6
Continuous
 62
     3
100
AcDbLine
 10
63.31217649027946
 20
51.31298433376109
 30
0.0
 11
63.32922440907951
 21
51.31328188816109
 31
0.0
  0
LINE
  5
8F1
330
19
100
AcDbEntity
  8
TitleBlock&Notes
  6
Continuous
 62
     3
100
AcDbLine
 10
63.31217649027946
 20
51.29714191816108
 30
0.0
 11
63.33471740427953
 21
51.29753538376109
 31
0.0
  0
LINE
  5
8F2
330
19
100
AcDbEntity
  8
TitleBlock&Notes
  6
Continuous
 62
     3
100
AcDbLine
 10
63.31217649027946
 20
51.28129950256108
 30
0.0
 11
63.34021035987951
 21
51.28178883976108
 31
0.0
  0
LINE
  5
8F3
330
19
100
AcDbEntity
  8
TitleBlock&Notes
  6
Continuous
 62
     3
100
AcDbLine
 10
63.31217649027946
 20
51.26545708696109
 30
0.0
 11
63.34570335507951
 21
51.26604229576109
 31
0.0
  0
LINE
  5
8F4
330
19
100
AcDbEntity
  8
TitleBlock&Notes
  6
Continuous
 62
     3
100
AcDbLine
 10
63.31217649027946
 20
51.24961467136109
 30
0.0
 11
63.3511963106795
 21
51.25029579136108
 31
0.0
  0
LINE
  5
8F5
330
19
100
AcDbEntity
  8
TitleBlock&Notes
  6
Continuous
 62
     3
100
AcDbLine
 10
63.31217649027946
 20
50.93276643856109
 30
0.0
 11
63.46105585827948
 21
50.93536510936108
 31
0.0
  0
LINE
  5
8F6
330
19
100
AcDbEntity
  8
TitleBlock&Notes
  6
Continuous
 62
     3
100
AcDbLine
 10
63.31217649027946
 20
50.91692402296109
 30
0.0
 11
63.46654881387952
 21
50.91961860496109
 31
0.0
  0
LINE
  5
8F7
330
19
100
AcDbEntity
  8
TitleBlock&Notes
  6
Continuous
 62
     3
100
AcDbLine
 10
63.31217649027946
 20
50.90108160736109
 30
0.0
 11
63.47204180907947
 21
50.90387206096107
 31
0.0
  0
LINE
  5
8F8
330
19
100
AcDbEntity
  8
TitleBlock&Notes
  6
Continuous
 62
     3
100
AcDbLine
 10
63.31217649027946
 20
50.88523919176108
 30
0.0
 11
63.47753476467952
 21
50.88812551696109
 31
0.0
  0
LINE
  5
8F9
330
19
100
AcDbEntity
  8
TitleBlock&Notes
  6
Continuous
 62
     3
100
AcDbLine
 10
63.31217649027946
 20
50.86939677616108
 30
0.0
 11
63.48302775987948
 21
50.87237901256109
 31
0.0
  0
LINE
  5
8FA
330
19
100
AcDbEntity
  8
TitleBlock&Notes
  6
Continuous
 62
     3
100
AcDbLine
 10
63.31217649027946
 20
51.09119055496108
 30
0.0
 11
63.40612610427948
 21
51.09283047016109
 31
0.0
  0
LINE
  5
8FB
330
19
100
AcDbEntity
  8
TitleBlock&Notes
  6
Continuous
 62
     3
100
AcDbLine
 10
63.31217649027946
 20
51.07534813936108
 30
0.0
 11
63.41161905987952
 21
51.07708392616109
 31
0.0
  0
LINE
  5
8FC
330
19
100
AcDbEntity
  8
TitleBlock&Notes
  6
Continuous
 62
     3
100
AcDbLine
 10
63.31217649027946
 20
51.05950572376109
 30
0.0
 11
63.41711205507947
 21
51.0613373821611
 31
0.0
  0
LINE
  5
8FD
330
19
100
AcDbEntity
  8
TitleBlock&Notes
  6
Continuous
 62
     3
100
AcDbLine
 10
63.31217649027946
 20
51.0436633081611
 30
0.0
 11
63.42260501067952
 21
51.04559083816108
 31
0.0
  0
LINE
  5
8FE
330
19
100
AcDbEntity
  8
TitleBlock&Notes
  6
Continuous
 62
     3
100
AcDbLine
 10
63.31217649027946
 20
51.02782089256109
 30
0.0
 11
63.42809800587948
 21
51.02984433376109
 31
0.0
  0
LINE
  5
8FF
330
19
100
AcDbEntity
  8
TitleBlock&Notes
  6
Continuous
 62
     3
100
AcDbLine
 10
63.31217649027946
 20
51.01197847696107
 30
0.0
 11
63.43359096147951
 21
51.01409778976108
 31
0.0
  0
LINE
  5
900
330
19
100
AcDbEntity
  8
TitleBlock&Notes
  6
Continuous
 62
     3
100
AcDbLine
 10
63.31217649027946
 20
50.99613606136109
 30
0.0
 11
63.43908395667948
 21
50.99835124576108
 31
0.0
  0
LINE
  5
901
330
19
100
AcDbEntity
  8
TitleBlock&Notes
  6
Continuous
 62
     3
100
AcDbLine
 10
63.31217649027946
 20
50.98029364576109
 30
0.0
 11
63.44457691227952
 21
50.98260474136108
 31
0.0
  0
LINE
  5
902
330
19
100
AcDbEntity
  8
TitleBlock&Notes
  6
Continuous
 62
     3
100
AcDbLine
 10
63.31217649027946
 20
50.96445126976108
 30
0.0
 11
63.45006990747949
 21
50.96685819736109
 31
0.0
  0
LINE
  5
903
330
19
100
AcDbEntity
  8
TitleBlock&Notes
  6
Continuous
 62
     3
100
AcDbLine
 10
63.31217649027946
 20
50.94860885416109
 30
0.0
 11
63.45556286307951
 21
50.95111165336108
 31
0.0
  0
LINE
  5
904
330
19
100
AcDbEntity
  8
TitleBlock&Notes
  6
Continuous
 62
     3
100
AcDbLine
 10
62.93597649027947
 20
52.52650142536109
 30
0.0
 11
63.46260374307946
 21
52.52650142536109
 31
0.0
  0
LINE
  5
905
330
19
100
AcDbEntity
  8
TitleBlock&Notes
  6
Continuous
 62
     3
100
AcDbLine
 10
62.97557649027948
 20
52.48690142536108
 30
0.0
 11
63.43097649027946
 21
52.48690142536108
 31
0.0
  0
LINE
  5
906
330
19
100
AcDbEntity
  8
TitleBlock&Notes
  6
Continuous
 62
     3
100
AcDbLine
 10
63.44679011667949
 20
52.50670142536108
 30
0.0
 11
62.95577649027951
 21
52.50670142536108
 31
0.0
  0
LINE
  5
907
330
19
100
AcDbEntity
  8
TitleBlock&Notes
  6
Continuous
 62
     3
100
AcDbLine
 10
62.49858356067951
 20
51.88962737656108
 30
0.0
 11
62.93597649027947
 21
51.88962737656108
 31
0.0
  0
LINE
  5
908
330
19
100
AcDbEntity
  8
TitleBlock&Notes
  6
Continuous
 62
     3
100
AcDbLine
 10
62.49858356067951
 20
51.87378500056109
 30
0.0
 11
62.93597649027947
 21
51.88141972216108
 31
0.0
  0
LINE
  5
909
330
19
100
AcDbEntity
  8
TitleBlock&Notes
  6
Continuous
 62
     3
100
AcDbLine
 10
62.49858356067951
 20
51.85794258496109
 30
0.0
 11
62.93597649027947
 21
51.86557730656108
 31
0.0
  0
LINE
  5
90A
330
19
100
AcDbEntity
  8
TitleBlock&Notes
  6
Continuous
 62
     3
100
AcDbLine
 10
62.49858356067951
 20
52.04553289336108
 30
0.0
 11
62.93597649027947
 21
52.04553289336108
 31
0.0
  0
LINE
  5
90B
330
19
100
AcDbEntity
  8
TitleBlock&Notes
  6
Continuous
 62
     3
100
AcDbLine
 10
62.49858356067951
 20
52.27939116856109
 30
0.0
 11
62.93597649027947
 21
52.27939116856109
 31
0.0
  0
LINE
  5
90C
330
19
100
AcDbEntity
  8
TitleBlock&Notes
  6
Continuous
 62
     3
100
AcDbLine
 10
62.49858356067951
 20
52.3387911685611
 30
0.0
 11
62.93597649027947
 21
52.3387911685611
 31
0.0
  0
LINE
  5
90D
330
19
100
AcDbEntity
  8
TitleBlock&Notes
  6
Continuous
 62
     3
100
AcDbLine
 10
62.49858356067951
 20
52.31899116856109
 30
0.0
 11
62.93597649027947
 21
52.31899116856109
 31
0.0
  0
LINE
  5
90E
330
19
100
AcDbEntity
  8
TitleBlock&Notes
  6
Continuous
 62
     3
100
AcDbLine
 10
62.49858356067951
 20
52.29919116856109
 30
0.0
 11
62.93597649027947
 21
52.29919116856109
 31
0.0
  0
LINE
  5
90F
330
19
100
AcDbEntity
  8
TitleBlock&Notes
  6
Continuous
 62
     3
100
AcDbLine
 10
62.49858356067951
 20
52.02573289336109
 30
0.0
 11
62.93597649027947
 21
52.02573289336109
 31
0.0
  0
LINE
  5
910
330
19
100
AcDbEntity
  8
TitleBlock&Notes
  6
Continuous
 62
     3
100
AcDbLine
 10
62.49858356067951
 20
51.96758013496108
 30
0.0
 11
62.93597649027947
 21
51.96758013496108
 31
0.0
  0
LINE
  5
911
330
19
100
AcDbEntity
  8
TitleBlock&Notes
  6
Continuous
 62
     3
100
AcDbLine
 10
62.49858356067951
 20
51.9873801349611
 30
0.0
 11
62.93597649027947
 21
51.9873801349611
 31
0.0
  0
LINE
  5
912
330
19
100
AcDbEntity
  8
TitleBlock&Notes
  6
Continuous
 62
     3
100
AcDbLine
 10
62.49858356067951
 20
52.00593289336109
 30
0.0
 11
62.93597649027947
 21
52.00593289336109
 31
0.0
  0
LINE
  5
914
330
19
100
AcDbEntity
  8
TitleBlock&Notes
  6
Continuous
 62
     3
100
AcDbLine
 10
66.18317649027949
 20
52.48690142536108
 30
0.0
 11
66.48017649027949
 21
52.48690142536108
 31
0.0
  0
LINE
  5
915
330
19
100
AcDbEntity
  8
TitleBlock&Notes
  6
Continuous
 62
     3
100
AcDbLine
 10
66.14357649027947
 20
52.52650142536109
 30
0.0
 11
66.51977649027947
 21
52.52650142536109
 31
0.0
  0
LINE
  5
916
330
19
100
AcDbEntity
  8
TitleBlock&Notes
  6
Continuous
 62
     3
100
AcDbLine
 10
66.16337649027944
 20
52.50670142536108
 30
0.0
 11
66.49997649027949
 21
52.50670142536108
 31
0.0
  0
ARC
  5
917
330
19
100
AcDbEntity
  8
TitleBlock&Notes
  6
Continuous
 62
     3
100
AcDbCircle
 10
65.25257649027949
 20
51.23950142536108
 30
0.0
 40
0.198
100
AcDbArc
 50
180.0000046800002
 51
269.9999931700005
  0
ARC
  5
918
330
19
100
AcDbEntity
  8
TitleBlock&Notes
  6
Continuous
 62
     3
100
AcDbCircle
 10
65.25257649027949
 20
51.23950142536108
 30
0.0
 40
0.1584
100
AcDbArc
 50
180.0000052300003
 51
269.9999947700005
  0
ARC
  5
919
330
19
100
AcDbEntity
  8
TitleBlock&Notes
  6
Continuous
 62
     3
100
AcDbCircle
 10
65.25257649027949
 20
51.23950142536108
 30
0.0
 40
0.1782
100
AcDbArc
 50
180.0000046800002
 51
269.9999931700005
  0
LINE
  5
91A
330
19
100
AcDbEntity
  8
TitleBlock&Notes
  6
Continuous
 62
     3
100
AcDbLine
 10
64.71797649027947
 20
52.52650142536109
 30
0.0
 11
65.09417649027946
 21
52.52650142536109
 31
0.0
  0
LINE
  5
91B
330
19
100
AcDbEntity
  8
TitleBlock&Notes
  6
Continuous
 62
     3
100
AcDbLine
 10
64.73777649027951
 20
52.50670142536108
 30
0.0
 11
65.07437649027949
 21
52.50670142536108
 31
0.0
  0
LINE
  5
91C
330
19
100
AcDbEntity
  8
TitleBlock&Notes
  6
Continuous
 62
     3
100
AcDbLine
 10
64.75757649027951
 20
52.48690142536108
 30
0.0
 11
64.75757649027951
 21
51.23950142536108
 31
0.0
  0
LINE
  5
91D
330
19
100
AcDbEntity
  8
TitleBlock&Notes
  6
Continuous
 62
     3
100
AcDbLine
 10
65.05457649027952
 20
52.48690142536108
 30
0.0
 11
65.05457649027952
 21
51.23950138576109
 31
0.0
  0
LINE
  5
91E
330
19
100
AcDbEntity
  8
TitleBlock&Notes
  6
Continuous
 62
     3
100
AcDbLine
 10
64.71797649027947
 20
52.52650142536109
 30
0.0
 11
64.71797649027947
 21
51.23950142536108
 31
0.0
  0
LINE
  5
91F
330
19
100
AcDbEntity
  8
TitleBlock&Notes
  6
Continuous
 62
     3
100
AcDbLine
 10
64.73777649027951
 20
51.23950142536108
 30
0.0
 11
64.73777649027951
 21
52.50670142536108
 31
0.0
  0
LINE
  5
920
330
19
100
AcDbEntity
  8
TitleBlock&Notes
  6
Continuous
 62
     3
100
AcDbLine
 10
63.97824627267948
 20
50.94439272136108
 30
0.0
 11
64.12397649027951
 21
50.94693646696107
 31
0.0
  0
LINE
  5
921
330
19
100
AcDbEntity
  8
TitleBlock&Notes
  6
Continuous
 62
     3
100
AcDbLine
 10
63.96156540627951
 20
50.89657429576108
 30
0.0
 11
64.12397649027951
 21
50.89940922016109
 31
0.0
  0
LINE
  5
922
330
19
100
AcDbEntity
  8
TitleBlock&Notes
  6
Continuous
 62
     3
100
AcDbLine
 10
63.95600513067948
 20
50.8806348601611
 30
0.0
 11
64.12397649027951
 21
50.88356680456108
 31
0.0
  0
LINE
  5
923
330
19
100
AcDbEntity
  8
TitleBlock&Notes
  6
Continuous
 62
     3
100
AcDbLine
 10
63.95044485507948
 20
50.86469538496108
 30
0.0
 11
64.12397649027951
 21
50.86772438896108
 31
0.0
  0
LINE
  5
924
330
19
100
AcDbEntity
  8
TitleBlock&Notes
  6
Continuous
 62
     3
100
AcDbLine
 10
63.97268599707952
 20
50.92845324616108
 30
0.0
 11
64.12397649027951
 21
50.93109405136108
 31
0.0
  0
LINE
  5
925
330
19
100
AcDbEntity
  8
TitleBlock&Notes
  6
Continuous
 62
     3
100
AcDbLine
 10
63.9671256818795
 20
50.91251377096108
 30
0.0
 11
64.12397649027951
 21
50.91525163576109
 31
0.0
  0
LINE
  5
926
330
19
100
AcDbEntity
  8
TitleBlock&Notes
  6
Continuous
 62
     3
100
AcDbLine
 10
64.0783312730795
 20
51.23130315616108
 30
0.0
 11
64.12397649027951
 21
51.23209986856108
 31
0.0
  0
LINE
  5
927
330
19
100
AcDbEntity
  8
TitleBlock&Notes
  6
Continuous
 62
     3
100
AcDbLine
 10
64.07277099747947
 20
51.21536368096109
 30
0.0
 11
64.12397649027951
 21
51.21625745296109
 31
0.0
  0
LINE
  5
928
330
19
100
AcDbEntity
  8
TitleBlock&Notes
  6
Continuous
 62
     3
100
AcDbLine
 10
64.06721072187948
 20
51.19942420576109
 30
0.0
 11
64.12397649027951
 21
51.2004150373611
 31
0.0
  0
LINE
  5
929
330
19
100
AcDbEntity
  8
TitleBlock&Notes
  6
Continuous
 62
     3
100
AcDbLine
 10
64.06165044627951
 20
51.18348473056109
 30
0.0
 11
64.12397649027951
 21
51.18457262176109
 31
0.0
  0
LINE
  5
92A
330
19
100
AcDbEntity
  8
TitleBlock&Notes
  6
Continuous
 62
     3
100
AcDbLine
 10
64.05609017067945
 20
51.16754525536109
 30
0.0
 11
64.12397649027951
 21
51.16873024576108
 31
0.0
  0
LINE
  5
92B
330
19
100
AcDbEntity
  8
TitleBlock&Notes
  6
Continuous
 62
     3
100
AcDbLine
 10
64.05052989507947
 20
51.1516058197611
 30
0.0
 11
64.12397649027951
 21
51.15288783016109
 31
0.0
  0
LINE
  5
92C
330
19
100
AcDbEntity
  8
TitleBlock&Notes
  6
Continuous
 62
     3
100
AcDbLine
 10
64.0449696194795
 20
51.13566634456109
 30
0.0
 11
64.12397649027951
 21
51.1370454145611
 31
0.0
  0
LINE
  5
92D
330
19
100
AcDbEntity
  8
TitleBlock&Notes
  6
Continuous
 62
     3
100
AcDbLine
 10
64.03940934387946
 20
51.11972686936107
 30
0.0
 11
64.12397649027951
 21
51.12120299896108
 31
0.0
  0
LINE
  5
92E
330
19
100
AcDbEntity
  8
TitleBlock&Notes
  6
Continuous
 62
     3
100
AcDbLine
 10
64.03384906827946
 20
51.10378739416109
 30
0.0
 11
64.12397649027951
 21
51.10536058336108
 31
0.0
  0
LINE
  5
92F
330
19
100
AcDbEntity
  8
TitleBlock&Notes
  6
Continuous
 62
     3
100
AcDbLine
 10
64.02828879267949
 20
51.08784791896109
 30
0.0
 11
64.12397649027951
 21
51.08951816776109
 31
0.0
  0
LINE
  5
930
330
19
100
AcDbEntity
  8
TitleBlock&Notes
  6
Continuous
 62
     3
100
AcDbLine
 10
64.02272847747946
 20
51.07190844376109
 30
0.0
 11
64.12397649027951
 21
51.07367575216109
 31
0.0
  0
LINE
  5
931
330
19
100
AcDbEntity
  8
TitleBlock&Notes
  6
Continuous
 62
     3
100
AcDbLine
 10
64.01716820187949
 20
51.05596900816109
 30
0.0
 11
64.12397649027951
 21
51.05783333656109
 31
0.0
  0
LINE
  5
932
330
19
100
AcDbEntity
  8
TitleBlock&Notes
  6
Continuous
 62
     3
100
AcDbLine
 10
64.01160792627951
 20
51.04002953296109
 30
0.0
 11
64.12397649027951
 21
51.04199092096108
 31
0.0
  0
LINE
  5
933
330
19
100
AcDbEntity
  8
TitleBlock&Notes
  6
Continuous
 62
     3
100
AcDbLine
 10
64.00604765067948
 20
51.02409005776109
 30
0.0
 11
64.12397649027951
 21
51.02614850536108
 31
0.0
  0
LINE
  5
934
330
19
100
AcDbEntity
  8
TitleBlock&Notes
  6
Continuous
 62
     3
100
AcDbLine
 10
64.00048737507948
 20
51.00815058256109
 30
0.0
 11
64.12397649027951
 21
51.01030608976109
 31
0.0
  0
LINE
  5
935
330
19
100
AcDbEntity
  8
TitleBlock&Notes
  6
Continuous
 62
     3
100
AcDbLine
 10
63.99492709947949
 20
50.9922111073611
 30
0.0
 11
64.12397649027951
 21
50.9944636741611
 31
0.0
  0
LINE
  5
936
330
19
100
AcDbEntity
  8
TitleBlock&Notes
  6
Continuous
 62
     3
100
AcDbLine
 10
63.98936682387951
 20
50.9762716717611
 30
0.0
 11
64.12397649027951
 21
50.97862125856109
 31
0.0
  0
LINE
  5
937
330
19
100
AcDbEntity
  8
TitleBlock&Notes
  6
Continuous
 62
     3
100
AcDbLine
 10
63.98380654827947
 20
50.96033219656108
 30
0.0
 11
64.12397649027951
 21
50.96277884296109
 31
0.0
  0
LINE
  5
938
330
19
100
AcDbEntity
  8
TitleBlock&Notes
  6
Continuous
 62
     3
100
AcDbLine
 10
64.12281351747949
 20
51.35881887856108
 30
0.0
 11
64.12397649027951
 21
51.35883919336109
 31
0.0
  0
LINE
  5
939
330
19
100
AcDbEntity
  8
TitleBlock&Notes
  6
Continuous
 62
     3
100
AcDbLine
 10
64.11725324187947
 20
51.34287940336109
 30
0.0
 11
64.12397649027951
 21
51.34299677776109
 31
0.0
  0
LINE
  5
93A
330
19
100
AcDbEntity
  8
TitleBlock&Notes
  6
Continuous
 62
     3
100
AcDbLine
 10
64.11169296627949
 20
51.32693992816108
 30
0.0
 11
64.12397649027951
 21
51.32715436216109
 31
0.0
  0
LINE
  5
93B
330
19
100
AcDbEntity
  8
TitleBlock&Notes
  6
Continuous
 62
     3
100
AcDbLine
 10
64.10613269067951
 20
51.31100049256109
 30
0.0
 11
64.12397649027951
 21
51.31131194656109
 31
0.0
  0
LINE
  5
93C
330
19
100
AcDbEntity
  8
TitleBlock&Notes
  6
Continuous
 62
     3
100
AcDbLine
 10
64.10057241507946
 20
51.29506101736108
 30
0.0
 11
64.12397649027951
 21
51.29546953096109
 31
0.0
  0
LINE
  5
93D
330
19
100
AcDbEntity
  8
TitleBlock&Notes
  6
Continuous
 62
     3
100
AcDbLine
 10
64.09501213947949
 20
51.27912154216109
 30
0.0
 11
64.12397649027951
 21
51.2796271153611
 31
0.0
  0
LINE
  5
93E
330
19
100
AcDbEntity
  8
TitleBlock&Notes
  6
Continuous
 62
     3
100
AcDbLine
 10
64.0894518638795
 20
51.26318206696108
 30
0.0
 11
64.12397649027951
 21
51.26378469976108
 31
0.0
  0
LINE
  5
93F
330
19
100
AcDbEntity
  8
TitleBlock&Notes
  6
Continuous
 62
     3
100
AcDbLine
 10
64.08389158827947
 20
51.24724259176109
 30
0.0
 11
64.12397649027951
 21
51.24794228416107
 31
0.0
  0
LINE
  5
940
330
19
100
AcDbEntity
  8
TitleBlock&Notes
  6
Continuous
 62
     3
100
AcDbLine
 10
64.5001764902795
 20
50.93766064216109
 30
0.0
 11
64.80754289907949
 21
50.94302572936108
 31
0.0
  0
LINE
  5
941
330
19
100
AcDbEntity
  8
TitleBlock&Notes
  6
Continuous
 62
     3
100
AcDbLine
 10
64.5001764902795
 20
50.92181822656108
 30
0.0
 11
64.81837809267948
 21
50.92737244336108
 31
0.0
  0
LINE
  5
942
330
19
100
AcDbEntity
  8
TitleBlock&Notes
  6
Continuous
 62
     3
100
AcDbLine
 10
64.5001764902795
 20
50.90597581096108
 30
0.0
 11
64.83005878587952
 21
50.91173392816109
 31
0.0
  0
LINE
  5
943
330
19
100
AcDbEntity
  8
TitleBlock&Notes
  6
Continuous
 62
     3
100
AcDbLine
 10
64.5001764902795
 20
50.89013339536109
 30
0.0
 11
64.84265451627947
 21
50.8961113717611
 31
0.0
  0
LINE
  5
944
330
19
100
AcDbEntity
  8
TitleBlock&Notes
  6
Continuous
 62
     3
100
AcDbLine
 10
64.5001764902795
 20
50.87429097976109
 30
0.0
 11
64.85624935467949
 21
50.88050623936108
 31
0.0
  0
LINE
  5
945
330
19
100
AcDbEntity
  8
TitleBlock&Notes
  6
Continuous
 62
     3
100
AcDbLine
 10
64.5001764902795
 20
50.85844856416108
 30
0.0
 11
64.87094606307947
 21
50.86492039216109
 31
0.0
  0
LINE
  5
946
330
19
100
AcDbEntity
  8
TitleBlock&Notes
  6
Continuous
 62
     3
100
AcDbLine
 10
64.71797649027947
 20
51.22702896976109
 30
0.0
 11
64.5001764902795
 21
51.22702896976109
 31
0.0
  0
LINE
  5
947
330
19
100
AcDbEntity
  8
TitleBlock&Notes
  6
Continuous
 62
     3
100
AcDbLine
 10
64.5001764902795
 20
51.22282404376109
 30
0.0
 11
64.71798603387951
 21
51.22662596056109
 31
0.0
  0
LINE
  5
948
330
19
100
AcDbEntity
  8
TitleBlock&Notes
  6
Continuous
 62
     3
100
AcDbLine
 10
64.5001764902795
 20
51.20698166776108
 30
0.0
 11
64.71860209107948
 21
51.21079427656109
 31
0.0
  0
LINE
  5
949
330
19
100
AcDbEntity
  8
TitleBlock&Notes
  6
Continuous
 62
     3
100
AcDbLine
 10
64.5001764902795
 20
51.19113925216109
 30
0.0
 11
64.71968835867951
 21
51.1949708293611
 31
0.0
  0
LINE
  5
94A
330
19
100
AcDbEntity
  8
TitleBlock&Notes
  6
Continuous
 62
     3
100
AcDbLine
 10
64.5001764902795
 20
51.17529683656108
 30
0.0
 11
64.72124689587949
 21
51.17915561896109
 31
0.0
  0
LINE
  5
94B
330
19
100
AcDbEntity
  8
TitleBlock&Notes
  6
Continuous
 62
     3
100
AcDbLine
 10
64.5001764902795
 20
51.15945442096109
 30
0.0
 11
64.72328118747947
 21
51.16334872456109
 31
0.0
  0
LINE
  5
94C
330
19
100
AcDbEntity
  8
TitleBlock&Notes
  6
Continuous
 62
     3
100
AcDbLine
 10
64.5001764902795
 20
51.14361200536108
 30
0.0
 11
64.72579598547946
 21
51.14755018576109
 31
0.0
  0
LINE
  5
94D
330
19
100
AcDbEntity
  8
TitleBlock&Notes
  6
Continuous
 62
     3
100
AcDbLine
 10
64.5001764902795
 20
51.12776958976109
 30
0.0
 11
64.72879738827948
 21
51.13176016096108
 31
0.0
  0
LINE
  5
94E
330
19
100
AcDbEntity
  8
TitleBlock&Notes
  6
Continuous
 62
     3
100
AcDbLine
 10
64.5001764902795
 20
51.11192717416109
 30
0.0
 11
64.7322929990795
 21
51.11597876896109
 31
0.0
  0
LINE
  5
94F
330
19
100
AcDbEntity
  8
TitleBlock&Notes
  6
Continuous
 62
     3
100
AcDbLine
 10
64.5001764902795
 20
51.09608475856108
 30
0.0
 11
64.73629208427945
 21
51.10020616816107
 31
0.0
  0
LINE
  5
950
330
19
100
AcDbEntity
  8
TitleBlock&Notes
  6
Continuous
 62
     3
100
AcDbLine
 10
64.5001764902795
 20
51.08024234296109
 30
0.0
 11
64.74080557347949
 21
51.0844425565611
 31
0.0
  0
LINE
  5
951
330
19
100
AcDbEntity
  8
TitleBlock&Notes
  6
Continuous
 62
     3
100
AcDbLine
 10
64.5001764902795
 20
51.06439992736108
 30
0.0
 11
64.74584621787946
 21
51.06868813216109
 31
0.0
  0
LINE
  5
952
330
19
100
AcDbEntity
  8
TitleBlock&Notes
  6
Continuous
 62
     3
100
AcDbLine
 10
64.5001764902795
 20
51.04855751176109
 30
0.0
 11
64.75142906547947
 21
51.05294313256109
 31
0.0
  0
LINE
  5
953
330
19
100
AcDbEntity
  8
TitleBlock&Notes
  6
Continuous
 62
     3
100
AcDbLine
 10
64.5001764902795
 20
51.0327150961611
 30
0.0
 11
64.75757134227946
 21
51.03720795376109
 31
0.0
  0
LINE
  5
954
330
19
100
AcDbEntity
  8
TitleBlock&Notes
  6
Continuous
 62
     3
100
AcDbLine
 10
64.5001764902795
 20
51.01687268056109
 30
0.0
 11
64.76429312547947
 21
51.0214828729611
 31
0.0
  0
LINE
  5
955
330
19
100
AcDbEntity
  8
TitleBlock&Notes
  6
Continuous
 62
     3
100
AcDbLine
 10
64.5001764902795
 20
51.00103026496107
 30
0.0
 11
64.77161746227946
 21
51.00576828616109
 31
0.0
  0
LINE
  5
956
330
19
100
AcDbEntity
  8
TitleBlock&Notes
  6
Continuous
 62
     3
100
AcDbLine
 10
64.5001764902795
 20
50.98518784936108
 30
0.0
 11
64.77957112227952
 21
50.9900647081611
 31
0.0
  0
LINE
  5
957
330
19
100
AcDbEntity
  8
TitleBlock&Notes
  6
Continuous
 62
     3
100
AcDbLine
 10
64.5001764902795
 20
50.9693454733611
 30
0.0
 11
64.78818495387947
 21
50.97437265376107
 31
0.0
  0
LINE
  5
958
330
19
100
AcDbEntity
  8
TitleBlock&Notes
  6
Continuous
 62
     3
100
AcDbLine
 10
64.5001764902795
 20
50.95350305776108
 30
0.0
 11
64.79749491387948
 21
50.95869275656109
 31
0.0
  0
LINE
  5
959
330
19
100
AcDbEntity
  8
TitleBlock&Notes
  6
Continuous
 62
     3
100
AcDbLine
 10
64.71797649027947
 20
51.61679276176108
 30
0.0
 11
64.5001764902795
 21
51.61679276176108
 31
0.0
  0
LINE
  5
95A
330
19
100
AcDbEntity
  8
TitleBlock&Notes
  6
Continuous
 62
     3
100
AcDbLine
 10
64.71797649027947
 20
51.69474552016108
 30
0.0
 11
64.5001764902795
 21
51.69474552016108
 31
0.0
  0
LINE
  5
95B
330
19
100
AcDbEntity
  8
TitleBlock&Notes
  6
Continuous
 62
     3
100
AcDbLine
 10
64.5001764902795
 20
51.60420344656108
 30
0.0
 11
64.71797649027947
 21
51.60800516536109
 31
0.0
  0
LINE
  5
95C
330
19
100
AcDbEntity
  8
TitleBlock&Notes
  6
Continuous
 62
     3
100
AcDbLine
 10
64.5001764902795
 20
51.58836103096108
 30
0.0
 11
64.71797649027947
 21
51.59216274976109
 31
0.0
  0
LINE
  5
95D
330
19
100
AcDbEntity
  8
TitleBlock&Notes
  6
Continuous
 62
     3
100
AcDbLine
 10
64.5001764902795
 20
51.5725186153611
 30
0.0
 11
64.71797649027947
 21
51.5763203341611
 31
0.0
  0
LINE
  5
95E
330
19
100
AcDbEntity
  8
TitleBlock&Notes
  6
Continuous
 62
     3
100
AcDbLine
 10
64.5001764902795
 20
51.55667619976108
 30
0.0
 11
64.71797649027947
 21
51.56047791856107
 31
0.0
  0
LINE
  5
95F
330
19
100
AcDbEntity
  8
TitleBlock&Notes
  6
Continuous
 62
     3
100
AcDbLine
 10
64.5001764902795
 20
51.54083378416108
 30
0.0
 11
64.71797649027947
 21
51.54463550296108
 31
0.0
  0
LINE
  5
960
330
19
100
AcDbEntity
  8
TitleBlock&Notes
  6
Continuous
 62
     3
100
AcDbLine
 10
64.5001764902795
 20
51.52499136856109
 30
0.0
 11
64.71797649027947
 21
51.52879308736109
 31
0.0
  0
LINE
  5
961
330
19
100
AcDbEntity
  8
TitleBlock&Notes
  6
Continuous
 62
     3
100
AcDbLine
 10
64.5001764902795
 20
51.50914895296109
 30
0.0
 11
64.71797649027947
 21
51.51295067176108
 31
0.0
  0
LINE
  5
962
330
19
100
AcDbEntity
  8
TitleBlock&Notes
  6
Continuous
 62
     3
100
AcDbLine
 10
64.5001764902795
 20
51.49330653736108
 30
0.0
 11
64.71797649027947
 21
51.49710825616108
 31
0.0
  0
LINE
  5
963
330
19
100
AcDbEntity
  8
TitleBlock&Notes
  6
Continuous
 62
     3
100
AcDbLine
 10
64.5001764902795
 20
51.47746416136107
 30
0.0
 11
64.71797649027947
 21
51.48126584056107
 31
0.0
  0
LINE
  5
964
330
19
100
AcDbEntity
  8
TitleBlock&Notes
  6
Continuous
 62
     3
100
AcDbLine
 10
64.5001764902795
 20
51.46162174576109
 30
0.0
 11
64.71797649027947
 21
51.46542342496108
 31
0.0
  0
LINE
  5
965
330
19
100
AcDbEntity
  8
TitleBlock&Notes
  6
Continuous
 62
     3
100
AcDbLine
 10
64.5001764902795
 20
51.44577933016109
 30
0.0
 11
64.71797649027947
 21
51.44958104896108
 31
0.0
  0
LINE
  5
966
330
19
100
AcDbEntity
  8
TitleBlock&Notes
  6
Continuous
 62
     3
100
AcDbLine
 10
64.5001764902795
 20
51.42993691456109
 30
0.0
 11
64.71797649027947
 21
51.43373863336108
 31
0.0
  0
LINE
  5
967
330
19
100
AcDbEntity
  8
TitleBlock&Notes
  6
Continuous
 62
     3
100
AcDbLine
 10
64.5001764902795
 20
51.41409449896109
 30
0.0
 11
64.71797649027947
 21
51.41789621776108
 31
0.0
  0
LINE
  5
968
330
19
100
AcDbEntity
  8
TitleBlock&Notes
  6
Continuous
 62
     3
100
AcDbLine
 10
64.5001764902795
 20
51.39825208336108
 30
0.0
 11
64.71797649027947
 21
51.40205380216108
 31
0.0
  0
LINE
  5
969
330
19
100
AcDbEntity
  8
TitleBlock&Notes
  6
Continuous
 62
     3
100
AcDbLine
 10
64.5001764902795
 20
51.38240966776108
 30
0.0
 11
64.71797649027947
 21
51.3862113865611
 31
0.0
  0
LINE
  5
96A
330
19
100
AcDbEntity
  8
TitleBlock&Notes
  6
Continuous
 62
     3
100
AcDbLine
 10
64.5001764902795
 20
51.36656725216109
 30
0.0
 11
64.71797649027947
 21
51.37036897096108
 31
0.0
  0
LINE
  5
96B
330
19
100
AcDbEntity
  8
TitleBlock&Notes
  6
Continuous
 62
     3
100
AcDbLine
 10
64.5001764902795
 20
51.35072483656109
 30
0.0
 11
64.71797649027947
 21
51.35452655536109
 31
0.0
  0
LINE
  5
96C
330
19
100
AcDbEntity
  8
TitleBlock&Notes
  6
Continuous
 62
     3
100
AcDbLine
 10
64.5001764902795
 20
51.3348824209611
 30
0.0
 11
64.71797649027947
 21
51.33868413976109
 31
0.0
  0
LINE
  5
96D
330
19
100
AcDbEntity
  8
TitleBlock&Notes
  6
Continuous
 62
     3
100
AcDbLine
 10
64.5001764902795
 20
51.84535326976107
 30
0.0
 11
64.71797649027947
 21
51.84915498856109
 31
0.0
  0
LINE
  5
96E
330
19
100
AcDbEntity
  8
TitleBlock&Notes
  6
Continuous
 62
     3
100
AcDbLine
 10
64.5001764902795
 20
51.82951085416108
 30
0.0
 11
64.71797649027947
 21
51.83331257296109
 31
0.0
  0
LINE
  5
96F
330
19
100
AcDbEntity
  8
TitleBlock&Notes
  6
Continuous
 62
     3
100
AcDbLine
 10
64.5001764902795
 20
51.81366843856109
 30
0.0
 11
64.71797649027947
 21
51.81747015736108
 31
0.0
  0
LINE
  5
970
330
19
100
AcDbEntity
  8
TitleBlock&Notes
  6
Continuous
 62
     3
100
AcDbLine
 10
64.5001764902795
 20
51.79782602296108
 30
0.0
 11
64.71797649027947
 21
51.8016277417611
 31
0.0
  0
LINE
  5
971
330
19
100
AcDbEntity
  8
TitleBlock&Notes
  6
Continuous
 62
     3
100
AcDbLine
 10
64.5001764902795
 20
51.78198360736108
 30
0.0
 11
64.71797649027947
 21
51.78578532616107
 31
0.0
  0
LINE
  5
972
330
19
100
AcDbEntity
  8
TitleBlock&Notes
  6
Continuous
 62
     3
100
AcDbLine
 10
64.5001764902795
 20
51.76614119176107
 30
0.0
 11
64.71797649027947
 21
51.76994291056108
 31
0.0
  0
LINE
  5
973
330
19
100
AcDbEntity
  8
TitleBlock&Notes
  6
Continuous
 62
     3
100
AcDbLine
 10
64.5001764902795
 20
51.75029877616108
 30
0.0
 11
64.71797649027947
 21
51.75410049496109
 31
0.0
  0
LINE
  5
974
330
19
100
AcDbEntity
  8
TitleBlock&Notes
  6
Continuous
 62
     3
100
AcDbLine
 10
64.5001764902795
 20
51.7344563605611
 30
0.0
 11
64.71797649027947
 21
51.73825807936109
 31
0.0
  0
LINE
  5
975
330
19
100
AcDbEntity
  8
TitleBlock&Notes
  6
Continuous
 62
     3
100
AcDbLine
 10
64.5001764902795
 20
51.71861394496109
 30
0.0
 11
64.71797649027947
 21
51.72241566376109
 31
0.0
  0
LINE
  5
976
330
19
100
AcDbEntity
  8
TitleBlock&Notes
  6
Continuous
 62
     3
100
AcDbLine
 10
64.5001764902795
 20
51.70277156896108
 30
0.0
 11
64.71797649027947
 21
51.70657324816108
 31
0.0
  0
LINE
  5
977
330
19
100
AcDbEntity
  8
TitleBlock&Notes
  6
Continuous
 62
     3
100
AcDbLine
 10
64.71797649027947
 20
51.30498172816108
 30
0.0
 11
64.5001764902795
 21
51.30498172816108
 31
0.0
  0
LINE
  5
978
330
19
100
AcDbEntity
  8
TitleBlock&Notes
  6
Continuous
 62
     3
100
AcDbLine
 10
64.5001764902795
 20
51.31904000536109
 30
0.0
 11
64.71797649027947
 21
51.32284172416109
 31
0.0
  0
LINE
  5
979
330
19
100
AcDbEntity
  8
TitleBlock&Notes
  6
Continuous
 62
     3
100
AcDbLine
 10
64.60238896107945
 20
51.30498172816108
 30
0.0
 11
64.71797649027947
 21
51.30699930856109
 31
0.0
  0
LINE
  5
97A
330
19
100
AcDbEntity
  8
TitleBlock&Notes
  6
Continuous
 62
     3
100
AcDbLine
 10
64.46057649027949
 20
52.48690142536108
 30
0.0
 11
64.00517649027951
 21
52.48690142536108
 31
0.0
  0
LINE
  5
97B
330
19
100
AcDbEntity
  8
TitleBlock&Notes
  6
Continuous
 62
     3
100
AcDbLine
 10
64.5001764902795
 20
52.52650142536109
 30
0.0
 11
63.97354923747949
 21
52.52650142536109
 31
0.0
  0
LINE
  5
97C
330
19
100
AcDbEntity
  8
TitleBlock&Notes
  6
Continuous
 62
     3
100
AcDbLine
 10
63.98936286387947
 20
52.50670142536108
 30
0.0
 11
64.48037649027951
 21
52.50670142536108
 31
0.0
  0
LINE
  5
97D
330
19
100
AcDbEntity
  8
TitleBlock&Notes
  6
Continuous
 62
     3
100
AcDbLine
 10
64.71797649027947
 20
51.88962737656108
 30
0.0
 11
64.5001764902795
 21
51.88962737656108
 31
0.0
  0
LINE
  5
97E
330
19
100
AcDbEntity
  8
TitleBlock&Notes
  6
Continuous
 62
     3
100
AcDbLine
 10
64.5001764902795
 20
51.8770381009611
 30
0.0
 11
64.71797649027947
 21
51.88083981976109
 31
0.0
  0
LINE
  5
97F
330
19
100
AcDbEntity
  8
TitleBlock&Notes
  6
Continuous
 62
     3
100
AcDbLine
 10
64.5001764902795
 20
51.8611956853611
 30
0.0
 11
64.71797649027947
 21
51.86499740416109
 31
0.0
  0
LINE
  5
980
330
19
100
AcDbEntity
  8
TitleBlock&Notes
  6
Continuous
 62
     3
100
AcDbLine
 10
64.71797649027947
 20
51.96758013496108
 30
0.0
 11
64.5001764902795
 21
51.96758013496108
 31
0.0
  0
LINE
  5
981
330
19
100
AcDbEntity
  8
TitleBlock&Notes
  6
Continuous
 62
     3
100
AcDbLine
 10
64.71797649027947
 20
51.9873801349611
 30
0.0
 11
64.5001764902795
 21
51.9873801349611
 31
0.0
  0
LINE
  5
982
330
19
100
AcDbEntity
  8
TitleBlock&Notes
  6
Continuous
 62
     3
100
AcDbLine
 10
64.71797649027947
 20
52.04553289336108
 30
0.0
 11
64.5001764902795
 21
52.04553289336108
 31
0.0
  0
LINE
  5
983
330
19
100
AcDbEntity
  8
TitleBlock&Notes
  6
Continuous
 62
     3
100
AcDbLine
 10
64.71797649027947
 20
52.27939116856109
 30
0.0
 11
64.5001764902795
 21
52.27939116856109
 31
0.0
  0
LINE
  5
984
330
19
100
AcDbEntity
  8
TitleBlock&Notes
  6
Continuous
 62
     3
100
AcDbLine
 10
64.71797649027947
 20
52.3387911685611
 30
0.0
 11
64.5001764902795
 21
52.3387911685611
 31
0.0
  0
LINE
  5
985
330
19
100
AcDbEntity
  8
TitleBlock&Notes
  6
Continuous
 62
     3
100
AcDbLine
 10
64.71797649027947
 20
52.29919116856108
 30
0.0
 11
64.5001764902795
 21
52.29919116856108
 31
0.0
  0
LINE
  5
986
330
19
100
AcDbEntity
  8
TitleBlock&Notes
  6
Continuous
 62
     3
100
AcDbLine
 10
64.71797649027947
 20
52.31899116856109
 30
0.0
 11
64.5001764902795
 21
52.31899116856109
 31
0.0
  0
LINE
  5
987
330
19
100
AcDbEntity
  8
TitleBlock&Notes
  6
Continuous
 62
     3
100
AcDbLine
 10
64.71797649027947
 20
52.02573289336109
 30
0.0
 11
64.5001764902795
 21
52.02573289336109
 31
0.0
  0
LINE
  5
988
330
19
100
AcDbEntity
  8
TitleBlock&Notes
  6
Continuous
 62
     3
100
AcDbLine
 10
64.71797649027947
 20
52.00718013496109
 30
0.0
 11
64.5001764902795
 21
52.00718013496109
 31
0.0
  0
LINE
  5
989
330
19
100
AcDbEntity
  8
TitleBlock&Notes
  6
Continuous
 62
     3
100
AcDbLine
 10
64.75757649027951
 20
52.48690142536108
 30
0.0
 11
65.05457649027952
 21
52.48690142536108
 31
0.0
  0
LINE
  5
98A
330
19
100
AcDbEntity
  8
TitleBlock&Notes
  6
Continuous
 62
     3
100
AcDbLine
 10
65.64857649027948
 20
52.48690142536108
 30
0.0
 11
65.64857649027948
 21
51.23950138576109
 31
0.0
  0
LINE
  5
98B
330
19
100
AcDbEntity
  8
TitleBlock&Notes
  6
Continuous
 62
     3
100
AcDbLine
 10
65.6089764902795
 20
52.52650142536109
 30
0.0
 11
65.6089764902795
 21
51.23950142536108
 31
0.0
  0
LINE
  5
98C
330
19
100
AcDbEntity
  8
TitleBlock&Notes
  6
Continuous
 62
     3
100
AcDbLine
 10
65.6287764902795
 20
51.23950138576109
 30
0.0
 11
65.6287764902795
 21
52.50670142536108
 31
0.0
  0
LINE
  5
98D
330
19
100
AcDbEntity
  8
TitleBlock&Notes
  6
Continuous
 62
     3
100
AcDbLine
 10
65.94557649027947
 20
52.48690142536108
 30
0.0
 11
65.94557649027947
 21
51.23950142536108
 31
0.0
  0
LINE
  5
98E
330
19
100
AcDbEntity
  8
TitleBlock&Notes
  6
Continuous
 62
     3
100
AcDbLine
 10
65.9851764902795
 20
51.23950142536108
 30
0.0
 11
65.9851764902795
 21
52.52650142536109
 31
0.0
  0
LINE
  5
98F
330
19
100
AcDbEntity
  8
TitleBlock&Notes
  6
Continuous
 62
     3
100
AcDbLine
 10
65.96537649027952
 20
51.23950142536108
 30
0.0
 11
65.96537649027952
 21
52.50670142536108
 31
0.0
  0
LINE
  5
990
330
19
100
AcDbEntity
  8
TitleBlock&Notes
  6
Continuous
 62
     3
100
AcDbLine
 10
65.09417649027946
 20
51.23950138576109
 30
0.0
 11
65.09417649027946
 21
52.52650142536109
 31
0.0
  0
LINE
  5
991
330
19
100
AcDbEntity
  8
TitleBlock&Notes
  6
Continuous
 62
     3
100
AcDbLine
 10
65.07437649027949
 20
51.23950138576109
 30
0.0
 11
65.07437649027949
 21
52.50670142536108
 31
0.0
  0
LINE
  5
992
330
19
100
AcDbEntity
  8
TitleBlock&Notes
  6
Continuous
 62
     3
100
AcDbLine
 10
65.2525764110795
 20
51.04150142536109
 30
0.0
 11
65.45057649027949
 21
51.04150142536109
 31
0.0
  0
LINE
  5
993
330
19
100
AcDbEntity
  8
TitleBlock&Notes
  6
Continuous
 62
     3
100
AcDbLine
 10
65.45057649027949
 20
51.08110142536109
 30
0.0
 11
65.25257645067945
 21
51.08110142536109
 31
0.0
  0
LINE
  5
994
330
19
100
AcDbEntity
  8
TitleBlock&Notes
  6
Continuous
 62
     3
100
AcDbLine
 10
65.2525764110795
 20
51.06130142536108
 30
0.0
 11
65.45057649027949
 21
51.06130142536108
 31
0.0
  0
LINE
  5
995
330
19
100
AcDbEntity
  8
TitleBlock&Notes
  6
Continuous
 62
     3
100
AcDbLine
 10
65.21161745787948
 20
51.0864886093611
 30
0.0
 11
65.50741892427949
 21
51.09165185536109
 31
0.0
  0
LINE
  5
996
330
19
100
AcDbEntity
  8
TitleBlock&Notes
  6
Continuous
 62
     3
100
AcDbLine
 10
65.09417649027946
 20
51.61457175616106
 30
0.0
 11
65.22141723027949
 21
51.61679276176108
 31
0.0
  0
LINE
  5
997
330
19
100
AcDbEntity
  8
TitleBlock&Notes
  6
Continuous
 62
     3
100
AcDbLine
 10
65.60848465827951
 20
51.22702896976109
 30
0.0
 11
65.0946682826795
 21
51.22702896976109
 31
0.0
  0
LINE
  5
998
330
19
100
AcDbEntity
  8
TitleBlock&Notes
  6
Continuous
 62
     3
100
AcDbLine
 10
65.6089764902795
 20
51.30498172816108
 30
0.0
 11
65.09417649027946
 21
51.30498172816108
 31
0.0
  0
LINE
  5
999
330
19
100
AcDbEntity
  8
TitleBlock&Notes
  6
Continuous
 62
     3
100
AcDbLine
 10
65.6089764902795
 20
51.61679276176108
 30
0.0
 11
65.09417649027946
 21
51.61679276176108
 31
0.0
  0
LINE
  5
99A
330
19
100
AcDbEntity
  8
TitleBlock&Notes
  6
Continuous
 62
     3
100
AcDbLine
 10
65.6089764902795
 20
51.69474552016108
 30
0.0
 11
65.09417649027946
 21
51.69474552016108
 31
0.0
  0
LINE
  5
99B
330
19
100
AcDbEntity
  8
TitleBlock&Notes
  6
Continuous
 62
     3
100
AcDbLine
 10
65.09417649027946
 20
51.59872934056109
 30
0.0
 11
65.6089764902795
 21
51.60771521416108
 31
0.0
  0
LINE
  5
99C
330
19
100
AcDbEntity
  8
TitleBlock&Notes
  6
Continuous
 62
     3
100
AcDbLine
 10
65.09417649027946
 20
51.58288692496109
 30
0.0
 11
65.6089764902795
 21
51.59187279856108
 31
0.0
  0
LINE
  5
99D
330
19
100
AcDbEntity
  8
TitleBlock&Notes
  6
Continuous
 62
     3
100
AcDbLine
 10
65.09417649027946
 20
51.5670445093611
 30
0.0
 11
65.6089764902795
 21
51.57603038296108
 31
0.0
  0
LINE
  5
99E
330
19
100
AcDbEntity
  8
TitleBlock&Notes
  6
Continuous
 62
     3
100
AcDbLine
 10
65.09417649027946
 20
51.55120209376108
 30
0.0
 11
65.6089764902795
 21
51.56018796736109
 31
0.0
  0
LINE
  5
99F
330
19
100
AcDbEntity
  8
TitleBlock&Notes
  6
Continuous
 62
     3
100
AcDbLine
 10
65.09417649027946
 20
51.53535967816107
 30
0.0
 11
65.6089764902795
 21
51.54434555176108
 31
0.0
  0
LINE
  5
9A0
330
19
100
AcDbEntity
  8
TitleBlock&Notes
  6
Continuous
 62
     3
100
AcDbLine
 10
65.09417649027946
 20
51.51951726256108
 30
0.0
 11
65.6089764902795
 21
51.52850313616109
 31
0.0
  0
LINE
  5
9A1
330
19
100
AcDbEntity
  8
TitleBlock&Notes
  6
Continuous
 62
     3
100
AcDbLine
 10
65.09417649027946
 20
51.50367484696109
 30
0.0
 11
65.6089764902795
 21
51.51266072056109
 31
0.0
  0
LINE
  5
9A2
330
19
100
AcDbEntity
  8
TitleBlock&Notes
  6
Continuous
 62
     3
100
AcDbLine
 10
65.09417649027946
 20
51.48783243136108
 30
0.0
 11
65.6089764902795
 21
51.49681830496109
 31
0.0
  0
LINE
  5
9A3
330
19
100
AcDbEntity
  8
TitleBlock&Notes
  6
Continuous
 62
     3
100
AcDbLine
 10
65.09417649027946
 20
51.47199005536108
 30
0.0
 11
65.6089764902795
 21
51.48097588936109
 31
0.0
  0
LINE
  5
9A4
330
19
100
AcDbEntity
  8
TitleBlock&Notes
  6
Continuous
 62
     3
100
AcDbLine
 10
65.09417649027946
 20
51.45614763976109
 30
0.0
 11
65.6089764902795
 21
51.46513347376108
 31
0.0
  0
LINE
  5
9A5
330
19
100
AcDbEntity
  8
TitleBlock&Notes
  6
Continuous
 62
     3
100
AcDbLine
 10
65.09417649027946
 20
51.44030522416109
 30
0.0
 11
65.6089764902795
 21
51.44929109776107
 31
0.0
  0
LINE
  5
9A6
330
19
100
AcDbEntity
  8
TitleBlock&Notes
  6
Continuous
 62
     3
100
AcDbLine
 10
65.09417649027946
 20
51.4244628085611
 30
0.0
 11
65.6089764902795
 21
51.43344868216108
 31
0.0
  0
LINE
  5
9A7
330
19
100
AcDbEntity
  8
TitleBlock&Notes
  6
Continuous
 62
     3
100
AcDbLine
 10
65.09417649027946
 20
51.40862039296108
 30
0.0
 11
65.6089764902795
 21
51.41760626656108
 31
0.0
  0
LINE
  5
9A8
330
19
100
AcDbEntity
  8
TitleBlock&Notes
  6
Continuous
 62
     3
100
AcDbLine
 10
65.09417649027946
 20
51.39277797736108
 30
0.0
 11
65.6089764902795
 21
51.40176385096108
 31
0.0
  0
LINE
  5
9A9
330
19
100
AcDbEntity
  8
TitleBlock&Notes
  6
Continuous
 62
     3
100
AcDbLine
 10
65.09417649027946
 20
51.37693556176109
 30
0.0
 11
65.6089764902795
 21
51.38592143536108
 31
0.0
  0
LINE
  5
9AA
330
19
100
AcDbEntity
  8
TitleBlock&Notes
  6
Continuous
 62
     3
100
AcDbLine
 10
65.09417649027946
 20
51.36109314616109
 30
0.0
 11
65.6089764902795
 21
51.37007901976108
 31
0.0
  0
LINE
  5
9AB
330
19
100
AcDbEntity
  8
TitleBlock&Notes
  6
Continuous
 62
     3
100
AcDbLine
 10
65.09417649027946
 20
51.34525073056108
 30
0.0
 11
65.6089764902795
 21
51.35423660416108
 31
0.0
  0
LINE
  5
9AC
330
19
100
AcDbEntity
  8
TitleBlock&Notes
  6
Continuous
 62
     3
100
AcDbLine
 10
65.09417649027946
 20
51.32940831496108
 30
0.0
 11
65.6089764902795
 21
51.33839418856109
 31
0.0
  0
LINE
  5
9AD
330
19
100
AcDbEntity
  8
TitleBlock&Notes
  6
Continuous
 62
     3
100
AcDbLine
 10
65.09417649027946
 20
51.31356589936108
 30
0.0
 11
65.6089764902795
 21
51.32255177296109
 31
0.0
  0
LINE
  5
9AE
330
19
100
AcDbEntity
  8
TitleBlock&Notes
  6
Continuous
 62
     3
100
AcDbLine
 10
65.09417649027946
 20
51.83987916376107
 30
0.0
 11
65.6089764902795
 21
51.84886503736108
 31
0.0
  0
LINE
  5
9AF
330
19
100
AcDbEntity
  8
TitleBlock&Notes
  6
Continuous
 62
     3
100
AcDbLine
 10
65.09417649027946
 20
51.82403674816107
 30
0.0
 11
65.6089764902795
 21
51.83302262176109
 31
0.0
  0
LINE
  5
9B0
330
19
100
AcDbEntity
  8
TitleBlock&Notes
  6
Continuous
 62
     3
100
AcDbLine
 10
65.09417649027946
 20
51.80819433256108
 30
0.0
 11
65.6089764902795
 21
51.81718020616108
 31
0.0
  0
LINE
  5
9B1
330
19
100
AcDbEntity
  8
TitleBlock&Notes
  6
Continuous
 62
     3
100
AcDbLine
 10
65.09417649027946
 20
51.79235191696108
 30
0.0
 11
65.6089764902795
 21
51.80133779056109
 31
0.0
  0
LINE
  5
9B2
330
19
100
AcDbEntity
  8
TitleBlock&Notes
  6
Continuous
 62
     3
100
AcDbLine
 10
65.09417649027946
 20
51.77650950136109
 30
0.0
 11
65.6089764902795
 21
51.78549537496109
 31
0.0
  0
LINE
  5
9B3
330
19
100
AcDbEntity
  8
TitleBlock&Notes
  6
Continuous
 62
     3
100
AcDbLine
 10
65.09417649027946
 20
51.76066708576108
 30
0.0
 11
65.6089764902795
 21
51.76965295936108
 31
0.0
  0
LINE
  5
9B4
330
19
100
AcDbEntity
  8
TitleBlock&Notes
  6
Continuous
 62
     3
100
AcDbLine
 10
65.09417649027946
 20
51.74482467016108
 30
0.0
 11
65.6089764902795
 21
51.75381054376109
 31
0.0
  0
LINE
  5
9B5
330
19
100
AcDbEntity
  8
TitleBlock&Notes
  6
Continuous
 62
     3
100
AcDbLine
 10
65.09417649027946
 20
51.72898225456108
 30
0.0
 11
65.6089764902795
 21
51.73796812816108
 31
0.0
  0
LINE
  5
9B6
330
19
100
AcDbEntity
  8
TitleBlock&Notes
  6
Continuous
 62
     3
100
AcDbLine
 10
65.09417649027946
 20
51.71313983896109
 30
0.0
 11
65.6089764902795
 21
51.7221257125611
 31
0.0
  0
LINE
  5
9B7
330
19
100
AcDbEntity
  8
TitleBlock&Notes
  6
Continuous
 62
     3
100
AcDbLine
 10
65.09417649027946
 20
51.69729746296107
 30
0.0
 11
65.6089764902795
 21
51.7062832969611
 31
0.0
  0
LINE
  5
9B8
330
19
100
AcDbEntity
  8
TitleBlock&Notes
  6
Continuous
 62
     3
100
AcDbLine
 10
65.09672122587947
 20
51.21122239216109
 30
0.0
 11
65.60778912387952
 21
51.22014312376109
 31
0.0
  0
LINE
  5
9B9
330
19
100
AcDbEntity
  8
TitleBlock&Notes
  6
Continuous
 62
     3
100
AcDbLine
 10
65.10042667707947
 20
51.19544464336108
 30
0.0
 11
65.60500461027952
 21
51.20425207936108
 31
0.0
  0
LINE
  5
9BA
330
19
100
AcDbEntity
  8
TitleBlock&Notes
  6
Continuous
 62
     3
100
AcDbLine
 10
65.1058996742795
 20
51.17969778256107
 30
0.0
 11
65.60048351787948
 21
51.18833078056109
 31
0.0
  0
LINE
  5
9BB
330
19
100
AcDbEntity
  8
TitleBlock&Notes
  6
Continuous
 62
     3
100
AcDbLine
 10
65.11333619787952
 20
51.16398517576109
 30
0.0
 11
65.59405033947948
 21
51.1723760593611
 31
0.0
  0
LINE
  5
9BC
330
19
100
AcDbEntity
  8
TitleBlock&Notes
  6
Continuous
 62
     3
100
AcDbLine
 10
65.1230576414795
 20
51.14831244616108
 30
0.0
 11
65.58541666827951
 21
51.15638296576108
 31
0.0
  0
LINE
  5
9BD
330
19
100
AcDbEntity
  8
TitleBlock&Notes
  6
Continuous
 62
     3
100
AcDbLine
 10
65.13560771307948
 20
51.13268909776109
 30
0.0
 11
65.57410045347952
 21
51.14034302536109
 31
0.0
  0
LINE
  5
9BE
330
19
100
AcDbEntity
  8
TitleBlock&Notes
  6
Continuous
 62
     3
100
AcDbLine
 10
65.15199581667946
 20
51.11713275256109
 30
0.0
 11
65.55923009907947
 21
51.12424103176109
 31
0.0
  0
LINE
  5
9BF
330
19
100
AcDbEntity
  8
TitleBlock&Notes
  6
Continuous
 62
     3
100
AcDbLine
 10
65.17449534867944
 20
51.10168305016109
 30
0.0
 11
65.53894880067947
 21
51.10804463176108
 31
0.0
  0
ARC
  5
9C0
330
19
100
AcDbEntity
  8
TitleBlock&Notes
  6
Continuous
 62
     3
100
AcDbCircle
 10
65.45057649027949
 20
51.23950142536108
 30
0.0
 40
0.198
100
AcDbArc
 50
270.0000000000008
 51
359.9999953200009
  0
ARC
  5
9C1
330
19
100
AcDbEntity
  8
TitleBlock&Notes
  6
Continuous
 62
     3
100
AcDbCircle
 10
65.45057649027949
 20
51.23950142536108
 30
0.0
 40
0.1584
100
AcDbArc
 50
270.0000000000008
 51
0.0000000000008142
  0
LINE
  5
9C2
330
19
100
AcDbEntity
  8
TitleBlock&Notes
  6
Continuous
 62
     3
100
AcDbLine
 10
65.51000017107947
 20
51.30498172816108
 30
0.0
 11
65.6089764902795
 21
51.30670935736109
 31
0.0
  0
ARC
  5
9C3
330
19
100
AcDbEntity
  8
TitleBlock&Notes
  6
Continuous
 62
     3
100
AcDbCircle
 10
65.45057649027949
 20
51.23950142536108
 30
0.0
 40
0.1782
100
AcDbArc
 50
270.0000000000008
 51
359.9999953200009
  0
LINE
  5
9C4
330
19
100
AcDbEntity
  8
TitleBlock&Notes
  6
Continuous
 62
     3
100
AcDbLine
 10
65.8975405814795
 20
50.94620929216109
 30
0.0
 11
66.14357649027947
 21
50.95050387256109
 31
0.0
  0
LINE
  5
9C5
330
19
100
AcDbEntity
  8
TitleBlock&Notes
  6
Continuous
 62
     3
100
AcDbLine
 10
65.88659811147952
 20
50.93017588576109
 30
0.0
 11
66.14357649027947
 21
50.93466145696109
 31
0.0
  0
LINE
  5
9C6
330
19
100
AcDbEntity
  8
TitleBlock&Notes
  6
Continuous
 62
     3
100
AcDbLine
 10
65.87475628587951
 20
50.91412675816108
 30
0.0
 11
66.14357649027947
 21
50.91881904136108
 31
0.0
  0
LINE
  5
9C7
330
19
100
AcDbEntity
  8
TitleBlock&Notes
  6
Continuous
 62
     3
100
AcDbLine
 10
65.86193436027945
 20
50.89806056296108
 30
0.0
 11
66.14357649027947
 21
50.90297662576108
 31
0.0
  0
LINE
  5
9C8
330
19
100
AcDbEntity
  8
TitleBlock&Notes
  6
Continuous
 62
     3
100
AcDbLine
 10
65.84803388907949
 20
50.88197551816108
 30
0.0
 11
66.14357649027947
 21
50.88713421016108
 31
0.0
  0
LINE
  5
9C9
330
19
100
AcDbEntity
  8
TitleBlock&Notes
  6
Continuous
 62
     3
100
AcDbLine
 10
65.83293278547944
 20
50.86586948536108
 30
0.0
 11
66.14357649027947
 21
50.87129179456109
 31
0.0
  0
LINE
  5
9CA
330
19
100
AcDbEntity
  8
TitleBlock&Notes
  6
Continuous
 62
     3
100
AcDbLine
 10
65.9076505406795
 20
50.96222816536109
 30
0.0
 11
66.14357649027947
 21
50.96634628816109
 31
0.0
  0
LINE
  5
9CB
330
19
100
AcDbEntity
  8
TitleBlock&Notes
  6
Continuous
 62
     3
100
AcDbLine
 10
66.14357649027947
 20
51.22702896976109
 30
0.0
 11
65.98503096027949
 21
51.22702896976109
 31
0.0
  0
LINE
  5
9CC
330
19
100
AcDbEntity
  8
TitleBlock&Notes
  6
Continuous
 62
     3
100
AcDbLine
 10
65.98470489387951
 20
51.21705178936108
 30
0.0
 11
66.14357649027947
 21
51.21982489816108
 31
0.0
  0
LINE
  5
9CD
330
19
100
AcDbEntity
  8
TitleBlock&Notes
  6
Continuous
 62
     3
100
AcDbLine
 10
65.98380221187946
 20
51.20119361296108
 30
0.0
 11
66.14357649027947
 21
51.20398248256108
 31
0.0
  0
LINE
  5
9CE
330
19
100
AcDbEntity
  8
TitleBlock&Notes
  6
Continuous
 62
     3
100
AcDbLine
 10
65.98242448827952
 20
51.18532716016109
 30
0.0
 11
66.14357649027947
 21
51.18814006696108
 31
0.0
  0
LINE
  5
9CF
330
19
100
AcDbEntity
  8
TitleBlock&Notes
  6
Continuous
 62
     3
100
AcDbLine
 10
65.98056732747949
 20
51.16945231216109
 30
0.0
 11
66.14357649027947
 21
51.17229765136109
 31
0.0
  0
LINE
  5
9D0
330
19
100
AcDbEntity
  8
TitleBlock&Notes
  6
Continuous
 62
     3
100
AcDbLine
 10
65.97822482907947
 20
51.1535690293611
 30
0.0
 11
66.14357649027947
 21
51.15645523576109
 31
0.0
  0
LINE
  5
9D1
330
19
100
AcDbEntity
  8
TitleBlock&Notes
  6
Continuous
 62
     3
100
AcDbLine
 10
65.97538974627949
 20
51.13767711376109
 30
0.0
 11
66.14357649027947
 21
51.14061282016109
 31
0.0
  0
LINE
  5
9D2
330
19
100
AcDbEntity
  8
TitleBlock&Notes
  6
Continuous
 62
     3
100
AcDbLine
 10
65.97205320867951
 20
51.12177644656108
 30
0.0
 11
66.14357649027947
 21
51.12477040456108
 31
0.0
  0
LINE
  5
9D3
330
19
100
AcDbEntity
  8
TitleBlock&Notes
  6
Continuous
 62
     3
100
AcDbLine
 10
65.96820468267949
 20
51.10586686936109
 30
0.0
 11
66.14357649027947
 21
51.10892798896109
 31
0.0
  0
LINE
  5
9D4
330
19
100
AcDbEntity
  8
TitleBlock&Notes
  6
Continuous
 62
     3
100
AcDbLine
 10
65.96383173387948
 20
51.08994814456109
 30
0.0
 11
66.14357649027947
 21
51.0930855733611
 31
0.0
  0
LINE
  5
9D5
330
19
100
AcDbEntity
  8
TitleBlock&Notes
  6
Continuous
 62
     3
100
AcDbLine
 10
65.95891990827948
 20
51.07401999496108
 30
0.0
 11
66.14357649027947
 21
51.0772431577611
 31
0.0
  0
LINE
  5
9D6
330
19
100
AcDbEntity
  8
TitleBlock&Notes
  6
Continuous
 62
     3
100
AcDbLine
 10
65.9534524154795
 20
51.05808214336109
 30
0.0
 11
66.14357649027947
 21
51.06140074216108
 31
0.0
  0
LINE
  5
9D7
330
19
100
AcDbEntity
  8
TitleBlock&Notes
  6
Continuous
 62
     3
100
AcDbLine
 10
65.94740981187951
 20
51.04213423336108
 30
0.0
 11
66.14357649027947
 21
51.04555836616108
 31
0.0
  0
LINE
  5
9D8
330
19
100
AcDbEntity
  8
TitleBlock&Notes
  6
Continuous
 62
     3
100
AcDbLine
 10
65.94076968387946
 20
51.02617594816108
 30
0.0
 11
66.14357649027947
 21
51.02971595056108
 31
0.0
  0
LINE
  5
9D9
330
19
100
AcDbEntity
  8
TitleBlock&Notes
  6
Continuous
 62
     3
100
AcDbLine
 10
65.9335061726795
 20
51.01020673336108
 30
0.0
 11
66.14357649027947
 21
51.01387353496109
 31
0.0
  0
LINE
  5
9DA
330
19
100
AcDbEntity
  8
TitleBlock&Notes
  6
Continuous
 62
     3
100
AcDbLine
 10
65.92558930107952
 20
50.99422611376109
 30
0.0
 11
66.14357649027947
 21
50.99803111936108
 31
0.0
  0
LINE
  5
9DB
330
19
100
AcDbEntity
  8
TitleBlock&Notes
  6
Continuous
 62
     3
100
AcDbLine
 10
65.91698430027948
 20
50.97823353496109
 30
0.0
 11
66.14357649027947
 21
50.98218870376108
 31
0.0
  0
LINE
  5
9DC
330
19
100
AcDbEntity
  8
TitleBlock&Notes
  6
Continuous
 62
     3
100
AcDbLine
 10
66.14357649027947
 20
51.61679276176108
 30
0.0
 11
65.9851764902795
 21
51.61679276176108
 31
0.0
  0
LINE
  5
9DD
330
19
100
AcDbEntity
  8
TitleBlock&Notes
  6
Continuous
 62
     3
100
AcDbLine
 10
66.14357649027947
 20
51.69474552016108
 30
0.0
 11
65.9851764902795
 21
51.69474552016108
 31
0.0
  0
LINE
  5
9DE
330
19
100
AcDbEntity
  8
TitleBlock&Notes
  6
Continuous
 62
     3
100
AcDbLine
 10
65.9851764902795
 20
51.61428180496108
 30
0.0
 11
66.1290284798795
 21
51.61679276176108
 31
0.0
  0
LINE
  5
9DF
330
19
100
AcDbEntity
  8
TitleBlock&Notes
  6
Continuous
 62
     3
100
AcDbLine
 10
65.9851764902795
 20
51.59843938936109
 30
0.0
 11
66.14357649027947
 21
51.60120426136109
 31
0.0
  0
LINE
  5
9E0
330
19
100
AcDbEntity
  8
TitleBlock&Notes
  6
Continuous
 62
     3
100
AcDbLine
 10
65.9851764902795
 20
51.58259697376109
 30
0.0
 11
66.14357649027947
 21
51.58536184576108
 31
0.0
  0
LINE
  5
9E1
330
19
100
AcDbEntity
  8
TitleBlock&Notes
  6
Continuous
 62
     3
100
AcDbLine
 10
65.9851764902795
 20
51.56675455816108
 30
0.0
 11
66.14357649027947
 21
51.56951943016109
 31
0.0
  0
LINE
  5
9E2
330
19
100
AcDbEntity
  8
TitleBlock&Notes
  6
Continuous
 62
     3
100
AcDbLine
 10
65.9851764902795
 20
51.55091214256109
 30
0.0
 11
66.14357649027947
 21
51.5536770541611
 31
0.0
  0
LINE
  5
9E3
330
19
100
AcDbEntity
  8
TitleBlock&Notes
  6
Continuous
 62
     3
100
AcDbLine
 10
65.9851764902795
 20
51.53506972696109
 30
0.0
 11
66.14357649027947
 21
51.53783463856107
 31
0.0
  0
LINE
  5
9E4
330
19
100
AcDbEntity
  8
TitleBlock&Notes
  6
Continuous
 62
     3
100
AcDbLine
 10
65.9851764902795
 20
51.51922731136109
 30
0.0
 11
66.14357649027947
 21
51.52199222296108
 31
0.0
  0
LINE
  5
9E5
330
19
100
AcDbEntity
  8
TitleBlock&Notes
  6
Continuous
 62
     3
100
AcDbLine
 10
65.9851764902795
 20
51.50338489576109
 30
0.0
 11
66.14357649027947
 21
51.50614980736108
 31
0.0
  0
LINE
  5
9E6
330
19
100
AcDbEntity
  8
TitleBlock&Notes
  6
Continuous
 62
     3
100
AcDbLine
 10
65.9851764902795
 20
51.48754251976107
 30
0.0
 11
66.14357649027947
 21
51.49030739176109
 31
0.0
  0
LINE
  5
9E7
330
19
100
AcDbEntity
  8
TitleBlock&Notes
  6
Continuous
 62
     3
100
AcDbLine
 10
65.9851764902795
 20
51.47170010416108
 30
0.0
 11
66.14357649027947
 21
51.47446497616108
 31
0.0
  0
LINE
  5
9E8
330
19
100
AcDbEntity
  8
TitleBlock&Notes
  6
Continuous
 62
     3
100
AcDbLine
 10
65.9851764902795
 20
51.45585768856109
 30
0.0
 11
66.14357649027947
 21
51.45862256056108
 31
0.0
  0
LINE
  5
9E9
330
19
100
AcDbEntity
  8
TitleBlock&Notes
  6
Continuous
 62
     3
100
AcDbLine
 10
65.9851764902795
 20
51.44001527296108
 30
0.0
 11
66.14357649027947
 21
51.44278014496109
 31
0.0
  0
LINE
  5
9EA
330
19
100
AcDbEntity
  8
TitleBlock&Notes
  6
Continuous
 62
     3
100
AcDbLine
 10
65.9851764902795
 20
51.42417285736108
 30
0.0
 11
66.14357649027947
 21
51.42693772936109
 31
0.0
  0
LINE
  5
9EB
330
19
100
AcDbEntity
  8
TitleBlock&Notes
  6
Continuous
 62
     3
100
AcDbLine
 10
65.9851764902795
 20
51.40833044176108
 30
0.0
 11
66.14357649027947
 21
51.41109531376109
 31
0.0
  0
LINE
  5
9EC
330
19
100
AcDbEntity
  8
TitleBlock&Notes
  6
Continuous
 62
     3
100
AcDbLine
 10
65.9851764902795
 20
51.39248802616108
 30
0.0
 11
66.14357649027947
 21
51.39525289816109
 31
0.0
  0
LINE
  5
9ED
330
19
100
AcDbEntity
  8
TitleBlock&Notes
  6
Continuous
 62
     3
100
AcDbLine
 10
65.9851764902795
 20
51.3766456105611
 30
0.0
 11
66.14357649027947
 21
51.37941048256109
 31
0.0
  0
LINE
  5
9EE
330
19
100
AcDbEntity
  8
TitleBlock&Notes
  6
Continuous
 62
     3
100
AcDbLine
 10
65.9851764902795
 20
51.36080319496109
 30
0.0
 11
66.14357649027947
 21
51.36356806696108
 31
0.0
  0
LINE
  5
9EF
330
19
100
AcDbEntity
  8
TitleBlock&Notes
  6
Continuous
 62
     3
100
AcDbLine
 10
65.9851764902795
 20
51.34496077936109
 30
0.0
 11
66.14357649027947
 21
51.34772565136109
 31
0.0
  0
LINE
  5
9F0
330
19
100
AcDbEntity
  8
TitleBlock&Notes
  6
Continuous
 62
     3
100
AcDbLine
 10
65.9851764902795
 20
51.32911836376109
 30
0.0
 11
66.14357649027947
 21
51.33188323576109
 31
0.0
  0
LINE
  5
9F1
330
19
100
AcDbEntity
  8
TitleBlock&Notes
  6
Continuous
 62
     3
100
AcDbLine
 10
65.9851764902795
 20
51.83958921256109
 30
0.0
 11
66.14357649027947
 21
51.84235408456109
 31
0.0
  0
LINE
  5
9F2
330
19
100
AcDbEntity
  8
TitleBlock&Notes
  6
Continuous
 62
     3
100
AcDbLine
 10
65.9851764902795
 20
51.82374679696109
 30
0.0
 11
66.14357649027947
 21
51.82651166896109
 31
0.0
  0
LINE
  5
9F3
330
19
100
AcDbEntity
  8
TitleBlock&Notes
  6
Continuous
 62
     3
100
AcDbLine
 10
65.9851764902795
 20
51.80790438136108
 30
0.0
 11
66.14357649027947
 21
51.81066925336108
 31
0.0
  0
LINE
  5
9F4
330
19
100
AcDbEntity
  8
TitleBlock&Notes
  6
Continuous
 62
     3
100
AcDbLine
 10
65.9851764902795
 20
51.79206196576108
 30
0.0
 11
66.14357649027947
 21
51.79482683776109
 31
0.0
  0
LINE
  5
9F5
330
19
100
AcDbEntity
  8
TitleBlock&Notes
  6
Continuous
 62
     3
100
AcDbLine
 10
65.9851764902795
 20
51.77621955016109
 30
0.0
 11
66.14357649027947
 21
51.7789844221611
 31
0.0
  0
LINE
  5
9F6
330
19
100
AcDbEntity
  8
TitleBlock&Notes
  6
Continuous
 62
     3
100
AcDbLine
 10
65.9851764902795
 20
51.7603771345611
 30
0.0
 11
66.14357649027947
 21
51.76314204616108
 31
0.0
  0
LINE
  5
9F7
330
19
100
AcDbEntity
  8
TitleBlock&Notes
  6
Continuous
 62
     3
100
AcDbLine
 10
65.9851764902795
 20
51.74453471896109
 30
0.0
 11
66.14357649027947
 21
51.74729963056108
 31
0.0
  0
LINE
  5
9F8
330
19
100
AcDbEntity
  8
TitleBlock&Notes
  6
Continuous
 62
     3
100
AcDbLine
 10
65.9851764902795
 20
51.72869230336109
 30
0.0
 11
66.14357649027947
 21
51.73145721496108
 31
0.0
  0
LINE
  5
9F9
330
19
100
AcDbEntity
  8
TitleBlock&Notes
  6
Continuous
 62
     3
100
AcDbLine
 10
65.9851764902795
 20
51.71284992736108
 30
0.0
 11
66.14357649027947
 21
51.71561479936109
 31
0.0
  0
LINE
  5
9FA
330
19
100
AcDbEntity
  8
TitleBlock&Notes
  6
Continuous
 62
     3
100
AcDbLine
 10
65.9851764902795
 20
51.69700751176108
 30
0.0
 11
66.14357649027947
 21
51.69977238376109
 31
0.0
  0
LINE
  5
9FB
330
19
100
AcDbEntity
  8
TitleBlock&Notes
  6
Continuous
 62
     3
100
AcDbLine
 10
66.14357649027947
 20
51.30498172816108
 30
0.0
 11
65.9851764902795
 21
51.30498172816108
 31
0.0
  0
LINE
  5
9FC
330
19
100
AcDbEntity
  8
TitleBlock&Notes
  6
Continuous
 62
     3
100
AcDbLine
 10
65.9851764902795
 20
51.31327594816109
 30
0.0
 11
66.14357649027947
 21
51.31604085976109
 31
0.0
  0
LINE
  5
9FD
330
19
100
AcDbEntity
  8
TitleBlock&Notes
  6
Continuous
 62
     3
100
AcDbLine
 10
65.94557649027947
 20
52.48690142536108
 30
0.0
 11
65.64857649027948
 21
52.48690142536108
 31
0.0
  0
LINE
  5
9FE
330
19
100
AcDbEntity
  8
TitleBlock&Notes
  6
Continuous
 62
     3
100
AcDbLine
 10
65.9851764902795
 20
52.52650142536109
 30
0.0
 11
65.6089764902795
 21
52.52650142536109
 31
0.0
  0
LINE
  5
9FF
330
19
100
AcDbEntity
  8
TitleBlock&Notes
  6
Continuous
 62
     3
100
AcDbLine
 10
65.6287764902795
 20
52.50670142536108
 30
0.0
 11
65.96537649027952
 21
52.50670142536108
 31
0.0
  0
LINE
  5
A00
330
19
100
AcDbEntity
  8
TitleBlock&Notes
  6
Continuous
 62
     3
100
AcDbLine
 10
65.09417649027946
 20
51.88740641056109
 30
0.0
 11
65.22141723027949
 21
51.88962737656108
 31
0.0
  0
LINE
  5
A01
330
19
100
AcDbEntity
  8
TitleBlock&Notes
  6
Continuous
 62
     3
100
AcDbLine
 10
65.6089764902795
 20
51.96758013496108
 30
0.0
 11
65.09417649027946
 21
51.96758013496108
 31
0.0
  0
LINE
  5
A02
330
19
100
AcDbEntity
  8
TitleBlock&Notes
  6
Continuous
 62
     3
100
AcDbLine
 10
65.6089764902795
 20
52.04553289336108
 30
0.0
 11
65.09417649027946
 21
52.04553289336108
 31
0.0
  0
LINE
  5
A03
330
19
100
AcDbEntity
  8
TitleBlock&Notes
  6
Continuous
 62
     3
100
AcDbLine
 10
65.6089764902795
 20
51.88962737656108
 30
0.0
 11
65.09417649027946
 21
51.88962737656108
 31
0.0
  0
LINE
  5
A04
330
19
100
AcDbEntity
  8
TitleBlock&Notes
  6
Continuous
 62
     3
100
AcDbLine
 10
65.6089764902795
 20
52.27939116856109
 30
0.0
 11
65.09417649027946
 21
52.27939116856109
 31
0.0
  0
LINE
  5
A05
330
19
100
AcDbEntity
  8
TitleBlock&Notes
  6
Continuous
 62
     3
100
AcDbLine
 10
65.6089764902795
 20
52.3387911685611
 30
0.0
 11
65.09417649027946
 21
52.3387911685611
 31
0.0
  0
LINE
  5
A06
330
19
100
AcDbEntity
  8
TitleBlock&Notes
  6
Continuous
 62
     3
100
AcDbLine
 10
65.09417649027946
 20
51.87156399496109
 30
0.0
 11
65.6089764902795
 21
51.88054986856108
 31
0.0
  0
LINE
  5
A07
330
19
100
AcDbEntity
  8
TitleBlock&Notes
  6
Continuous
 62
     3
100
AcDbLine
 10
65.09417649027946
 20
51.85572157936109
 30
0.0
 11
65.6089764902795
 21
51.8647074529611
 31
0.0
  0
LINE
  5
A08
330
19
100
AcDbEntity
  8
TitleBlock&Notes
  6
Continuous
 62
     3
100
AcDbLine
 10
65.6089764902795
 20
52.31899116856109
 30
0.0
 11
65.09417649027946
 21
52.31899116856109
 31
0.0
  0
LINE
  5
A09
330
19
100
AcDbEntity
  8
TitleBlock&Notes
  6
Continuous
 62
     3
100
AcDbLine
 10
65.6089764902795
 20
52.29919116856108
 30
0.0
 11
65.09417649027946
 21
52.29919116856108
 31
0.0
  0
LINE
  5
A0A
330
19
100
AcDbEntity
  8
TitleBlock&Notes
  6
Continuous
 62
     3
100
AcDbLine
 10
65.6089764902795
 20
52.02573289336109
 30
0.0
 11
65.09417649027946
 21
52.02573289336109
 31
0.0
  0
LINE
  5
A0B
330
19
100
AcDbEntity
  8
TitleBlock&Notes
  6
Continuous
 62
     3
100
AcDbLine
 10
65.6089764902795
 20
52.00593289336109
 30
0.0
 11
65.09417649027946
 21
52.00593289336109
 31
0.0
  0
LINE
  5
A0C
330
19
100
AcDbEntity
  8
TitleBlock&Notes
  6
Continuous
 62
     3
100
AcDbLine
 10
65.6089764902795
 20
51.98613289336108
 30
0.0
 11
65.09417649027946
 21
51.98613289336108
 31
0.0
  0
LINE
  5
A0D
330
19
100
AcDbEntity
  8
TitleBlock&Notes
  6
Continuous
 62
     3
100
AcDbLine
 10
66.14357649027947
 20
51.88962737656108
 30
0.0
 11
65.9851764902795
 21
51.88962737656108
 31
0.0
  0
LINE
  5
A0E
330
19
100
AcDbEntity
  8
TitleBlock&Notes
  6
Continuous
 62
     3
100
AcDbLine
 10
65.9851764902795
 20
51.88711645936108
 30
0.0
 11
66.1290284798795
 21
51.88962737656108
 31
0.0
  0
LINE
  5
A0F
330
19
100
AcDbEntity
  8
TitleBlock&Notes
  6
Continuous
 62
     3
100
AcDbLine
 10
65.9851764902795
 20
51.87127404376107
 30
0.0
 11
66.14357649027947
 21
51.87403891576109
 31
0.0
  0
LINE
  5
A10
330
19
100
AcDbEntity
  8
TitleBlock&Notes
  6
Continuous
 62
     3
100
AcDbLine
 10
65.9851764902795
 20
51.85543162816109
 30
0.0
 11
66.14357649027947
 21
51.85819650016109
 31
0.0
  0
LINE
  5
A11
330
19
100
AcDbEntity
  8
TitleBlock&Notes
  6
Continuous
 62
     3
100
AcDbLine
 10
66.14357649027947
 20
51.96758013496108
 30
0.0
 11
65.9851764902795
 21
51.96758013496108
 31
0.0
  0
LINE
  5
A12
330
19
100
AcDbEntity
  8
TitleBlock&Notes
  6
Continuous
 62
     3
100
AcDbLine
 10
66.14357649027947
 20
51.98613289336108
 30
0.0
 11
65.9851764902795
 21
51.98613289336108
 31
0.0
  0
LINE
  5
A13
330
19
100
AcDbEntity
  8
TitleBlock&Notes
  6
Continuous
 62
     3
100
AcDbLine
 10
66.14357649027947
 20
52.04553289336108
 30
0.0
 11
65.9851764902795
 21
52.04553289336108
 31
0.0
  0
LINE
  5
A14
330
19
100
AcDbEntity
  8
TitleBlock&Notes
  6
Continuous
 62
     3
100
AcDbLine
 10
66.14357649027947
 20
52.27939116856109
 30
0.0
 11
65.9851764902795
 21
52.27939116856109
 31
0.0
  0
LINE
  5
A15
330
19
100
AcDbEntity
  8
TitleBlock&Notes
  6
Continuous
 62
     3
100
AcDbLine
 10
66.14357649027947
 20
52.3387911685611
 30
0.0
 11
65.9851764902795
 21
52.3387911685611
 31
0.0
  0
LINE
  5
A16
330
19
100
AcDbEntity
  8
TitleBlock&Notes
  6
Continuous
 62
     3
100
AcDbLine
 10
66.14357649027947
 20
52.31899116856109
 30
0.0
 11
65.9851764902795
 21
52.31899116856109
 31
0.0
  0
LINE
  5
A17
330
19
100
AcDbEntity
  8
TitleBlock&Notes
  6
Continuous
 62
     3
100
AcDbLine
 10
66.14357649027947
 20
52.29919116856108
 30
0.0
 11
65.9851764902795
 21
52.29919116856108
 31
0.0
  0
LINE
  5
A18
330
19
100
AcDbEntity
  8
TitleBlock&Notes
  6
Continuous
 62
     3
100
AcDbLine
 10
66.14357649027947
 20
52.02573289336109
 30
0.0
 11
65.9851764902795
 21
52.02573289336109
 31
0.0
  0
LINE
  5
A19
330
19
100
AcDbEntity
  8
TitleBlock&Notes
  6
Continuous
 62
     3
100
AcDbLine
 10
66.14357649027947
 20
52.00593289336109
 30
0.0
 11
65.9851764902795
 21
52.00593289336109
 31
0.0
  0
LINE
  5
A1B
330
19
100
AcDbEntity
  8
TitleBlock&Notes
  6
Continuous
 62
     3
100
AcDbLine
 10
67.0345764902795
 20
52.48690142536108
 30
0.0
 11
68.2225764902795
 21
52.48690142536108
 31
0.0
  0
LINE
  5
A1C
330
19
100
AcDbEntity
  8
TitleBlock&Notes
  6
Continuous
 62
     3
100
AcDbLine
 10
66.9949764902795
 20
52.52650142536109
 30
0.0
 11
68.26217649027945
 21
52.52650142536109
 31
0.0
  0
LINE
  5
A1D
330
19
100
AcDbEntity
  8
TitleBlock&Notes
  6
Continuous
 62
     3
100
AcDbLine
 10
67.01477649027947
 20
52.50670142536108
 30
0.0
 11
68.24237649027948
 21
52.50670142536108
 31
0.0
  0
LINE
  5
A1E
330
19
100
AcDbEntity
  8
TitleBlock&Notes
  6
Continuous
 62
     3
100
AcDbLine
 10
66.51977649027947
 20
51.84892067536108
 30
0.0
 11
67.44047649027947
 21
51.86499158296109
 31
0.0
  0
LINE
  5
A1F
330
19
100
AcDbEntity
  8
TitleBlock&Notes
  6
Continuous
 62
     3
100
AcDbLine
 10
66.48017649027949
 20
52.48690142536108
 30
0.0
 11
66.48017649027949
 21
51.04150142536109
 31
0.0
  0
LINE
  5
A20
330
19
100
AcDbEntity
  8
TitleBlock&Notes
  6
Continuous
 62
     3
100
AcDbLine
 10
66.51977649027947
 20
51.08110142536109
 30
0.0
 11
66.51977649027947
 21
52.52650142536109
 31
0.0
  0
LINE
  5
A21
330
19
100
AcDbEntity
  8
TitleBlock&Notes
  6
Continuous
 62
     3
100
AcDbLine
 10
66.49997649027949
 20
51.06130142536108
 30
0.0
 11
66.49997649027949
 21
52.50670142536108
 31
0.0
  0
LINE
  5
A22
330
19
100
AcDbEntity
  8
TitleBlock&Notes
  6
Continuous
 62
     3
100
AcDbLine
 10
66.48017649027949
 20
51.04150142536109
 30
0.0
 11
67.23257649027948
 21
51.04150142536109
 31
0.0
  0
LINE
  5
A23
330
19
100
AcDbEntity
  8
TitleBlock&Notes
  6
Continuous
 62
     3
100
AcDbLine
 10
67.25237649027949
 20
51.06130142536108
 30
0.0
 11
66.49997649027949
 21
51.06130142536108
 31
0.0
  0
LINE
  5
A24
330
19
100
AcDbEntity
  8
TitleBlock&Notes
  6
Continuous
 62
     3
100
AcDbLine
 10
67.27217649027946
 20
51.08110142536109
 30
0.0
 11
66.51977649027947
 21
51.08110142536109
 31
0.0
  0
LINE
  5
A25
330
19
100
AcDbEntity
  8
TitleBlock&Notes
  6
Continuous
 62
     3
100
AcDbLine
 10
66.51977649027947
 20
51.22702896976109
 30
0.0
 11
67.44047649027947
 21
51.22702896976109
 31
0.0
  0
LINE
  5
A26
330
19
100
AcDbEntity
  8
TitleBlock&Notes
  6
Continuous
 62
     3
100
AcDbLine
 10
66.51977649027947
 20
51.21054907336109
 30
0.0
 11
67.44047649027947
 21
51.22661994136108
 31
0.0
  0
LINE
  5
A27
330
19
100
AcDbEntity
  8
TitleBlock&Notes
  6
Continuous
 62
     3
100
AcDbLine
 10
66.51977649027947
 20
51.19470665776109
 30
0.0
 11
67.44047649027947
 21
51.21077752576109
 31
0.0
  0
LINE
  5
A28
330
19
100
AcDbEntity
  8
TitleBlock&Notes
  6
Continuous
 62
     3
100
AcDbLine
 10
66.51977649027947
 20
51.17886424216109
 30
0.0
 11
67.44047649027947
 21
51.19493511016109
 31
0.0
  0
LINE
  5
A29
330
19
100
AcDbEntity
  8
TitleBlock&Notes
  6
Continuous
 62
     3
100
AcDbLine
 10
66.51977649027947
 20
51.16302182656109
 30
0.0
 11
67.44047649027947
 21
51.17909269456109
 31
0.0
  0
LINE
  5
A2A
330
19
100
AcDbEntity
  8
TitleBlock&Notes
  6
Continuous
 62
     3
100
AcDbLine
 10
66.51977649027947
 20
51.14717941096109
 30
0.0
 11
67.44047649027947
 21
51.16325031856108
 31
0.0
  0
LINE
  5
A2B
330
19
100
AcDbEntity
  8
TitleBlock&Notes
  6
Continuous
 62
     3
100
AcDbLine
 10
66.51977649027947
 20
51.1313369953611
 30
0.0
 11
67.44047649027947
 21
51.14740790296109
 31
0.0
  0
LINE
  5
A2C
330
19
100
AcDbEntity
  8
TitleBlock&Notes
  6
Continuous
 62
     3
100
AcDbLine
 10
66.51977649027947
 20
51.11549457976109
 30
0.0
 11
67.44047649027947
 21
51.13156548736109
 31
0.0
  0
LINE
  5
A2D
330
19
100
AcDbEntity
  8
TitleBlock&Notes
  6
Continuous
 62
     3
100
AcDbLine
 10
66.51977649027947
 20
51.0996521641611
 30
0.0
 11
67.44047649027947
 21
51.11572307176108
 31
0.0
  0
LINE
  5
A2E
330
19
100
AcDbEntity
  8
TitleBlock&Notes
  6
Continuous
 62
     3
100
AcDbLine
 10
66.51977649027947
 20
51.08380978816108
 30
0.0
 11
67.44047649027947
 21
51.09988065616108
 31
0.0
  0
LINE
  5
A2F
330
19
100
AcDbEntity
  8
TitleBlock&Notes
  6
Continuous
 62
     3
100
AcDbLine
 10
66.76319840307947
 20
51.69474552016108
 30
0.0
 11
67.44047649027947
 21
51.70656742696109
 31
0.0
  0
LINE
  5
A30
330
19
100
AcDbEntity
  8
TitleBlock&Notes
  6
Continuous
 62
     3
100
AcDbLine
 10
66.51977649027947
 20
51.6077708521611
 30
0.0
 11
67.0366396898795
 21
51.61679276176108
 31
0.0
  0
LINE
  5
A31
330
19
100
AcDbEntity
  8
TitleBlock&Notes
  6
Continuous
 62
     3
100
AcDbLine
 10
66.51977649027947
 20
51.30498172816108
 30
0.0
 11
67.44047649027947
 21
51.30498172816108
 31
0.0
  0
LINE
  5
A32
330
19
100
AcDbEntity
  8
TitleBlock&Notes
  6
Continuous
 62
     3
100
AcDbLine
 10
66.51977649027947
 20
51.61679276176108
 30
0.0
 11
67.44047649027947
 21
51.61679276176108
 31
0.0
  0
LINE
  5
A33
330
19
100
AcDbEntity
  8
TitleBlock&Notes
  6
Continuous
 62
     3
100
AcDbLine
 10
66.51977649027947
 20
51.69474552016108
 30
0.0
 11
67.44047649027947
 21
51.69474552016108
 31
0.0
  0
LINE
  5
A34
330
19
100
AcDbEntity
  8
TitleBlock&Notes
  6
Continuous
 62
     3
100
AcDbLine
 10
66.51977649027947
 20
51.59192843656109
 30
0.0
 11
67.44047649027947
 21
51.60799934416108
 31
0.0
  0
LINE
  5
A35
330
19
100
AcDbEntity
  8
TitleBlock&Notes
  6
Continuous
 62
     3
100
AcDbLine
 10
66.51977649027947
 20
51.57608606056109
 30
0.0
 11
67.44047649027947
 21
51.59215692856109
 31
0.0
  0
LINE
  5
A36
330
19
100
AcDbEntity
  8
TitleBlock&Notes
  6
Continuous
 62
     3
100
AcDbLine
 10
66.51977649027947
 20
51.56024364496108
 30
0.0
 11
67.44047649027947
 21
51.57631451296109
 31
0.0
  0
LINE
  5
A37
330
19
100
AcDbEntity
  8
TitleBlock&Notes
  6
Continuous
 62
     3
100
AcDbLine
 10
66.51977649027947
 20
51.54440122936108
 30
0.0
 11
67.44047649027947
 21
51.5604720973611
 31
0.0
  0
LINE
  5
A38
330
19
100
AcDbEntity
  8
TitleBlock&Notes
  6
Continuous
 62
     3
100
AcDbLine
 10
66.51977649027947
 20
51.52855881376109
 30
0.0
 11
67.44047649027947
 21
51.54462968176108
 31
0.0
  0
LINE
  5
A39
330
19
100
AcDbEntity
  8
TitleBlock&Notes
  6
Continuous
 62
     3
100
AcDbLine
 10
66.51977649027947
 20
51.51271639816108
 30
0.0
 11
67.44047649027947
 21
51.52878726616108
 31
0.0
  0
LINE
  5
A3A
330
19
100
AcDbEntity
  8
TitleBlock&Notes
  6
Continuous
 62
     3
100
AcDbLine
 10
66.51977649027947
 20
51.49687398256109
 30
0.0
 11
67.44047649027947
 21
51.51294485056109
 31
0.0
  0
LINE
  5
A3B
330
19
100
AcDbEntity
  8
TitleBlock&Notes
  6
Continuous
 62
     3
100
AcDbLine
 10
66.51977649027947
 20
51.48103156696109
 30
0.0
 11
67.44047649027947
 21
51.49710243496109
 31
0.0
  0
LINE
  5
A3C
330
19
100
AcDbEntity
  8
TitleBlock&Notes
  6
Continuous
 62
     3
100
AcDbLine
 10
66.51977649027947
 20
51.46518915136109
 30
0.0
 11
67.44047649027947
 21
51.48126001936108
 31
0.0
  0
LINE
  5
A3D
330
19
100
AcDbEntity
  8
TitleBlock&Notes
  6
Continuous
 62
     3
100
AcDbLine
 10
66.51977649027947
 20
51.44934673576108
 30
0.0
 11
67.44047649027947
 21
51.46541760376108
 31
0.0
  0
LINE
  5
A3E
330
19
100
AcDbEntity
  8
TitleBlock&Notes
  6
Continuous
 62
     3
100
AcDbLine
 10
66.51977649027947
 20
51.43350432016109
 30
0.0
 11
67.44047649027947
 21
51.44957518816109
 31
0.0
  0
LINE
  5
A3F
330
19
100
AcDbEntity
  8
TitleBlock&Notes
  6
Continuous
 62
     3
100
AcDbLine
 10
66.51977649027947
 20
51.41766190456107
 30
0.0
 11
67.44047649027947
 21
51.43373281216109
 31
0.0
  0
LINE
  5
A40
330
19
100
AcDbEntity
  8
TitleBlock&Notes
  6
Continuous
 62
     3
100
AcDbLine
 10
66.51977649027947
 20
51.40181948896108
 30
0.0
 11
67.44047649027947
 21
51.41789039656109
 31
0.0
  0
LINE
  5
A41
330
19
100
AcDbEntity
  8
TitleBlock&Notes
  6
Continuous
 62
     3
100
AcDbLine
 10
66.51977649027947
 20
51.38597707336109
 30
0.0
 11
67.44047649027947
 21
51.40204798096108
 31
0.0
  0
LINE
  5
A42
330
19
100
AcDbEntity
  8
TitleBlock&Notes
  6
Continuous
 62
     3
100
AcDbLine
 10
66.51977649027947
 20
51.37013465776108
 30
0.0
 11
67.44047649027947
 21
51.38620556536108
 31
0.0
  0
LINE
  5
A43
330
19
100
AcDbEntity
  8
TitleBlock&Notes
  6
Continuous
 62
     3
100
AcDbLine
 10
66.51977649027947
 20
51.35429228176107
 30
0.0
 11
67.44047649027947
 21
51.37036314976109
 31
0.0
  0
LINE
  5
A44
330
19
100
AcDbEntity
  8
TitleBlock&Notes
  6
Continuous
 62
     3
100
AcDbLine
 10
66.51977649027947
 20
51.33844986616108
 30
0.0
 11
67.44047649027947
 21
51.35452073416108
 31
0.0
  0
LINE
  5
A45
330
19
100
AcDbEntity
  8
TitleBlock&Notes
  6
Continuous
 62
     3
100
AcDbLine
 10
66.51977649027947
 20
51.32260745056109
 30
0.0
 11
67.44047649027947
 21
51.33867831856107
 31
0.0
  0
LINE
  5
A46
330
19
100
AcDbEntity
  8
TitleBlock&Notes
  6
Continuous
 62
     3
100
AcDbLine
 10
66.51977649027947
 20
51.30676503496109
 30
0.0
 11
67.44047649027947
 21
51.32283590296109
 31
0.0
  0
LINE
  5
A47
330
19
100
AcDbEntity
  8
TitleBlock&Notes
  6
Continuous
 62
     3
100
AcDbLine
 10
66.51977649027947
 20
51.83307825976109
 30
0.0
 11
67.44047649027947
 21
51.84914916736109
 31
0.0
  0
LINE
  5
A48
330
19
100
AcDbEntity
  8
TitleBlock&Notes
  6
Continuous
 62
     3
100
AcDbLine
 10
66.51977649027947
 20
51.81723584416108
 30
0.0
 11
67.44047649027947
 21
51.83330675176109
 31
0.0
  0
LINE
  5
A49
330
19
100
AcDbEntity
  8
TitleBlock&Notes
  6
Continuous
 62
     3
100
AcDbLine
 10
66.51977649027947
 20
51.80139346816108
 30
0.0
 11
67.44047649027947
 21
51.81746433616109
 31
0.0
  0
LINE
  5
A4A
330
19
100
AcDbEntity
  8
TitleBlock&Notes
  6
Continuous
 62
     3
100
AcDbLine
 10
66.51977649027947
 20
51.78555105256108
 30
0.0
 11
67.44047649027947
 21
51.80162192056108
 31
0.0
  0
LINE
  5
A4B
330
19
100
AcDbEntity
  8
TitleBlock&Notes
  6
Continuous
 62
     3
100
AcDbLine
 10
66.51977649027947
 20
51.76970863696109
 30
0.0
 11
67.44047649027947
 21
51.78577950496108
 31
0.0
  0
LINE
  5
A4C
330
19
100
AcDbEntity
  8
TitleBlock&Notes
  6
Continuous
 62
     3
100
AcDbLine
 10
66.51977649027947
 20
51.75386622136109
 30
0.0
 11
67.44047649027947
 21
51.76993708936108
 31
0.0
  0
LINE
  5
A4D
330
19
100
AcDbEntity
  8
TitleBlock&Notes
  6
Continuous
 62
     3
100
AcDbLine
 10
66.51977649027947
 20
51.73802380576109
 30
0.0
 11
67.44047649027947
 21
51.75409467376109
 31
0.0
  0
LINE
  5
A4E
330
19
100
AcDbEntity
  8
TitleBlock&Notes
  6
Continuous
 62
     3
100
AcDbLine
 10
66.51977649027947
 20
51.72218139016108
 30
0.0
 11
67.44047649027947
 21
51.73825225816109
 31
0.0
  0
LINE
  5
A4F
330
19
100
AcDbEntity
  8
TitleBlock&Notes
  6
Continuous
 62
     3
100
AcDbLine
 10
66.51977649027947
 20
51.70633897456109
 30
0.0
 11
67.44047649027947
 21
51.72240984256109
 31
0.0
  0
LINE
  5
A50
330
19
100
AcDbEntity
  8
TitleBlock&Notes
  6
Continuous
 62
     3
100
AcDbLine
 10
66.51977649027947
 20
51.22639148896109
 30
0.0
 11
66.55629798627948
 21
51.22702896976109
 31
0.0
  0
LINE
  5
A51
330
19
100
AcDbEntity
  8
TitleBlock&Notes
  6
Continuous
 62
     3
100
AcDbLine
 10
67.27217649027946
 20
50.93851881376109
 30
0.0
 11
67.44047649027947
 21
50.94145650016109
 31
0.0
  0
LINE
  5
A52
330
19
100
AcDbEntity
  8
TitleBlock&Notes
  6
Continuous
 62
     3
100
AcDbLine
 10
67.27217649027946
 20
50.92267643776108
 30
0.0
 11
67.44047649027947
 21
50.92561412416109
 31
0.0
  0
LINE
  5
A53
330
19
100
AcDbEntity
  8
TitleBlock&Notes
  6
Continuous
 62
     3
100
AcDbLine
 10
67.27217649027946
 20
50.90683402216107
 30
0.0
 11
67.44047649027947
 21
50.90977170856109
 31
0.0
  0
LINE
  5
A54
330
19
100
AcDbEntity
  8
TitleBlock&Notes
  6
Continuous
 62
     3
100
AcDbLine
 10
67.27217649027946
 20
50.89099160656108
 30
0.0
 11
67.44047649027947
 21
50.89392929296108
 31
0.0
  0
LINE
  5
A55
330
19
100
AcDbEntity
  8
TitleBlock&Notes
  6
Continuous
 62
     3
100
AcDbLine
 10
67.27217649027946
 20
50.87514919096109
 30
0.0
 11
67.44047649027947
 21
50.87808687736108
 31
0.0
  0
LINE
  5
A56
330
19
100
AcDbEntity
  8
TitleBlock&Notes
  6
Continuous
 62
     3
100
AcDbLine
 10
67.27217649027946
 20
50.8593067753611
 30
0.0
 11
67.44047649027947
 21
50.86224446176108
 31
0.0
  0
LINE
  5
A57
330
19
100
AcDbEntity
  8
TitleBlock&Notes
  6
Continuous
 62
     3
100
AcDbLine
 10
67.27217649027946
 20
51.08110055416109
 30
0.0
 11
67.44047649027947
 21
51.08403824056107
 31
0.0
  0
LINE
  5
A58
330
19
100
AcDbEntity
  8
TitleBlock&Notes
  6
Continuous
 62
     3
100
AcDbLine
 10
67.27217649027946
 20
51.06525813856109
 30
0.0
 11
67.44047649027947
 21
51.06819582496108
 31
0.0
  0
LINE
  5
A59
330
19
100
AcDbEntity
  8
TitleBlock&Notes
  6
Continuous
 62
     3
100
AcDbLine
 10
67.27217649027946
 20
51.04941572296109
 30
0.0
 11
67.44047649027947
 21
51.05235340936109
 31
0.0
  0
LINE
  5
A5A
330
19
100
AcDbEntity
  8
TitleBlock&Notes
  6
Continuous
 62
     3
100
AcDbLine
 10
67.27217649027946
 20
51.03357330736109
 30
0.0
 11
67.44047649027947
 21
51.03651099376108
 31
0.0
  0
LINE
  5
A5B
330
19
100
AcDbEntity
  8
TitleBlock&Notes
  6
Continuous
 62
     3
100
AcDbLine
 10
67.27217649027946
 20
51.01773089176109
 30
0.0
 11
67.44047649027947
 21
51.02066857816109
 31
0.0
  0
LINE
  5
A5C
330
19
100
AcDbEntity
  8
TitleBlock&Notes
  6
Continuous
 62
     3
100
AcDbLine
 10
67.27217649027946
 20
51.00188847616109
 30
0.0
 11
67.44047649027947
 21
51.00482616256108
 31
0.0
  0
LINE
  5
A5D
330
19
100
AcDbEntity
  8
TitleBlock&Notes
  6
Continuous
 62
     3
100
AcDbLine
 10
67.27217649027946
 20
50.98604606056108
 30
0.0
 11
67.44047649027947
 21
50.98898374696108
 31
0.0
  0
LINE
  5
A5E
330
19
100
AcDbEntity
  8
TitleBlock&Notes
  6
Continuous
 62
     3
100
AcDbLine
 10
67.27217649027946
 20
50.97020364496107
 30
0.0
 11
67.44047649027947
 21
50.97314133136109
 31
0.0
  0
LINE
  5
A5F
330
19
100
AcDbEntity
  8
TitleBlock&Notes
  6
Continuous
 62
     3
100
AcDbLine
 10
67.27217649027946
 20
50.95436122936108
 30
0.0
 11
67.44047649027947
 21
50.95729891576109
 31
0.0
  0
LINE
  5
A60
330
19
100
AcDbEntity
  8
TitleBlock&Notes
  6
Continuous
 62
     3
100
AcDbLine
 10
67.32522263067949
 20
51.30498172816108
 30
0.0
 11
67.44047649027947
 21
51.30699348736109
 31
0.0
  0
LINE
  5
A61
330
19
100
AcDbEntity
  8
TitleBlock&Notes
  6
Continuous
 62
     3
100
AcDbLine
 10
66.9949764902795
 20
52.15030142536109
 30
0.0
 11
67.44047649027947
 21
52.15030142536109
 31
0.0
  0
LINE
  5
A62
330
19
100
AcDbEntity
  8
TitleBlock&Notes
  6
Continuous
 62
     3
100
AcDbLine
 10
66.51977649027947
 20
51.88060550656109
 30
0.0
 11
67.0366396898795
 21
51.88962737656108
 31
0.0
  0
LINE
  5
A63
330
19
100
AcDbEntity
  8
TitleBlock&Notes
  6
Continuous
 62
     3
100
AcDbLine
 10
66.51977649027947
 20
51.88962737656108
 30
0.0
 11
67.44047649027947
 21
51.88962737656108
 31
0.0
  0
LINE
  5
A64
330
19
100
AcDbEntity
  8
TitleBlock&Notes
  6
Continuous
 62
     3
100
AcDbLine
 10
66.51977649027947
 20
51.96758013496108
 30
0.0
 11
67.44047649027947
 21
51.96758013496108
 31
0.0
  0
LINE
  5
A65
330
19
100
AcDbEntity
  8
TitleBlock&Notes
  6
Continuous
 62
     3
100
AcDbLine
 10
66.51977649027947
 20
52.04553289336108
 30
0.0
 11
67.44047649027947
 21
52.04553289336108
 31
0.0
  0
LINE
  5
A66
330
19
100
AcDbEntity
  8
TitleBlock&Notes
  6
Continuous
 62
     3
100
AcDbLine
 10
66.51977649027947
 20
51.86476309096108
 30
0.0
 11
67.44047649027947
 21
51.88083399856108
 31
0.0
  0
LINE
  5
A67
330
19
100
AcDbEntity
  8
TitleBlock&Notes
  6
Continuous
 62
     3
100
AcDbLine
 10
66.51977649027947
 20
52.02573289336109
 30
0.0
 11
67.44047649027947
 21
52.02573289336109
 31
0.0
  0
LINE
  5
A68
330
19
100
AcDbEntity
  8
TitleBlock&Notes
  6
Continuous
 62
     3
100
AcDbLine
 10
66.51977649027947
 20
52.00593289336109
 30
0.0
 11
67.44047649027947
 21
52.00593289336109
 31
0.0
  0
LINE
  5
A69
330
19
100
AcDbEntity
  8
TitleBlock&Notes
  6
Continuous
 62
     3
100
AcDbLine
 10
66.51977649027947
 20
51.98613289336108
 30
0.0
 11
67.44047649027947
 21
51.98613289336108
 31
0.0
  0
LINE
  5
A6A
330
19
100
AcDbEntity
  8
TitleBlock&Notes
  6
Continuous
 62
     3
100
AcDbLine
 10
66.9949764902795
 20
52.52650142536109
 30
0.0
 11
66.9949764902795
 21
52.15030142536109
 31
0.0
  0
LINE
  5
A6B
330
19
100
AcDbEntity
  8
TitleBlock&Notes
  6
Continuous
 62
     3
100
AcDbLine
 10
66.51977649027947
 20
52.27939116856109
 30
0.0
 11
66.9949764902795
 21
52.27939116856109
 31
0.0
  0
LINE
  5
A6C
330
19
100
AcDbEntity
  8
TitleBlock&Notes
  6
Continuous
 62
     3
100
AcDbLine
 10
66.51977649027947
 20
52.3387911685611
 30
0.0
 11
66.9949764902795
 21
52.3387911685611
 31
0.0
  0
LINE
  5
A6D
330
19
100
AcDbEntity
  8
TitleBlock&Notes
  6
Continuous
 62
     3
100
AcDbLine
 10
66.51977649027947
 20
52.31899116856109
 30
0.0
 11
66.9949764902795
 21
52.31899116856109
 31
0.0
  0
LINE
  5
A6E
330
19
100
AcDbEntity
  8
TitleBlock&Notes
  6
Continuous
 62
     3
100
AcDbLine
 10
66.51977649027947
 20
52.29919116856108
 30
0.0
 11
66.9949764902795
 21
52.29919116856108
 31
0.0
  0
LINE
  5
A6F
330
19
100
AcDbEntity
  8
TitleBlock&Notes
  6
Continuous
 62
     3
100
AcDbLine
 10
67.0345764902795
 20
52.18990142536108
 30
0.0
 11
67.4800764902795
 21
52.18990142536108
 31
0.0
  0
LINE
  5
A70
330
19
100
AcDbEntity
  8
TitleBlock&Notes
  6
Continuous
 62
     3
100
AcDbLine
 10
67.0345764902795
 20
52.18990142536108
 30
0.0
 11
67.0345764902795
 21
52.48690142536108
 31
0.0
  0
LINE
  5
A71
330
19
100
AcDbEntity
  8
TitleBlock&Notes
  6
Continuous
 62
     3
100
AcDbLine
 10
67.01477649027947
 20
52.50670142536108
 30
0.0
 11
67.01477649027947
 21
52.17010142536109
 31
0.0
  0
LINE
  5
A72
330
19
100
AcDbEntity
  8
TitleBlock&Notes
  6
Continuous
 62
     3
100
AcDbLine
 10
67.01477649027947
 20
52.17010142536109
 30
0.0
 11
67.46027649027951
 21
52.17010142536109
 31
0.0
  0
LINE
  5
A73
330
19
100
AcDbEntity
  8
TitleBlock&Notes
  6
Continuous
 62
     3
100
AcDbLine
 10
67.81667649027946
 20
50.93218071496108
 30
0.0
 11
68.38097649027947
 21
50.94203058136108
 31
0.0
  0
LINE
  5
A74
330
19
100
AcDbEntity
  8
TitleBlock&Notes
  6
Continuous
 62
     3
100
AcDbLine
 10
67.81667649027946
 20
50.91633829936108
 30
0.0
 11
68.38097649027947
 21
50.92618816576109
 31
0.0
  0
LINE
  5
A75
330
19
100
AcDbEntity
  8
TitleBlock&Notes
  6
Continuous
 62
     3
100
AcDbLine
 10
67.81667649027946
 20
50.90049588376108
 30
0.0
 11
68.38097649027947
 21
50.91034575016109
 31
0.0
  0
LINE
  5
A76
330
19
100
AcDbEntity
  8
TitleBlock&Notes
  6
Continuous
 62
     3
100
AcDbLine
 10
67.81667649027946
 20
50.88465346816109
 30
0.0
 11
68.38097649027947
 21
50.89450337416109
 31
0.0
  0
LINE
  5
A77
330
19
100
AcDbEntity
  8
TitleBlock&Notes
  6
Continuous
 62
     3
100
AcDbLine
 10
67.81667649027946
 20
50.86881105256108
 30
0.0
 11
68.38097649027947
 21
50.87866095856107
 31
0.0
  0
LINE
  5
A78
330
19
100
AcDbEntity
  8
TitleBlock&Notes
  6
Continuous
 62
     3
100
AcDbLine
 10
67.81667649027946
 20
51.22702896976109
 30
0.0
 11
68.38097649027947
 21
51.22702896976109
 31
0.0
  0
LINE
  5
A79
330
19
100
AcDbEntity
  8
TitleBlock&Notes
  6
Continuous
 62
     3
100
AcDbLine
 10
67.81667649027946
 20
51.21734411656109
 30
0.0
 11
68.37152040627945
 21
51.22702896976109
 31
0.0
  0
LINE
  5
A7A
330
19
100
AcDbEntity
  8
TitleBlock&Notes
  6
Continuous
 62
     3
100
AcDbLine
 10
67.81667649027946
 20
51.20150170096108
 30
0.0
 11
68.38097649027947
 21
51.21135160696109
 31
0.0
  0
LINE
  5
A7B
330
19
100
AcDbEntity
  8
TitleBlock&Notes
  6
Continuous
 62
     3
100
AcDbLine
 10
67.81667649027946
 20
51.18565932496109
 30
0.0
 11
68.38097649027947
 21
51.19550919136109
 31
0.0
  0
LINE
  5
A7C
330
19
100
AcDbEntity
  8
TitleBlock&Notes
  6
Continuous
 62
     3
100
AcDbLine
 10
67.81667649027946
 20
51.1698169093611
 30
0.0
 11
68.38097649027947
 21
51.17966677576109
 31
0.0
  0
LINE
  5
A7D
330
19
100
AcDbEntity
  8
TitleBlock&Notes
  6
Continuous
 62
     3
100
AcDbLine
 10
67.81667649027946
 20
51.15397449376109
 30
0.0
 11
68.38097649027947
 21
51.16382436016107
 31
0.0
  0
LINE
  5
A7E
330
19
100
AcDbEntity
  8
TitleBlock&Notes
  6
Continuous
 62
     3
100
AcDbLine
 10
67.81667649027946
 20
51.13813207816109
 30
0.0
 11
68.38097649027947
 21
51.14798194456108
 31
0.0
  0
LINE
  5
A7F
330
19
100
AcDbEntity
  8
TitleBlock&Notes
  6
Continuous
 62
     3
100
AcDbLine
 10
67.81667649027946
 20
51.12228966256108
 30
0.0
 11
68.38097649027947
 21
51.13213956856109
 31
0.0
  0
LINE
  5
A80
330
19
100
AcDbEntity
  8
TitleBlock&Notes
  6
Continuous
 62
     3
100
AcDbLine
 10
67.81667649027946
 20
51.10644724696108
 30
0.0
 11
68.38097649027947
 21
51.11629715296108
 31
0.0
  0
LINE
  5
A81
330
19
100
AcDbEntity
  8
TitleBlock&Notes
  6
Continuous
 62
     3
100
AcDbLine
 10
67.81667649027946
 20
51.09060483136109
 30
0.0
 11
68.38097649027947
 21
51.10045473736109
 31
0.0
  0
LINE
  5
A82
330
19
100
AcDbEntity
  8
TitleBlock&Notes
  6
Continuous
 62
     3
100
AcDbLine
 10
67.81667649027946
 20
51.07476241576108
 30
0.0
 11
68.38097649027947
 21
51.08461232176108
 31
0.0
  0
LINE
  5
A83
330
19
100
AcDbEntity
  8
TitleBlock&Notes
  6
Continuous
 62
     3
100
AcDbLine
 10
67.81667649027946
 20
51.05892000016108
 30
0.0
 11
68.38097649027947
 21
51.06876990616109
 31
0.0
  0
LINE
  5
A84
330
19
100
AcDbEntity
  8
TitleBlock&Notes
  6
Continuous
 62
     3
100
AcDbLine
 10
67.81667649027946
 20
51.04307758456108
 30
0.0
 11
68.38097649027947
 21
51.05292749056109
 31
0.0
  0
LINE
  5
A85
330
19
100
AcDbEntity
  8
TitleBlock&Notes
  6
Continuous
 62
     3
100
AcDbLine
 10
67.81667649027946
 20
51.02723516896109
 30
0.0
 11
68.38097649027947
 21
51.03708507496109
 31
0.0
  0
LINE
  5
A86
330
19
100
AcDbEntity
  8
TitleBlock&Notes
  6
Continuous
 62
     3
100
AcDbLine
 10
67.81667649027946
 20
51.01139275336109
 30
0.0
 11
68.38097649027947
 21
51.02124265936108
 31
0.0
  0
LINE
  5
A87
330
19
100
AcDbEntity
  8
TitleBlock&Notes
  6
Continuous
 62
     3
100
AcDbLine
 10
67.81667649027946
 20
50.99555033776109
 30
0.0
 11
68.38097649027947
 21
51.00540024376108
 31
0.0
  0
LINE
  5
A88
330
19
100
AcDbEntity
  8
TitleBlock&Notes
  6
Continuous
 62
     3
100
AcDbLine
 10
67.81667649027946
 20
50.97970792216107
 30
0.0
 11
68.38097649027947
 21
50.98955782816108
 31
0.0
  0
LINE
  5
A89
330
19
100
AcDbEntity
  8
TitleBlock&Notes
  6
Continuous
 62
     3
100
AcDbLine
 10
67.81667649027946
 20
50.96386554616109
 30
0.0
 11
68.38097649027947
 21
50.97371541256108
 31
0.0
  0
LINE
  5
A8A
330
19
100
AcDbEntity
  8
TitleBlock&Notes
  6
Continuous
 62
     3
100
AcDbLine
 10
67.81667649027946
 20
50.94802313056109
 30
0.0
 11
68.38097649027947
 21
50.95787299696109
 31
0.0
  0
LINE
  5
A8B
330
19
100
AcDbEntity
  8
TitleBlock&Notes
  6
Continuous
 62
     3
100
AcDbLine
 10
67.81667649027946
 20
51.69474552016108
 30
0.0
 11
68.38097649027947
 21
51.69474552016108
 31
0.0
  0
LINE
  5
A8C
330
19
100
AcDbEntity
  8
TitleBlock&Notes
  6
Continuous
 62
     3
100
AcDbLine
 10
67.81667649027946
 20
51.61679276176108
 30
0.0
 11
68.38097649027947
 21
51.61679276176108
 31
0.0
  0
LINE
  5
A8D
330
19
100
AcDbEntity
  8
TitleBlock&Notes
  6
Continuous
 62
     3
100
AcDbLine
 10
67.81667649027946
 20
51.30498172816108
 30
0.0
 11
68.38097649027947
 21
51.30498172816108
 31
0.0
  0
LINE
  5
A8E
330
19
100
AcDbEntity
  8
TitleBlock&Notes
  6
Continuous
 62
     3
100
AcDbLine
 10
67.81667649027946
 20
51.59872351936107
 30
0.0
 11
68.38097649027947
 21
51.60857342536108
 31
0.0
  0
LINE
  5
A8F
330
19
100
AcDbEntity
  8
TitleBlock&Notes
  6
Continuous
 62
     3
100
AcDbLine
 10
67.81667649027946
 20
51.58288110376108
 30
0.0
 11
68.38097649027947
 21
51.59273100976108
 31
0.0
  0
LINE
  5
A90
330
19
100
AcDbEntity
  8
TitleBlock&Notes
  6
Continuous
 62
     3
100
AcDbLine
 10
67.81667649027946
 20
51.56703868816109
 30
0.0
 11
68.38097649027947
 21
51.57688859416109
 31
0.0
  0
LINE
  5
A91
330
19
100
AcDbEntity
  8
TitleBlock&Notes
  6
Continuous
 62
     3
100
AcDbLine
 10
67.81667649027946
 20
51.55119627256109
 30
0.0
 11
68.38097649027947
 21
51.56104617856108
 31
0.0
  0
LINE
  5
A92
330
19
100
AcDbEntity
  8
TitleBlock&Notes
  6
Continuous
 62
     3
100
AcDbLine
 10
67.81667649027946
 20
51.53535385696109
 30
0.0
 11
68.38097649027947
 21
51.54520376296108
 31
0.0
  0
LINE
  5
A93
330
19
100
AcDbEntity
  8
TitleBlock&Notes
  6
Continuous
 62
     3
100
AcDbLine
 10
67.81667649027946
 20
51.51951144136108
 30
0.0
 11
68.38097649027947
 21
51.52936134736108
 31
0.0
  0
LINE
  5
A94
330
19
100
AcDbEntity
  8
TitleBlock&Notes
  6
Continuous
 62
     3
100
AcDbLine
 10
67.81667649027946
 20
51.50366902576108
 30
0.0
 11
68.38097649027947
 21
51.51351893176109
 31
0.0
  0
LINE
  5
A95
330
19
100
AcDbEntity
  8
TitleBlock&Notes
  6
Continuous
 62
     3
100
AcDbLine
 10
67.81667649027946
 20
51.4878266101611
 30
0.0
 11
68.38097649027947
 21
51.49767651616109
 31
0.0
  0
LINE
  5
A96
330
19
100
AcDbEntity
  8
TitleBlock&Notes
  6
Continuous
 62
     3
100
AcDbLine
 10
67.81667649027946
 20
51.47198419456109
 30
0.0
 11
68.38097649027947
 21
51.48183410056107
 31
0.0
  0
LINE
  5
A97
330
19
100
AcDbEntity
  8
TitleBlock&Notes
  6
Continuous
 62
     3
100
AcDbLine
 10
67.81667649027946
 20
51.45614181856108
 30
0.0
 11
68.38097649027947
 21
51.46599168496108
 31
0.0
  0
LINE
  5
A98
330
19
100
AcDbEntity
  8
TitleBlock&Notes
  6
Continuous
 62
     3
100
AcDbLine
 10
67.81667649027946
 20
51.44029940296108
 30
0.0
 11
68.38097649027947
 21
51.45014926936109
 31
0.0
  0
LINE
  5
A99
330
19
100
AcDbEntity
  8
TitleBlock&Notes
  6
Continuous
 62
     3
100
AcDbLine
 10
67.81667649027946
 20
51.4244569873611
 30
0.0
 11
68.38097649027947
 21
51.43430685376109
 31
0.0
  0
LINE
  5
A9A
330
19
100
AcDbEntity
  8
TitleBlock&Notes
  6
Continuous
 62
     3
100
AcDbLine
 10
67.81667649027946
 20
51.40861457176107
 30
0.0
 11
68.38097649027947
 21
51.41846443816109
 31
0.0
  0
LINE
  5
A9B
330
19
100
AcDbEntity
  8
TitleBlock&Notes
  6
Continuous
 62
     3
100
AcDbLine
 10
67.81667649027946
 20
51.39277215616108
 30
0.0
 11
68.38097649027947
 21
51.40262206216108
 31
0.0
  0
LINE
  5
A9C
330
19
100
AcDbEntity
  8
TitleBlock&Notes
  6
Continuous
 62
     3
100
AcDbLine
 10
67.81667649027946
 20
51.37692974056108
 30
0.0
 11
68.38097649027947
 21
51.3867796465611
 31
0.0
  0
LINE
  5
A9D
330
19
100
AcDbEntity
  8
TitleBlock&Notes
  6
Continuous
 62
     3
100
AcDbLine
 10
67.81667649027946
 20
51.36108732496109
 30
0.0
 11
68.38097649027947
 21
51.37093723096109
 31
0.0
  0
LINE
  5
A9E
330
19
100
AcDbEntity
  8
TitleBlock&Notes
  6
Continuous
 62
     3
100
AcDbLine
 10
67.81667649027946
 20
51.34524490936109
 30
0.0
 11
68.38097649027947
 21
51.35509481536109
 31
0.0
  0
LINE
  5
A9F
330
19
100
AcDbEntity
  8
TitleBlock&Notes
  6
Continuous
 62
     3
100
AcDbLine
 10
67.81667649027946
 20
51.32940249376108
 30
0.0
 11
68.38097649027947
 21
51.33925239976108
 31
0.0
  0
LINE
  5
AA0
330
19
100
AcDbEntity
  8
TitleBlock&Notes
  6
Continuous
 62
     3
100
AcDbLine
 10
67.81667649027946
 20
51.31356007816108
 30
0.0
 11
68.38097649027947
 21
51.32340998416109
 31
0.0
  0
LINE
  5
AA1
330
19
100
AcDbEntity
  8
TitleBlock&Notes
  6
Continuous
 62
     3
100
AcDbLine
 10
67.81667649027946
 20
51.83987334256109
 30
0.0
 11
68.38097649027947
 21
51.84972324856108
 31
0.0
  0
LINE
  5
AA2
330
19
100
AcDbEntity
  8
TitleBlock&Notes
  6
Continuous
 62
     3
100
AcDbLine
 10
67.81667649027946
 20
51.82403092696108
 30
0.0
 11
68.38097649027947
 21
51.83388083296108
 31
0.0
  0
LINE
  5
AA3
330
19
100
AcDbEntity
  8
TitleBlock&Notes
  6
Continuous
 62
     3
100
AcDbLine
 10
67.81667649027946
 20
51.80818851136108
 30
0.0
 11
68.38097649027947
 21
51.81803841736108
 31
0.0
  0
LINE
  5
AA4
330
19
100
AcDbEntity
  8
TitleBlock&Notes
  6
Continuous
 62
     3
100
AcDbLine
 10
67.81667649027946
 20
51.79234609576109
 30
0.0
 11
68.38097649027947
 21
51.80219600176108
 31
0.0
  0
LINE
  5
AA5
330
19
100
AcDbEntity
  8
TitleBlock&Notes
  6
Continuous
 62
     3
100
AcDbLine
 10
67.81667649027946
 20
51.77650368016109
 30
0.0
 11
68.38097649027947
 21
51.78635358616109
 31
0.0
  0
LINE
  5
AA6
330
19
100
AcDbEntity
  8
TitleBlock&Notes
  6
Continuous
 62
     3
100
AcDbLine
 10
67.81667649027946
 20
51.7606612645611
 30
0.0
 11
68.38097649027947
 21
51.77051117056109
 31
0.0
  0
LINE
  5
AA7
330
19
100
AcDbEntity
  8
TitleBlock&Notes
  6
Continuous
 62
     3
100
AcDbLine
 10
67.81667649027946
 20
51.74481884896109
 30
0.0
 11
68.38097649027947
 21
51.75466875496109
 31
0.0
  0
LINE
  5
AA8
330
19
100
AcDbEntity
  8
TitleBlock&Notes
  6
Continuous
 62
     3
100
AcDbLine
 10
67.81667649027946
 20
51.72897643336109
 30
0.0
 11
68.38097649027947
 21
51.73882633936109
 31
0.0
  0
LINE
  5
AA9
330
19
100
AcDbEntity
  8
TitleBlock&Notes
  6
Continuous
 62
     3
100
AcDbLine
 10
67.81667649027946
 20
51.71313401776109
 30
0.0
 11
68.38097649027947
 21
51.72298392376109
 31
0.0
  0
LINE
  5
AAA
330
19
100
AcDbEntity
  8
TitleBlock&Notes
  6
Continuous
 62
     3
100
AcDbLine
 10
67.81667649027946
 20
51.69729160216109
 30
0.0
 11
68.38097649027947
 21
51.70714150816108
 31
0.0
  0
LINE
  5
AAB
330
19
100
AcDbEntity
  8
TitleBlock&Notes
  6
Continuous
 62
     3
100
AcDbLine
 10
68.23283384067946
 20
51.30498172816108
 30
0.0
 11
68.38097649027947
 21
51.3075675685611
 31
0.0
  0
LINE
  5
AAC
330
19
100
AcDbEntity
  8
TitleBlock&Notes
  6
Continuous
 62
     3
100
AcDbLine
 10
67.81667649027946
 20
51.61456593496109
 30
0.0
 11
67.94425089987948
 21
51.61679276176108
 31
0.0
  0
LINE
  5
AAD
330
19
100
AcDbEntity
  8
TitleBlock&Notes
  6
Continuous
 62
     3
100
AcDbLine
 10
68.75717649027945
 20
51.61514001616108
 30
0.0
 11
68.85186214947951
 21
51.61679276176108
 31
0.0
  0
LINE
  5
AAE
330
19
100
AcDbEntity
  8
TitleBlock&Notes
  6
Continuous
 62
     3
100
AcDbLine
 10
67.81667649027946
 20
51.88962737656108
 30
0.0
 11
68.38097649027947
 21
51.88962737656108
 31
0.0
  0
LINE
  5
AAF
330
19
100
AcDbEntity
  8
TitleBlock&Notes
  6
Continuous
 62
     3
100
AcDbLine
 10
67.81667649027946
 20
51.87155817376109
 30
0.0
 11
68.38097649027947
 21
51.88140804016109
 31
0.0
  0
LINE
  5
AB0
330
19
100
AcDbEntity
  8
TitleBlock&Notes
  6
Continuous
 62
     3
100
AcDbLine
 10
67.81667649027946
 20
51.85571575816108
 30
0.0
 11
68.38097649027947
 21
51.8655656245611
 31
0.0
  0
LINE
  5
AB1
330
19
100
AcDbEntity
  8
TitleBlock&Notes
  6
Continuous
 62
     3
100
AcDbLine
 10
67.81667649027946
 20
52.04553289336108
 30
0.0
 11
68.38097649027947
 21
52.04553289336108
 31
0.0
  0
LINE
  5
AB2
330
19
100
AcDbEntity
  8
TitleBlock&Notes
  6
Continuous
 62
     3
100
AcDbLine
 10
67.81667649027946
 20
52.02573289336109
 30
0.0
 11
68.38097649027947
 21
52.02573289336109
 31
0.0
  0
LINE
  5
AB3
330
19
100
AcDbEntity
  8
TitleBlock&Notes
  6
Continuous
 62
     3
100
AcDbLine
 10
67.81667649027946
 20
51.96758013496108
 30
0.0
 11
68.38097649027947
 21
51.96758013496108
 31
0.0
  0
LINE
  5
AB4
330
19
100
AcDbEntity
  8
TitleBlock&Notes
  6
Continuous
 62
     3
100
AcDbLine
 10
67.81667649027946
 20
52.00593289336109
 30
0.0
 11
68.38097649027947
 21
52.00593289336109
 31
0.0
  0
LINE
  5
AB5
330
19
100
AcDbEntity
  8
TitleBlock&Notes
  6
Continuous
 62
     3
100
AcDbLine
 10
67.81667649027946
 20
51.98613289336108
 30
0.0
 11
68.38097649027947
 21
51.98613289336108
 31
0.0
  0
LINE
  5
AB6
330
19
100
AcDbEntity
  8
TitleBlock&Notes
  6
Continuous
 62
     3
100
AcDbLine
 10
68.26217649027945
 20
52.27939116856109
 30
0.0
 11
68.38097649027947
 21
52.27939116856109
 31
0.0
  0
LINE
  5
AB7
330
19
100
AcDbEntity
  8
TitleBlock&Notes
  6
Continuous
 62
     3
100
AcDbLine
 10
68.26217649027945
 20
52.3387911685611
 30
0.0
 11
68.38097649027947
 21
52.3387911685611
 31
0.0
  0
LINE
  5
AB8
330
19
100
AcDbEntity
  8
TitleBlock&Notes
  6
Continuous
 62
     3
100
AcDbLine
 10
68.26217649027945
 20
52.29919116856108
 30
0.0
 11
68.38097649027947
 21
52.29919116856108
 31
0.0
  0
LINE
  5
AB9
330
19
100
AcDbEntity
  8
TitleBlock&Notes
  6
Continuous
 62
     3
100
AcDbLine
 10
68.26217649027945
 20
52.31899116856109
 30
0.0
 11
68.38097649027947
 21
52.31899116856109
 31
0.0
  0
LINE
  5
ABA
330
19
100
AcDbEntity
  8
TitleBlock&Notes
  6
Continuous
 62
     3
100
AcDbLine
 10
67.81667649027946
 20
51.88740058936109
 30
0.0
 11
67.94425089987948
 21
51.88962737656108
 31
0.0
  0
LINE
  5
ABB
330
19
100
AcDbEntity
  8
TitleBlock&Notes
  6
Continuous
 62
     3
100
AcDbLine
 10
67.81667649027946
 20
52.15030142536109
 30
0.0
 11
68.26217649027945
 21
52.15030142536109
 31
0.0
  0
LINE
  5
ABC
330
19
100
AcDbEntity
  8
TitleBlock&Notes
  6
Continuous
 62
     3
100
AcDbLine
 10
67.79687649027948
 20
52.17010142536109
 30
0.0
 11
68.24237649027948
 21
52.17010142536109
 31
0.0
  0
LINE
  5
ABD
330
19
100
AcDbEntity
  8
TitleBlock&Notes
  6
Continuous
 62
     3
100
AcDbLine
 10
68.2225764902795
 20
52.18990142536108
 30
0.0
 11
67.77707649027951
 21
52.18990142536108
 31
0.0
  0
LINE
  5
ABE
330
19
100
AcDbEntity
  8
TitleBlock&Notes
  6
Continuous
 62
     3
100
AcDbLine
 10
68.2225764902795
 20
52.48690142536108
 30
0.0
 11
68.2225764902795
 21
52.18990142536108
 31
0.0
  0
LINE
  5
ABF
330
19
100
AcDbEntity
  8
TitleBlock&Notes
  6
Continuous
 62
     3
100
AcDbLine
 10
68.26217649027945
 20
52.15030142536109
 30
0.0
 11
68.26217649027945
 21
52.52650142536109
 31
0.0
  0
LINE
  5
AC0
330
19
100
AcDbEntity
  8
TitleBlock&Notes
  6
Continuous
 62
     3
100
AcDbLine
 10
68.24237649027948
 20
52.17010142536109
 30
0.0
 11
68.24237649027948
 21
52.50670142536108
 31
0.0
  0
LINE
  5
AC1
330
19
100
AcDbEntity
  8
TitleBlock&Notes
  6
Continuous
 62
     3
100
AcDbLine
 10
68.75717649027945
 20
51.88797467056108
 30
0.0
 11
68.85186214947951
 21
51.88962737656108
 31
0.0
  0
LINE
  5
AC2
330
19
100
AcDbEntity
  8
TitleBlock&Notes
  6
Continuous
 62
     3
100
AcDbLine
 10
68.42057649027947
 20
52.48690142536108
 30
0.0
 11
68.71757649027948
 21
52.48690142536108
 31
0.0
  0
LINE
  5
AC3
330
19
100
AcDbEntity
  8
TitleBlock&Notes
  6
Continuous
 62
     3
100
AcDbLine
 10
68.38097649027947
 20
52.52650142536109
 30
0.0
 11
68.75717649027945
 21
52.52650142536109
 31
0.0
  0
LINE
  5
AC4
330
19
100
AcDbEntity
  8
TitleBlock&Notes
  6
Continuous
 62
     3
100
AcDbLine
 10
68.4007764902795
 20
52.50670142536108
 30
0.0
 11
68.73737649027948
 21
52.50670142536108
 31
0.0
  0
LINE
  5
AC6
330
19
100
AcDbEntity
  8
TitleBlock&Notes
 62
     3
100
AcDbLine
 10
81.30858356067951
 20
56.59251715936108
 30
0.0
 11
81.30858356067951
 21
49.2665171593611
 31
0.0
  0
TEXT
  5
AC7
330
19
100
AcDbEntity
  8
TitleBlock&Notes
  6
Continuous
 62
     3
100
AcDbText
 10
74.87008768506043
 20
49.96551700633289
 30
0.0
 40
0.25344
  1
FAX (905) 951-0672
 41
1.282051279999999
100
AcDbText
  0
TEXT
  5
AC8
330
19
100
AcDbEntity
  8
TitleBlock&Notes
  6
Continuous
 62
     3
100
AcDbText
 10
75.56219024090424
 20
50.41091084207313
 30
0.0
 40
0.25344
  1
(905) 951-0670 
 41
1.282051279999999
100
AcDbText
  0
TEXT
  5
AC9
330
19
100
AcDbEntity
  8
TitleBlock&Notes
  6
Continuous
 62
     3
100
AcDbText
 10
74.43484905993638
 20
52.56219183368544
 30
0.0
 40
0.5940000000000002
  1
MULTICYL  Inc.
 41
0.85470085
100
AcDbText
  0
TEXT
  5
ACA
330
19
100
AcDbEntity
  8
TitleBlock&Notes
  6
Continuous
 62
     3
100
AcDbText
 10
74.95068421555422
 20
51.96249342973024
 30
0.0
 40
0.3168
  1
640 Hardwick Road, Unit 5
 41
0.7000000000000001
100
AcDbText
  0
LINE
  5
ACB
330
19
100
AcDbEntity
  8
TitleBlock&Notes
  6
Continuous
 62
     3
100
AcDbLine
 10
72.97457649027951
 20
50.70490142536108
 30
0.0
 11
72.97457649027951
 21
51.08110142536109
 31
0.0
  0
LINE
  5
ACC
330
19
100
AcDbEntity
  8
TitleBlock&Notes
  6
Continuous
 62
     3
100
AcDbLine
 10
72.95477649027947
 20
50.72470142536108
 30
0.0
 11
72.95477649027947
 21
51.06130142536108
 31
0.0
  0
LINE
  5
ACD
330
19
100
AcDbEntity
  8
TitleBlock&Notes
  6
Continuous
 62
     3
100
AcDbLine
 10
72.93497649027948
 20
50.74450142536107
 30
0.0
 11
72.93497649027948
 21
51.04150142536109
 31
0.0
  0
LINE
  5
ACE
330
19
100
AcDbEntity
  8
TitleBlock&Notes
  6
Continuous
 62
     3
100
AcDbLine
 10
72.97457649027951
 20
50.84794565416109
 30
0.0
 11
73.41196938027948
 21
50.8555803757611
 31
0.0
  0
LINE
  5
ACF
330
19
100
AcDbEntity
  8
TitleBlock&Notes
  6
Continuous
 62
     3
100
AcDbLine
 10
71.88557649027948
 20
50.74450142536107
 30
0.0
 11
71.88557649027948
 21
52.48690142536108
 31
0.0
  0
LINE
  5
AD0
330
19
100
AcDbEntity
  8
TitleBlock&Notes
  6
Continuous
 62
     3
100
AcDbLine
 10
71.84597649027947
 20
52.52650142536109
 30
0.0
 11
71.84597649027947
 21
50.70490142536108
 31
0.0
  0
LINE
  5
AD1
330
19
100
AcDbEntity
  8
TitleBlock&Notes
  6
Continuous
 62
     3
100
AcDbLine
 10
71.8657764902795
 20
52.50670142536108
 30
0.0
 11
71.8657764902795
 21
50.72470142536108
 31
0.0
  0
LINE
  5
AD2
330
19
100
AcDbEntity
  8
TitleBlock&Notes
  6
Continuous
 62
     3
100
AcDbLine
 10
70.14073237827947
 20
50.84600794696109
 30
0.0
 11
70.85597649027945
 21
50.85849255976109
 31
0.0
  0
LINE
  5
AD3
330
19
100
AcDbEntity
  8
TitleBlock&Notes
  6
Continuous
 62
     3
100
AcDbLine
 10
70.89557649027948
 20
50.74450142536107
 30
0.0
 11
70.89557649027948
 21
51.33850142536108
 31
0.0
  0
LINE
  5
AD4
330
19
100
AcDbEntity
  8
TitleBlock&Notes
  6
Continuous
 62
     3
100
AcDbLine
 10
71.19257649027949
 20
50.74450142536107
 30
0.0
 11
71.19257649027949
 21
51.33850142536108
 31
0.0
  0
LINE
  5
AD5
330
19
100
AcDbEntity
  8
TitleBlock&Notes
  6
Continuous
 62
     3
100
AcDbLine
 10
70.85597649027945
 20
51.33033028216109
 30
0.0
 11
70.85597649027945
 21
50.70490142536108
 31
0.0
  0
LINE
  5
AD6
330
19
100
AcDbEntity
  8
TitleBlock&Notes
  6
Continuous
 62
     3
100
AcDbLine
 10
71.23217649027947
 20
50.70490142536108
 30
0.0
 11
71.23217649027947
 21
51.33033028216109
 31
0.0
  0
LINE
  5
AD7
330
19
100
AcDbEntity
  8
TitleBlock&Notes
  6
Continuous
 62
     3
100
AcDbLine
 10
71.21237649027946
 20
51.33441585376108
 30
0.0
 11
71.21237649027946
 21
50.72470142536108
 31
0.0
  0
LINE
  5
AD8
330
19
100
AcDbEntity
  8
TitleBlock&Notes
  6
Continuous
 62
     3
100
AcDbLine
 10
70.8757764902795
 20
50.72470142536108
 30
0.0
 11
70.8757764902795
 21
51.33441585376108
 31
0.0
  0
ARC
  5
AD9
330
19
100
AcDbEntity
  8
TitleBlock&Notes
  6
Continuous
 62
     3
100
AcDbCircle
 10
69.70757649027951
 20
51.44028578056108
 30
0.0
 40
0.6957843948000001
100
AcDbArc
 50
185.1275404200005
 51
354.8724595800011
  0
ARC
  5
ADA
330
19
100
AcDbEntity
  8
TitleBlock&Notes
  6
Continuous
 62
     3
100
AcDbCircle
 10
69.70757649027951
 20
51.44028578056108
 30
0.0
 40
0.7353843948
100
AcDbArc
 50
184.9874829000006
 51
358.2401137300006
  0
ARC
  5
ADB
330
19
100
AcDbEntity
  8
TitleBlock&Notes
  6
Continuous
 62
     3
100
AcDbCircle
 10
69.70757649027951
 20
51.44028578056108
 30
0.0
 40
0.7155843948000001
100
AcDbArc
 50
184.9874829000006
 51
356.6043585300009
  0
LINE
  5
ADC
330
19
100
AcDbEntity
  8
TitleBlock&Notes
  6
Continuous
 62
     3
100
AcDbLine
 10
71.23217649027947
 20
50.84921677456108
 30
0.0
 11
71.84597649027947
 21
50.85993067336108
 31
0.0
  0
LINE
  5
ADD
330
19
100
AcDbEntity
  8
TitleBlock&Notes
  6
Continuous
 62
     3
100
AcDbLine
 10
73.41196938027948
 20
53.72151715936109
 30
0.0
 11
73.41196938027948
 21
49.26651715936109
 31
0.0
  0
TEXT
  5
ADE
330
19
100
AcDbEntity
  8
TitleBlock&Notes
  6
Continuous
 62
     3
100
AcDbText
 10
69.96239536227948
 20
49.7822815777611
 30
0.0
 40
0.2772
  1
 HYDRAULICS
 41
0.8
 51
11.0
100
AcDbText
  0
LINE
  5
ADF
330
19
100
AcDbEntity
  8
TitleBlock&Notes
  6
Continuous
 62
     3
100
AcDbLine
 10
69.09297775827948
 20
50.44750142536109
 30
0.0
 11
73.41196938027948
 21
50.52288968776109
 31
0.0
  0
LINE
  5
AE0
330
19
100
AcDbEntity
  8
TitleBlock&Notes
  6
Continuous
 62
     3
100
AcDbLine
 10
70.00058896827948
 20
50.44750142536109
 30
0.0
 11
73.41196938027948
 21
50.5070472721611
 31
0.0
  0
LINE
  5
AE1
330
19
100
AcDbEntity
  8
TitleBlock&Notes
  6
Continuous
 62
     3
100
AcDbLine
 10
70.90820021787948
 20
50.44750142536109
 30
0.0
 11
73.41196938027948
 21
50.49120485656108
 31
0.0
  0
LINE
  5
AE2
330
19
100
AcDbEntity
  8
TitleBlock&Notes
  6
Continuous
 62
     3
100
AcDbLine
 10
71.23217649027947
 20
50.83337435896109
 30
0.0
 11
71.84597649027947
 21
50.84408825776108
 31
0.0
  0
LINE
  5
AE3
330
19
100
AcDbEntity
  8
TitleBlock&Notes
  6
Continuous
 62
     3
100
AcDbLine
 10
71.23217649027947
 20
50.81753194336108
 30
0.0
 11
71.84597649027947
 21
50.82824584216108
 31
0.0
  0
LINE
  5
AE4
330
19
100
AcDbEntity
  8
TitleBlock&Notes
  6
Continuous
 62
     3
100
AcDbLine
 10
71.23217649027947
 20
50.80168952776109
 30
0.0
 11
71.84597649027947
 21
50.81240342656109
 31
0.0
  0
LINE
  5
AE5
330
19
100
AcDbEntity
  8
TitleBlock&Notes
  6
Continuous
 62
     3
100
AcDbLine
 10
71.23217649027947
 20
50.78584711216108
 30
0.0
 11
71.84597649027947
 21
50.79656101096109
 31
0.0
  0
LINE
  5
AE6
330
19
100
AcDbEntity
  8
TitleBlock&Notes
  6
Continuous
 62
     3
100
AcDbLine
 10
71.23217649027947
 20
50.77000469656109
 30
0.0
 11
71.84597649027947
 21
50.78071859536109
 31
0.0
  0
LINE
  5
AE7
330
19
100
AcDbEntity
  8
TitleBlock&Notes
  6
Continuous
 62
     3
100
AcDbLine
 10
71.23217649027947
 20
50.75416228096109
 30
0.0
 11
71.84597649027947
 21
50.76487621936109
 31
0.0
  0
LINE
  5
AE8
330
19
100
AcDbEntity
  8
TitleBlock&Notes
  6
Continuous
 62
     3
100
AcDbLine
 10
71.23217649027947
 20
50.73831986536109
 30
0.0
 11
71.84597649027947
 21
50.7490338037611
 31
0.0
  0
LINE
  5
AE9
330
19
100
AcDbEntity
  8
TitleBlock&Notes
  6
Continuous
 62
     3
100
AcDbLine
 10
71.23217649027947
 20
50.72247744976109
 30
0.0
 11
71.84597649027947
 21
50.73319138816107
 31
0.0
  0
LINE
  5
AEA
330
19
100
AcDbEntity
  8
TitleBlock&Notes
  6
Continuous
 62
     3
100
AcDbLine
 10
71.23217649027947
 20
50.70663503416108
 30
0.0
 11
71.84597649027947
 21
50.71734897256108
 31
0.0
  0
LINE
  5
AEB
330
19
100
AcDbEntity
  8
TitleBlock&Notes
  6
Continuous
 62
     3
100
AcDbLine
 10
70.1175139874795
 20
50.82976026496108
 30
0.0
 11
70.85597649027945
 21
50.84265018376108
 31
0.0
  0
LINE
  5
AEC
330
19
100
AcDbEntity
  8
TitleBlock&Notes
  6
Continuous
 62
     3
100
AcDbLine
 10
70.09215236547948
 20
50.81347516096109
 30
0.0
 11
70.85597649027945
 21
50.82680776816109
 31
0.0
  0
LINE
  5
AED
330
19
100
AcDbEntity
  8
TitleBlock&Notes
  6
Continuous
 62
     3
100
AcDbLine
 10
70.06417041147949
 20
50.79714431896109
 30
0.0
 11
70.85597649027945
 21
50.81096535256108
 31
0.0
  0
LINE
  5
AEE
330
19
100
AcDbEntity
  8
TitleBlock&Notes
  6
Continuous
 62
     3
100
AcDbLine
 10
70.0328607110795
 20
50.78075538376109
 30
0.0
 11
70.85597649027945
 21
50.79512293696108
 31
0.0
  0
LINE
  5
AEF
330
19
100
AcDbEntity
  8
TitleBlock&Notes
  6
Continuous
 62
     3
100
AcDbLine
 10
69.99708979347946
 20
50.76428859496108
 30
0.0
 11
70.85597649027945
 21
50.77928052136108
 31
0.0
  0
LINE
  5
AF0
330
19
100
AcDbEntity
  8
TitleBlock&Notes
  6
Continuous
 62
     3
100
AcDbLine
 10
69.95481429867949
 20
50.74770827296108
 30
0.0
 11
70.85597649027945
 21
50.76343810576108
 31
0.0
  0
LINE
  5
AF1
330
19
100
AcDbEntity
  8
TitleBlock&Notes
  6
Continuous
 62
     3
100
AcDbLine
 10
69.90151554987946
 20
50.73093549496109
 30
0.0
 11
70.85597649027945
 21
50.74759569016109
 31
0.0
  0
LINE
  5
AF2
330
19
100
AcDbEntity
  8
TitleBlock&Notes
  6
Continuous
 62
     3
100
AcDbLine
 10
69.82090313667947
 20
50.71368601216107
 30
0.0
 11
70.85597649027945
 21
50.73175327456109
 31
0.0
  0
TEXT
  5
AF3
330
19
100
AcDbEntity
  8
TitleBlock&Notes
  6
Continuous
 62
     3
100
AcDbText
 10
69.34000802307949
 20
49.7822815777611
 30
0.0
 40
0.2772
  1
 of
 41
0.8
 51
11.0
100
AcDbText
  0
LINE
  5
AF4
330
19
100
AcDbEntity
  8
TitleBlock&Notes
  6
Continuous
 62
     3
100
AcDbLine
 10
70.85597649027945
 20
50.70490142536108
 30
0.0
 11
71.23217649027947
 21
50.70490142536108
 31
0.0
  0
LINE
  5
AF5
330
19
100
AcDbEntity
  8
TitleBlock&Notes
  6
Continuous
 62
     3
100
AcDbLine
 10
70.89557649027948
 20
50.74450142536107
 30
0.0
 11
71.19257649027949
 21
50.74450142536107
 31
0.0
  0
LINE
  5
AF6
330
19
100
AcDbEntity
  8
TitleBlock&Notes
  6
Continuous
 62
     3
100
AcDbLine
 10
71.21237649027946
 20
50.72470142536108
 30
0.0
 11
70.8757764902795
 21
50.72470142536108
 31
0.0
  0
LINE
  5
AF7
330
19
100
AcDbEntity
  8
TitleBlock&Notes
  6
Continuous
 62
     3
100
AcDbLine
 10
71.88557649027948
 20
50.74450142536107
 30
0.0
 11
72.93497649027948
 21
50.74450142536107
 31
0.0
  0
LINE
  5
AF8
330
19
100
AcDbEntity
  8
TitleBlock&Notes
  6
Continuous
 62
     3
100
AcDbLine
 10
71.84597649027947
 20
50.70490142536108
 30
0.0
 11
72.97457649027951
 21
50.70490142536108
 31
0.0
  0
LINE
  5
AF9
330
19
100
AcDbEntity
  8
TitleBlock&Notes
  6
Continuous
 62
     3
100
AcDbLine
 10
71.8657764902795
 20
50.72470142536108
 30
0.0
 11
72.95477649027947
 21
50.72470142536108
 31
0.0
  0
LINE
  5
AFA
330
19
100
AcDbEntity
  8
TitleBlock&Notes
  6
Continuous
 62
     3
100
AcDbLine
 10
72.72342267747951
 20
50.44750142536109
 30
0.0
 11
73.41196938027948
 21
50.45952002536108
 31
0.0
  0
LINE
  5
AFB
330
19
100
AcDbEntity
  8
TitleBlock&Notes
  6
Continuous
 62
     3
100
AcDbLine
 10
71.81581142787949
 20
50.44750142536109
 30
0.0
 11
73.41196938027948
 21
50.47536244096107
 31
0.0
  0
LINE
  5
AFC
330
19
100
AcDbEntity
  8
TitleBlock&Notes
  6
Continuous
 62
     3
100
AcDbLine
 10
72.97457649027951
 20
50.8321032385611
 30
0.0
 11
73.41196938027948
 21
50.83973796016107
 31
0.0
  0
LINE
  5
AFD
330
19
100
AcDbEntity
  8
TitleBlock&Notes
  6
Continuous
 62
     3
100
AcDbLine
 10
72.97457649027951
 20
50.81626082296109
 30
0.0
 11
73.41196938027948
 21
50.82389554456108
 31
0.0
  0
LINE
  5
AFE
330
19
100
AcDbEntity
  8
TitleBlock&Notes
  6
Continuous
 62
     3
100
AcDbLine
 10
72.97457649027951
 20
50.80041840736107
 30
0.0
 11
73.41196938027948
 21
50.80805312896109
 31
0.0
  0
LINE
  5
AFF
330
19
100
AcDbEntity
  8
TitleBlock&Notes
  6
Continuous
 62
     3
100
AcDbLine
 10
72.97457649027951
 20
50.78457599176108
 30
0.0
 11
73.41196938027948
 21
50.79221071336109
 31
0.0
  0
LINE
  5
B00
330
19
100
AcDbEntity
  8
TitleBlock&Notes
  6
Continuous
 62
     3
100
AcDbLine
 10
72.97457649027951
 20
50.76873357616108
 30
0.0
 11
73.41196938027948
 21
50.77636829776109
 31
0.0
  0
LINE
  5
B01
330
19
100
AcDbEntity
  8
TitleBlock&Notes
  6
Continuous
 62
     3
100
AcDbLine
 10
72.97457649027951
 20
50.75289116056108
 30
0.0
 11
73.41196938027948
 21
50.76052588216108
 31
0.0
  0
LINE
  5
B02
330
19
100
AcDbEntity
  8
TitleBlock&Notes
  6
Continuous
 62
     3
100
AcDbLine
 10
72.97457649027951
 20
50.73704874496108
 30
0.0
 11
73.41196938027948
 21
50.74468346656108
 31
0.0
  0
LINE
  5
B03
330
19
100
AcDbEntity
  8
TitleBlock&Notes
  6
Continuous
 62
     3
100
AcDbLine
 10
72.97457649027951
 20
50.72120632936108
 30
0.0
 11
73.41196938027948
 21
50.72884105096109
 31
0.0
  0
LINE
  5
B04
330
19
100
AcDbEntity
  8
TitleBlock&Notes
  6
Continuous
 62
     3
100
AcDbLine
 10
72.97457649027951
 20
50.70536391376109
 30
0.0
 11
73.41196938027948
 21
50.71299863536109
 31
0.0
  0
LINE
  5
B06
330
19
100
AcDbEntity
  8
TitleBlock&Notes
  6
Continuous
 62
     3
100
AcDbLine
 10
71.47248378387949
 20
51.88784327776108
 30
0.0
 11
71.5746958190795
 21
51.88962737656108
 31
0.0
  0
LINE
  5
B07
330
19
100
AcDbEntity
  8
TitleBlock&Notes
  6
Continuous
 62
     3
100
AcDbLine
 10
71.3539911590795
 20
51.61294035496108
 30
0.0
 11
71.5746958190795
 21
51.61679276176108
 31
0.0
  0
LINE
  5
B08
330
19
100
AcDbEntity
  8
TitleBlock&Notes
  6
Continuous
 62
     3
100
AcDbLine
 10
71.74776746067948
 20
52.52650142536109
 30
0.0
 11
71.33810819307948
 21
52.52650142536109
 31
0.0
  0
LINE
  5
B09
330
19
100
AcDbEntity
  8
TitleBlock&Notes
  6
Continuous
 62
     3
100
AcDbLine
 10
71.35113469227945
 20
52.50670142536108
 30
0.0
 11
71.71767197547947
 21
52.50670142536108
 31
0.0
  0
LINE
  5
B0A
330
19
100
AcDbEntity
  8
TitleBlock&Notes
  6
Continuous
 62
     3
100
AcDbLine
 10
71.36416123107949
 20
52.48690142536108
 30
0.0
 11
71.68757649027949
 21
52.48690142536108
 31
0.0
  0
LINE
  5
B0B
330
19
100
AcDbEntity
  8
TitleBlock&Notes
  6
Continuous
 62
     3
100
AcDbLine
 10
71.19257649027949
 20
51.33850142536108
 30
0.0
 11
71.68757649027949
 21
52.48690142536108
 31
0.0
  0
LINE
  5
B0C
330
19
100
AcDbEntity
  8
TitleBlock&Notes
  6
Continuous
 62
     3
100
AcDbLine
 10
71.23217649027947
 20
51.33033028216109
 30
0.0
 11
71.74776746067948
 21
52.52650142536109
 31
0.0
  0
LINE
  5
B0D
330
19
100
AcDbEntity
  8
TitleBlock&Notes
  6
Continuous
 62
     3
100
AcDbLine
 10
71.21237649027946
 20
51.33441585376108
 30
0.0
 11
71.71767197547947
 21
52.50670142536108
 31
0.0
  0
LINE
  5
B0E
330
19
100
AcDbEntity
  8
TitleBlock&Notes
  6
Continuous
 62
     3
100
AcDbLine
 10
71.23217649027947
 20
50.94427122856108
 30
0.0
 11
71.84597649027947
 21
50.95498516696109
 31
0.0
  0
LINE
  5
B0F
330
19
100
AcDbEntity
  8
TitleBlock&Notes
  6
Continuous
 62
     3
100
AcDbLine
 10
71.23217649027947
 20
50.92842881296108
 30
0.0
 11
71.84597649027947
 21
50.93914275136109
 31
0.0
  0
LINE
  5
B10
330
19
100
AcDbEntity
  8
TitleBlock&Notes
  6
Continuous
 62
     3
100
AcDbLine
 10
71.23217649027947
 20
50.91258639736108
 30
0.0
 11
71.84597649027947
 21
50.92330033576109
 31
0.0
  0
LINE
  5
B11
330
19
100
AcDbEntity
  8
TitleBlock&Notes
  6
Continuous
 62
     3
100
AcDbLine
 10
71.23217649027947
 20
50.89674398176109
 30
0.0
 11
71.84597649027947
 21
50.90745792016109
 31
0.0
  0
LINE
  5
B12
330
19
100
AcDbEntity
  8
TitleBlock&Notes
  6
Continuous
 62
     3
100
AcDbLine
 10
71.23217649027947
 20
50.88090156616108
 30
0.0
 11
71.84597649027947
 21
50.89161550456108
 31
0.0
  0
LINE
  5
B13
330
19
100
AcDbEntity
  8
TitleBlock&Notes
  6
Continuous
 62
     3
100
AcDbLine
 10
71.23217649027947
 20
50.86505919016108
 30
0.0
 11
71.84597649027947
 21
50.87577308896108
 31
0.0
  0
LINE
  5
B14
330
19
100
AcDbEntity
  8
TitleBlock&Notes
  6
Continuous
 62
     3
100
AcDbLine
 10
71.47325281587947
 20
51.88962737656108
 30
0.0
 11
71.84597649027947
 21
51.88962737656108
 31
0.0
  0
LINE
  5
B15
330
19
100
AcDbEntity
  8
TitleBlock&Notes
  6
Continuous
 62
     3
100
AcDbLine
 10
71.5068531386795
 20
51.96758013496108
 30
0.0
 11
71.84597649027947
 21
51.96758013496108
 31
0.0
  0
LINE
  5
B16
330
19
100
AcDbEntity
  8
TitleBlock&Notes
  6
Continuous
 62
     3
100
AcDbLine
 10
71.46560340267946
 20
51.87188075536107
 30
0.0
 11
71.84597649027947
 21
51.87852021016109
 31
0.0
  0
LINE
  5
B17
330
19
100
AcDbEntity
  8
TitleBlock&Notes
  6
Continuous
 62
     3
100
AcDbLine
 10
71.45872302147947
 20
51.85591827256108
 30
0.0
 11
71.84597649027947
 21
51.86267779456108
 31
0.0
  0
LINE
  5
B18
330
19
100
AcDbEntity
  8
TitleBlock&Notes
  6
Continuous
 62
     3
100
AcDbLine
 10
71.45184260067947
 20
51.83995575016108
 30
0.0
 11
71.84597649027947
 21
51.84683537896109
 31
0.0
  0
LINE
  5
B19
330
19
100
AcDbEntity
  8
TitleBlock&Notes
  6
Continuous
 62
     3
100
AcDbLine
 10
71.44496221947949
 20
51.82399322776108
 30
0.0
 11
71.84597649027947
 21
51.83099296336109
 31
0.0
  0
LINE
  5
B1A
330
19
100
AcDbEntity
  8
TitleBlock&Notes
  6
Continuous
 62
     3
100
AcDbLine
 10
71.43808183827951
 20
51.80803070536108
 30
0.0
 11
71.84597649027947
 21
51.81515054776109
 31
0.0
  0
LINE
  5
B1B
330
19
100
AcDbEntity
  8
TitleBlock&Notes
  6
Continuous
 62
     3
100
AcDbLine
 10
71.43120145707948
 20
51.79206822256109
 30
0.0
 11
71.84597649027947
 21
51.79930813216109
 31
0.0
  0
LINE
  5
B1C
330
19
100
AcDbEntity
  8
TitleBlock&Notes
  6
Continuous
 62
     3
100
AcDbLine
 10
71.42432103627953
 20
51.77610570016109
 30
0.0
 11
71.84597649027947
 21
51.78346571656108
 31
0.0
  0
LINE
  5
B1D
330
19
100
AcDbEntity
  8
TitleBlock&Notes
  6
Continuous
 62
     3
100
AcDbLine
 10
71.41744065507947
 20
51.76014317776109
 30
0.0
 11
71.84597649027947
 21
51.76762330096109
 31
0.0
  0
LINE
  5
B1E
330
19
100
AcDbEntity
  8
TitleBlock&Notes
  6
Continuous
 62
     3
100
AcDbLine
 10
71.4105602738795
 20
51.74418069496109
 30
0.0
 11
71.84597649027947
 21
51.7517808853611
 31
0.0
  0
LINE
  5
B1F
330
19
100
AcDbEntity
  8
TitleBlock&Notes
  6
Continuous
 62
     3
100
AcDbLine
 10
71.4036798530795
 20
51.72821817256108
 30
0.0
 11
71.84597649027947
 21
51.73593846976108
 31
0.0
  0
LINE
  5
B20
330
19
100
AcDbEntity
  8
TitleBlock&Notes
  6
Continuous
 62
     3
100
AcDbLine
 10
71.39679947187946
 20
51.71225565016108
 30
0.0
 11
71.84597649027947
 21
51.72009609376107
 31
0.0
  0
LINE
  5
B21
330
19
100
AcDbEntity
  8
TitleBlock&Notes
  6
Continuous
 62
     3
100
AcDbLine
 10
71.23217649027947
 20
51.22702896976109
 30
0.0
 11
71.84597649027947
 21
51.22702896976109
 31
0.0
  0
LINE
  5
B22
330
19
100
AcDbEntity
  8
TitleBlock&Notes
  6
Continuous
 62
     3
100
AcDbLine
 10
71.23217649027947
 20
51.30498172816108
 30
0.0
 11
71.84597649027947
 21
51.30498172816108
 31
0.0
  0
LINE
  5
B23
330
19
100
AcDbEntity
  8
TitleBlock&Notes
  6
Continuous
 62
     3
100
AcDbLine
 10
71.35565166627947
 20
51.61679276176108
 30
0.0
 11
71.84597649027947
 21
51.61679276176108
 31
0.0
  0
LINE
  5
B24
330
19
100
AcDbEntity
  8
TitleBlock&Notes
  6
Continuous
 62
     3
100
AcDbLine
 10
71.3892519890795
 20
51.69474552016108
 30
0.0
 11
71.84597649027947
 21
51.69474552016108
 31
0.0
  0
LINE
  5
B25
330
19
100
AcDbEntity
  8
TitleBlock&Notes
  6
Continuous
 62
     3
100
AcDbLine
 10
71.23217649027947
 20
51.21359225416108
 30
0.0
 11
71.84597649027947
 21
51.22430619256109
 31
0.0
  0
LINE
  5
B26
330
19
100
AcDbEntity
  8
TitleBlock&Notes
  6
Continuous
 62
     3
100
AcDbLine
 10
71.23217649027947
 20
51.19774983856109
 30
0.0
 11
71.84597649027947
 21
51.2084637769611
 31
0.0
  0
LINE
  5
B27
330
19
100
AcDbEntity
  8
TitleBlock&Notes
  6
Continuous
 62
     3
100
AcDbLine
 10
71.23217649027947
 20
51.1819074229611
 30
0.0
 11
71.84597649027947
 21
51.19262136136107
 31
0.0
  0
LINE
  5
B28
330
19
100
AcDbEntity
  8
TitleBlock&Notes
  6
Continuous
 62
     3
100
AcDbLine
 10
71.23217649027947
 20
51.16606500736109
 30
0.0
 11
71.84597649027947
 21
51.17677894576108
 31
0.0
  0
LINE
  5
B29
330
19
100
AcDbEntity
  8
TitleBlock&Notes
  6
Continuous
 62
     3
100
AcDbLine
 10
71.23217649027947
 20
51.15022259176107
 30
0.0
 11
71.84597649027947
 21
51.16093653016108
 31
0.0
  0
LINE
  5
B2A
330
19
100
AcDbEntity
  8
TitleBlock&Notes
  6
Continuous
 62
     3
100
AcDbLine
 10
71.23217649027947
 20
51.13438017616108
 30
0.0
 11
71.84597649027947
 21
51.14509411456109
 31
0.0
  0
LINE
  5
B2B
330
19
100
AcDbEntity
  8
TitleBlock&Notes
  6
Continuous
 62
     3
100
AcDbLine
 10
71.23217649027947
 20
51.11853776056108
 30
0.0
 11
71.84597649027947
 21
51.12925169896109
 31
0.0
  0
LINE
  5
B2C
330
19
100
AcDbEntity
  8
TitleBlock&Notes
  6
Continuous
 62
     3
100
AcDbLine
 10
71.23217649027947
 20
51.10269538456108
 30
0.0
 11
71.84597649027947
 21
51.11340928336108
 31
0.0
  0
LINE
  5
B2D
330
19
100
AcDbEntity
  8
TitleBlock&Notes
  6
Continuous
 62
     3
100
AcDbLine
 10
71.23217649027947
 20
51.08685296896108
 30
0.0
 11
71.84597649027947
 21
51.09756686776108
 31
0.0
  0
LINE
  5
B2E
330
19
100
AcDbEntity
  8
TitleBlock&Notes
  6
Continuous
 62
     3
100
AcDbLine
 10
71.23217649027947
 20
51.07101055336109
 30
0.0
 11
71.84597649027947
 21
51.08172445216109
 31
0.0
  0
LINE
  5
B2F
330
19
100
AcDbEntity
  8
TitleBlock&Notes
  6
Continuous
 62
     3
100
AcDbLine
 10
71.23217649027947
 20
51.05516813776109
 30
0.0
 11
71.84597649027947
 21
51.06588203656109
 31
0.0
  0
LINE
  5
B30
330
19
100
AcDbEntity
  8
TitleBlock&Notes
  6
Continuous
 62
     3
100
AcDbLine
 10
71.23217649027947
 20
51.03932572216109
 30
0.0
 11
71.84597649027947
 21
51.0500396209611
 31
0.0
  0
LINE
  5
B31
330
19
100
AcDbEntity
  8
TitleBlock&Notes
  6
Continuous
 62
     3
100
AcDbLine
 10
71.23217649027947
 20
51.02348330656109
 30
0.0
 11
71.84597649027947
 21
51.03419720536109
 31
0.0
  0
LINE
  5
B32
330
19
100
AcDbEntity
  8
TitleBlock&Notes
  6
Continuous
 62
     3
100
AcDbLine
 10
71.23217649027947
 20
51.00764089096107
 30
0.0
 11
71.84597649027947
 21
51.01835478976108
 31
0.0
  0
LINE
  5
B33
330
19
100
AcDbEntity
  8
TitleBlock&Notes
  6
Continuous
 62
     3
100
AcDbLine
 10
71.23217649027947
 20
50.99179847536108
 30
0.0
 11
71.84597649027947
 21
51.00251241376108
 31
0.0
  0
LINE
  5
B34
330
19
100
AcDbEntity
  8
TitleBlock&Notes
  6
Continuous
 62
     3
100
AcDbLine
 10
71.23217649027947
 20
50.9759560597611
 30
0.0
 11
71.84597649027947
 21
50.98666999816109
 31
0.0
  0
LINE
  5
B35
330
19
100
AcDbEntity
  8
TitleBlock&Notes
  6
Continuous
 62
     3
100
AcDbLine
 10
71.23217649027947
 20
50.96011364416108
 30
0.0
 11
71.84597649027947
 21
50.97082758256108
 31
0.0
  0
LINE
  5
B36
330
19
100
AcDbEntity
  8
TitleBlock&Notes
  6
Continuous
 62
     3
100
AcDbLine
 10
71.34711073827948
 20
51.59697783256109
 30
0.0
 11
71.84597649027947
 21
51.60568555576109
 31
0.0
  0
LINE
  5
B37
330
19
100
AcDbEntity
  8
TitleBlock&Notes
  6
Continuous
 62
     3
100
AcDbLine
 10
71.34023035707949
 20
51.58101531016109
 30
0.0
 11
71.84597649027947
 21
51.58984314016108
 31
0.0
  0
LINE
  5
B38
330
19
100
AcDbEntity
  8
TitleBlock&Notes
  6
Continuous
 62
     3
100
AcDbLine
 10
71.33334997587951
 20
51.56505278776108
 30
0.0
 11
71.84597649027947
 21
51.57400072456109
 31
0.0
  0
LINE
  5
B39
330
19
100
AcDbEntity
  8
TitleBlock&Notes
  6
Continuous
 62
     3
100
AcDbLine
 10
71.32646959467948
 20
51.5490903049611
 30
0.0
 11
71.84597649027947
 21
51.55815830896108
 31
0.0
  0
LINE
  5
B3A
330
19
100
AcDbEntity
  8
TitleBlock&Notes
  6
Continuous
 62
     3
100
AcDbLine
 10
71.31958917387947
 20
51.53312778256109
 30
0.0
 11
71.84597649027947
 21
51.54231589336109
 31
0.0
  0
LINE
  5
B3B
330
19
100
AcDbEntity
  8
TitleBlock&Notes
  6
Continuous
 62
     3
100
AcDbLine
 10
71.3127087926795
 20
51.51716526016108
 30
0.0
 11
71.84597649027947
 21
51.5264734777611
 31
0.0
  0
LINE
  5
B3C
330
19
100
AcDbEntity
  8
TitleBlock&Notes
  6
Continuous
 62
     3
100
AcDbLine
 10
71.30582841147947
 20
51.50120277736108
 30
0.0
 11
71.84597649027947
 21
51.51063106216109
 31
0.0
  0
LINE
  5
B3D
330
19
100
AcDbEntity
  8
TitleBlock&Notes
  6
Continuous
 62
     3
100
AcDbLine
 10
71.29894799067949
 20
51.48524025496108
 30
0.0
 11
71.84597649027947
 21
51.49478868616107
 31
0.0
  0
LINE
  5
B3E
330
19
100
AcDbEntity
  8
TitleBlock&Notes
  6
Continuous
 62
     3
100
AcDbLine
 10
71.29206760947946
 20
51.46927773256108
 30
0.0
 11
71.84597649027947
 21
51.47894627056108
 31
0.0
  0
LINE
  5
B3F
330
19
100
AcDbEntity
  8
TitleBlock&Notes
  6
Continuous
 62
     3
100
AcDbLine
 10
71.28518722827948
 20
51.45331521016108
 30
0.0
 11
71.84597649027947
 21
51.46310385496109
 31
0.0
  0
LINE
  5
B40
330
19
100
AcDbEntity
  8
TitleBlock&Notes
  6
Continuous
 62
     3
100
AcDbLine
 10
71.27830684707951
 20
51.43735272736108
 30
0.0
 11
71.84597649027947
 21
51.44726143936108
 31
0.0
  0
LINE
  5
B41
330
19
100
AcDbEntity
  8
TitleBlock&Notes
  6
Continuous
 62
     3
100
AcDbLine
 10
71.2714264262795
 20
51.42139020496109
 30
0.0
 11
71.84597649027947
 21
51.43141902376108
 31
0.0
  0
LINE
  5
B42
330
19
100
AcDbEntity
  8
TitleBlock&Notes
  6
Continuous
 62
     3
100
AcDbLine
 10
71.26454604507951
 20
51.40542768256109
 30
0.0
 11
71.84597649027947
 21
51.41557660816108
 31
0.0
  0
LINE
  5
B43
330
19
100
AcDbEntity
  8
TitleBlock&Notes
  6
Continuous
 62
     3
100
AcDbLine
 10
71.25766566387948
 20
51.38946519976109
 30
0.0
 11
71.84597649027947
 21
51.39973419256108
 31
0.0
  0
LINE
  5
B44
330
19
100
AcDbEntity
  8
TitleBlock&Notes
  6
Continuous
 62
     3
100
AcDbLine
 10
71.25078524307946
 20
51.3735026773611
 30
0.0
 11
71.84597649027947
 21
51.38389177696109
 31
0.0
  0
LINE
  5
B45
330
19
100
AcDbEntity
  8
TitleBlock&Notes
  6
Continuous
 62
     3
100
AcDbLine
 10
71.24390486187948
 20
51.3575401549611
 30
0.0
 11
71.84597649027947
 21
51.36804936136108
 31
0.0
  0
LINE
  5
B46
330
19
100
AcDbEntity
  8
TitleBlock&Notes
  6
Continuous
 62
     3
100
AcDbLine
 10
71.23702448067945
 20
51.34157767216109
 30
0.0
 11
71.84597649027947
 21
51.35220694576109
 31
0.0
  0
LINE
  5
B47
330
19
100
AcDbEntity
  8
TitleBlock&Notes
  6
Continuous
 62
     3
100
AcDbLine
 10
71.23217649027947
 20
51.32565063136109
 30
0.0
 11
71.84597649027947
 21
51.33636453016108
 31
0.0
  0
LINE
  5
B48
330
19
100
AcDbEntity
  8
TitleBlock&Notes
  6
Continuous
 62
     3
100
AcDbLine
 10
71.23217649027947
 20
51.30980821576109
 30
0.0
 11
71.84597649027947
 21
51.32052211456109
 31
0.0
  0
LINE
  5
B49
330
19
100
AcDbEntity
  8
TitleBlock&Notes
  6
Continuous
 62
     3
100
AcDbLine
 10
71.38991909067948
 20
51.69629316736109
 30
0.0
 11
71.84597649027947
 21
51.70425367816108
 31
0.0
  0
LINE
  5
B4B
330
19
100
AcDbEntity
  8
TitleBlock&Notes
  6
Continuous
 62
     3
100
AcDbLine
 10
70.21782514347947
 20
50.9107232569611
 30
0.0
 11
70.85597649027945
 21
50.92186222216109
 31
0.0
  0
LINE
  5
B4C
330
19
100
AcDbEntity
  8
TitleBlock&Notes
  6
Continuous
 62
     3
100
AcDbLine
 10
70.20052073547948
 20
50.89457881216109
 30
0.0
 11
70.85597649027945
 21
50.90601980656108
 31
0.0
  0
LINE
  5
B4D
330
19
100
AcDbEntity
  8
TitleBlock&Notes
  6
Continuous
 62
     3
100
AcDbLine
 10
70.18201244787949
 20
50.87841330016108
 30
0.0
 11
70.85597649027945
 21
50.89017739096108
 31
0.0
  0
LINE
  5
B4E
330
19
100
AcDbEntity
  8
TitleBlock&Notes
  6
Continuous
 62
     3
100
AcDbLine
 10
70.16214762267953
 20
50.86222414696108
 30
0.0
 11
70.85597649027945
 21
50.87433497536108
 31
0.0
  0
LINE
  5
B4F
330
19
100
AcDbEntity
  8
TitleBlock&Notes
  6
Continuous
 62
     3
100
AcDbLine
 10
70.09972550907949
 20
51.87310142536109
 30
0.0
 11
70.40057649027949
 21
51.87310142536109
 31
0.0
  0
LINE
  5
B50
330
19
100
AcDbEntity
  8
TitleBlock&Notes
  6
Continuous
 62
     3
100
AcDbLine
 10
70.40057649027949
 20
51.3781014253611
 30
0.0
 11
70.10148264027947
 21
51.3781014253611
 31
0.0
  0
LINE
  5
B51
330
19
100
AcDbEntity
  8
TitleBlock&Notes
  6
Continuous
 62
     3
100
AcDbLine
 10
70.44393397587947
 20
51.83350142536109
 30
0.0
 11
70.06773437187947
 21
51.83350142536109
 31
0.0
  0
LINE
  5
B52
330
19
100
AcDbEntity
  8
TitleBlock&Notes
  6
Continuous
 62
     3
100
AcDbLine
 10
70.06605778707944
 20
51.41770142536109
 30
0.0
 11
70.44261398907952
 21
51.41770142536109
 31
0.0
  0
LINE
  5
B53
330
19
100
AcDbEntity
  8
TitleBlock&Notes
  6
Continuous
 62
     3
100
AcDbLine
 10
70.08482299947949
 20
51.85330142536108
 30
0.0
 11
70.42258585347949
 21
51.85330142536108
 31
0.0
  0
LINE
  5
B54
330
19
100
AcDbEntity
  8
TitleBlock&Notes
  6
Continuous
 62
     3
100
AcDbLine
 10
70.08419102307946
 20
51.39790142536108
 30
0.0
 11
70.42190453547949
 21
51.39790142536108
 31
0.0
  0
LINE
  5
B55
330
19
100
AcDbEntity
  8
TitleBlock&Notes
  6
Continuous
 62
     3
100
AcDbLine
 10
70.19922874587951
 20
52.3387911685611
 30
0.0
 11
70.4212950518795
 21
52.3387911685611
 31
0.0
  0
LINE
  5
B56
330
19
100
AcDbEntity
  8
TitleBlock&Notes
  6
Continuous
 62
     3
100
AcDbLine
 10
70.42982952507947
 20
52.31899116856109
 30
0.0
 11
70.22051885427946
 21
52.31899116856109
 31
0.0
  0
LINE
  5
B57
330
19
100
AcDbEntity
  8
TitleBlock&Notes
  6
Continuous
 62
     3
100
AcDbLine
 10
70.15248415347949
 20
51.41770142536109
 30
0.0
 11
70.81334435787946
 21
51.42923678656109
 31
0.0
  0
LINE
  5
B58
330
19
100
AcDbEntity
  8
TitleBlock&Notes
  6
Continuous
 62
     3
100
AcDbLine
 10
69.35297627067952
 20
51.61679276176108
 30
0.0
 11
70.73250127467949
 21
51.61679276176108
 31
0.0
  0
LINE
  5
B59
330
19
100
AcDbEntity
  8
TitleBlock&Notes
  6
Continuous
 62
     3
100
AcDbLine
 10
69.35361054387948
 20
51.69474552016108
 30
0.0
 11
70.69890095187952
 21
51.69474552016108
 31
0.0
  0
LINE
  5
B5A
330
19
100
AcDbEntity
  8
TitleBlock&Notes
  6
Continuous
 62
     3
100
AcDbLine
 10
69.35278963587947
 20
51.59385165016107
 30
0.0
 11
70.66708460907946
 21
51.61679276176108
 31
0.0
  0
LINE
  5
B5B
330
19
100
AcDbEntity
  8
TitleBlock&Notes
  6
Continuous
 62
     3
100
AcDbLine
 10
69.3526606982795
 20
51.5780069773611
 30
0.0
 11
70.73879042787952
 21
51.60220198336109
 31
0.0
  0
LINE
  5
B5C
330
19
100
AcDbEntity
  8
TitleBlock&Notes
  6
Continuous
 62
     3
100
AcDbLine
 10
69.35253180027949
 20
51.56216230456108
 30
0.0
 11
70.74556804707945
 21
51.58647785296108
 31
0.0
  0
LINE
  5
B5D
330
19
100
AcDbEntity
  8
TitleBlock&Notes
  6
Continuous
 62
     3
100
AcDbLine
 10
69.35240286267947
 20
51.54631767136109
 30
0.0
 11
70.75234566627951
 21
51.57075376216109
 31
0.0
  0
LINE
  5
B5E
330
19
100
AcDbEntity
  8
TitleBlock&Notes
  6
Continuous
 62
     3
100
AcDbLine
 10
69.35227396467951
 20
51.53047299856109
 30
0.0
 11
70.75912332507948
 21
51.55502963176108
 31
0.0
  0
LINE
  5
B5F
330
19
100
AcDbEntity
  8
TitleBlock&Notes
  6
Continuous
 62
     3
100
AcDbLine
 10
69.35214502707949
 20
51.51462832576109
 30
0.0
 11
70.76590094427951
 21
51.53930554096108
 31
0.0
  0
LINE
  5
B60
330
19
100
AcDbEntity
  8
TitleBlock&Notes
  6
Continuous
 62
     3
100
AcDbLine
 10
69.35201612907949
 20
51.49878365296109
 30
0.0
 11
70.7726785634795
 21
51.52358141056108
 31
0.0
  0
LINE
  5
B61
330
19
100
AcDbEntity
  8
TitleBlock&Notes
  6
Continuous
 62
     3
100
AcDbLine
 10
69.35188719147951
 20
51.48293901976108
 30
0.0
 11
70.77945622227947
 21
51.50785731976109
 31
0.0
  0
LINE
  5
B62
330
19
100
AcDbEntity
  8
TitleBlock&Notes
  6
Continuous
 62
     3
100
AcDbLine
 10
69.35175829347951
 20
51.46709434696108
 30
0.0
 11
70.78623384147949
 21
51.49213318936109
 31
0.0
  0
LINE
  5
B63
330
19
100
AcDbEntity
  8
TitleBlock&Notes
  6
Continuous
 62
     3
100
AcDbLine
 10
69.35162935587948
 20
51.45124967416109
 30
0.0
 11
70.79301146067948
 21
51.47640909856109
 31
0.0
  0
LINE
  5
B64
330
19
100
AcDbEntity
  8
TitleBlock&Notes
  6
Continuous
 62
     3
100
AcDbLine
 10
69.35150045787946
 20
51.43540500136109
 30
0.0
 11
70.79978911947946
 21
51.46068496816109
 31
0.0
  0
LINE
  5
B65
330
19
100
AcDbEntity
  8
TitleBlock&Notes
  6
Continuous
 62
     3
100
AcDbLine
 10
69.3513715202795
 20
51.4195603681611
 30
0.0
 11
70.80656673867952
 21
51.44496087736108
 31
0.0
  0
LINE
  5
B66
330
19
100
AcDbEntity
  8
TitleBlock&Notes
  6
Continuous
 62
     3
100
AcDbLine
 10
69.35449413867951
 20
51.80334638176109
 30
0.0
 11
70.6424003450795
 21
51.82582686616107
 31
0.0
  0
LINE
  5
B67
330
19
100
AcDbEntity
  8
TitleBlock&Notes
  6
Continuous
 62
     3
100
AcDbLine
 10
69.3543652406795
 20
51.78750174856109
 30
0.0
 11
70.64917800387951
 21
51.81010277536109
 31
0.0
  0
LINE
  5
B68
330
19
100
AcDbEntity
  8
TitleBlock&Notes
  6
Continuous
 62
     3
100
AcDbLine
 10
69.35423630307948
 20
51.77165707576108
 30
0.0
 11
70.65595562307945
 21
51.79437864496108
 31
0.0
  0
LINE
  5
B69
330
19
100
AcDbEntity
  8
TitleBlock&Notes
  6
Continuous
 62
     3
100
AcDbLine
 10
69.35410740507947
 20
51.7558124029611
 30
0.0
 11
70.66273324227951
 21
51.77865455416109
 31
0.0
  0
LINE
  5
B6A
330
19
100
AcDbEntity
  8
TitleBlock&Notes
  6
Continuous
 62
     3
100
AcDbLine
 10
69.3539784674795
 20
51.73996773016107
 30
0.0
 11
70.66951090107949
 21
51.76293046336108
 31
0.0
  0
LINE
  5
B6B
330
19
100
AcDbEntity
  8
TitleBlock&Notes
  6
Continuous
 62
     3
100
AcDbLine
 10
69.35384956947949
 20
51.72412305736108
 30
0.0
 11
70.67628852027951
 21
51.74720633296108
 31
0.0
  0
LINE
  5
B6C
330
19
100
AcDbEntity
  8
TitleBlock&Notes
  6
Continuous
 62
     3
100
AcDbLine
 10
69.35372063187947
 20
51.70827842416109
 30
0.0
 11
70.68306617907947
 21
51.73148224216109
 31
0.0
  0
LINE
  5
B6D
330
19
100
AcDbEntity
  8
TitleBlock&Notes
  6
Continuous
 62
     3
100
AcDbLine
 10
69.48603207267949
 20
51.69474552016108
 30
0.0
 11
70.68984379827947
 21
51.71575811176109
 31
0.0
  0
ARC
  5
B6E
330
19
100
AcDbEntity
  8
TitleBlock&Notes
  6
Continuous
 62
     3
100
AcDbCircle
 10
69.70757649027951
 20
51.7887917185611
 30
0.0
 40
0.6981096672
100
AcDbArc
 50
6.936458520000021
 51
173.0635414800004
  0
ARC
  5
B6F
330
19
100
AcDbEntity
  8
TitleBlock&Notes
  6
Continuous
 62
     3
100
AcDbCircle
 10
69.70757649027951
 20
51.7887917185611
 30
0.0
 40
0.7377135876000001
100
AcDbArc
 50
3.474582379999759
 51
173.2499419800006
  0
ARC
  5
B70
330
19
100
AcDbEntity
  8
TitleBlock&Notes
  6
Continuous
 62
     3
100
AcDbCircle
 10
69.70757649027951
 20
51.7887917185611
 30
0.0
 40
0.7179135876000001
100
AcDbArc
 50
5.155389820000103
 51
173.2499419800006
  0
LINE
  5
B71
330
19
100
AcDbEntity
  8
TitleBlock&Notes
  6
Continuous
 62
     3
100
AcDbLine
 10
69.35507835747948
 20
51.87515009176109
 30
0.0
 11
69.35117649027947
 21
51.39558735976108
 31
0.0
  0
LINE
  5
B72
330
19
100
AcDbEntity
  8
TitleBlock&Notes
  6
Continuous
 62
     3
100
AcDbLine
 10
69.33527903067951
 20
51.8753111845611
 30
0.0
 11
69.33137712387949
 21
51.3957484525611
 31
0.0
  0
LINE
  5
B73
330
19
100
AcDbEntity
  8
TitleBlock&Notes
  6
Continuous
 62
     3
100
AcDbLine
 10
69.0145764902795
 20
51.3781014253611
 30
0.0
 11
69.0145764902795
 21
51.87310142536109
 31
0.0
  0
LINE
  5
B74
330
19
100
AcDbEntity
  8
TitleBlock&Notes
  6
Continuous
 62
     3
100
AcDbLine
 10
68.97497649027949
 20
51.37635284776108
 30
0.0
 11
68.97497649027949
 21
51.87550142296109
 31
0.0
  0
LINE
  5
B75
330
19
100
AcDbEntity
  8
TitleBlock&Notes
  6
Continuous
 62
     3
100
AcDbLine
 10
69.31157649027951
 20
51.39324347536109
 30
0.0
 11
69.31157649027951
 21
51.85261159336107
 31
0.0
  0
LINE
  5
B76
330
19
100
AcDbEntity
  8
TitleBlock&Notes
  6
Continuous
 62
     3
100
AcDbLine
 10
68.99477649027947
 20
51.37635284776108
 30
0.0
 11
68.99477649027947
 21
51.87550142296109
 31
0.0
  0
LINE
  5
B77
330
19
100
AcDbEntity
  8
TitleBlock&Notes
  6
Continuous
 62
     3
100
AcDbLine
 10
69.35488091187946
 20
51.85088040016108
 30
0.0
 11
70.06278148107947
 21
51.86323682776109
 31
0.0
  0
ARC
  5
B78
330
19
100
AcDbEntity
  8
TitleBlock&Notes
  6
Continuous
 62
     3
100
AcDbCircle
 10
69.70757649027951
 20
51.7887917185611
 30
0.0
 40
0.3629223972
100
AcDbArc
 50
7.076443860000049
 51
166.2342647900004
  0
LINE
  5
B79
330
19
100
AcDbEntity
  8
TitleBlock&Notes
  6
Continuous
 62
     3
100
AcDbLine
 10
69.35291853387948
 20
51.60969632296108
 30
0.0
 11
69.75947335947947
 21
51.61679276176108
 31
0.0
  0
LINE
  5
B7A
330
19
100
AcDbEntity
  8
TitleBlock&Notes
  6
Continuous
 62
     3
100
AcDbLine
 10
69.3512426222795
 20
51.40371569536108
 30
0.0
 11
70.06595946027946
 21
51.41619112096107
 31
0.0
  0
LINE
  5
B7B
330
19
100
AcDbEntity
  8
TitleBlock&Notes
  6
Continuous
 62
     3
100
AcDbLine
 10
69.35222644467947
 20
51.3878904661611
 30
0.0
 11
70.0645386122795
 21
51.40032391576109
 31
0.0
  0
LINE
  5
B7C
330
19
100
AcDbEntity
  8
TitleBlock&Notes
  6
Continuous
 62
     3
100
AcDbLine
 10
69.35491667067947
 20
51.37209497656108
 30
0.0
 11
70.06240124187947
 21
51.38444419696108
 31
0.0
  0
LINE
  5
B7D
330
19
100
AcDbEntity
  8
TitleBlock&Notes
  6
Continuous
 62
     3
100
AcDbLine
 10
69.35833822947947
 20
51.35631231736107
 30
0.0
 11
70.0595326178795
 21
51.36855168736108
 31
0.0
  0
LINE
  5
B7E
330
19
100
AcDbEntity
  8
TitleBlock&Notes
  6
Continuous
 62
     3
100
AcDbLine
 10
69.3625109210795
 20
51.34054272616109
 30
0.0
 11
70.05591278187949
 21
51.35264610976108
 31
0.0
  0
LINE
  5
B7F
330
19
100
AcDbEntity
  8
TitleBlock&Notes
  6
Continuous
 62
     3
100
AcDbLine
 10
69.35475197427948
 20
51.8350357273611
 30
0.0
 11
70.06572780027948
 21
51.84744585256108
 31
0.0
  0
LINE
  5
B80
330
19
100
AcDbEntity
  8
TitleBlock&Notes
  6
Continuous
 62
     3
100
AcDbLine
 10
69.35462307627948
 20
51.81919105456109
 30
0.0
 11
70.17446278707947
 21
51.83350142536109
 31
0.0
  0
LINE
  5
B81
330
19
100
AcDbEntity
  8
TitleBlock&Notes
  6
Continuous
 62
     3
100
AcDbLine
 10
69.4185428618795
 20
51.22702896976109
 30
0.0
 11
69.99661011867948
 21
51.22702896976109
 31
0.0
  0
LINE
  5
B82
330
19
100
AcDbEntity
  8
TitleBlock&Notes
  6
Continuous
 62
     3
100
AcDbLine
 10
69.37484275707952
 20
51.30498172816108
 30
0.0
 11
70.0403101838795
 21
51.30498172816108
 31
0.0
  0
LINE
  5
B83
330
19
100
AcDbEntity
  8
TitleBlock&Notes
  6
Continuous
 62
     3
100
AcDbLine
 10
69.42878880747946
 20
51.21379884736108
 30
0.0
 11
69.9940986074795
 21
51.22366633576109
 31
0.0
  0
LINE
  5
B84
330
19
100
AcDbEntity
  8
TitleBlock&Notes
  6
Continuous
 62
     3
100
AcDbLine
 10
69.4422294434795
 20
51.19819102216109
 30
0.0
 11
69.98121082707948
 21
51.2075989921611
 31
0.0
  0
LINE
  5
B85
330
19
100
AcDbEntity
  8
TitleBlock&Notes
  6
Continuous
 62
     3
100
AcDbLine
 10
69.45733015107949
 20
51.18261218416107
 30
0.0
 11
69.96666305427947
 21
51.19150262176108
 31
0.0
  0
LINE
  5
B86
330
19
100
AcDbEntity
  8
TitleBlock&Notes
  6
Continuous
 62
     3
100
AcDbLine
 10
69.47440095867946
 20
51.16706775856109
 30
0.0
 11
69.95014510227952
 21
51.17537191816109
 31
0.0
  0
LINE
  5
B87
330
19
100
AcDbEntity
  8
TitleBlock&Notes
  6
Continuous
 62
     3
100
AcDbLine
 10
69.49389544467948
 20
51.15156562576109
 30
0.0
 11
69.93120351147945
 21
51.15919888216109
 31
0.0
  0
LINE
  5
B88
330
19
100
AcDbEntity
  8
TitleBlock&Notes
  6
Continuous
 62
     3
100
AcDbLine
 10
69.51652415187945
 20
51.1361181805611
 30
0.0
 11
69.90912769947946
 21
51.1429711189611
 31
0.0
  0
LINE
  5
B89
330
19
100
AcDbEntity
  8
TitleBlock&Notes
  6
Continuous
 62
     3
100
AcDbLine
 10
69.54352192707947
 20
51.12074704456107
 30
0.0
 11
69.8826828194795
 21
51.12666708616108
 31
0.0
  0
LINE
  5
B8A
330
19
100
AcDbEntity
  8
TitleBlock&Notes
  6
Continuous
 62
     3
100
AcDbLine
 10
69.5774413070795
 20
51.10549668856108
 30
0.0
 11
69.84931633467948
 21
51.11024227336109
 31
0.0
  0
LINE
  5
B8B
330
19
100
AcDbEntity
  8
TitleBlock&Notes
  6
Continuous
 62
     3
100
AcDbLine
 10
69.37321931547947
 20
51.30904480696108
 30
0.0
 11
70.04631021747949
 21
51.32079365176108
 31
0.0
  0
ARC
  5
B8C
330
19
100
AcDbEntity
  8
TitleBlock&Notes
  6
Continuous
 62
     3
100
AcDbCircle
 10
69.70757649027951
 20
51.44028578056108
 30
0.0
 40
0.3591920376
100
AcDbArc
 50
187.1485089300005
 51
356.3951218200006
  0
LINE
  5
B8D
330
19
100
AcDbEntity
  8
TitleBlock&Notes
  6
Continuous
 62
     3
100
AcDbLine
 10
69.36746052507953
 20
51.32478671776109
 30
0.0
 11
70.05151611267947
 21
51.33672694936109
 31
0.0
  0
ARC
  5
B8E
330
19
100
AcDbEntity
  8
TitleBlock&Notes
  6
Continuous
 62
     3
100
AcDbCircle
 10
69.70757649027951
 20
51.44028578056108
 30
0.0
 40
0.3789920376
100
AcDbArc
 50
187.1485089300005
 51
353.5789239900006
  0
ARC
  5
B8F
330
19
100
AcDbEntity
  8
TitleBlock&Notes
  6
Continuous
 62
     3
100
AcDbCircle
 10
69.70757649027951
 20
51.44028578056108
 30
0.0
 40
0.3987843948
100
AcDbArc
 50
186.7746279100004
 51
351.0289824700007
  0
LINE
  5
B90
330
19
100
AcDbEntity
  8
TitleBlock&Notes
  6
Continuous
 62
     3
100
AcDbLine
 10
69.62591226147951
 20
51.09050032696109
 30
0.0
 11
69.80139827547947
 21
51.09356346616109
 31
0.0
  0
LINE
  5
B91
330
19
100
AcDbEntity
  8
TitleBlock&Notes
  6
Continuous
 62
     3
100
AcDbLine
 10
69.45106788627947
 20
52.04553289336108
 30
0.0
 11
69.96408505467947
 21
52.04553289336108
 31
0.0
  0
LINE
  5
B92
330
19
100
AcDbEntity
  8
TitleBlock&Notes
  6
Continuous
 62
     3
100
AcDbLine
 10
69.43267364667952
 20
52.02573289336109
 30
0.0
 11
69.9824792942795
 21
52.02573289336109
 31
0.0
  0
LINE
  5
B93
330
19
100
AcDbEntity
  8
TitleBlock&Notes
  6
Continuous
 62
     3
100
AcDbLine
 10
69.35698794867945
 20
51.88260198016109
 30
0.0
 11
69.75947335947947
 21
51.88962737656108
 31
0.0
  0
LINE
  5
B94
330
19
100
AcDbEntity
  8
TitleBlock&Notes
  6
Continuous
 62
     3
100
AcDbLine
 10
69.39174839307948
 20
51.96758013496108
 30
0.0
 11
70.02340454787949
 21
51.96758013496108
 31
0.0
  0
LINE
  5
B95
330
19
100
AcDbEntity
  8
TitleBlock&Notes
  6
Continuous
 62
     3
100
AcDbLine
 10
70.05620930667948
 20
51.88962737656108
 30
0.0
 11
69.35894363427947
 21
51.88962737656108
 31
0.0
  0
LINE
  5
B96
330
19
100
AcDbEntity
  8
TitleBlock&Notes
  6
Continuous
 62
     3
100
AcDbLine
 10
69.3550098098795
 20
51.86672503336108
 30
0.0
 11
70.05910517547947
 21
51.87901509136108
 31
0.0
  0
LINE
  5
B97
330
19
100
AcDbEntity
  8
TitleBlock&Notes
  6
Continuous
 62
     3
100
AcDbLine
 10
69.41678034507948
 20
52.00593289336109
 30
0.0
 11
69.99837259587947
 21
52.00593289336109
 31
0.0
  0
LINE
  5
B98
330
19
100
AcDbEntity
  8
TitleBlock&Notes
  6
Continuous
 62
     3
100
AcDbLine
 10
69.4029962186795
 20
51.98613289336108
 30
0.0
 11
70.01215672227951
 21
51.98613289336108
 31
0.0
  0
ARC
  5
B99
330
19
100
AcDbEntity
  8
TitleBlock&Notes
  6
Continuous
 62
     3
100
AcDbCircle
 10
69.70757649027951
 20
51.7887917185611
 30
0.0
 40
0.3827223972
100
AcDbArc
 50
9.703799319999886
 51
166.2342647900004
  0
ARC
  5
B9A
330
19
100
AcDbEntity
  8
TitleBlock&Notes
  6
Continuous
 62
     3
100
AcDbCircle
 10
69.70757649027951
 20
51.7887917185611
 30
0.0
 40
0.4011096672000001
100
AcDbArc
 50
12.13355041999991
 51
170.8448616600005
  0
LINE
  5
B9B
330
19
100
AcDbEntity
  8
TitleBlock&Notes
  6
Continuous
 62
     3
100
AcDbLine
 10
71.04407649027951
 20
51.74430476176109
 30
0.0
 11
71.36416123107949
 21
52.48690142536108
 31
0.0
  0
LINE
  5
B9C
330
19
100
AcDbEntity
  8
TitleBlock&Notes
  6
Continuous
 62
     3
100
AcDbLine
 10
71.33810819307948
 20
52.52650142536109
 30
0.0
 11
71.04407649027951
 21
51.8443478653611
 31
0.0
  0
LINE
  5
B9D
330
19
100
AcDbEntity
  8
TitleBlock&Notes
  6
Continuous
 62
     3
100
AcDbLine
 10
71.04407649027951
 20
51.79432629376109
 30
0.0
 11
71.35113469227945
 21
52.50670142536108
 31
0.0
  0
LINE
  5
B9E
330
19
100
AcDbEntity
  8
TitleBlock&Notes
  6
Continuous
 62
     3
100
AcDbLine
 10
71.04407649027951
 20
51.74430476176109
 30
0.0
 11
70.72399170987946
 21
52.48690142536108
 31
0.0
  0
LINE
  5
B9F
330
19
100
AcDbEntity
  8
TitleBlock&Notes
  6
Continuous
 62
     3
100
AcDbLine
 10
71.04407649027951
 20
51.8443478653611
 30
0.0
 11
70.75004478747948
 21
52.52650142536109
 31
0.0
  0
LINE
  5
BA0
330
19
100
AcDbEntity
  8
TitleBlock&Notes
  6
Continuous
 62
     3
100
AcDbLine
 10
71.04407649027951
 20
51.79432629376109
 30
0.0
 11
70.73701824867947
 21
52.50670142536108
 31
0.0
  0
LINE
  5
BA1
330
19
100
AcDbEntity
  8
TitleBlock&Notes
  6
Continuous
 62
     3
100
AcDbLine
 10
70.89557649027948
 20
51.33850142536108
 30
0.0
 11
70.40057649027949
 21
52.48690142536108
 31
0.0
  0
LINE
  5
BA2
330
19
100
AcDbEntity
  8
TitleBlock&Notes
  6
Continuous
 62
     3
100
AcDbLine
 10
70.34038548027945
 20
52.52650142536109
 30
0.0
 11
70.85597649027945
 21
51.33033028216109
 31
0.0
  0
LINE
  5
BA3
330
19
100
AcDbEntity
  8
TitleBlock&Notes
  6
Continuous
 62
     3
100
AcDbLine
 10
70.37048096547947
 20
52.50670142536108
 30
0.0
 11
70.8757764902795
 21
51.33441585376108
 31
0.0
  0
LINE
  5
BA4
330
19
100
AcDbEntity
  8
TitleBlock&Notes
  6
Continuous
 62
     3
100
AcDbLine
 10
70.24929094707947
 20
50.94295730056108
 30
0.0
 11
70.85597649027945
 21
50.95354705336108
 31
0.0
  0
LINE
  5
BA5
330
19
100
AcDbEntity
  8
TitleBlock&Notes
  6
Continuous
 62
     3
100
AcDbLine
 10
70.23404839227952
 20
50.92684885216107
 30
0.0
 11
70.85597649027945
 21
50.93770463776109
 31
0.0
  0
LINE
  5
BA6
330
19
100
AcDbEntity
  8
TitleBlock&Notes
  6
Continuous
 62
     3
100
AcDbLine
 10
70.28990478627946
 20
50.99119346656109
 30
0.0
 11
70.85597649027945
 21
51.00107430016109
 31
0.0
  0
LINE
  5
BA7
330
19
100
AcDbEntity
  8
TitleBlock&Notes
  6
Continuous
 62
     3
100
AcDbLine
 10
70.27715429907948
 20
50.97512849896109
 30
0.0
 11
70.85597649027945
 21
50.98523188456109
 31
0.0
  0
LINE
  5
BA8
330
19
100
AcDbEntity
  8
TitleBlock&Notes
  6
Continuous
 62
     3
100
AcDbLine
 10
70.26363620547946
 20
50.95905014656109
 30
0.0
 11
70.85597649027945
 21
50.96938946896109
 31
0.0
  0
LINE
  5
BA9
330
19
100
AcDbEntity
  8
TitleBlock&Notes
  6
Continuous
 62
     3
100
AcDbLine
 10
70.41136032267949
 20
51.22702896976109
 30
0.0
 11
70.85597649027945
 21
51.22702896976109
 31
0.0
  0
LINE
  5
BAA
330
19
100
AcDbEntity
  8
TitleBlock&Notes
  6
Continuous
 62
     3
100
AcDbLine
 10
70.40761602387949
 20
51.21504193096108
 30
0.0
 11
70.85597649027945
 21
51.22286807896109
 31
0.0
  0
LINE
  5
BAB
330
19
100
AcDbEntity
  8
TitleBlock&Notes
  6
Continuous
 62
     3
100
AcDbLine
 10
70.40228701227945
 20
51.19910649496109
 30
0.0
 11
70.85597649027945
 21
51.20702566336108
 31
0.0
  0
LINE
  5
BAC
330
19
100
AcDbEntity
  8
TitleBlock&Notes
  6
Continuous
 62
     3
100
AcDbLine
 10
70.39654560627946
 20
51.18316385176107
 30
0.0
 11
70.85597649027945
 21
51.19118324776109
 31
0.0
  0
LINE
  5
BAD
330
19
100
AcDbEntity
  8
TitleBlock&Notes
  6
Continuous
 62
     3
100
AcDbLine
 10
70.39038091587952
 20
51.16721384296107
 30
0.0
 11
70.85597649027945
 21
51.17534083216108
 31
0.0
  0
LINE
  5
BAE
330
19
100
AcDbEntity
  8
TitleBlock&Notes
  6
Continuous
 62
     3
100
AcDbLine
 10
70.38378066507949
 20
51.15125623096108
 30
0.0
 11
70.85597649027945
 21
51.15949841656109
 31
0.0
  0
LINE
  5
BAF
330
19
100
AcDbEntity
  8
TitleBlock&Notes
  6
Continuous
 62
     3
100
AcDbLine
 10
70.37673131067951
 20
51.13529073856109
 30
0.0
 11
70.85597649027945
 21
51.14365600096109
 31
0.0
  0
LINE
  5
BB0
330
19
100
AcDbEntity
  8
TitleBlock&Notes
  6
Continuous
 62
     3
100
AcDbLine
 10
70.36921788387949
 20
51.11931720736109
 30
0.0
 11
70.85597649027945
 21
51.12781358536109
 31
0.0
  0
LINE
  5
BB1
330
19
100
AcDbEntity
  8
TitleBlock&Notes
  6
Continuous
 62
     3
100
AcDbLine
 10
70.36122355467951
 20
51.10333524136109
 30
0.0
 11
70.85597649027945
 21
51.11197116976109
 31
0.0
  0
LINE
  5
BB2
330
19
100
AcDbEntity
  8
TitleBlock&Notes
  6
Continuous
 62
     3
100
AcDbLine
 10
70.35272967147948
 20
51.08734456336109
 30
0.0
 11
70.85597649027945
 21
51.09612875416107
 31
0.0
  0
LINE
  5
BB3
330
19
100
AcDbEntity
  8
TitleBlock&Notes
  6
Continuous
 62
     3
100
AcDbLine
 10
70.34371540467947
 20
51.07134481696109
 30
0.0
 11
70.85597649027945
 21
51.08028633856108
 31
0.0
  0
LINE
  5
BB4
330
19
100
AcDbEntity
  8
TitleBlock&Notes
  6
Continuous
 62
     3
100
AcDbLine
 10
70.33415727147948
 20
51.05533556656109
 30
0.0
 11
70.85597649027945
 21
51.06444396256108
 31
0.0
  0
LINE
  5
BB5
330
19
100
AcDbEntity
  8
TitleBlock&Notes
  6
Continuous
 62
     3
100
AcDbLine
 10
70.32402897747949
 20
51.03931633696108
 30
0.0
 11
70.85597649027945
 21
51.04860154696108
 31
0.0
  0
LINE
  5
BB6
330
19
100
AcDbEntity
  8
TitleBlock&Notes
  6
Continuous
 62
     3
100
AcDbLine
 10
70.31330078307951
 20
51.02328669256109
 30
0.0
 11
70.85597649027945
 21
51.03275913136108
 31
0.0
  0
LINE
  5
BB7
330
19
100
AcDbEntity
  8
TitleBlock&Notes
  6
Continuous
 62
     3
100
AcDbLine
 10
70.30193886987948
 20
51.00724596016108
 30
0.0
 11
70.85597649027945
 21
51.01691671576109
 31
0.0
  0
LINE
  5
BB8
330
19
100
AcDbEntity
  8
TitleBlock&Notes
  6
Continuous
 62
     3
100
AcDbLine
 10
70.44363364947949
 20
51.83819980696108
 30
0.0
 11
70.63562272587947
 21
51.84155099656108
 31
0.0
  0
LINE
  5
BB9
330
19
100
AcDbEntity
  8
TitleBlock&Notes
  6
Continuous
 62
     3
100
AcDbLine
 10
70.3936433222795
 20
51.69474552016108
 30
0.0
 11
70.69662141747949
 21
51.70003402096107
 31
0.0
  0
LINE
  5
BBA
330
19
100
AcDbEntity
  8
TitleBlock&Notes
  6
Continuous
 62
     3
100
AcDbLine
 10
70.44220333707949
 20
51.40691604856108
 30
0.0
 11
70.8201220166795
 21
51.41351265616108
 31
0.0
  0
LINE
  5
BBB
330
19
100
AcDbEntity
  8
TitleBlock&Notes
  6
Continuous
 62
     3
100
AcDbLine
 10
70.44131130747949
 20
51.39105807016109
 30
0.0
 11
70.8268996358795
 21
51.39778856536107
 31
0.0
  0
LINE
  5
BBC
330
19
100
AcDbEntity
  8
TitleBlock&Notes
  6
Continuous
 62
     3
100
AcDbLine
 10
70.44007444107947
 20
51.37519407256109
 30
0.0
 11
70.83367725507949
 21
51.38206443496108
 31
0.0
  0
LINE
  5
BBD
330
19
100
AcDbEntity
  8
TitleBlock&Notes
  6
Continuous
 62
     3
100
AcDbLine
 10
70.43849052027947
 20
51.35932401616108
 30
0.0
 11
70.84045491387948
 21
51.36634034416108
 31
0.0
  0
LINE
  5
BBE
330
19
100
AcDbEntity
  8
TitleBlock&Notes
  6
Continuous
 62
     3
100
AcDbLine
 10
70.43655701067949
 20
51.34344786136108
 30
0.0
 11
70.84723253307948
 21
51.35061621376109
 31
0.0
  0
LINE
  5
BBF
330
19
100
AcDbEntity
  8
TitleBlock&Notes
  6
Continuous
 62
     3
100
AcDbLine
 10
70.43040633867949
 20
51.30498172816108
 30
0.0
 11
70.85597649027945
 21
51.30498172816108
 31
0.0
  0
LINE
  5
BC0
330
19
100
AcDbEntity
  8
TitleBlock&Notes
  6
Continuous
 62
     3
100
AcDbLine
 10
70.43162756307947
 20
51.3116769793611
 30
0.0
 11
70.85597649027945
 21
51.31908404056109
 31
0.0
  0
LINE
  5
BC1
330
19
100
AcDbEntity
  8
TitleBlock&Notes
  6
Continuous
 62
     3
100
AcDbLine
 10
70.43427058587946
 20
51.32756552896108
 30
0.0
 11
70.85401019187947
 21
51.33489212296109
 31
0.0
  0
LINE
  5
BC2
330
19
100
AcDbEntity
  8
TitleBlock&Notes
  6
Continuous
 62
     3
100
AcDbLine
 10
71.04222289347949
 20
51.84864822736108
 30
0.0
 11
71.04595816347947
 21
51.84871340896108
 31
0.0
  0
LINE
  5
BC3
330
19
100
AcDbEntity
  8
TitleBlock&Notes
  6
Continuous
 62
     3
100
AcDbLine
 10
70.85655781827949
 20
52.27939116856109
 30
0.0
 11
71.2315951226795
 21
52.27939116856109
 31
0.0
  0
LINE
  5
BC4
330
19
100
AcDbEntity
  8
TitleBlock&Notes
  6
Continuous
 62
     3
100
AcDbLine
 10
70.83095435907947
 20
52.3387911685611
 30
0.0
 11
71.25719858187948
 21
52.3387911685611
 31
0.0
  0
LINE
  5
BC5
330
19
100
AcDbEntity
  8
TitleBlock&Notes
  6
Continuous
 62
     3
100
AcDbLine
 10
71.24866410867948
 20
52.31899116856109
 30
0.0
 11
70.83948883227951
 21
52.31899116856109
 31
0.0
  0
LINE
  5
BC6
330
19
100
AcDbEntity
  8
TitleBlock&Notes
  6
Continuous
 62
     3
100
AcDbLine
 10
71.24012963547946
 20
52.29919116856108
 30
0.0
 11
70.8480233054795
 21
52.29919116856108
 31
0.0
  0
LINE
  5
BC7
330
19
100
AcDbEntity
  8
TitleBlock&Notes
  6
Continuous
 62
     3
100
AcDbLine
 10
70.61490012507947
 20
51.88962737656108
 30
0.0
 11
70.43836609707949
 21
51.88962737656108
 31
0.0
  0
LINE
  5
BC8
330
19
100
AcDbEntity
  8
TitleBlock&Notes
  6
Continuous
 62
     3
100
AcDbLine
 10
70.43890461747949
 20
51.88564448776109
 30
0.0
 11
70.61528982867949
 21
51.88872330856108
 31
0.0
  0
LINE
  5
BC9
330
19
100
AcDbEntity
  8
TitleBlock&Notes
  6
Continuous
 62
     3
100
AcDbLine
 10
70.44082486107949
 20
51.86983561336107
 30
0.0
 11
70.6220674478795
 21
51.87299921776108
 31
0.0
  0
LINE
  5
BCA
330
19
100
AcDbEntity
  8
TitleBlock&Notes
  6
Continuous
 62
     3
100
AcDbLine
 10
70.44240062427949
 20
51.85402068016109
 30
0.0
 11
70.62884510667948
 21
51.85727508736108
 31
0.0
  0
LINE
  5
BCB
330
19
100
AcDbEntity
  8
TitleBlock&Notes
  6
Continuous
 62
     3
100
AcDbLine
 10
70.58129980227949
 20
51.96758013496108
 30
0.0
 11
70.42329710907951
 21
51.96758013496108
 31
0.0
  0
LINE
  5
BCC
330
19
100
AcDbEntity
  8
TitleBlock&Notes
  6
Continuous
 62
     3
100
AcDbLine
 10
70.57330293867948
 20
51.98613289336108
 30
0.0
 11
70.41840540027948
 21
51.98613289336108
 31
0.0
  0
LINE
  5
BCD
330
19
100
AcDbEntity
  8
TitleBlock&Notes
  6
Continuous
 62
     3
100
AcDbLine
 10
70.44689851107945
 20
52.27939116856109
 30
0.0
 11
70.25851525227946
 21
52.27939116856109
 31
0.0
  0
LINE
  5
BCE
330
19
100
AcDbEntity
  8
TitleBlock&Notes
  6
Continuous
 62
     3
100
AcDbLine
 10
70.43836403787949
 20
52.29919116856108
 30
0.0
 11
70.24022432907948
 21
52.29919116856108
 31
0.0
  0
LINE
  5
BCF
330
19
100
AcDbEntity
  8
TitleBlock&Notes
  6
Continuous
 62
     3
100
AcDbLine
 10
70.40057649027949
 20
52.48690142536108
 30
0.0
 11
70.72399170987946
 21
52.48690142536108
 31
0.0
  0
LINE
  5
BD0
330
19
100
AcDbEntity
  8
TitleBlock&Notes
  6
Continuous
 62
     3
100
AcDbLine
 10
70.54769947947945
 20
52.04553289336108
 30
0.0
 11
70.39917267027949
 21
52.04553289336108
 31
0.0
  0
LINE
  5
BD1
330
19
100
AcDbEntity
  8
TitleBlock&Notes
  6
Continuous
 62
     3
100
AcDbLine
 10
70.73701824867947
 20
52.50670142536108
 30
0.0
 11
70.37048096547947
 21
52.50670142536108
 31
0.0
  0
LINE
  5
BD2
330
19
100
AcDbEntity
  8
TitleBlock&Notes
  6
Continuous
 62
     3
100
AcDbLine
 10
70.55623395267949
 20
52.02573289336109
 30
0.0
 11
70.4062038482795
 21
52.02573289336109
 31
0.0
  0
LINE
  5
BD3
330
19
100
AcDbEntity
  8
TitleBlock&Notes
  6
Continuous
 62
     3
100
AcDbLine
 10
70.34038548027945
 20
52.52650142536109
 30
0.0
 11
70.75004478747948
 21
52.52650142536109
 31
0.0
  0
LINE
  5
BD4
330
19
100
AcDbEntity
  8
TitleBlock&Notes
  6
Continuous
 62
     3
100
AcDbLine
 10
70.41260910867951
 20
52.00593289336109
 30
0.0
 11
70.56476846547949
 21
52.00593289336109
 31
0.0
  0
LINE
  5
BD5
330
19
100
AcDbEntity
  8
TitleBlock&Notes
  6
Continuous
 62
     3
100
AcDbLine
 10
71.06359350867951
 20
51.88962737656108
 30
0.0
 11
71.02455943227951
 21
51.88962737656108
 31
0.0
  0
LINE
  5
BD6
330
19
100
AcDbEntity
  8
TitleBlock&Notes
  6
Continuous
 62
     3
100
AcDbLine
 10
71.02866761547952
 20
51.88009644856109
 30
0.0
 11
71.05971896547945
 21
51.88063845376109
 31
0.0
  0
LINE
  5
BD7
330
19
100
AcDbEntity
  8
TitleBlock&Notes
  6
Continuous
 62
     3
100
AcDbLine
 10
71.03544523467947
 20
51.86437231816109
 30
0.0
 11
71.05283858427947
 21
51.86467593136109
 31
0.0
  0
LINE
  5
BD8
330
19
100
AcDbEntity
  8
TitleBlock&Notes
  6
Continuous
 62
     3
100
AcDbLine
 10
70.95735878667949
 20
52.04553289336108
 30
0.0
 11
71.1307941542795
 21
52.04553289336108
 31
0.0
  0
LINE
  5
BD9
330
19
100
AcDbEntity
  8
TitleBlock&Notes
  6
Continuous
 62
     3
100
AcDbLine
 10
71.12225968107947
 20
52.02573289336109
 30
0.0
 11
70.96589325987946
 21
52.02573289336109
 31
0.0
  0
LINE
  5
BDA
330
19
100
AcDbEntity
  8
TitleBlock&Notes
  6
Continuous
 62
     3
100
AcDbLine
 10
70.97442773307945
 20
52.00593289336109
 30
0.0
 11
71.11372520787949
 21
52.00593289336109
 31
0.0
  0
LINE
  5
BDB
330
19
100
AcDbEntity
  8
TitleBlock&Notes
  6
Continuous
 62
     3
100
AcDbLine
 10
70.98296224587952
 20
51.98613289336108
 30
0.0
 11
71.10519073467952
 21
51.98613289336108
 31
0.0
  0
LINE
  5
BDC
330
19
100
AcDbEntity
  8
TitleBlock&Notes
  6
Continuous
 62
     3
100
AcDbLine
 10
70.99149671907949
 20
51.9663328933611
 30
0.0
 11
71.09665622187951
 21
51.9663328933611
 31
0.0
  0
LINE
  5
BDD
330
19
100
AcDbEntity
  8
TitleBlock&Notes
  6
Continuous
 62
     3
100
AcDbLine
 10
72.18257649027949
 20
51.04150142536109
 30
0.0
 11
72.93497649027948
 21
51.04150142536109
 31
0.0
  0
LINE
  5
BDE
330
19
100
AcDbEntity
  8
TitleBlock&Notes
  6
Continuous
 62
     3
100
AcDbLine
 10
72.97457649027951
 20
51.08110142536109
 30
0.0
 11
72.22217649027945
 21
51.08110142536109
 31
0.0
  0
LINE
  5
BDF
330
19
100
AcDbEntity
  8
TitleBlock&Notes
  6
Continuous
 62
     3
100
AcDbLine
 10
73.41196938027948
 20
51.22702896976107
 30
0.0
 11
72.22217649027945
 21
51.22702896976109
 31
0.0
  0
LINE
  5
BE0
330
19
100
AcDbEntity
  8
TitleBlock&Notes
  6
Continuous
 62
     3
100
AcDbLine
 10
72.22217649027945
 20
51.21503036776108
 30
0.0
 11
72.90957653547948
 21
51.22702896976107
 31
0.0
  0
LINE
  5
BE1
330
19
100
AcDbEntity
  8
TitleBlock&Notes
  6
Continuous
 62
     3
100
AcDbLine
 10
72.22217649027945
 20
51.19918795216108
 30
0.0
 11
73.41196938027948
 21
51.21995585536109
 31
0.0
  0
LINE
  5
BE2
330
19
100
AcDbEntity
  8
TitleBlock&Notes
  6
Continuous
 62
     3
100
AcDbLine
 10
72.22217649027945
 20
51.18334553656109
 30
0.0
 11
73.41196938027948
 21
51.20411343976108
 31
0.0
  0
LINE
  5
BE3
330
19
100
AcDbEntity
  8
TitleBlock&Notes
  6
Continuous
 62
     3
100
AcDbLine
 10
72.22217649027945
 20
51.16750312096108
 30
0.0
 11
73.41196938027948
 21
51.18827102416108
 31
0.0
  0
LINE
  5
BE4
330
19
100
AcDbEntity
  8
TitleBlock&Notes
  6
Continuous
 62
     3
100
AcDbLine
 10
72.22217649027945
 20
51.15166070536108
 30
0.0
 11
73.41196938027948
 21
51.17242860856109
 31
0.0
  0
LINE
  5
BE5
330
19
100
AcDbEntity
  8
TitleBlock&Notes
  6
Continuous
 62
     3
100
AcDbLine
 10
72.22217649027945
 20
51.13581828976109
 30
0.0
 11
73.41196938027948
 21
51.15658619296108
 31
0.0
  0
LINE
  5
BE6
330
19
100
AcDbEntity
  8
TitleBlock&Notes
  6
Continuous
 62
     3
100
AcDbLine
 10
72.22217649027945
 20
51.11997587416109
 30
0.0
 11
73.41196938027948
 21
51.14074377736108
 31
0.0
  0
LINE
  5
BE7
330
19
100
AcDbEntity
  8
TitleBlock&Notes
  6
Continuous
 62
     3
100
AcDbLine
 10
72.22217649027945
 20
51.10413345856109
 30
0.0
 11
73.41196938027948
 21
51.12490136176107
 31
0.0
  0
LINE
  5
BE8
330
19
100
AcDbEntity
  8
TitleBlock&Notes
  6
Continuous
 62
     3
100
AcDbLine
 10
72.22217649027945
 20
51.08829104296109
 30
0.0
 11
73.41196938027948
 21
51.10905898576109
 31
0.0
  0
LINE
  5
BE9
330
19
100
AcDbEntity
  8
TitleBlock&Notes
  6
Continuous
 62
     3
100
AcDbLine
 10
72.95477649027947
 20
51.06130142536108
 30
0.0
 11
72.20237649027947
 21
51.06130142536108
 31
0.0
  0
LINE
  5
BEA
330
19
100
AcDbEntity
  8
TitleBlock&Notes
  6
Continuous
 62
     3
100
AcDbLine
 10
72.71789332947951
 20
51.08110142536109
 30
0.0
 11
73.41196938027948
 21
51.09321657016109
 31
0.0
  0
TEXT
  5
BEB
330
19
100
AcDbEntity
  8
TitleBlock&Notes
  6
Continuous
 62
     3
100
AcDbText
 10
72.57191165187953
 20
52.07606310736109
 30
0.0
 40
0.297
  1
R
 41
1.1965812
100
AcDbText
  0
LINE
  5
BEC
330
19
100
AcDbEntity
  8
TitleBlock&Notes
  6
Continuous
 62
     3
100
AcDbLine
 10
73.41196938027948
 20
51.96758013496108
 30
0.0
 11
72.22217649027945
 21
51.96758013496108
 31
0.0
  0
LINE
  5
BED
330
19
100
AcDbEntity
  8
TitleBlock&Notes
  6
Continuous
 62
     3
100
AcDbLine
 10
73.41196938027948
 20
51.88962737656108
 30
0.0
 11
72.22217649027945
 21
51.88962737656108
 31
0.0
  0
LINE
  5
BEE
330
19
100
AcDbEntity
  8
TitleBlock&Notes
  6
Continuous
 62
     3
100
AcDbLine
 10
73.41196938027948
 20
51.69474552016108
 30
0.0
 11
72.22217649027945
 21
51.69474552016108
 31
0.0
  0
LINE
  5
BEF
330
19
100
AcDbEntity
  8
TitleBlock&Notes
  6
Continuous
 62
     3
100
AcDbLine
 10
73.41196938027948
 20
51.61679276176108
 30
0.0
 11
72.22217649027945
 21
51.61679276176108
 31
0.0
  0
LINE
  5
BF0
330
19
100
AcDbEntity
  8
TitleBlock&Notes
  6
Continuous
 62
     3
100
AcDbLine
 10
73.41196938027948
 20
51.30498172816108
 30
0.0
 11
72.22217649027945
 21
51.30498172816108
 31
0.0
  0
LINE
  5
BF1
330
19
100
AcDbEntity
  8
TitleBlock&Notes
  6
Continuous
 62
     3
100
AcDbLine
 10
72.22217649027945
 20
51.59640973096109
 30
0.0
 11
73.38991827867946
 21
51.61679276176108
 31
0.0
  0
LINE
  5
BF2
330
19
100
AcDbEntity
  8
TitleBlock&Notes
  6
Continuous
 62
     3
100
AcDbLine
 10
72.22217649027945
 20
51.5805673153611
 30
0.0
 11
73.41196938027948
 21
51.60133525816108
 31
0.0
  0
LINE
  5
BF3
330
19
100
AcDbEntity
  8
TitleBlock&Notes
  6
Continuous
 62
     3
100
AcDbLine
 10
72.22217649027945
 20
51.56472489976109
 30
0.0
 11
73.41196938027948
 21
51.58549284256108
 31
0.0
  0
LINE
  5
BF4
330
19
100
AcDbEntity
  8
TitleBlock&Notes
  6
Continuous
 62
     3
100
AcDbLine
 10
72.22217649027945
 20
51.54888248416109
 30
0.0
 11
73.41196938027948
 21
51.56965042696109
 31
0.0
  0
LINE
  5
BF5
330
19
100
AcDbEntity
  8
TitleBlock&Notes
  6
Continuous
 62
     3
100
AcDbLine
 10
72.22217649027945
 20
51.53304010816107
 30
0.0
 11
73.41196938027948
 21
51.55380801136108
 31
0.0
  0
LINE
  5
BF6
330
19
100
AcDbEntity
  8
TitleBlock&Notes
  6
Continuous
 62
     3
100
AcDbLine
 10
72.22217649027945
 20
51.51719769256108
 30
0.0
 11
73.41196938027948
 21
51.53796559576109
 31
0.0
  0
LINE
  5
BF7
330
19
100
AcDbEntity
  8
TitleBlock&Notes
  6
Continuous
 62
     3
100
AcDbLine
 10
72.22217649027945
 20
51.5013552769611
 30
0.0
 11
73.41196938027948
 21
51.52212318016109
 31
0.0
  0
LINE
  5
BF8
330
19
100
AcDbEntity
  8
TitleBlock&Notes
  6
Continuous
 62
     3
100
AcDbLine
 10
72.22217649027945
 20
51.48551286136108
 30
0.0
 11
73.41196938027948
 21
51.50628076456109
 31
0.0
  0
LINE
  5
BF9
330
19
100
AcDbEntity
  8
TitleBlock&Notes
  6
Continuous
 62
     3
100
AcDbLine
 10
72.22217649027945
 20
51.46967044576108
 30
0.0
 11
73.41196938027948
 21
51.49043834896109
 31
0.0
  0
LINE
  5
BFA
330
19
100
AcDbEntity
  8
TitleBlock&Notes
  6
Continuous
 62
     3
100
AcDbLine
 10
72.22217649027945
 20
51.45382803016108
 30
0.0
 11
73.41196938027948
 21
51.47459593336108
 31
0.0
  0
LINE
  5
BFB
330
19
100
AcDbEntity
  8
TitleBlock&Notes
  6
Continuous
 62
     3
100
AcDbLine
 10
72.22217649027945
 20
51.43798561456108
 30
0.0
 11
73.41196938027948
 21
51.45875351776109
 31
0.0
  0
LINE
  5
BFC
330
19
100
AcDbEntity
  8
TitleBlock&Notes
  6
Continuous
 62
     3
100
AcDbLine
 10
72.22217649027945
 20
51.42214319896109
 30
0.0
 11
73.41196938027948
 21
51.44291110216108
 31
0.0
  0
LINE
  5
BFD
330
19
100
AcDbEntity
  8
TitleBlock&Notes
  6
Continuous
 62
     3
100
AcDbLine
 10
72.22217649027945
 20
51.40630078336108
 30
0.0
 11
73.41196938027948
 21
51.42706868656109
 31
0.0
  0
LINE
  5
BFE
330
19
100
AcDbEntity
  8
TitleBlock&Notes
  6
Continuous
 62
     3
100
AcDbLine
 10
72.22217649027945
 20
51.39045836776109
 30
0.0
 11
73.41196938027948
 21
51.41122627096109
 31
0.0
  0
LINE
  5
BFF
330
19
100
AcDbEntity
  8
TitleBlock&Notes
  6
Continuous
 62
     3
100
AcDbLine
 10
72.22217649027945
 20
51.37461595216109
 30
0.0
 11
73.41196938027948
 21
51.39538385536109
 31
0.0
  0
LINE
  5
C00
330
19
100
AcDbEntity
  8
TitleBlock&Notes
  6
Continuous
 62
     3
100
AcDbLine
 10
72.22217649027945
 20
51.35877353656109
 30
0.0
 11
73.41196938027948
 21
51.37954147936108
 31
0.0
  0
LINE
  5
C01
330
19
100
AcDbEntity
  8
TitleBlock&Notes
  6
Continuous
 62
     3
100
AcDbLine
 10
72.22217649027945
 20
51.34293112096108
 30
0.0
 11
73.41196938027948
 21
51.36369906376109
 31
0.0
  0
LINE
  5
C02
330
19
100
AcDbEntity
  8
TitleBlock&Notes
  6
Continuous
 62
     3
100
AcDbLine
 10
72.22217649027945
 20
51.32708870536109
 30
0.0
 11
73.41196938027948
 21
51.3478566481611
 31
0.0
  0
LINE
  5
C03
330
19
100
AcDbEntity
  8
TitleBlock&Notes
  6
Continuous
 62
     3
100
AcDbLine
 10
72.22217649027945
 20
51.31124628976108
 30
0.0
 11
73.41196938027948
 21
51.33201423256109
 31
0.0
  0
LINE
  5
C04
330
19
100
AcDbEntity
  8
TitleBlock&Notes
  6
Continuous
 62
     3
100
AcDbLine
 10
72.22217649027945
 20
51.86924438536109
 30
0.0
 11
73.38991827867946
 21
51.88962737656108
 31
0.0
  0
LINE
  5
C05
330
19
100
AcDbEntity
  8
TitleBlock&Notes
  6
Continuous
 62
     3
100
AcDbLine
 10
72.22217649027945
 20
51.85340196976109
 30
0.0
 11
73.41196938027948
 21
51.87416987296109
 31
0.0
  0
LINE
  5
C06
330
19
100
AcDbEntity
  8
TitleBlock&Notes
  6
Continuous
 62
     3
100
AcDbLine
 10
72.22217649027945
 20
51.83755955416108
 30
0.0
 11
73.41196938027948
 21
51.8583274573611
 31
0.0
  0
LINE
  5
C07
330
19
100
AcDbEntity
  8
TitleBlock&Notes
  6
Continuous
 62
     3
100
AcDbLine
 10
72.22217649027945
 20
51.82171713856108
 30
0.0
 11
73.41196938027948
 21
51.84248504176108
 31
0.0
  0
LINE
  5
C08
330
19
100
AcDbEntity
  8
TitleBlock&Notes
  6
Continuous
 62
     3
100
AcDbLine
 10
72.22217649027945
 20
51.80587472296109
 30
0.0
 11
73.41196938027948
 21
51.82664266576108
 31
0.0
  0
LINE
  5
C09
330
19
100
AcDbEntity
  8
TitleBlock&Notes
  6
Continuous
 62
     3
100
AcDbLine
 10
72.22217649027945
 20
51.79003230736109
 30
0.0
 11
73.41196938027948
 21
51.81080025016108
 31
0.0
  0
LINE
  5
C0A
330
19
100
AcDbEntity
  8
TitleBlock&Notes
  6
Continuous
 62
     3
100
AcDbLine
 10
72.22217649027945
 20
51.7741898917611
 30
0.0
 11
73.41196938027948
 21
51.79495783456109
 31
0.0
  0
LINE
  5
C0B
330
19
100
AcDbEntity
  8
TitleBlock&Notes
  6
Continuous
 62
     3
100
AcDbLine
 10
72.22217649027945
 20
51.75834751576108
 30
0.0
 11
73.41196938027948
 21
51.77911541896108
 31
0.0
  0
LINE
  5
C0C
330
19
100
AcDbEntity
  8
TitleBlock&Notes
  6
Continuous
 62
     3
100
AcDbLine
 10
72.22217649027945
 20
51.74250510016108
 30
0.0
 11
73.41196938027948
 21
51.76327300336109
 31
0.0
  0
LINE
  5
C0D
330
19
100
AcDbEntity
  8
TitleBlock&Notes
  6
Continuous
 62
     3
100
AcDbLine
 10
72.22217649027945
 20
51.72666268456108
 30
0.0
 11
73.41196938027948
 21
51.74743058776108
 31
0.0
  0
LINE
  5
C0E
330
19
100
AcDbEntity
  8
TitleBlock&Notes
  6
Continuous
 62
     3
100
AcDbLine
 10
72.22217649027945
 20
51.71082026896108
 30
0.0
 11
73.41196938027948
 21
51.73158817216109
 31
0.0
  0
LINE
  5
C0F
330
19
100
AcDbEntity
  8
TitleBlock&Notes
  6
Continuous
 62
     3
100
AcDbLine
 10
72.22217649027945
 20
51.69497785336108
 30
0.0
 11
73.41196938027948
 21
51.7157457565611
 31
0.0
  0
CIRCLE
  5
C10
330
19
100
AcDbEntity
  8
TitleBlock&Notes
  6
Continuous
 62
     3
100
AcDbCircle
 10
72.69558356067946
 20
52.22950142536108
 30
0.0
 40
0.2475
  0
LINE
  5
C11
330
19
100
AcDbEntity
  8
TitleBlock&Notes
  6
Continuous
 62
     3
100
AcDbLine
 10
73.41196938027948
 20
51.98613289336108
 30
0.0
 11
72.74061711627945
 21
51.98613289336108
 31
0.0
  0
LINE
  5
C12
330
19
100
AcDbEntity
  8
TitleBlock&Notes
  6
Continuous
 62
     3
100
AcDbLine
 10
72.7708899698795
 20
51.30498172816108
 30
0.0
 11
73.41196938027948
 21
51.3161718169611
 31
0.0
  0
LINE
  5
C13
330
19
100
AcDbEntity
  8
TitleBlock&Notes
  6
Continuous
 62
     3
100
AcDbLine
 10
73.41196938027948
 20
52.00593289336109
 30
0.0
 11
72.80175971427948
 21
52.00593289336109
 31
0.0
  0
LINE
  5
C14
330
19
100
AcDbEntity
  8
TitleBlock&Notes
  6
Continuous
 62
     3
100
AcDbLine
 10
72.18257649027949
 20
52.48690142536108
 30
0.0
 11
72.18257649027949
 21
51.04150142536109
 31
0.0
  0
LINE
  5
C15
330
19
100
AcDbEntity
  8
TitleBlock&Notes
  6
Continuous
 62
     3
100
AcDbLine
 10
72.22217649027945
 20
51.08110142536109
 30
0.0
 11
72.22217649027945
 21
52.52650142536109
 31
0.0
  0
LINE
  5
C16
330
19
100
AcDbEntity
  8
TitleBlock&Notes
  6
Continuous
 62
     3
100
AcDbLine
 10
72.20237649027947
 20
51.06130142536108
 30
0.0
 11
72.20237649027947
 21
52.50670142536108
 31
0.0
  0
LINE
  5
C17
330
19
100
AcDbEntity
  8
TitleBlock&Notes
  6
Continuous
 62
     3
100
AcDbLine
 10
72.22217649027945
 20
51.61225214656107
 30
0.0
 11
72.48230702907952
 21
51.61679276176108
 31
0.0
  0
LINE
  5
C18
330
19
100
AcDbEntity
  8
TitleBlock&Notes
  6
Continuous
 62
     3
100
AcDbLine
 10
71.88557649027948
 20
52.48690142536108
 30
0.0
 11
72.18257649027949
 21
52.48690142536108
 31
0.0
  0
LINE
  5
C19
330
19
100
AcDbEntity
  8
TitleBlock&Notes
  6
Continuous
 62
     3
100
AcDbLine
 10
71.84597649027947
 20
52.52650142536109
 30
0.0
 11
72.22217649027945
 21
52.52650142536109
 31
0.0
  0
LINE
  5
C1A
330
19
100
AcDbEntity
  8
TitleBlock&Notes
  6
Continuous
 62
     3
100
AcDbLine
 10
71.8657764902795
 20
52.50670142536108
 30
0.0
 11
72.20237649027947
 21
52.50670142536108
 31
0.0
  0
LINE
  5
C1B
330
19
100
AcDbEntity
  8
TitleBlock&Notes
  6
Continuous
 62
     3
100
AcDbLine
 10
71.84597649027947
 20
51.9873801349611
 30
0.0
 11
71.51538761187949
 21
51.9873801349611
 31
0.0
  0
LINE
  5
C1C
330
19
100
AcDbEntity
  8
TitleBlock&Notes
  6
Continuous
 62
     3
100
AcDbLine
 10
71.64125442987947
 20
52.27939116856109
 30
0.0
 11
71.84597649027947
 21
52.27939116856109
 31
0.0
  0
LINE
  5
C1D
330
19
100
AcDbEntity
  8
TitleBlock&Notes
  6
Continuous
 62
     3
100
AcDbLine
 10
71.84597649027947
 20
52.3387911685611
 30
0.0
 11
71.66685788907949
 21
52.3387911685611
 31
0.0
  0
LINE
  5
C1E
330
19
100
AcDbEntity
  8
TitleBlock&Notes
  6
Continuous
 62
     3
100
AcDbLine
 10
71.84597649027947
 20
52.31899116856109
 30
0.0
 11
71.65832341587948
 21
52.31899116856109
 31
0.0
  0
LINE
  5
C1F
330
19
100
AcDbEntity
  8
TitleBlock&Notes
  6
Continuous
 62
     3
100
AcDbLine
 10
71.84597649027947
 20
52.29919116856108
 30
0.0
 11
71.64978890307946
 21
52.29919116856108
 31
0.0
  0
LINE
  5
C20
330
19
100
AcDbEntity
  8
TitleBlock&Notes
  6
Continuous
 62
     3
100
AcDbLine
 10
71.84597649027947
 20
52.04553289336108
 30
0.0
 11
71.5404534614795
 21
52.04553289336108
 31
0.0
  0
LINE
  5
C21
330
19
100
AcDbEntity
  8
TitleBlock&Notes
  6
Continuous
 62
     3
100
AcDbLine
 10
71.84597649027947
 20
52.02573289336109
 30
0.0
 11
71.53191898827953
 21
52.02573289336109
 31
0.0
  0
LINE
  5
C22
330
19
100
AcDbEntity
  8
TitleBlock&Notes
  6
Continuous
 62
     3
100
AcDbLine
 10
71.84597649027947
 20
52.00593289336109
 30
0.0
 11
71.52338447547951
 21
52.00593289336109
 31
0.0
  0
LINE
  5
C23
330
19
100
AcDbEntity
  8
TitleBlock&Notes
  6
Continuous
 62
     3
100
AcDbLine
 10
72.22217649027945
 20
51.88508680096109
 30
0.0
 11
72.48230702907952
 21
51.88962737656108
 31
0.0
  0
LINE
  5
C24
330
19
100
AcDbEntity
  8
TitleBlock&Notes
  6
Continuous
 62
     3
100
AcDbLine
 10
72.22217649027945
 20
52.04553289336108
 30
0.0
 11
72.53001833667949
 21
52.04553289336108
 31
0.0
  0
LINE
  5
C25
330
19
100
AcDbEntity
  8
TitleBlock&Notes
  6
Continuous
 62
     3
100
AcDbLine
 10
72.22217649027945
 20
52.27939116856109
 30
0.0
 11
72.45316396347948
 21
52.27939116856109
 31
0.0
  0
LINE
  5
C26
330
19
100
AcDbEntity
  8
TitleBlock&Notes
  6
Continuous
 62
     3
100
AcDbLine
 10
72.22217649027945
 20
52.3387911685611
 30
0.0
 11
72.47352050187948
 21
52.3387911685611
 31
0.0
  0
LINE
  5
C27
330
19
100
AcDbEntity
  8
TitleBlock&Notes
  6
Continuous
 62
     3
100
AcDbLine
 10
72.22217649027945
 20
52.31899116856109
 30
0.0
 11
72.46482865827949
 21
52.31899116856109
 31
0.0
  0
LINE
  5
C28
330
19
100
AcDbEntity
  8
TitleBlock&Notes
  6
Continuous
 62
     3
100
AcDbLine
 10
72.22217649027945
 20
52.29919116856108
 30
0.0
 11
72.45809756907945
 21
52.29919116856108
 31
0.0
  0
LINE
  5
C29
330
19
100
AcDbEntity
  8
TitleBlock&Notes
  6
Continuous
 62
     3
100
AcDbLine
 10
72.22217649027945
 20
52.02573289336109
 30
0.0
 11
72.55510351107947
 21
52.02573289336109
 31
0.0
  0
LINE
  5
C2A
330
19
100
AcDbEntity
  8
TitleBlock&Notes
  6
Continuous
 62
     3
100
AcDbLine
 10
72.22217649027945
 20
52.00593289336109
 30
0.0
 11
72.5894074070795
 21
52.00593289336109
 31
0.0
  0
LINE
  5
C2B
330
19
100
AcDbEntity
  8
TitleBlock&Notes
  6
Continuous
 62
     3
100
AcDbLine
 10
72.22217649027945
 20
51.98613289336108
 30
0.0
 11
72.65055000507948
 21
51.98613289336108
 31
0.0
  0
LINE
  5
C2C
330
19
100
AcDbEntity
  8
TitleBlock&Notes
  6
Continuous
 62
     3
100
AcDbLine
 10
72.97457649027951
 20
50.94300010816107
 30
0.0
 11
73.41196938027948
 21
50.95063482976108
 31
0.0
  0
LINE
  5
C2D
330
19
100
AcDbEntity
  8
TitleBlock&Notes
  6
Continuous
 62
     3
100
AcDbLine
 10
72.97457649027951
 20
50.92715769256108
 30
0.0
 11
73.41196938027948
 21
50.93479241416108
 31
0.0
  0
LINE
  5
C2E
330
19
100
AcDbEntity
  8
TitleBlock&Notes
  6
Continuous
 62
     3
100
AcDbLine
 10
72.97457649027951
 20
50.91131527696109
 30
0.0
 11
73.41196938027948
 21
50.91894999856108
 31
0.0
  0
LINE
  5
C2F
330
19
100
AcDbEntity
  8
TitleBlock&Notes
  6
Continuous
 62
     3
100
AcDbLine
 10
72.97457649027951
 20
50.89547286136109
 30
0.0
 11
73.41196938027948
 21
50.90310758296109
 31
0.0
  0
LINE
  5
C30
330
19
100
AcDbEntity
  8
TitleBlock&Notes
  6
Continuous
 62
     3
100
AcDbLine
 10
72.97457649027951
 20
50.87963044576109
 30
0.0
 11
73.41196938027948
 21
50.88726516736109
 31
0.0
  0
LINE
  5
C31
330
19
100
AcDbEntity
  8
TitleBlock&Notes
  6
Continuous
 62
     3
100
AcDbLine
 10
72.97457649027951
 20
50.86378806976108
 30
0.0
 11
73.41196938027948
 21
50.87142279136108
 31
0.0
  0
LINE
  5
C32
330
19
100
AcDbEntity
  8
TitleBlock&Notes
  6
Continuous
 62
     3
100
AcDbLine
 10
72.97457649027951
 20
51.06973943296108
 30
0.0
 11
73.41196938027948
 21
51.07737415456108
 31
0.0
  0
LINE
  5
C33
330
19
100
AcDbEntity
  8
TitleBlock&Notes
  6
Continuous
 62
     3
100
AcDbLine
 10
72.97457649027951
 20
51.05389701736109
 30
0.0
 11
73.41196938027948
 21
51.06153173896108
 31
0.0
  0
LINE
  5
C34
330
19
100
AcDbEntity
  8
TitleBlock&Notes
  6
Continuous
 62
     3
100
AcDbLine
 10
72.97457649027951
 20
51.03805460176109
 30
0.0
 11
73.41196938027948
 21
51.04568932336109
 31
0.0
  0
LINE
  5
C35
330
19
100
AcDbEntity
  8
TitleBlock&Notes
  6
Continuous
 62
     3
100
AcDbLine
 10
72.97457649027951
 20
51.02221218616108
 30
0.0
 11
73.41196938027948
 21
51.0298469077611
 31
0.0
  0
LINE
  5
C36
330
19
100
AcDbEntity
  8
TitleBlock&Notes
  6
Continuous
 62
     3
100
AcDbLine
 10
72.97457649027951
 20
51.00636977056108
 30
0.0
 11
73.41196938027948
 21
51.01400449216107
 31
0.0
  0
LINE
  5
C37
330
19
100
AcDbEntity
  8
TitleBlock&Notes
  6
Continuous
 62
     3
100
AcDbLine
 10
72.97457649027951
 20
50.99052735496108
 30
0.0
 11
73.41196938027948
 21
50.99816207656108
 31
0.0
  0
LINE
  5
C38
330
19
100
AcDbEntity
  8
TitleBlock&Notes
  6
Continuous
 62
     3
100
AcDbLine
 10
72.97457649027951
 20
50.97468493936109
 30
0.0
 11
73.41196938027948
 21
50.98231966096108
 31
0.0
  0
LINE
  5
C39
330
19
100
AcDbEntity
  8
TitleBlock&Notes
  6
Continuous
 62
     3
100
AcDbLine
 10
72.97457649027951
 20
50.95884252376109
 30
0.0
 11
73.41196938027948
 21
50.96647724536108
 31
0.0
  0
LINE
  5
C3A
330
19
100
AcDbEntity
  8
TitleBlock&Notes
  6
Continuous
 62
     3
100
AcDbLine
 10
73.11647699187947
 20
51.69474552016108
 30
0.0
 11
73.41196938027948
 21
51.69990334096109
 31
0.0
  0
TEXT
  5
C3B
330
19
100
AcDbEntity
  8
TitleBlock&Notes
  6
Continuous
 62
     3
100
AcDbText
 10
73.02266791827951
 20
52.10852968216109
 30
0.0
 40
0.099
  1
INC.
 41
1.282051279999999
100
AcDbText
  0
LINE
  5
C3C
330
19
100
AcDbEntity
  8
TitleBlock&Notes
  6
Continuous
 62
     3
100
AcDbLine
 10
73.41196938027948
 20
52.27939116856109
 30
0.0
 11
72.93800315787946
 21
52.27939116856109
 31
0.0
  0
LINE
  5
C3D
330
19
100
AcDbEntity
  8
TitleBlock&Notes
  6
Continuous
 62
     3
100
AcDbLine
 10
73.41196938027948
 20
52.3387911685611
 30
0.0
 11
72.91764661947953
 21
52.3387911685611
 31
0.0
  0
LINE
  5
C3E
330
19
100
AcDbEntity
  8
TitleBlock&Notes
  6
Continuous
 62
     3
100
AcDbLine
 10
73.41196938027948
 20
52.31899116856109
 30
0.0
 11
72.92633846307946
 21
52.31899116856109
 31
0.0
  0
LINE
  5
C3F
330
19
100
AcDbEntity
  8
TitleBlock&Notes
  6
Continuous
 62
     3
100
AcDbLine
 10
73.41196938027948
 20
52.29919116856108
 30
0.0
 11
72.93306955227946
 21
52.29919116856108
 31
0.0
  0
LINE
  5
C40
330
19
100
AcDbEntity
  8
TitleBlock&Notes
  6
Continuous
 62
     3
100
AcDbLine
 10
73.41196938027948
 20
52.04553289336108
 30
0.0
 11
72.8611487846795
 21
52.04553289336108
 31
0.0
  0
LINE
  5
C41
330
19
100
AcDbEntity
  8
TitleBlock&Notes
  6
Continuous
 62
     3
100
AcDbLine
 10
73.41196938027948
 20
52.02573289336109
 30
0.0
 11
72.83606361027946
 21
52.02573289336109
 31
0.0
  0
TEXT
  5
C45
330
19
100
AcDbEntity
  8
TitleBlock&Notes
  6
Continuous
 62
     3
100
AcDbText
 10
75.85550605277205
 20
51.47218867575823
 30
0.0
 40
0.3168
  1
 Bolton, Ontario
 41
0.7000000000000001
100
AcDbText
  0
TEXT
  5
C46
330
19
100
AcDbEntity
  8
TitleBlock&Notes
  6
Continuous
 62
     3
100
AcDbText
 10
73.84171651591188
 20
50.94223740980862
 30
0.0
 40
0.3168
  1
          Canada L7E 5R1
 41
0.7000000000000001
100
AcDbText
  0
CIRCLE
  5
C47
330
19
100
AcDbEntity
  8
TitleBlock&Notes
  6
Continuous
 62
     3
100
AcDbCircle
 10
78.62791859395423
 20
52.95379699699743
 30
0.0
 40
0.1782
  0
TEXT
  5
C48
330
19
100
AcDbEntity
  8
TitleBlock&Notes
  6
Continuous
 62
     3
100
AcDbText
 10
78.54517589875422
 20
52.84539088819744
 30
0.0
 40
0.2178
  1
R
 41
1.165501169999999
100
AcDbText
  0
LINE
  5
C4B
330
19
100
AcDbEntity
  8
B.O.M
100
AcDbLine
 10
81.30858356067951
 20
75.78651715936107
 30
0.0
 11
69.4757186898947
 21
75.78651715936108
 31
0.0
  0
LINE
  5
C4C
330
19
100
AcDbEntity
  8
B.O.M
100
AcDbLine
 10
81.30858356067951
 20
76.46651715936108
 30
0.0
 11
69.4757186898947
 21
76.46651715936108
 31
0.0
  0
LINE
  5
C4D
330
19
100
AcDbEntity
  8
B.O.M
100
AcDbLine
 10
81.30858356067953
 20
77.14651715936108
 30
0.0
 11
69.47571868989472
 21
77.14651715936108
 31
0.0
  0
LINE
  5
C4E
330
19
100
AcDbEntity
  8
B.O.M
100
AcDbLine
 10
81.30858356067953
 20
77.82651715936108
 30
0.0
 11
69.47571868989472
 21
77.82651715936109
 31
0.0
  0
LINE
  5
C4F
330
19
100
AcDbEntity
  8
B.O.M
100
AcDbLine
 10
81.30858356067953
 20
78.50651715936106
 30
0.0
 11
69.47571868989472
 21
78.50651715936108
 31
0.0
  0
LINE
  5
C50
330
19
100
AcDbEntity
  8
B.O.M
100
AcDbLine
 10
81.30858356067953
 20
79.18651715936107
 30
0.0
 11
69.47571868989472
 21
79.18651715936109
 31
0.0
  0
LINE
  5
C51
330
19
100
AcDbEntity
  8
B.O.M
100
AcDbLine
 10
81.30858356067953
 20
79.86651715936108
 30
0.0
 11
69.47571868989472
 21
79.86651715936108
 31
0.0
  0
LINE
  5
C52
330
19
100
AcDbEntity
  8
B.O.M
100
AcDbLine
 10
81.30858356067953
 20
80.54651715936108
 30
0.0
 11
69.47571868989472
 21
80.54651715936108
 31
0.0
  0
LINE
  5
C53
330
19
100
AcDbEntity
  8
B.O.M
100
AcDbLine
 10
81.30858356067953
 20
81.22651715936106
 30
0.0
 11
69.47571868989472
 21
81.22651715936109
 31
0.0
  0
LINE
  5
C54
330
19
100
AcDbEntity
  8
B.O.M
100
AcDbLine
 10
81.30858356067953
 20
81.90651715936107
 30
0.0
 11
69.47571868989472
 21
81.90651715936111
 31
0.0
  0
LINE
  5
C55
330
19
100
AcDbEntity
  8
B.O.M
100
AcDbLine
 10
81.30858356067953
 20
82.58651715936109
 30
0.0
 11
69.47571868989472
 21
82.58651715936109
 31
0.0
  0
LINE
  5
C56
330
19
100
AcDbEntity
  8
B.O.M
100
AcDbLine
 10
81.30858356067953
 20
83.26651715936108
 30
0.0
 11
67.38756606563858
 21
83.26651715936108
 31
0.0
  0
LINE
  5
C57
330
19
100
AcDbEntity
  8
B.O.M
100
AcDbLine
 10
69.4757186898947
 20
75.78651715936108
 30
0.0
 11
69.47571868989472
 21
83.26651715936108
 31
0.0
  0
LINE
  5
C58
330
19
100
AcDbEntity
  8
B.O.M
100
AcDbLine
 10
69.69671868989471
 20
76.00751715936109
 30
0.0
 11
69.4757186898947
 21
76.00751715936109
 31
0.0
  0
LINE
  5
C59
330
19
100
AcDbEntity
  8
B.O.M
100
AcDbLine
 10
69.69671868989472
 20
76.68751715936108
 30
0.0
 11
69.47571868989472
 21
76.68751715936108
 31
0.0
  0
LINE
  5
C5A
330
19
100
AcDbEntity
  8
B.O.M
100
AcDbLine
 10
69.69671868989472
 20
77.36751715936108
 30
0.0
 11
69.47571868989472
 21
77.36751715936108
 31
0.0
  0
LINE
  5
C5B
330
19
100
AcDbEntity
  8
B.O.M
100
AcDbLine
 10
69.69671868989472
 20
78.04751715936108
 30
0.0
 11
69.47571868989472
 21
78.04751715936109
 31
0.0
  0
LINE
  5
C5C
330
19
100
AcDbEntity
  8
B.O.M
100
AcDbLine
 10
69.69671868989472
 20
78.72751715936108
 30
0.0
 11
69.47571868989472
 21
78.72751715936108
 31
0.0
  0
LINE
  5
C5D
330
19
100
AcDbEntity
  8
B.O.M
100
AcDbLine
 10
69.69671868989472
 20
79.40751715936108
 30
0.0
 11
69.47571868989472
 21
79.40751715936108
 31
0.0
  0
LINE
  5
C5E
330
19
100
AcDbEntity
  8
B.O.M
100
AcDbLine
 10
69.69671868989472
 20
80.08751715936108
 30
0.0
 11
69.47571868989472
 21
80.08751715936108
 31
0.0
  0
LINE
  5
C5F
330
19
100
AcDbEntity
  8
B.O.M
100
AcDbLine
 10
69.69671868989472
 20
80.76751715936108
 30
0.0
 11
69.47571868989472
 21
80.7675171593611
 31
0.0
  0
LINE
  5
C60
330
19
100
AcDbEntity
  8
B.O.M
100
AcDbLine
 10
69.69671868989472
 20
81.44751715936108
 30
0.0
 11
69.47571868989472
 21
81.44751715936109
 31
0.0
  0
LINE
  5
C61
330
19
100
AcDbEntity
  8
B.O.M
100
AcDbLine
 10
69.69671868989472
 20
82.12751715936107
 30
0.0
 11
69.47571868989472
 21
82.12751715936109
 31
0.0
  0
TEXT
  5
C62
330
19
100
AcDbEntity
  8
B.O.M
100
AcDbText
 10
69.82081565761156
 20
82.73922125583306
 30
0.0
 40
0.2508
  1
PART             
100
AcDbText
  0
LINE
  5
C63
330
19
100
AcDbEntity
  8
B.O.M
100
AcDbLine
 10
78.95643358373921
 20
83.26651715936108
 30
0.0
 11
78.95643358373918
 21
75.78651715936107
 31
0.0
  0
LINE
  5
C64
330
19
100
AcDbEntity
  8
B.O.M
100
AcDbLine
 10
75.68684505061661
 20
83.26651715936108
 30
0.0
 11
75.68684505061658
 21
75.78651715936107
 31
0.0
  0
TEXT
  5
C65
330
19
100
AcDbEntity
  8
B.O.M
100
AcDbText
 10
79.23128494031352
 20
82.73922125583302
 30
0.0
 40
0.2508
  1
QTY.
100
AcDbText
  0
TEXT
  5
C66
330
19
100
AcDbEntity
  8
B.O.M
100
AcDbText
 10
76.0015748139519
 20
82.73922125583304
 30
0.0
 40
0.2508
  1
PART NO.  
100
AcDbText
  0
DIMENSION
  5
CEC
330
19
100
AcDbEntity
  8
Dimensions
  6
Continuous
100
AcDbDimension
  2
*D13
 10
43.43525999999999
 20
55.45386796224522
 30
0.0
 11
51.01315071642151
 21
55.45386796224522
 31
0.0
 70
   160
 71
     5
 42
16.515625
  3
STANDARD
100
AcDbAlignedDimension
 13
59.950885
 23
56.78125999999999
 33
0.0
 14
43.43525999999999
 24
56.78125999999999
 34
0.0
100
AcDbRotatedDimension
1001
ACAD
1000
DSTYLE
1002
{
1070
    41
1040
0.38
1070
    42
1040
0.125
1070
    43
1040
0.6
1070
    44
1040
0.125
1070
    45
1040
0.000001
1070
   140
1040
0.38
1070
   141
1040
0.18
1070
   147
1040
0.18
1070
   171
1070
     6
1070
   176
1070
   256
1070
   177
1070
   256
1070
   178
1070
   256
1070
   274
1070
     6
1070
   277
1070
     5
1070
   288
1070
     1
1002
}
  0
DIMENSION
  5
D1D
330
19
100
AcDbEntity
  8
Dimensions
  6
Continuous
100
AcDbDimension
  2
*D15
 10
75.003691
 20
55.45386796224522
 30
0.0
 11
69.89849796943545
 21
55.45386796224522
 31
0.0
 70
   160
 71
     5
 42
10.0
  3
STANDARD
100
AcDbAlignedDimension
 13
65.003691
 23
56.78125999999999
 33
0.0
 14
75.003691
 24
56.78125999999999
 34
0.0
100
AcDbRotatedDimension
1001
ACAD
1000
DSTYLE
1002
{
1070
    41
1040
0.38
1070
    42
1040
0.125
1070
    43
1040
0.6
1070
    44
1040
0.125
1070
    45
1040
0.000001
1070
   140
1040
0.38
1070
   141
1040
0.18
1070
   147
1040
0.18
1070
   171
1070
     6
1070
   176
1070
   256
1070
   177
1070
   256
1070
   178
1070
   256
1070
   274
1070
     6
1070
   277
1070
     5
1070
   288
1070
     1
1002
}
  0
DIMENSION
  5
D2B
330
19
100
AcDbEntity
  8
Dimensions
  6
Continuous
100
AcDbDimension
  2
*D16
 10
57.81807199999999
 20
66.56883486147791
 30
0.0
 11
51.54264651479372
 21
66.56883486147791
 31
0.0
 70
   160
 71
     5
 42
12.25
  3
STANDARD
100
AcDbAlignedDimension
 13
45.56807199999999
 23
66.65626
 33
0.0
 14
57.81807199999999
 24
66.65626
 34
0.0
100
AcDbRotatedDimension
1001
ACAD
1000
DSTYLE
1002
{
1070
    41
1040
0.38
1070
    42
1040
0.125
1070
    43
1040
0.6
1070
    44
1040
0.125
1070
    45
1040
0.000001
1070
   140
1040
0.38
1070
   141
1040
0.18
1070
   147
1040
0.18
1070
   171
1070
     6
1070
   176
1070
   256
1070
   177
1070
   256
1070
   178
1070
   256
1070
   274
1070
     6
1070
   277
1070
     5
1070
   288
1070
     1
1002
}
  0
DIMENSION
  5
D39
330
19
100
AcDbEntity
  8
Dimensions
  6
Continuous
100
AcDbDimension
  2
*D17
 10
42.18396231979694
 20
76.28126
 30
0.0
 11
42.18396231979693
 21
66.46993554716539
 31
0.0
 70
   160
 71
     5
 42
19.50000000000001
  3
STANDARD
100
AcDbAlignedDimension
 13
43.43525999999999
 23
56.78125999999999
 33
0.0
 14
44.64619699999999
 24
76.28126
 34
0.0
 50
90.0
100
AcDbRotatedDimension
1001
ACAD
1000
DSTYLE
1002
{
1070
    41
1040
0.38
1070
    42
1040
0.125
1070
    43
1040
0.6
1070
    44
1040
0.125
1070
    45
1040
0.000001
1070
   140
1040
0.38
1070
   141
1040
0.18
1070
   147
1040
0.18
1070
   171
1070
     6
1070
   176
1070
   256
1070
   177
1070
   256
1070
   178
1070
   256
1070
   274
1070
     6
1070
   277
1070
     5
1070
   288
1070
     1
1002
}
  0
DIMENSION
  5
D47
330
19
100
AcDbEntity
  8
Dimensions
  6
Continuous
100
AcDbDimension
  2
*D18
 10
48.34565940072162
 20
60.65625999999999
 30
0.0
 11
48.34565940072161
 21
67.67681269023587
 31
0.0
 70
   160
 71
     5
 42
11.00000000000001
  3
STANDARD
100
AcDbAlignedDimension
 13
49.44307199999999
 23
71.65626
 33
0.0
 14
45.56807199999999
 24
60.65625999999999
 34
0.0
 50
90.0
100
AcDbRotatedDimension
1001
ACAD
1000
DSTYLE
1002
{
1070
    76
1070
     1
1070
   282
1070
     0
1070
    41
1040
0.38
1070
    42
1040
0.125
1070
    43
1040
0.6
1070
    44
1040
0.125
1070
    45
1040
0.000001
1070
   140
1040
0.38
1070
   141
1040
0.18
1070
   147
1040
0.18
1070
   171
1070
     6
1070
   176
1070
   256
1070
   177
1070
   256
1070
   178
1070
   256
1070
   274
1070
     6
1070
   277
1070
     5
1070
   288
1070
     1
1002
}
  0
SOLID
  5
D70
330
19
100
AcDbEntity
  8
Dimensions
  6
Continuous
100
AcDbTrace
 10
51.98144704239124
 20
72.91170264725561
 30
0.0
 11
51.88301293828719
 21
72.99142197736869
 31
0.0
 12
51.69307199999999
 22
72.65626000000001
 32
0.0
 13
51.69307199999999
 23
72.65626000000001
 33
0.0
  0
LINE
  5
D71
330
19
100
AcDbEntity
  8
Dimensions
  6
Continuous
100
AcDbLine
 10
51.93222999033922
 20
72.95156231231215
 30
0.0
 11
56.75152066670588
 21
78.90222144946588
 31
0.0
  0
LINE
  5
D72
330
19
100
AcDbEntity
  8
Dimensions
  6
Continuous
100
AcDbLine
 10
56.75152066670588
 20
78.90222144946588
 30
0.0
 11
57.13152066670589
 21
78.90222144946588
 31
0.0
  0
MTEXT
  5
D73
330
19
100
AcDbEntity
  8
Dimensions
  6
Continuous
100
AcDbMText
 10
57.31152066670588
 20
79.09222144946588
 30
0.0
 40
0.38
 41
0.0
 71
     1
 72
     1
  1
75mm-1.5mm PITCH
 73
     1
 44
1.0
  0
LINE
  5
D80
330
19
100
AcDbEntity
  8
0
100
AcDbLine
 10
52.93403839649421
 20
80.18041512471857
 30
0.0
 11
63.69610488971289
 21
80.18041512471857
 31
0.0
  0
TEXT
  5
D81
330
19
100
AcDbEntity
  8
0
100
AcDbText
 10
53.30059229481058
 20
80.43089256173315
 30
0.0
 40
0.5
  1
12MCP1215-X MULTICAGE
100
AcDbText
  0
ENDSEC
  0
SECTION
  2
OBJECTS
  0
DICTIONARY
  5
C
330
0
100
AcDbDictionary
281
     1
  3
ACAD_GROUP
350
D
  3
ACAD_LAYOUT
350
24E
  3
ACAD_MLINESTYLE
350
E
  3
ACAD_PLOTSETTINGS
350
24F
  3
ACAD_PLOTSTYLENAME
350
24C
  3
AcDbVariableDictionary
350
CE2
  0
DICTIONARY
  5
D
102
{ACAD_REACTORS
330
C
102
}
330
C
100
AcDbDictionary
281
     1
  0
DICTIONARY
  5
24E
102
{ACAD_REACTORS
330
C
102
}
330
C
100
AcDbDictionary
281
     1
  3
Layout1
350
251
  3
Model
350
250
  0
DICTIONARY
  5
E
102
{ACAD_REACTORS
330
C
102
}
330
C
100
AcDbDictionary
281
     1
  3
STANDARD
350
1C
  0
DICTIONARY
  5
24F
102
{ACAD_REACTORS
330
C
102
}
330
C
100
AcDbDictionary
281
     1
  0
ACDBDICTIONARYWDFLT
  5
24C
102
{ACAD_REACTORS
330
C
102
}
330
C
100
AcDbDictionary
281
     1
  3
Normal
350
24D
100
AcDbDictionaryWithDefault
340
24D
  0
DICTIONARY
  5
CE2
102
{ACAD_REACTORS
330
C
102
}
330
C
100
AcDbDictionary
281
     1
  3
SORTENTS
350
CE3
  0
LAYOUT
  5
251
102
{ACAD_REACTORS
330
24E
102
}
330
24E
100
AcDbPlotSettings
  1

  2
HP LaserJet III
  4

  6

 40
0.0
 41
0.0
 42
0.0
 43
0.0
 44
0.0
 45
0.0
 46
0.0
 47
0.0
 48
0.0
 49
0.0
140
0.0
141
0.0
142
1.0
143
1.0
 70
   688
 72
     0
 73
     0
 74
     5
  7

 75
    16
147
1.0
148
0.0
149
0.0
100
AcDbLayout
  1
Layout1
 70
     1
 71
     1
 10
0.0
 20
0.0
 11
12.0
 21
9.0
 12
0.0
 22
0.0
 32
0.0
 14
1.000000000000000E+20
 24
1.000000000000000E+20
 34
1.000000000000000E+20
 15
-1.000000000000000E+20
 25
-1.000000000000000E+20
 35
-1.000000000000000E+20
146
0.0
 13
0.0
 23
0.0
 33
0.0
 16
1.0
 26
0.0
 36
0.0
 17
0.0
 27
1.0
 37
0.0
 76
     0
330
16
  0
LAYOUT
  5
250
102
{ACAD_REACTORS
330
24E
102
}
330
24E
100
AcDbPlotSettings
  1

  2
HP LaserJet III
  4
Letter
  6

 40
7.143749713897705
 41
7.143741130828857
 42
7.14373779296875
 43
5.365753173828125
 44
215.8999938964843
 45
279.3999938964843
 46
0.0
 47
0.0
 48
37.30858356067953
 49
49.2665171593611
140
81.30858356067951
141
83.2665171593611
142
1.0
143
4.283464431175145
 70
 11952
 72
     0
 73
     1
 74
     4
  7

 75
     0
147
0.2334558897517576
148
-947.6380224412599
149
-1251.369535847771
100
AcDbLayout
  1
Model
 70
     1
 71
     0
 10
0.0
 20
0.0
 11
12.0
 21
9.0
 12
0.0
 22
0.0
 32
0.0
 14
0.0
 24
0.0
 34
0.0
 15
0.0
 25
0.0
 35
0.0
146
0.0
 13
0.0
 23
0.0
 33
0.0
 16
1.0
 26
0.0
 36
0.0
 17
0.0
 27
1.0
 37
0.0
 76
     0
330
19
  0
MLINESTYLE
  5
1C
102
{ACAD_REACTORS
330
E
102
}
330
E
100
AcDbMlineStyle
  2
STANDARD
 70
     0
  3

 62
     0
 51
90.0
 52
90.0
 71
     2
 49
0.5
 62
   256
  6
BYLAYER
 49
-0.5
 62
   256
  6
BYLAYER
  0
ACDBPLACEHOLDER
  5
24D
102
{ACAD_REACTORS
330
24C
102
}
330
24C
  0
DICTIONARYVAR
  5
CE3
102
{ACAD_REACTORS
330
CE2
102
}
330
CE2
100
DictionaryVariables
280
     0
  1
96
  0
ENDSEC
  0
EOF
