  0
SECTION
  2
HEADER
  9
$ACADVER
  1
AC1015
  9
$ACADMAINTVER
 70
     6
  9
$DWGCODEPAGE
  3
ANSI_1252
  9
$INSBASE
 10
0.0
 20
0.0
 30
0.0
  9
$EXTMIN
 10
3.327470034172392
 20
4.397642825530837
 30
-0.0015258207003583
  9
$EXTMAX
 10
30.52999113747009
 20
39.60053720700611
 30
0.0000000349246037
  9
$LIMMIN
 10
0.0
 20
0.0
  9
$LIMMAX
 10
12.0
 20
9.0
  9
$ORTHOMODE
 70
     1
  9
$REGENMODE
 70
     1
  9
$FILLMODE
 70
     1
  9
$QTEXTMODE
 70
     0
  9
$MIRRTEXT
 70
     1
  9
$LTSCALE
 40
1.0
  9
$ATTMODE
 70
     1
  9
$TEXTSIZE
 40
0.2
  9
$TRACEWID
 40
0.05
  9
$TEXTSTYLE
  7
Standard
  9
$CLAYER
  8
Dimensions
  9
$CELTYPE
  6
ByLayer
  9
$CECOLOR
 62
   256
  9
$CELTSCALE
 40
1.0
  9
$DISPSILH
 70
     0
  9
$DIMSCALE
 40
1.0
  9
$DIMASZ
 40
0.3
  9
$DIMEXO
 40
0.1
  9
$DIMDLI
 40
0.38
  9
$DIMRND
 40
0.0
  9
$DIMDLE
 40
0.0
  9
$DIMEXE
 40
0.3
  9
$DIMTP
 40
0.0
  9
$DIMTM
 40
0.0
  9
$DIMTXT
 40
0.3
  9
$DIMCEN
 40
0.0
  9
$DIMTSZ
 40
0.0
  9
$DIMTOL
 70
     0
  9
$DIMLIM
 70
     0
  9
$DIMTIH
 70
     1
  9
$DIMTOH
 70
     1
  9
$DIMSE1
 70
     0
  9
$DIMSE2
 70
     0
  9
$DIMTAD
 70
     0
  9
$DIMZIN
 70
     0
  9
$DIMBLK
  1

  9
$DIMASO
 70
     1
  9
$DIMSHO
 70
     1
  9
$DIMPOST
  1

  9
$DIMAPOST
  1

  9
$DIMALT
 70
     0
  9
$DIMALTD
 70
     2
  9
$DIMALTF
 40
25.4
  9
$DIMLFAC
 40
1.0
  9
$DIMTOFL
 70
     0
  9
$DIMTVP
 40
0.0
  9
$DIMTIX
 70
     0
  9
$DIMSOXD
 70
     0
  9
$DIMSAH
 70
     0
  9
$DIMBLK1
  1

  9
$DIMBLK2
  1

  9
$DIMSTYLE
  2
Standard
  9
$DIMCLRD
 70
     0
  9
$DIMCLRE
 70
     0
  9
$DIMCLRT
 70
     0
  9
$DIMTFAC
 40
1.0
  9
$DIMGAP
 40
0.25
  9
$DIMJUST
 70
     0
  9
$DIMSD1
 70
     0
  9
$DIMSD2
 70
     0
  9
$DIMTOLJ
 70
     1
  9
$DIMTZIN
 70
     0
  9
$DIMALTZ
 70
     0
  9
$DIMALTTZ
 70
     0
  9
$DIMUPT
 70
     1
  9
$DIMDEC
 70
     5
  9
$DIMTDEC
 70
     5
  9
$DIMALTU
 70
     2
  9
$DIMALTTD
 70
     2
  9
$DIMTXSTY
  7
Standard
  9
$DIMAUNIT
 70
     0
  9
$DIMADEC
 70
     0
  9
$DIMALTRND
 40
0.0
  9
$DIMAZIN
 70
     0
  9
$DIMDSEP
 70
    46
  9
$DIMATFIT
 70
     3
  9
$DIMFRAC
 70
     0
  9
$DIMLDRBLK
  1

  9
$DIMLUNIT
 70
     5
  9
$DIMLWD
 70
    -2
  9
$DIMLWE
 70
    -2
  9
$DIMTMOVE
 70
     0
  9
$LUNITS
 70
     2
  9
$LUPREC
 70
     4
  9
$SKETCHINC
 40
0.1
  9
$FILLETRAD
 40
0.5
  9
$AUNITS
 70
     0
  9
$AUPREC
 70
     0
  9
$MENU
  1
.
  9
$ELEVATION
 40
0.0
  9
$PELEVATION
 40
0.0
  9
$THICKNESS
 40
0.0
  9
$LIMCHECK
 70
     0
  9
$CHAMFERA
 40
0.5
  9
$CHAMFERB
 40
0.5
  9
$CHAMFERC
 40
1.0
  9
$CHAMFERD
 40
0.0
  9
$SKPOLY
 70
     0
  9
$TDCREATE
 40
2451708.520004977
  9
$TDUCREATE
 40
2451708.728338310
  9
$TDUPDATE
 40
2452345.677457639
  9
$TDUUPDATE
 40
2452345.885790972
  9
$TDINDWG
 40
0.1158348380
  9
$TDUSRTIMER
 40
0.1158188657
  9
$USRTIMER
 70
     1
  9
$ANGBASE
 50
0.0
  9
$ANGDIR
 70
     0
  9
$PDMODE
 70
     0
  9
$PDSIZE
 40
0.0
  9
$PLINEWID
 40
0.0
  9
$SPLFRAME
 70
     0
  9
$SPLINETYPE
 70
     6
  9
$SPLINESEGS
 70
     8
  9
$HANDSEED
  5
1540
  9
$SURFTAB1
 70
     6
  9
$SURFTAB2
 70
     6
  9
$SURFTYPE
 70
     6
  9
$SURFU
 70
     6
  9
$SURFV
 70
     6
  9
$UCSBASE
  2

  9
$UCSNAME
  2

  9
$UCSORG
 10
0.0
 20
0.0
 30
0.0
  9
$UCSXDIR
 10
1.0
 20
0.0
 30
0.0
  9
$UCSYDIR
 10
0.0
 20
1.0
 30
0.0
  9
$UCSORTHOREF
  2

  9
$UCSORTHOVIEW
 70
     0
  9
$UCSORGTOP
 10
0.0
 20
0.0
 30
0.0
  9
$UCSORGBOTTOM
 10
0.0
 20
0.0
 30
0.0
  9
$UCSORGLEFT
 10
0.0
 20
0.0
 30
0.0
  9
$UCSORGRIGHT
 10
0.0
 20
0.0
 30
0.0
  9
$UCSORGFRONT
 10
0.0
 20
0.0
 30
0.0
  9
$UCSORGBACK
 10
0.0
 20
0.0
 30
0.0
  9
$PUCSBASE
  2

  9
$PUCSNAME
  2

  9
$PUCSORG
 10
0.0
 20
0.0
 30
0.0
  9
$PUCSXDIR
 10
1.0
 20
0.0
 30
0.0
  9
$PUCSYDIR
 10
0.0
 20
1.0
 30
0.0
  9
$PUCSORTHOREF
  2

  9
$PUCSORTHOVIEW
 70
     0
  9
$PUCSORGTOP
 10
0.0
 20
0.0
 30
0.0
  9
$PUCSORGBOTTOM
 10
0.0
 20
0.0
 30
0.0
  9
$PUCSORGLEFT
 10
0.0
 20
0.0
 30
0.0
  9
$PUCSORGRIGHT
 10
0.0
 20
0.0
 30
0.0
  9
$PUCSORGFRONT
 10
0.0
 20
0.0
 30
0.0
  9
$PUCSORGBACK
 10
0.0
 20
0.0
 30
0.0
  9
$USERI1
 70
     0
  9
$USERI2
 70
     0
  9
$USERI3
 70
     0
  9
$USERI4
 70
     0
  9
$USERI5
 70
     0
  9
$USERR1
 40
0.0
  9
$USERR2
 40
0.0
  9
$USERR3
 40
0.0
  9
$USERR4
 40
0.0
  9
$USERR5
 40
0.0
  9
$WORLDVIEW
 70
     1
  9
$SHADEDGE
 70
     3
  9
$SHADEDIF
 70
    70
  9
$TILEMODE
 70
     1
  9
$MAXACTVP
 70
    64
  9
$PINSBASE
 10
0.0
 20
0.0
 30
0.0
  9
$PLIMCHECK
 70
     0
  9
$PEXTMIN
 10
1.000000000000000E+20
 20
1.000000000000000E+20
 30
1.000000000000000E+20
  9
$PEXTMAX
 10
-1.000000000000000E+20
 20
-1.000000000000000E+20
 30
-1.000000000000000E+20
  9
$PLIMMIN
 10
0.0
 20
0.0
  9
$PLIMMAX
 10
12.0
 20
9.0
  9
$UNITMODE
 70
     0
  9
$VISRETAIN
 70
     1
  9
$PLINEGEN
 70
     0
  9
$PSLTSCALE
 70
     1
  9
$TREEDEPTH
 70
  3020
  9
$CMLSTYLE
  2
Standard
  9
$CMLJUST
 70
     0
  9
$CMLSCALE
 40
1.0
  9
$PROXYGRAPHICS
 70
     1
  9
$MEASUREMENT
 70
     0
  9
$CELWEIGHT
370
    -1
  9
$ENDCAPS
280
     0
  9
$JOINSTYLE
280
     0
  9
$LWDISPLAY
290
     0
  9
$INSUNITS
 70
     1
  9
$HYPERLINKBASE
  1

  9
$STYLESHEET
  1

  9
$XEDIT
290
     1
  9
$CEPSNTYPE
380
     0
  9
$PSTYLEMODE
290
     1
  9
$FINGERPRINTGUID
  2
{2C04B406-4064-11D4-8360-004F4908EF25}
  9
$VERSIONGUID
  2
{8A0503C3-34CE-11D6-9106-004F4908EF25}
  9
$EXTNAMES
290
     1
  9
$PSVPSCALE
 40
0.0
  9
$OLESTARTUP
290
     0
  0
ENDSEC
  0
SECTION
  2
CLASSES
  0
CLASS
  1
ACDBDICTIONARYWDFLT
  2
AcDbDictionaryWithDefault
  3
AutoCAD 2000
 90
        0
280
     0
281
     0
  0
CLASS
  1
ACDBPLACEHOLDER
  2
AcDbPlaceHolder
  3
AutoCAD 2000
 90
        0
280
     0
281
     0
  0
CLASS
  1
LAYOUT
  2
AcDbLayout
  3
AutoCAD 2000
 90
        0
280
     0
281
     0
  0
ENDSEC
  0
SECTION
  2
TABLES
  0
TABLE
  2
VPORT
  5
8
330
0
100
AcDbSymbolTable
 70
     3
  0
VPORT
  5
153F
330
8
100
AcDbSymbolTableRecord
100
AcDbViewportTableRecord
  2
*Active
 70
     0
 10
0.0
 20
0.0
 11
1.0
 21
1.0
 12
16.90259304123922
 22
22.01734876158526
 13
0.0
 23
0.0
 14
0.5
 24
0.5
 15
0.5
 25
0.5
 16
0.0
 26
0.0
 36
1.0
 17
0.0
 27
0.0
 37
0.0
 40
35.26213134844003
 41
1.378947368421052
 42
50.0
 43
0.0
 44
0.0
 50
0.0
 51
0.0
 71
     0
 72
   100
 73
     1
 74
     3
 75
     0
 76
     0
 77
     0
 78
     0
281
     0
 65
     1
110
0.0
120
0.0
130
0.0
111
1.0
121
0.0
131
0.0
112
0.0
122
1.0
132
0.0
 79
     0
146
0.0
  0
ENDTAB
  0
TABLE
  2
LTYPE
  5
5
330
0
100
AcDbSymbolTable
 70
     5
  0
LTYPE
  5
14
330
5
100
AcDbSymbolTableRecord
100
AcDbLinetypeTableRecord
  2
ByBlock
 70
     0
  3

 72
    65
 73
     0
 40
0.0
  0
LTYPE
  5
15
330
5
100
AcDbSymbolTableRecord
100
AcDbLinetypeTableRecord
  2
ByLayer
 70
     0
  3

 72
    65
 73
     0
 40
0.0
  0
LTYPE
  5
16
330
5
100
AcDbSymbolTableRecord
100
AcDbLinetypeTableRecord
  2
Continuous
 70
     0
  3
Solid line
 72
    65
 73
     0
 40
0.0
  0
LTYPE
  5
A31
330
5
100
AcDbSymbolTableRecord
100
AcDbLinetypeTableRecord
  2
CENTER
 70
     0
  3
Center ____ _ ____ _ ____ _ ____ _ ____ _ ____
 72
    65
 73
     4
 40
2.0
 49
1.25
 74
     0
 49
-0.25
 74
     0
 49
0.25
 74
     0
 49
-0.25
 74
     0
  0
LTYPE
  5
A32
330
5
100
AcDbSymbolTableRecord
100
AcDbLinetypeTableRecord
  2
HIDDEN
 70
     0
  3
Hidden __ __ __ __ __ __ __ __ __ __ __ __ __ _
 72
    65
 73
     2
 40
0.375
 49
0.25
 74
     0
 49
-0.125
 74
     0
  0
LTYPE
  5
BA2
330
5
100
AcDbSymbolTableRecord
100
AcDbLinetypeTableRecord
  2
CENTER2
 70
     0
  3
Center (.5x) ___ _ ___ _ ___ _ ___ _ ___ _ ___
 72
    65
 73
     4
 40
1.125
 49
0.75
 74
     0
 49
-0.125
 74
     0
 49
0.125
 74
     0
 49
-0.125
 74
     0
  0
LTYPE
  5
BA3
330
5
100
AcDbSymbolTableRecord
100
AcDbLinetypeTableRecord
  2
HIDDEN2
 70
     0
  3
Hidden (.5x) _ _ _ _ _ _ _ _ _ _ _ _ _ _ _ _ _
 72
    65
 73
     2
 40
0.1875
 49
0.125
 74
     0
 49
-0.0625
 74
     0
  0
ENDTAB
  0
TABLE
  2
LAYER
  5
2
330
0
100
AcDbSymbolTable
 70
     9
  0
LAYER
  5
10
330
2
100
AcDbSymbolTableRecord
100
AcDbLayerTableRecord
  2
0
 70
     0
 62
     7
  6
Continuous
370
    -3
390
F
  0
LAYER
  5
30
330
2
100
AcDbSymbolTableRecord
100
AcDbLayerTableRecord
  2
TitleBlock&Notes
 70
     0
 62
     3
  6
Continuous
370
    -3
390
F
  0
LAYER
  5
A33
330
2
100
AcDbSymbolTableRecord
100
AcDbLayerTableRecord
  2
Defpoints
 70
     0
 62
     7
  6
Continuous
290
     0
370
    -3
390
F
  0
LAYER
  5
D62
330
2
100
AcDbSymbolTableRecord
100
AcDbLayerTableRecord
  2
4529BasePlate
 70
     0
 62
     7
  6
Continuous
370
    -3
390
F
  0
LAYER
  5
D63
330
2
100
AcDbSymbolTableRecord
100
AcDbLayerTableRecord
  2
5034MountPlate
 70
     0
 62
     7
  6
Continuous
370
    -3
390
F
  0
LAYER
  5
D6C
330
2
100
AcDbSymbolTableRecord
100
AcDbLayerTableRecord
  2
center
 70
     0
 62
     2
  6
CENTER
370
    -3
390
F
  0
LAYER
  5
D6F
330
2
100
AcDbSymbolTableRecord
100
AcDbLayerTableRecord
  2
Dimensions
 70
     0
 62
     1
  6
Continuous
370
    -3
390
F
  0
LAYER
  5
1398
330
2
100
AcDbSymbolTableRecord
100
AcDbLayerTableRecord
  2
6083FlameCut
 70
     0
 62
     7
  6
Continuous
370
    -3
390
F
  0
LAYER
  5
13D0
330
2
100
AcDbSymbolTableRecord
100
AcDbLayerTableRecord
  2
OBJECT
 70
     0
 62
     7
  6
Continuous
370
    -3
390
F
  0
ENDTAB
  0
TABLE
  2
STYLE
  5
3
330
0
100
AcDbSymbolTable
 70
     1
  0
STYLE
  5
11
330
3
100
AcDbSymbolTableRecord
100
AcDbTextStyleTableRecord
  2
Standard
 70
     0
 40
0.0
 41
1.0
 50
0.0
 71
     0
 42
0.2
  3
txt
  4

  0
ENDTAB
  0
TABLE
  2
VIEW
  5
6
330
0
100
AcDbSymbolTable
 70
     0
  0
ENDTAB
  0
TABLE
  2
UCS
  5
7
330
0
100
AcDbSymbolTable
 70
     0
  0
ENDTAB
  0
TABLE
  2
APPID
  5
9
330
0
100
AcDbSymbolTable
 70
     1
  0
APPID
  5
12
330
9
100
AcDbSymbolTableRecord
100
AcDbRegAppTableRecord
  2
ACAD
 70
     0
  0
ENDTAB
  0
TABLE
  2
DIMSTYLE
  5
A
330
0
100
AcDbSymbolTable
 70
     1
100
AcDbDimStyleTable
 71
     1
340
27
  0
DIMSTYLE
105
27
102
{ACAD_REACTORS
330
D8C
330
DB7
330
DF6
330
110D
330
114B
330
1159
330
1167
330
1175
330
11C3
330
1245
330
1253
330
1426
330
1464
330
14F7
102
}
330
A
100
AcDbSymbolTableRecord
100
AcDbDimStyleTableRecord
  2
Standard
 70
     0
340
11
  0
ENDTAB
  0
TABLE
  2
BLOCK_RECORD
  5
1
330
0
100
AcDbSymbolTable
 70
    15
  0
BLOCK_RECORD
  5
1F
330
1
100
AcDbSymbolTableRecord
100
AcDbBlockTableRecord
  2
*Model_Space
340
22
  0
BLOCK_RECORD
  5
1B
330
1
100
AcDbSymbolTableRecord
100
AcDbBlockTableRecord
  2
*Paper_Space
340
1E
  0
BLOCK_RECORD
  5
23
330
1
100
AcDbSymbolTableRecord
100
AcDbBlockTableRecord
  2
*Paper_Space0
340
26
  0
BLOCK_RECORD
  5
D8D
330
1
100
AcDbSymbolTableRecord
100
AcDbBlockTableRecord
  2
*D1
340
0
  0
BLOCK_RECORD
  5
DB8
330
1
100
AcDbSymbolTableRecord
100
AcDbBlockTableRecord
  2
*D2
340
0
  0
BLOCK_RECORD
  5
DF7
330
1
100
AcDbSymbolTableRecord
100
AcDbBlockTableRecord
  2
*D3
340
0
  0
BLOCK_RECORD
  5
110E
330
1
100
AcDbSymbolTableRecord
100
AcDbBlockTableRecord
  2
*D4
340
0
  0
BLOCK_RECORD
  5
114C
330
1
100
AcDbSymbolTableRecord
100
AcDbBlockTableRecord
  2
*D5
340
0
  0
BLOCK_RECORD
  5
115A
330
1
100
AcDbSymbolTableRecord
100
AcDbBlockTableRecord
  2
*D6
340
0
  0
BLOCK_RECORD
  5
1168
330
1
100
AcDbSymbolTableRecord
100
AcDbBlockTableRecord
  2
*D7
340
0
  0
BLOCK_RECORD
  5
1176
330
1
100
AcDbSymbolTableRecord
100
AcDbBlockTableRecord
  2
*D8
340
0
  0
BLOCK_RECORD
  5
11C4
330
1
100
AcDbSymbolTableRecord
100
AcDbBlockTableRecord
  2
*D9
340
0
  0
BLOCK_RECORD
  5
1246
330
1
100
AcDbSymbolTableRecord
100
AcDbBlockTableRecord
  2
*D10
340
0
  0
BLOCK_RECORD
  5
1254
330
1
100
AcDbSymbolTableRecord
100
AcDbBlockTableRecord
  2
*D11
340
0
  0
BLOCK_RECORD
  5
1427
330
1
100
AcDbSymbolTableRecord
100
AcDbBlockTableRecord
  2
*D12
340
0
  0
BLOCK_RECORD
  5
1465
330
1
100
AcDbSymbolTableRecord
100
AcDbBlockTableRecord
  2
*D13
340
0
  0
BLOCK_RECORD
  5
14F8
330
1
100
AcDbSymbolTableRecord
100
AcDbBlockTableRecord
  2
*D14
340
0
  0
ENDTAB
  0
ENDSEC
  0
SECTION
  2
BLOCKS
  0
BLOCK
  5
20
330
1F
100
AcDbEntity
  8
0
100
AcDbBlockBegin
  2
*Model_Space
 70
     0
 10
0.0
 20
0.0
 30
0.0
  3
*Model_Space
  1

  0
ENDBLK
  5
21
330
1F
100
AcDbEntity
  8
0
100
AcDbBlockEnd
  0
BLOCK
  5
1C
330
1B
100
AcDbEntity
 67
     1
  8
0
100
AcDbBlockBegin
  2
*Paper_Space
 70
     0
 10
0.0
 20
0.0
 30
0.0
  3
*Paper_Space
  1

  0
ENDBLK
  5
1D
330
1B
100
AcDbEntity
 67
     1
  8
0
100
AcDbBlockEnd
  0
BLOCK
  5
24
330
23
100
AcDbEntity
  8
0
100
AcDbBlockBegin
  2
*Paper_Space0
 70
     0
 10
0.0
 20
0.0
 30
0.0
  3
*Paper_Space0
  1

  0
ENDBLK
  5
25
330
23
100
AcDbEntity
  8
0
100
AcDbBlockEnd
  0
BLOCK
  5
D99
330
D8D
100
AcDbEntity
  8
0
100
AcDbBlockBegin
  2
*D1
 70
     1
 10
0.0
 20
0.0
 30
0.0
  3
*D1
  1

  0
LINE
  5
14CA
330
D8D
100
AcDbEntity
  8
Dimensions
 62
     0
370
    -2
100
AcDbLine
 10
19.44017167275537
 20
18.78563194408548
 30
0.0
 11
18.66438337447805
 21
18.78563194408548
 31
0.0
  0
LINE
  5
14CB
330
D8D
100
AcDbEntity
  8
Dimensions
 62
     0
370
    -2
100
AcDbLine
 10
19.44017167275537
 20
19.53563194408548
 30
0.0
 11
18.66438337447805
 21
19.53563194408548
 31
0.0
  0
LINE
  5
14CC
330
D8D
100
AcDbEntity
  8
Dimensions
 62
     0
370
    -2
100
AcDbLine
 10
18.96438337447805
 20
18.48563194408548
 30
0.0
 11
18.96438337447805
 21
18.18563194408548
 31
0.0
  0
LINE
  5
14CD
330
D8D
100
AcDbEntity
  8
Dimensions
 62
     0
370
    -2
100
AcDbLine
 10
18.96438337447805
 20
19.83563194408548
 30
0.0
 11
18.96438337447805
 21
20.13563194408548
 31
0.0
  0
LINE
  5
14CE
330
D8D
100
AcDbEntity
  8
Dimensions
 62
     0
370
    -2
100
AcDbLine
 10
18.96438337447805
 20
20.13563194408548
 30
0.0
 11
19.26438337447805
 21
20.13563194408548
 31
0.0
  0
SOLID
  5
14CF
330
D8D
100
AcDbEntity
  8
Dimensions
 62
     0
100
AcDbTrace
 10
18.91438337447805
 20
18.48563194408548
 30
0.0
 11
19.01438337447805
 21
18.48563194408548
 31
0.0
 12
18.96438337447805
 22
18.78563194408548
 32
0.0
 13
18.96438337447805
 23
18.78563194408548
 33
0.0
  0
SOLID
  5
14D0
330
D8D
100
AcDbEntity
  8
Dimensions
 62
     0
100
AcDbTrace
 10
18.91438337447805
 20
19.83563194408548
 30
0.0
 11
19.01438337447805
 21
19.83563194408548
 31
0.0
 12
18.96438337447805
 22
19.53563194408548
 32
0.0
 13
18.96438337447805
 23
19.53563194408548
 33
0.0
  0
MTEXT
  5
14D1
330
D8D
100
AcDbEntity
  8
Dimensions
 62
     0
100
AcDbMText
 10
19.61438337447805
 20
20.13563194408548
 30
0.0
 40
0.3
 41
0.0
 71
     5
 72
     1
  1
\A1;{\H1.000000x;\S3/4;}
 73
     1
 44
1.0
  0
POINT
  5
14D2
330
D8D
100
AcDbEntity
  8
Defpoints
 62
     0
100
AcDbPoint
 10
19.54017167275538
 20
18.78563194408548
 30
0.0
  0
POINT
  5
14D3
330
D8D
100
AcDbEntity
  8
Defpoints
 62
     0
100
AcDbPoint
 10
19.54017167275538
 20
19.53563194408548
 30
0.0
  0
POINT
  5
14D4
330
D8D
100
AcDbEntity
  8
Defpoints
 62
     0
100
AcDbPoint
 10
18.96438337447805
 20
19.53563194408548
 30
0.0
  0
ENDBLK
  5
D9A
330
D8D
100
AcDbEntity
  8
0
100
AcDbBlockEnd
  0
BLOCK
  5
DC3
330
DB8
100
AcDbEntity
  8
0
100
AcDbBlockBegin
  2
*D2
 70
     1
 10
0.0
 20
0.0
 30
0.0
  3
*D2
  1

  0
LINE
  5
14D5
330
DB8
100
AcDbEntity
  8
Dimensions
 62
     0
370
    -2
100
AcDbLine
 10
19.54017167275538
 20
18.68563194408547
 30
0.0
 11
19.54017167275538
 21
17.38469089136039
 31
0.0
  0
LINE
  5
14D6
330
DB8
100
AcDbEntity
  8
Dimensions
 62
     0
370
    -2
100
AcDbLine
 10
27.04017167275538
 20
18.68563194408547
 30
0.0
 11
27.04017167275538
 21
17.38469089136039
 31
0.0
  0
LINE
  5
14D7
330
DB8
100
AcDbEntity
  8
Dimensions
 62
     0
370
    -2
100
AcDbLine
 10
19.84017167275538
 20
17.68469089136039
 30
0.0
 11
22.65367586692693
 21
17.68469089136039
 31
0.0
  0
LINE
  5
14D8
330
DB8
100
AcDbEntity
  8
Dimensions
 62
     0
370
    -2
100
AcDbLine
 10
26.74017167275538
 20
17.68469089136039
 30
0.0
 11
23.65367586692693
 21
17.68469089136039
 31
0.0
  0
SOLID
  5
14D9
330
DB8
100
AcDbEntity
  8
Dimensions
 62
     0
100
AcDbTrace
 10
19.84017167275538
 20
17.73469089136039
 30
0.0
 11
19.84017167275538
 21
17.63469089136037
 31
0.0
 12
19.54017167275538
 22
17.68469089136039
 32
0.0
 13
19.54017167275538
 23
17.68469089136039
 33
0.0
  0
SOLID
  5
14DA
330
DB8
100
AcDbEntity
  8
Dimensions
 62
     0
100
AcDbTrace
 10
26.74017167275538
 20
17.73469089136039
 30
0.0
 11
26.74017167275538
 21
17.63469089136037
 31
0.0
 12
27.04017167275538
 22
17.68469089136039
 32
0.0
 13
27.04017167275538
 23
17.68469089136039
 33
0.0
  0
MTEXT
  5
14DB
330
DB8
100
AcDbEntity
  8
Dimensions
 62
     0
100
AcDbMText
 10
23.15367586692692
 20
17.68469089136039
 30
0.0
 40
0.3
 41
0.0
 71
     5
 72
     1
  1
\A1;7{\H1.000000x;\S1/2;}
 73
     1
 44
1.0
  0
POINT
  5
14DC
330
DB8
100
AcDbEntity
  8
Defpoints
 62
     0
100
AcDbPoint
 10
19.54017167275538
 20
18.78563194408548
 30
0.0
  0
POINT
  5
14DD
330
DB8
100
AcDbEntity
  8
Defpoints
 62
     0
100
AcDbPoint
 10
27.04017167275538
 20
18.78563194408548
 30
0.0
  0
POINT
  5
14DE
330
DB8
100
AcDbEntity
  8
Defpoints
 62
     0
100
AcDbPoint
 10
27.04017167275538
 20
17.68469089136039
 30
0.0
  0
ENDBLK
  5
DC4
330
DB8
100
AcDbEntity
  8
0
100
AcDbBlockEnd
  0
BLOCK
  5
E02
330
DF7
100
AcDbEntity
  8
0
100
AcDbBlockBegin
  2
*D3
 70
     1
 10
0.0
 20
0.0
 30
0.0
  3
*D3
  1

  0
LINE
  5
148E
330
DF7
100
AcDbEntity
  8
Dimensions
 62
     0
370
    -2
100
AcDbLine
 10
14.64375419329158
 20
18.68563194408547
 30
0.0
 11
14.64375419329158
 21
17.41907750996418
 31
0.0
  0
LINE
  5
148F
330
DF7
100
AcDbEntity
  8
Dimensions
 62
     0
370
    -2
100
AcDbLine
 10
9.643754193291584
 20
18.68563194408547
 30
0.0
 11
9.643754193291584
 21
17.41907750996418
 31
0.0
  0
LINE
  5
1490
330
DF7
100
AcDbEntity
  8
Dimensions
 62
     0
370
    -2
100
AcDbLine
 10
14.34375419329158
 20
17.71907750996418
 30
0.0
 11
12.50646633655887
 21
17.71907750996418
 31
0.0
  0
LINE
  5
1491
330
DF7
100
AcDbEntity
  8
Dimensions
 62
     0
370
    -2
100
AcDbLine
 10
9.943754193291583
 20
17.71907750996418
 30
0.0
 11
11.80646633655886
 21
17.71907750996418
 31
0.0
  0
SOLID
  5
1492
330
DF7
100
AcDbEntity
  8
Dimensions
 62
     0
100
AcDbTrace
 10
14.34375419329158
 20
17.76907750996418
 30
0.0
 11
14.34375419329158
 21
17.66907750996417
 31
0.0
 12
14.64375419329158
 22
17.71907750996418
 32
0.0
 13
14.64375419329158
 23
17.71907750996418
 33
0.0
  0
SOLID
  5
1493
330
DF7
100
AcDbEntity
  8
Dimensions
 62
     0
100
AcDbTrace
 10
9.943754193291583
 20
17.76907750996418
 30
0.0
 11
9.943754193291583
 21
17.66907750996417
 31
0.0
 12
9.643754193291584
 22
17.71907750996418
 32
0.0
 13
9.643754193291584
 23
17.71907750996418
 33
0.0
  0
MTEXT
  5
1494
330
DF7
100
AcDbEntity
  8
Dimensions
 62
     0
100
AcDbMText
 10
12.15646633655887
 20
17.71907750996418
 30
0.0
 40
0.3
 41
0.0
 71
     5
 72
     1
  1
\A1;5
 73
     1
 44
1.0
  0
POINT
  5
1495
330
DF7
100
AcDbEntity
  8
Defpoints
 62
     0
100
AcDbPoint
 10
14.64375419329158
 20
18.78563194408548
 30
0.0
  0
POINT
  5
1496
330
DF7
100
AcDbEntity
  8
Defpoints
 62
     0
100
AcDbPoint
 10
9.643754193291584
 20
18.78563194408548
 30
0.0
  0
POINT
  5
1497
330
DF7
100
AcDbEntity
  8
Defpoints
 62
     0
100
AcDbPoint
 10
9.643754193291584
 20
17.71907750996418
 30
0.0
  0
ENDBLK
  5
E03
330
DF7
100
AcDbEntity
  8
0
100
AcDbBlockEnd
  0
BLOCK
  5
1119
330
110E
100
AcDbEntity
  8
0
100
AcDbBlockBegin
  2
*D4
 70
     1
 10
0.0
 20
0.0
 30
0.0
  3
*D4
  1

  0
LINE
  5
14A2
330
110E
100
AcDbEntity
  8
Dimensions
 62
     0
370
    -2
100
AcDbLine
 10
8.611231301025885
 20
10.08708889561418
 30
0.0
 11
8.611231301025885
 21
9.261982788802168
 31
0.0
  0
LINE
  5
14A3
330
110E
100
AcDbEntity
  8
Dimensions
 62
     0
370
    -2
100
AcDbLine
 10
9.111231301025883
 20
12.18954790335091
 30
0.0
 11
9.111231301025883
 21
9.261982788802168
 31
0.0
  0
LINE
  5
14A4
330
110E
100
AcDbEntity
  8
Dimensions
 62
     0
370
    -2
100
AcDbLine
 10
8.311231301025884
 20
9.561982788802168
 30
0.0
 11
8.011231301025885
 21
9.561982788802168
 31
0.0
  0
LINE
  5
14A5
330
110E
100
AcDbEntity
  8
Dimensions
 62
     0
370
    -2
100
AcDbLine
 10
9.411231301025882
 20
9.561982788802168
 30
0.0
 11
9.711231301025883
 21
9.561982788802168
 31
0.0
  0
SOLID
  5
14A6
330
110E
100
AcDbEntity
  8
Dimensions
 62
     0
100
AcDbTrace
 10
8.311231301025884
 20
9.611982788802167
 30
0.0
 11
8.311231301025884
 21
9.511982788802168
 31
0.0
 12
8.611231301025885
 22
9.561982788802168
 32
0.0
 13
8.611231301025885
 23
9.561982788802168
 33
0.0
  0
SOLID
  5
14A7
330
110E
100
AcDbEntity
  8
Dimensions
 62
     0
100
AcDbTrace
 10
9.411231301025882
 20
9.611982788802167
 30
0.0
 11
9.411231301025882
 21
9.511982788802168
 31
0.0
 12
9.111231301025883
 22
9.561982788802168
 32
0.0
 13
9.111231301025883
 23
9.561982788802168
 33
0.0
  0
MTEXT
  5
14A8
330
110E
100
AcDbEntity
  8
Dimensions
 62
     0
100
AcDbMText
 10
8.861231301025885
 20
9.561982788802168
 30
0.0
 40
0.3
 41
0.0
 71
     5
 72
     1
  1
\A1;{\H1.000000x;\S1/2;}
 73
     1
 44
1.0
  0
POINT
  5
14A9
330
110E
100
AcDbEntity
  8
Defpoints
 62
     0
100
AcDbPoint
 10
8.611231301025885
 20
10.18708889561418
 30
0.0
  0
POINT
  5
14AA
330
110E
100
AcDbEntity
  8
Defpoints
 62
     0
100
AcDbPoint
 10
9.111231301025883
 20
12.28954790335091
 30
0.0
  0
POINT
  5
14AB
330
110E
100
AcDbEntity
  8
Defpoints
 62
     0
100
AcDbPoint
 10
9.111231301025883
 20
9.561982788802168
 30
0.0
  0
ENDBLK
  5
111A
330
110E
100
AcDbEntity
  8
0
100
AcDbBlockEnd
  0
BLOCK
  5
1157
330
114C
100
AcDbEntity
  8
0
100
AcDbBlockBegin
  2
*D5
 70
     1
 10
0.0
 20
0.0
 30
0.0
  3
*D5
  1

  0
LINE
  5
14B6
330
114C
100
AcDbEntity
  8
Dimensions
 62
     0
370
    -2
100
AcDbLine
 10
8.611231301025885
 20
10.08708889561418
 30
0.0
 11
8.611231301025885
 21
8.535476365968786
 31
0.0
  0
LINE
  5
14B7
330
114C
100
AcDbEntity
  8
Dimensions
 62
     0
370
    -2
100
AcDbLine
 10
10.86123130102588
 20
12.18954790335091
 30
0.0
 11
10.86123130102588
 21
8.535476365968786
 31
0.0
  0
LINE
  5
14B8
330
114C
100
AcDbEntity
  8
Dimensions
 62
     0
370
    -2
100
AcDbLine
 10
8.911231301025885
 20
8.835476365968787
 30
0.0
 11
9.406022112881712
 21
8.835476365968787
 31
0.0
  0
LINE
  5
14B9
330
114C
100
AcDbEntity
  8
Dimensions
 62
     0
370
    -2
100
AcDbLine
 10
10.56123130102588
 20
8.835476365968787
 30
0.0
 11
10.40602211288171
 21
8.835476365968787
 31
0.0
  0
SOLID
  5
14BA
330
114C
100
AcDbEntity
  8
Dimensions
 62
     0
100
AcDbTrace
 10
8.911231301025885
 20
8.885476365968788
 30
0.0
 11
8.911231301025885
 21
8.785476365968786
 31
0.0
 12
8.611231301025885
 22
8.835476365968787
 32
0.0
 13
8.611231301025885
 23
8.835476365968787
 33
0.0
  0
SOLID
  5
14BB
330
114C
100
AcDbEntity
  8
Dimensions
 62
     0
100
AcDbTrace
 10
10.56123130102588
 20
8.885476365968788
 30
0.0
 11
10.56123130102588
 21
8.785476365968786
 31
0.0
 12
10.86123130102588
 22
8.835476365968787
 32
0.0
 13
10.86123130102588
 23
8.835476365968787
 33
0.0
  0
MTEXT
  5
14BC
330
114C
100
AcDbEntity
  8
Dimensions
 62
     0
100
AcDbMText
 10
9.906022112881712
 20
8.835476365968787
 30
0.0
 40
0.3
 41
0.0
 71
     5
 72
     1
  1
\A1;2{\H1.000000x;\S1/4;}
 73
     1
 44
1.0
  0
POINT
  5
14BD
330
114C
100
AcDbEntity
  8
Defpoints
 62
     0
100
AcDbPoint
 10
8.611231301025885
 20
10.18708889561418
 30
0.0
  0
POINT
  5
14BE
330
114C
100
AcDbEntity
  8
Defpoints
 62
     0
100
AcDbPoint
 10
10.86123130102588
 20
12.28954790335091
 30
0.0
  0
POINT
  5
14BF
330
114C
100
AcDbEntity
  8
Defpoints
 62
     0
100
AcDbPoint
 10
10.86123130102588
 20
8.835476365968787
 30
0.0
  0
ENDBLK
  5
1158
330
114C
100
AcDbEntity
  8
0
100
AcDbBlockEnd
  0
BLOCK
  5
1165
330
115A
100
AcDbEntity
  8
0
100
AcDbBlockBegin
  2
*D6
 70
     1
 10
0.0
 20
0.0
 30
0.0
  3
*D6
  1

  0
LINE
  5
14AC
330
115A
100
AcDbEntity
  8
Dimensions
 62
     0
370
    -2
100
AcDbLine
 10
10.86123130102588
 20
12.08954790335091
 30
0.0
 11
10.86123130102588
 21
8.535476365968786
 31
0.0
  0
LINE
  5
14AD
330
115A
100
AcDbEntity
  8
Dimensions
 62
     0
370
    -2
100
AcDbLine
 10
13.61123130102589
 20
12.18108889561419
 30
0.0
 11
13.61123130102589
 21
8.535476365968786
 31
0.0
  0
LINE
  5
14AE
330
115A
100
AcDbEntity
  8
Dimensions
 62
     0
370
    -2
100
AcDbLine
 10
11.16123130102588
 20
8.835476365968787
 30
0.0
 11
11.8738908450283
 21
8.835476365968787
 31
0.0
  0
LINE
  5
14AF
330
115A
100
AcDbEntity
  8
Dimensions
 62
     0
370
    -2
100
AcDbLine
 10
13.31123130102588
 20
8.835476365968787
 30
0.0
 11
12.87389084502831
 21
8.835476365968787
 31
0.0
  0
SOLID
  5
14B0
330
115A
100
AcDbEntity
  8
Dimensions
 62
     0
100
AcDbTrace
 10
11.16123130102588
 20
8.885476365968788
 30
0.0
 11
11.16123130102588
 21
8.785476365968786
 31
0.0
 12
10.86123130102588
 22
8.835476365968787
 32
0.0
 13
10.86123130102588
 23
8.835476365968787
 33
0.0
  0
SOLID
  5
14B1
330
115A
100
AcDbEntity
  8
Dimensions
 62
     0
100
AcDbTrace
 10
13.31123130102588
 20
8.885476365968788
 30
0.0
 11
13.31123130102588
 21
8.785476365968786
 31
0.0
 12
13.61123130102589
 22
8.835476365968787
 32
0.0
 13
13.61123130102589
 23
8.835476365968787
 33
0.0
  0
MTEXT
  5
14B2
330
115A
100
AcDbEntity
  8
Dimensions
 62
     0
100
AcDbMText
 10
12.37389084502831
 20
8.835476365968787
 30
0.0
 40
0.3
 41
0.0
 71
     5
 72
     1
  1
\A1;2{\H1.000000x;\S3/4;}
 73
     1
 44
1.0
  0
POINT
  5
14B3
330
115A
100
AcDbEntity
  8
Defpoints
 62
     0
100
AcDbPoint
 10
10.86123130102588
 20
12.18954790335091
 30
0.0
  0
POINT
  5
14B4
330
115A
100
AcDbEntity
  8
Defpoints
 62
     0
100
AcDbPoint
 10
13.61123130102589
 20
12.28108889561418
 30
0.0
  0
POINT
  5
14B5
330
115A
100
AcDbEntity
  8
Defpoints
 62
     0
100
AcDbPoint
 10
13.61123130102589
 20
8.835476365968787
 30
0.0
  0
ENDBLK
  5
1166
330
115A
100
AcDbEntity
  8
0
100
AcDbBlockEnd
  0
BLOCK
  5
1173
330
1168
100
AcDbEntity
  8
0
100
AcDbBlockBegin
  2
*D7
 70
     1
 10
0.0
 20
0.0
 30
0.0
  3
*D7
  1

  0
LINE
  5
1484
330
1168
100
AcDbEntity
  8
Dimensions
 62
     0
370
    -2
100
AcDbLine
 10
13.61123130102589
 20
12.08108889561419
 30
0.0
 11
13.61123130102589
 21
8.535476365968786
 31
0.0
  0
LINE
  5
1485
330
1168
100
AcDbEntity
  8
Dimensions
 62
     0
370
    -2
100
AcDbLine
 10
14.36123130102588
 20
12.18108889561419
 30
0.0
 11
14.36123130102588
 21
8.535476365968786
 31
0.0
  0
LINE
  5
1486
330
1168
100
AcDbEntity
  8
Dimensions
 62
     0
370
    -2
100
AcDbLine
 10
13.31123130102588
 20
8.835476365968787
 30
0.0
 11
13.01123130102588
 21
8.835476365968787
 31
0.0
  0
LINE
  5
1487
330
1168
100
AcDbEntity
  8
Dimensions
 62
     0
370
    -2
100
AcDbLine
 10
14.66123130102588
 20
8.835476365968787
 30
0.0
 11
14.96123130102589
 21
8.835476365968787
 31
0.0
  0
SOLID
  5
1488
330
1168
100
AcDbEntity
  8
Dimensions
 62
     0
100
AcDbTrace
 10
13.31123130102588
 20
8.885476365968788
 30
0.0
 11
13.31123130102588
 21
8.785476365968786
 31
0.0
 12
13.61123130102589
 22
8.835476365968787
 32
0.0
 13
13.61123130102589
 23
8.835476365968787
 33
0.0
  0
SOLID
  5
1489
330
1168
100
AcDbEntity
  8
Dimensions
 62
     0
100
AcDbTrace
 10
14.66123130102588
 20
8.885476365968788
 30
0.0
 11
14.66123130102588
 21
8.785476365968786
 31
0.0
 12
14.36123130102588
 22
8.835476365968787
 32
0.0
 13
14.36123130102588
 23
8.835476365968787
 33
0.0
  0
MTEXT
  5
148A
330
1168
100
AcDbEntity
  8
Dimensions
 62
     0
100
AcDbMText
 10
13.98623130102588
 20
8.835476365968787
 30
0.0
 40
0.3
 41
0.0
 71
     5
 72
     1
  1
\A1;{\H1.000000x;\S3/4;}
 73
     1
 44
1.0
  0
POINT
  5
148B
330
1168
100
AcDbEntity
  8
Defpoints
 62
     0
100
AcDbPoint
 10
13.61123130102589
 20
12.18108889561419
 30
0.0
  0
POINT
  5
148C
330
1168
100
AcDbEntity
  8
Defpoints
 62
     0
100
AcDbPoint
 10
14.36123130102588
 20
12.28108889561418
 30
0.0
  0
POINT
  5
148D
330
1168
100
AcDbEntity
  8
Defpoints
 62
     0
100
AcDbPoint
 10
14.36123130102588
 20
8.835476365968787
 30
0.0
  0
ENDBLK
  5
1174
330
1168
100
AcDbEntity
  8
0
100
AcDbBlockEnd
  0
BLOCK
  5
1181
330
1176
100
AcDbEntity
  8
0
100
AcDbBlockBegin
  2
*D8
 70
     1
 10
0.0
 20
0.0
 30
0.0
  3
*D8
  1

  0
LINE
  5
14E5
330
1176
100
AcDbEntity
  8
Dimensions
 62
     0
370
    -2
100
AcDbLine
 10
16.11123130102589
 20
10.08708889561418
 30
0.0
 11
16.11123130102589
 21
8.535476365968786
 31
0.0
  0
LINE
  5
14E6
330
1176
100
AcDbEntity
  8
Dimensions
 62
     0
370
    -2
100
AcDbLine
 10
15.61123130102588
 20
12.18108889561419
 30
0.0
 11
15.61123130102588
 21
8.535476365968786
 31
0.0
  0
LINE
  5
14E7
330
1176
100
AcDbEntity
  8
Dimensions
 62
     0
370
    -2
100
AcDbLine
 10
16.41123130102589
 20
8.835476365968787
 30
0.0
 11
16.71123130102589
 21
8.835476365968787
 31
0.0
  0
LINE
  5
14E8
330
1176
100
AcDbEntity
  8
Dimensions
 62
     0
370
    -2
100
AcDbLine
 10
15.31123130102588
 20
8.835476365968787
 30
0.0
 11
15.01123130102588
 21
8.835476365968787
 31
0.0
  0
SOLID
  5
14E9
330
1176
100
AcDbEntity
  8
Dimensions
 62
     0
100
AcDbTrace
 10
16.41123130102589
 20
8.885476365968788
 30
0.0
 11
16.41123130102589
 21
8.785476365968786
 31
0.0
 12
16.11123130102589
 22
8.835476365968787
 32
0.0
 13
16.11123130102589
 23
8.835476365968787
 33
0.0
  0
SOLID
  5
14EA
330
1176
100
AcDbEntity
  8
Dimensions
 62
     0
100
AcDbTrace
 10
15.31123130102588
 20
8.885476365968788
 30
0.0
 11
15.31123130102588
 21
8.785476365968786
 31
0.0
 12
15.61123130102588
 22
8.835476365968787
 32
0.0
 13
15.61123130102588
 23
8.835476365968787
 33
0.0
  0
MTEXT
  5
14EB
330
1176
100
AcDbEntity
  8
Dimensions
 62
     0
100
AcDbMText
 10
15.86123130102588
 20
8.835476365968787
 30
0.0
 40
0.3
 41
0.0
 71
     5
 72
     1
  1
\A1;{\H1.000000x;\S1/2;}
 73
     1
 44
1.0
  0
POINT
  5
14EC
330
1176
100
AcDbEntity
  8
Defpoints
 62
     0
100
AcDbPoint
 10
16.11123130102589
 20
10.18708889561418
 30
0.0
  0
POINT
  5
14ED
330
1176
100
AcDbEntity
  8
Defpoints
 62
     0
100
AcDbPoint
 10
15.61123130102588
 20
12.28108889561418
 30
0.0
  0
POINT
  5
14EE
330
1176
100
AcDbEntity
  8
Defpoints
 62
     0
100
AcDbPoint
 10
15.61123130102588
 20
8.835476365968787
 30
0.0
  0
ENDBLK
  5
1182
330
1176
100
AcDbEntity
  8
0
100
AcDbBlockEnd
  0
BLOCK
  5
11CB
330
11C4
100
AcDbEntity
  8
0
100
AcDbBlockBegin
  2
*D9
 70
     1
 10
0.0
 20
0.0
 30
0.0
  3
*D9
  1

  0
LINE
  5
14DF
330
11C4
100
AcDbEntity
  8
Dimensions
 62
     0
370
    -2
100
AcDbLine
 10
17.29970039739285
 20
13.29124875107892
 30
0.0
 11
16.99970039739284
 21
13.29124875107892
 31
0.0
  0
LINE
  5
14E0
330
11C4
100
AcDbEntity
  8
Dimensions
 62
     0
370
    -2
100
AcDbLine
 10
16.99970039739284
 20
13.29124875107892
 30
0.0
 11
16.07257412209692
 21
12.88783143488084
 31
0.0
  0
MTEXT
  5
14E1
330
11C4
100
AcDbEntity
  8
Dimensions
 62
     0
100
AcDbMText
 10
19.68470039739285
 20
13.29124875107892
 30
0.0
 40
0.3
 41
0.0
 71
     5
 72
     1
  1
\A1;\A1;{\H0.7x;\S13/32;} DRILL, 2 PLCS
 73
     1
 44
1.0
  0
SOLID
  5
14E2
330
11C4
100
AcDbEntity
  8
Dimensions
 62
     0
100
AcDbTrace
 10
16.05262455297726
 20
12.93367916865187
 30
0.0
 11
16.09252369121659
 21
12.8419837011098
 31
0.0
 12
15.79748771947071
 22
12.76813402016284
 32
0.0
 13
15.79748771947071
 23
12.76813402016284
 33
0.0
  0
POINT
  5
14E3
330
11C4
100
AcDbEntity
  8
Defpoints
 62
     0
100
AcDbPoint
 10
15.79748771947071
 20
12.76813402016284
 30
0.0
  0
POINT
  5
14E4
330
11C4
100
AcDbEntity
  8
Defpoints
 62
     0
100
AcDbPoint
 10
15.42497488258107
 20
12.60604377106555
 30
0.0
  0
ENDBLK
  5
11CC
330
11C4
100
AcDbEntity
  8
0
100
AcDbBlockEnd
  0
BLOCK
  5
1251
330
1246
100
AcDbEntity
  8
0
100
AcDbBlockBegin
  2
*D10
 70
     1
 10
0.0
 20
0.0
 30
0.0
  3
*D10
  1

  0
LINE
  5
1498
330
1246
100
AcDbEntity
  8
Dimensions
 62
     0
370
    -2
100
AcDbLine
 10
8.511231301025885
 20
10.18708889561418
 30
0.0
 11
5.173960840689502
 21
10.18708889561418
 31
0.0
  0
LINE
  5
1499
330
1246
100
AcDbEntity
  8
Dimensions
 62
     0
370
    -2
100
AcDbLine
 10
8.511231301025885
 20
15.18708889561419
 30
0.0
 11
5.173960840689503
 21
15.18708889561419
 31
0.0
  0
LINE
  5
149A
330
1246
100
AcDbEntity
  8
Dimensions
 62
     0
370
    -2
100
AcDbLine
 10
5.4739608406895
 20
10.48708889561418
 30
0.0
 11
5.4739608406895
 21
12.06509695430868
 31
0.0
  0
LINE
  5
149B
330
1246
100
AcDbEntity
  8
Dimensions
 62
     0
370
    -2
100
AcDbLine
 10
5.473960840689501
 20
14.88708889561419
 30
0.0
 11
5.4739608406895
 21
12.86509695430869
 31
0.0
  0
SOLID
  5
149C
330
1246
100
AcDbEntity
  8
Dimensions
 62
     0
100
AcDbTrace
 10
5.423960840689502
 20
10.48708889561418
 30
0.0
 11
5.5239608406895
 21
10.48708889561418
 31
0.0
 12
5.4739608406895
 22
10.18708889561418
 32
0.0
 13
5.4739608406895
 23
10.18708889561418
 33
0.0
  0
SOLID
  5
149D
330
1246
100
AcDbEntity
  8
Dimensions
 62
     0
100
AcDbTrace
 10
5.423960840689503
 20
14.88708889561419
 30
0.0
 11
5.523960840689501
 21
14.88708889561419
 31
0.0
 12
5.473960840689501
 22
15.18708889561419
 32
0.0
 13
5.473960840689501
 23
15.18708889561419
 33
0.0
  0
MTEXT
  5
149E
330
1246
100
AcDbEntity
  8
Dimensions
 62
     0
100
AcDbMText
 10
5.4739608406895
 20
12.46509695430868
 30
0.0
 40
0.3
 41
0.0
 71
     5
 72
     1
  1
\A1;5
 73
     1
 44
1.0
  0
POINT
  5
149F
330
1246
100
AcDbEntity
  8
Defpoints
 62
     0
100
AcDbPoint
 10
8.611231301025885
 20
10.18708889561418
 30
0.0
  0
POINT
  5
14A0
330
1246
100
AcDbEntity
  8
Defpoints
 62
     0
100
AcDbPoint
 10
8.611231301025885
 20
15.18708889561419
 30
0.0
  0
POINT
  5
14A1
330
1246
100
AcDbEntity
  8
Defpoints
 62
     0
100
AcDbPoint
 10
5.473960840689501
 20
15.18708889561419
 30
0.0
  0
ENDBLK
  5
1252
330
1246
100
AcDbEntity
  8
0
100
AcDbBlockEnd
  0
BLOCK
  5
125F
330
1254
100
AcDbEntity
  8
0
100
AcDbBlockBegin
  2
*D11
 70
     1
 10
0.0
 20
0.0
 30
0.0
  3
*D11
  1

  0
LINE
  5
147A
330
1254
100
AcDbEntity
  8
Dimensions
 62
     0
370
    -2
100
AcDbLine
 10
8.611231301025885
 20
15.28708889561419
 30
0.0
 11
8.611231301025885
 21
16.27374386720227
 31
0.0
  0
LINE
  5
147B
330
1254
100
AcDbEntity
  8
Dimensions
 62
     0
370
    -2
100
AcDbLine
 10
16.11123130102589
 20
15.28708889561419
 30
0.0
 11
16.11123130102589
 21
16.27374386720227
 31
0.0
  0
LINE
  5
147C
330
1254
100
AcDbEntity
  8
Dimensions
 62
     0
370
    -2
100
AcDbLine
 10
8.911231301025885
 20
15.97374386720226
 30
0.0
 11
11.7769302586945
 21
15.97374386720226
 31
0.0
  0
LINE
  5
147D
330
1254
100
AcDbEntity
  8
Dimensions
 62
     0
370
    -2
100
AcDbLine
 10
15.81123130102588
 20
15.97374386720226
 30
0.0
 11
12.7769302586945
 21
15.97374386720226
 31
0.0
  0
SOLID
  5
147E
330
1254
100
AcDbEntity
  8
Dimensions
 62
     0
100
AcDbTrace
 10
8.911231301025885
 20
16.02374386720227
 30
0.0
 11
8.911231301025885
 21
15.92374386720227
 31
0.0
 12
8.611231301025885
 22
15.97374386720226
 32
0.0
 13
8.611231301025885
 23
15.97374386720226
 33
0.0
  0
SOLID
  5
147F
330
1254
100
AcDbEntity
  8
Dimensions
 62
     0
100
AcDbTrace
 10
15.81123130102588
 20
16.02374386720227
 30
0.0
 11
15.81123130102588
 21
15.92374386720227
 31
0.0
 12
16.11123130102589
 22
15.97374386720226
 32
0.0
 13
16.11123130102589
 23
15.97374386720226
 33
0.0
  0
MTEXT
  5
1480
330
1254
100
AcDbEntity
  8
Dimensions
 62
     0
100
AcDbMText
 10
12.2769302586945
 20
15.97374386720226
 30
0.0
 40
0.3
 41
0.0
 71
     5
 72
     1
  1
\A1;7{\H1.000000x;\S1/2;}
 73
     1
 44
1.0
  0
POINT
  5
1481
330
1254
100
AcDbEntity
  8
Defpoints
 62
     0
100
AcDbPoint
 10
8.611231301025885
 20
15.18708889561419
 30
0.0
  0
POINT
  5
1482
330
1254
100
AcDbEntity
  8
Defpoints
 62
     0
100
AcDbPoint
 10
16.11123130102589
 20
15.18708889561419
 30
0.0
  0
POINT
  5
1483
330
1254
100
AcDbEntity
  8
Defpoints
 62
     0
100
AcDbPoint
 10
16.11123130102589
 20
15.97374386720226
 30
0.0
  0
ENDBLK
  5
1260
330
1254
100
AcDbEntity
  8
0
100
AcDbBlockEnd
  0
BLOCK
  5
1432
330
1427
100
AcDbEntity
  8
0
100
AcDbBlockBegin
  2
*D12
 70
     1
 10
0.0
 20
0.0
 30
0.0
  3
*D12
  1

  0
LINE
  5
14EF
330
1427
100
AcDbEntity
  8
Dimensions
 62
     0
370
    -2
100
AcDbLine
 10
22.09017167275538
 20
22.90410714719008
 30
0.0
 11
22.61517167275538
 21
22.90410714719008
 31
0.0
  0
LINE
  5
14F0
330
1427
100
AcDbEntity
  8
Dimensions
 62
     0
370
    -2
100
AcDbLine
 10
22.91517167275538
 20
22.90410714719008
 30
0.0
 11
23.35695248014501
 21
22.90410714719008
 31
0.0
  0
SOLID
  5
14F1
330
1427
100
AcDbEntity
  8
Dimensions
 62
     0
100
AcDbTrace
 10
22.09017167275538
 20
22.95410714719009
 30
0.0
 11
22.09017167275538
 21
22.85410714719009
 31
0.0
 12
21.79017167275536
 22
22.90410714719008
 32
0.0
 13
21.79017167275536
 23
22.90410714719008
 33
0.0
  0
SOLID
  5
14F2
330
1427
100
AcDbEntity
  8
Dimensions
 62
     0
100
AcDbTrace
 10
22.61517167275538
 20
22.95410714719009
 30
0.0
 11
22.61517167275538
 21
22.85410714719009
 31
0.0
 12
22.91517167275538
 22
22.90410714719008
 32
0.0
 13
22.91517167275538
 23
22.90410714719008
 33
0.0
  0
MTEXT
  5
14F3
330
1427
100
AcDbEntity
  8
Dimensions
 62
     0
100
AcDbMText
 10
23.80695248014501
 20
22.90410714719008
 30
0.0
 40
0.3
 41
0.0
 71
     5
 72
     1
  1
\A1;1{\H1.000000x;\S1/8;}
 73
     1
 44
1.0
  0
POINT
  5
14F4
330
1427
100
AcDbEntity
  8
Defpoints
 62
     0
100
AcDbPoint
 10
21.79017167275536
 20
26.66211792137465
 30
0.0
  0
POINT
  5
14F5
330
1427
100
AcDbEntity
  8
Defpoints
 62
     0
100
AcDbPoint
 10
22.91517167275538
 20
22.91063194408545
 30
0.0
  0
POINT
  5
14F6
330
1427
100
AcDbEntity
  8
Defpoints
 62
     0
100
AcDbPoint
 10
22.91517167275538
 20
22.90410714719008
 30
0.0
  0
ENDBLK
  5
1433
330
1427
100
AcDbEntity
  8
0
100
AcDbBlockEnd
  0
BLOCK
  5
1470
330
1465
100
AcDbEntity
  8
0
100
AcDbBlockBegin
  2
*D13
 70
     1
 10
0.0
 20
0.0
 30
0.0
  3
*D13
  1

  0
LINE
  5
14C0
330
1465
100
AcDbEntity
  8
Dimensions
 62
     0
370
    -2
100
AcDbLine
 10
19.34017167275538
 20
18.78563194408548
 30
0.0
 11
17.44372213492085
 21
18.78563194408548
 31
0.0
  0
LINE
  5
14C1
330
1465
100
AcDbEntity
  8
Dimensions
 62
     0
370
    -2
100
AcDbLine
 10
19.94017167275536
 20
34.53563194408548
 30
0.0
 11
17.44372213492085
 21
34.53563194408548
 31
0.0
  0
LINE
  5
14C2
330
1465
100
AcDbEntity
  8
Dimensions
 62
     0
370
    -2
100
AcDbLine
 10
17.74372213492085
 20
19.08563194408548
 30
0.0
 11
17.74372213492085
 21
25.77225314134647
 31
0.0
  0
LINE
  5
14C3
330
1465
100
AcDbEntity
  8
Dimensions
 62
     0
370
    -2
100
AcDbLine
 10
17.74372213492085
 20
34.23563194408547
 30
0.0
 11
17.74372213492085
 21
26.97225314134648
 31
0.0
  0
SOLID
  5
14C4
330
1465
100
AcDbEntity
  8
Dimensions
 62
     0
100
AcDbTrace
 10
17.69372213492085
 20
19.08563194408548
 30
0.0
 11
17.79372213492085
 21
19.08563194408548
 31
0.0
 12
17.74372213492085
 22
18.78563194408548
 32
0.0
 13
17.74372213492085
 23
18.78563194408548
 33
0.0
  0
SOLID
  5
14C5
330
1465
100
AcDbEntity
  8
Dimensions
 62
     0
100
AcDbTrace
 10
17.69372213492085
 20
34.23563194408547
 30
0.0
 11
17.79372213492085
 21
34.23563194408547
 31
0.0
 12
17.74372213492085
 22
34.53563194408548
 32
0.0
 13
17.74372213492085
 23
34.53563194408548
 33
0.0
  0
MTEXT
  5
14C6
330
1465
100
AcDbEntity
  8
Dimensions
 62
     0
100
AcDbMText
 10
17.74372213492085
 20
26.37225314134648
 30
0.0
 40
0.3
 41
0.0
 71
     5
 72
     1
  1
\A1;15{\H1.000000x;\S3/4;}
 73
     1
 44
1.0
  0
POINT
  5
14C7
330
1465
100
AcDbEntity
  8
Defpoints
 62
     0
100
AcDbPoint
 10
19.44017167275537
 20
18.78563194408548
 30
0.0
  0
POINT
  5
14C8
330
1465
100
AcDbEntity
  8
Defpoints
 62
     0
100
AcDbPoint
 10
20.04017167275538
 20
34.53563194408548
 30
0.0
  0
POINT
  5
14C9
330
1465
100
AcDbEntity
  8
Defpoints
 62
     0
100
AcDbPoint
 10
17.74372213492085
 20
34.53563194408548
 30
0.0
  0
ENDBLK
  5
1471
330
1465
100
AcDbEntity
  8
0
100
AcDbBlockEnd
  0
BLOCK
  5
1503
330
14F8
100
AcDbEntity
  8
0
100
AcDbBlockBegin
  2
*D14
 70
     1
 10
0.0
 20
0.0
 30
0.0
  3
*D14
  1

  0
LINE
  5
1521
330
14F8
100
AcDbEntity
  8
Dimensions
 62
     0
370
    -2
100
AcDbLine
 10
13.71875419329158
 20
26.50070966286877
 30
0.0
 11
10.56875419329158
 21
26.50070966286877
 31
0.0
  0
LINE
  5
1522
330
14F8
100
AcDbEntity
  8
Dimensions
 62
     0
370
    -2
100
AcDbLine
 10
10.26875419329158
 20
26.50070966286877
 30
0.0
 11
8.498990997680094
 21
26.50070966286877
 31
0.0
  0
SOLID
  5
1523
330
14F8
100
AcDbEntity
  8
Dimensions
 62
     0
100
AcDbTrace
 10
13.71875419329158
 20
26.55070966286877
 30
0.0
 11
13.71875419329158
 21
26.45070966286877
 31
0.0
 12
14.01875419329158
 22
26.50070966286877
 32
0.0
 13
14.01875419329158
 23
26.50070966286877
 33
0.0
  0
SOLID
  5
1524
330
14F8
100
AcDbEntity
  8
Dimensions
 62
     0
100
AcDbTrace
 10
10.56875419329158
 20
26.55070966286877
 30
0.0
 11
10.56875419329158
 21
26.45070966286877
 31
0.0
 12
10.26875419329158
 22
26.50070966286877
 32
0.0
 13
10.26875419329158
 23
26.50070966286877
 33
0.0
  0
MTEXT
  5
1525
330
14F8
100
AcDbEntity
  8
Dimensions
 62
     0
100
AcDbMText
 10
7.998990997680094
 20
26.50070966286877
 30
0.0
 40
0.3
 41
0.0
 71
     5
 72
     1
  1
\A1;3{\H1.000000x;\S3/4;}
 73
     1
 44
1.0
  0
POINT
  5
1526
330
14F8
100
AcDbEntity
  8
Defpoints
 62
     0
100
AcDbPoint
 10
14.01875419329158
 20
26.53563194408548
 30
0.0
  0
POINT
  5
1527
330
14F8
100
AcDbEntity
  8
Defpoints
 62
     0
100
AcDbPoint
 10
10.26875419329158
 20
26.53563194408548
 30
0.0
  0
POINT
  5
1528
330
14F8
100
AcDbEntity
  8
Defpoints
 62
     0
100
AcDbPoint
 10
10.26875419329158
 20
26.50070966286877
 30
0.0
  0
ENDBLK
  5
1504
330
14F8
100
AcDbEntity
  8
0
100
AcDbBlockEnd
  0
ENDSEC
  0
SECTION
  2
ENTITIES
  0
LINE
  5
2D
330
1F
100
AcDbEntity
  8
TitleBlock&Notes
100
AcDbLine
 10
3.329059393432896
 20
39.59932863919989
 30
0.0
 11
30.52905939343288
 21
39.59932863919989
 31
0.0
  0
LINE
  5
2E
330
1F
100
AcDbEntity
  8
TitleBlock&Notes
100
AcDbLine
 10
3.329059393432896
 20
39.59932863919989
 30
0.0
 11
3.329059393432896
 21
4.39932863919989
 31
0.0
  0
LINE
  5
507
330
1F
100
AcDbEntity
  8
TitleBlock&Notes
  6
Continuous
 62
     3
100
AcDbLine
 10
22.49615886837685
 20
5.465720726751891
 30
0.0
 11
22.75950213775287
 21
5.470317393375883
 31
0.0
  0
LINE
  5
508
330
1F
100
AcDbEntity
  8
TitleBlock&Notes
  6
Continuous
 62
     3
100
AcDbLine
 10
22.49615886837685
 20
5.455581580767884
 30
0.0
 11
22.76903695605685
 21
5.460344681439889
 31
0.0
  0
LINE
  5
509
330
1F
100
AcDbEntity
  8
TitleBlock&Notes
  6
Continuous
 62
     3
100
AcDbLine
 10
22.49615886837685
 20
5.445442434783887
 30
0.0
 11
22.77914604405687
 21
5.450381980383889
 31
0.0
  0
LINE
  5
50A
330
1F
100
AcDbEntity
  8
TitleBlock&Notes
  6
Continuous
 62
     3
100
AcDbLine
 10
22.49615886837685
 20
5.435303288799895
 30
0.0
 11
22.78988277621686
 21
5.440430253279881
 31
0.0
  0
LINE
  5
50B
330
1F
100
AcDbEntity
  8
TitleBlock&Notes
  6
Continuous
 62
     3
100
AcDbLine
 10
22.49615886837685
 20
5.425164142815884
 30
0.0
 11
22.80131145026488
 21
5.430490589919891
 31
0.0
  0
LINE
  5
50C
330
1F
100
AcDbEntity
  8
TitleBlock&Notes
  6
Continuous
 62
     3
100
AcDbLine
 10
22.49615886837685
 20
5.415024996831887
 30
0.0
 11
22.81351060725687
 21
5.420564384223887
 31
0.0
  0
LINE
  5
50D
330
1F
100
AcDbEntity
  8
TitleBlock&Notes
  6
Continuous
 62
     3
100
AcDbLine
 10
22.49615886837685
 20
5.404885850847881
 30
0.0
 11
22.82657794831285
 21
5.410653334239889
 31
0.0
  0
LINE
  5
50E
330
1F
100
AcDbEntity
  8
TitleBlock&Notes
  6
Continuous
 62
     3
100
AcDbLine
 10
22.49615886837685
 20
5.394746704863887
 30
0.0
 11
22.84063755765687
 21
5.400759594207891
 31
0.0
  0
LINE
  5
50F
330
1F
100
AcDbEntity
  8
TitleBlock&Notes
  6
Continuous
 62
     3
100
AcDbLine
 10
22.49615886837685
 20
5.384607558879888
 30
0.0
 11
22.85585118069684
 21
5.390886002655888
 31
0.0
  0
LINE
  5
510
330
1F
100
AcDbEntity
  8
TitleBlock&Notes
  6
Continuous
 62
     3
100
AcDbLine
 10
22.49615886837685
 20
5.374468412895883
 30
0.0
 11
22.87243647170485
 21
5.381036361183881
 31
0.0
  0
LINE
  5
511
330
1F
100
AcDbEntity
  8
TitleBlock&Notes
  6
Continuous
 62
     3
100
AcDbLine
 10
22.49615886837685
 20
5.364329266911882
 30
0.0
 11
22.89069877519285
 21
5.371215992031882
 31
0.0
  0
LINE
  5
512
330
1F
100
AcDbEntity
  8
TitleBlock&Notes
  6
Continuous
 62
     3
100
AcDbLine
 10
22.49615886837685
 20
5.354190120927887
 30
0.0
 11
22.91109083637689
 21
5.361432802527883
 31
0.0
  0
LINE
  5
513
330
1F
100
AcDbEntity
  8
TitleBlock&Notes
  6
Continuous
 62
     3
100
AcDbLine
 10
22.49615886837685
 20
5.344050974943887
 30
0.0
 11
22.93433805122487
 21
5.351699439327886
 31
0.0
  0
LINE
  5
514
330
1F
100
AcDbEntity
  8
TitleBlock&Notes
  6
Continuous
 62
     3
100
AcDbLine
 10
22.49615886837685
 20
5.333911828959879
 30
0.0
 11
22.96174822082485
 21
5.342038737375887
 31
0.0
  0
LINE
  5
515
330
1F
100
AcDbEntity
  8
TitleBlock&Notes
  6
Continuous
 62
     3
100
AcDbLine
 10
22.49615886837685
 20
5.323772682975889
 30
0.0
 11
22.99621327298487
 21
5.332501181919888
 31
0.0
  0
LINE
  5
516
330
1F
100
AcDbEntity
  8
TitleBlock&Notes
  6
Continuous
 62
     3
100
AcDbLine
 10
22.49615886837685
 20
5.654056197855888
 30
0.0
 11
22.65399319029687
 21
5.654056197855888
 31
0.0
  0
LINE
  5
517
330
1F
100
AcDbEntity
  8
TitleBlock&Notes
  6
Continuous
 62
     3
100
AcDbLine
 10
22.49615886837685
 20
5.648225303775889
 30
0.0
 11
22.65493162792887
 21
5.650996695519887
 31
0.0
  0
LINE
  5
518
330
1F
100
AcDbEntity
  8
TitleBlock&Notes
  6
Continuous
 62
     3
100
AcDbLine
 10
22.49615886837685
 20
5.63808615779188
 30
0.0
 11
22.65818660853685
 21
5.640914370783886
 31
0.0
  0
LINE
  5
519
330
1F
100
AcDbEntity
  8
TitleBlock&Notes
  6
Continuous
 62
     3
100
AcDbLine
 10
22.49615886837685
 20
5.627947011807882
 30
0.0
 11
22.66169343247287
 21
5.630836430559884
 31
0.0
  0
LINE
  5
51A
330
1F
100
AcDbEntity
  8
TitleBlock&Notes
  6
Continuous
 62
     3
100
AcDbLine
 10
22.49615886837685
 20
5.617807865823893
 30
0.0
 11
22.66545787816885
 21
5.620763001567888
 31
0.0
  0
LINE
  5
51B
330
1F
100
AcDbEntity
  8
TitleBlock&Notes
  6
Continuous
 62
     3
100
AcDbLine
 10
22.49615886837685
 20
5.607668745183886
 30
0.0
 11
22.66948620559286
 21
5.610694185183886
 31
0.0
  0
LINE
  5
51C
330
1F
100
AcDbEntity
  8
TitleBlock&Notes
  6
Continuous
 62
     3
100
AcDbLine
 10
22.49615886837685
 20
5.597529599199885
 30
0.0
 11
22.67378548572089
 21
5.600630082783886
 31
0.0
  0
LINE
  5
51D
330
1F
100
AcDbEntity
  8
TitleBlock&Notes
  6
Continuous
 62
     3
100
AcDbLine
 10
22.49615886837685
 20
5.587390453215886
 30
0.0
 11
22.67836349916085
 21
5.590570846431885
 31
0.0
  0
LINE
  5
51E
330
1F
100
AcDbEntity
  8
TitleBlock&Notes
  6
Continuous
 62
     3
100
AcDbLine
 10
22.49615886837685
 20
5.57725130723189
 30
0.0
 11
22.68322891356087
 21
5.580516628191887
 31
0.0
  0
LINE
  5
51F
330
1F
100
AcDbEntity
  8
TitleBlock&Notes
  6
Continuous
 62
     3
100
AcDbLine
 10
22.49615886837685
 20
5.567112161247887
 30
0.0
 11
22.68839135964087
 21
5.570467580127885
 31
0.0
  0
LINE
  5
520
330
1F
100
AcDbEntity
  8
TitleBlock&Notes
  6
Continuous
 62
     3
100
AcDbLine
 10
22.49615886837685
 20
5.556973015263889
 30
0.0
 11
22.69386158325686
 21
5.560423930335884
 31
0.0
  0
LINE
  5
521
330
1F
100
AcDbEntity
  8
TitleBlock&Notes
  6
Continuous
 62
     3
100
AcDbLine
 10
22.49615886837685
 20
5.546833869279883
 30
0.0
 11
22.69965149608887
 21
5.550385856223885
 31
0.0
  0
LINE
  5
522
330
1F
100
AcDbEntity
  8
TitleBlock&Notes
  6
Continuous
 62
     3
100
AcDbLine
 10
22.49615886837685
 20
5.536694723295891
 30
0.0
 11
22.70577450511285
 21
5.540353585887893
 31
0.0
  0
LINE
  5
523
330
1F
100
AcDbEntity
  8
TitleBlock&Notes
  6
Continuous
 62
     3
100
AcDbLine
 10
22.49615886837685
 20
5.526555577311893
 30
0.0
 11
22.71224556328887
 21
5.530327398111883
 31
0.0
  0
LINE
  5
524
330
1F
100
AcDbEntity
  8
TitleBlock&Notes
  6
Continuous
 62
     3
100
AcDbLine
 10
22.49615886837685
 20
5.516416431327884
 30
0.0
 11
22.71908152437688
 21
5.52030757167988
 31
0.0
  0
LINE
  5
525
330
1F
100
AcDbEntity
  8
TitleBlock&Notes
  6
Continuous
 62
     3
100
AcDbLine
 10
22.49615886837685
 20
5.506277285343879
 30
0.0
 11
22.72630142172086
 21
5.510294436063891
 31
0.0
  0
LINE
  5
526
330
1F
100
AcDbEntity
  8
TitleBlock&Notes
  6
Continuous
 62
     3
100
AcDbLine
 10
22.49615886837685
 20
5.496138139359883
 30
0.0
 11
22.73392687375287
 21
5.500288396767881
 31
0.0
  0
LINE
  5
527
330
1F
100
AcDbEntity
  8
TitleBlock&Notes
  6
Continuous
 62
     3
100
AcDbLine
 10
22.49615886837685
 20
5.485998993375887
 30
0.0
 11
22.74198254018485
 21
5.490289859295893
 31
0.0
  0
LINE
  5
528
330
1F
100
AcDbEntity
  8
TitleBlock&Notes
  6
Continuous
 62
     3
100
AcDbLine
 10
22.49615886837685
 20
5.475859847391888
 30
0.0
 11
22.75049673026487
 21
5.480299330527883
 31
0.0
  0
LINE
  5
529
330
1F
100
AcDbEntity
  8
TitleBlock&Notes
  6
Continuous
 62
     3
100
AcDbLine
 10
22.49615886837685
 20
6.078119178207884
 30
0.0
 11
22.63670949468087
 21
6.078119178207884
 31
0.0
  0
LINE
  5
52A
330
1F
100
AcDbEntity
  8
TitleBlock&Notes
  6
Continuous
 62
     3
100
AcDbLine
 10
22.49615886837685
 20
5.953394790111882
 30
0.0
 11
22.63555086837687
 21
5.953394790111882
 31
0.0
  0
LINE
  5
52B
330
1F
100
AcDbEntity
  8
TitleBlock&Notes
  6
Continuous
 62
     3
100
AcDbLine
 10
22.49615886837685
 20
5.903505024735882
 30
0.0
 11
22.63555086837687
 21
5.903505024735882
 31
0.0
  0
LINE
  5
52C
330
1F
100
AcDbEntity
  8
TitleBlock&Notes
  6
Continuous
 62
     3
100
AcDbLine
 10
22.49615886837685
 20
5.892308121567881
 30
0.0
 11
22.63555086837687
 21
5.894741221599884
 31
0.0
  0
LINE
  5
52D
330
1F
100
AcDbEntity
  8
TitleBlock&Notes
  6
Continuous
 62
     3
100
AcDbLine
 10
22.49615886837685
 20
5.882168975583884
 30
0.0
 11
22.63555086837687
 21
5.884602075615882
 31
0.0
  0
LINE
  5
52E
330
1F
100
AcDbEntity
  8
TitleBlock&Notes
  6
Continuous
 62
     3
100
AcDbLine
 10
22.49615886837685
 20
5.872029829599893
 30
0.0
 11
22.63555086837687
 21
5.874462929631883
 31
0.0
  0
LINE
  5
52F
330
1F
100
AcDbEntity
  8
TitleBlock&Notes
  6
Continuous
 62
     3
100
AcDbLine
 10
22.49615886837685
 20
5.861890683615887
 30
0.0
 11
22.63555086837687
 21
5.864323783647883
 31
0.0
  0
LINE
  5
530
330
1F
100
AcDbEntity
  8
TitleBlock&Notes
  6
Continuous
 62
     3
100
AcDbLine
 10
22.49615886837685
 20
5.851751537631884
 30
0.0
 11
22.63555086837687
 21
5.854184637663886
 31
0.0
  0
LINE
  5
531
330
1F
100
AcDbEntity
  8
TitleBlock&Notes
  6
Continuous
 62
     3
100
AcDbLine
 10
22.49615886837685
 20
5.841612391647887
 30
0.0
 11
22.63555086837687
 21
5.844045491679887
 31
0.0
  0
LINE
  5
532
330
1F
100
AcDbEntity
  8
TitleBlock&Notes
  6
Continuous
 62
     3
100
AcDbLine
 10
22.49615886837685
 20
5.83147324566389
 30
0.0
 11
22.63555086837687
 21
5.833906345695886
 31
0.0
  0
LINE
  5
533
330
1F
100
AcDbEntity
  8
TitleBlock&Notes
  6
Continuous
 62
     3
100
AcDbLine
 10
22.49615886837685
 20
5.82133409967988
 30
0.0
 11
22.63555086837687
 21
5.823767199711888
 31
0.0
  0
LINE
  5
534
330
1F
100
AcDbEntity
  8
TitleBlock&Notes
  6
Continuous
 62
     3
100
AcDbLine
 10
22.49615886837685
 20
5.811194953695882
 30
0.0
 11
22.63555086837687
 21
5.813628053727887
 31
0.0
  0
LINE
  5
535
330
1F
100
AcDbEntity
  8
TitleBlock&Notes
  6
Continuous
 62
     3
100
AcDbLine
 10
22.49615886837685
 20
5.801055807711881
 30
0.0
 11
22.63555086837687
 21
5.803488907743888
 31
0.0
  0
LINE
  5
536
330
1F
100
AcDbEntity
  8
TitleBlock&Notes
  6
Continuous
 62
     3
100
AcDbLine
 10
22.49615886837685
 20
5.790916661727884
 30
0.0
 11
22.63555086837687
 21
5.793349761759892
 31
0.0
  0
LINE
  5
537
330
1F
100
AcDbEntity
  8
TitleBlock&Notes
  6
Continuous
 62
     3
100
AcDbLine
 10
22.49615886837685
 20
5.780777541087886
 30
0.0
 11
22.63555086837687
 21
5.783210615775883
 31
0.0
  0
LINE
  5
538
330
1F
100
AcDbEntity
  8
TitleBlock&Notes
  6
Continuous
 62
     3
100
AcDbLine
 10
22.49615886837685
 20
5.770638395103887
 30
0.0
 11
22.63555086837687
 21
5.773071469791884
 31
0.0
  0
LINE
  5
539
330
1F
100
AcDbEntity
  8
TitleBlock&Notes
  6
Continuous
 62
     3
100
AcDbLine
 10
22.49615886837685
 20
5.760499249119884
 30
0.0
 11
22.63555086837687
 21
5.762932349151887
 31
0.0
  0
LINE
  5
53A
330
1F
100
AcDbEntity
  8
TitleBlock&Notes
  6
Continuous
 62
     3
100
AcDbLine
 10
22.49615886837685
 20
5.750360103135887
 30
0.0
 11
22.63555086837687
 21
5.752793203167888
 31
0.0
  0
LINE
  5
53B
330
1F
100
AcDbEntity
  8
TitleBlock&Notes
  6
Continuous
 62
     3
100
AcDbLine
 10
22.49615886837685
 20
5.74022095715189
 30
0.0
 11
22.63621016719286
 21
5.742665563359887
 31
0.0
  0
LINE
  5
53C
330
1F
100
AcDbEntity
  8
TitleBlock&Notes
  6
Continuous
 62
     3
100
AcDbLine
 10
22.49615886837685
 20
5.73008181116788
 30
0.0
 11
22.63735561461687
 21
5.732546413791882
 31
0.0
  0
LINE
  5
53D
330
1F
100
AcDbEntity
  8
TitleBlock&Notes
  6
Continuous
 62
     3
100
AcDbLine
 10
22.49615886837685
 20
5.71994266518389
 30
0.0
 11
22.63872315151288
 21
5.722431141855889
 31
0.0
  0
LINE
  5
53E
330
1F
100
AcDbEntity
  8
TitleBlock&Notes
  6
Continuous
 62
     3
100
AcDbLine
 10
22.49615886837685
 20
6.066922300383891
 30
0.0
 11
22.63558376488889
 21
6.069355957983889
 31
0.0
  0
LINE
  5
53F
330
1F
100
AcDbEntity
  8
TitleBlock&Notes
  6
Continuous
 62
     3
100
AcDbLine
 10
22.49615886837685
 20
6.056783154399885
 30
0.0
 11
22.63555086837687
 21
6.059216254431881
 31
0.0
  0
LINE
  5
540
330
1F
100
AcDbEntity
  8
TitleBlock&Notes
  6
Continuous
 62
     3
100
AcDbLine
 10
22.49615886837685
 20
6.046644008415882
 30
0.0
 11
22.63555086837687
 21
6.049077108447884
 31
0.0
  0
LINE
  5
541
330
1F
100
AcDbEntity
  8
TitleBlock&Notes
  6
Continuous
 62
     3
100
AcDbLine
 10
22.49615886837685
 20
6.036504862431884
 30
0.0
 11
22.63555086837687
 21
6.038937962463887
 31
0.0
  0
LINE
  5
542
330
1F
100
AcDbEntity
  8
TitleBlock&Notes
  6
Continuous
 62
     3
100
AcDbLine
 10
22.49615886837685
 20
6.026365716447886
 30
0.0
 11
22.63555086837687
 21
6.028798816479882
 31
0.0
  0
LINE
  5
543
330
1F
100
AcDbEntity
  8
TitleBlock&Notes
  6
Continuous
 62
     3
100
AcDbLine
 10
22.49615886837685
 20
6.016226570463887
 30
0.0
 11
22.63555086837687
 21
6.018659670495887
 31
0.0
  0
LINE
  5
544
330
1F
100
AcDbEntity
  8
TitleBlock&Notes
  6
Continuous
 62
     3
100
AcDbLine
 10
22.49615886837685
 20
6.006087424479888
 30
0.0
 11
22.63555086837687
 21
6.008520524511884
 31
0.0
  0
LINE
  5
545
330
1F
100
AcDbEntity
  8
TitleBlock&Notes
  6
Continuous
 62
     3
100
AcDbLine
 10
22.49615886837685
 20
5.995948278495879
 30
0.0
 11
22.63555086837687
 21
5.998381378527888
 31
0.0
  0
LINE
  5
546
330
1F
100
AcDbEntity
  8
TitleBlock&Notes
  6
Continuous
 62
     3
100
AcDbLine
 10
22.49615886837685
 20
5.985809132511882
 30
0.0
 11
22.63555086837687
 21
5.988242232543891
 31
0.0
  0
LINE
  5
547
330
1F
100
AcDbEntity
  8
TitleBlock&Notes
  6
Continuous
 62
     3
100
AcDbLine
 10
22.49615886837685
 20
5.975669986527892
 30
0.0
 11
22.63555086837687
 21
5.978103086559888
 31
0.0
  0
LINE
  5
548
330
1F
100
AcDbEntity
  8
TitleBlock&Notes
  6
Continuous
 62
     3
100
AcDbLine
 10
22.49615886837685
 20
5.965530840543882
 30
0.0
 11
22.63555086837687
 21
5.967963940575891
 31
0.0
  0
LINE
  5
549
330
1F
100
AcDbEntity
  8
TitleBlock&Notes
  6
Continuous
 62
     3
100
AcDbLine
 10
22.49615886837685
 20
5.955391694559885
 30
0.0
 11
22.63555086837687
 21
5.95782479459188
 31
0.0
  0
LINE
  5
54A
330
1F
100
AcDbEntity
  8
TitleBlock&Notes
  6
Continuous
 62
     3
100
AcDbLine
 10
22.49615886837685
 20
5.703945963231884
 30
0.0
 11
22.64180376540085
 21
5.703945963231884
 31
0.0
  0
LINE
  5
54B
330
1F
100
AcDbEntity
  8
TitleBlock&Notes
  6
Continuous
 62
     3
100
AcDbLine
 10
22.49615886837685
 20
5.709803519199883
 30
0.0
 11
22.64031447592889
 21
5.712319772895884
 31
0.0
  0
LINE
  5
54C
330
1F
100
AcDbEntity
  8
TitleBlock&Notes
  6
Continuous
 62
     3
100
AcDbLine
 10
22.49615886837685
 20
6.128008943583879
 30
0.0
 11
22.64635364700088
 21
6.128008943583879
 31
0.0
  0
LINE
  5
54D
330
1F
100
AcDbEntity
  8
TitleBlock&Notes
  6
Continuous
 62
     3
100
AcDbLine
 10
22.49615886837685
 20
6.139882708959889
 30
0.0
 11
22.64948434063286
 21
6.139882708959889
 31
0.0
  0
LINE
  5
54E
330
1F
100
AcDbEntity
  8
TitleBlock&Notes
  6
Continuous
 62
     3
100
AcDbLine
 10
22.49615886837685
 20
6.327568005087888
 30
0.0
 11
22.75181406069689
 21
6.327568005087888
 31
0.0
  0
LINE
  5
54F
330
1F
100
AcDbEntity
  8
TitleBlock&Notes
  6
Continuous
 62
     3
100
AcDbLine
 10
22.49615886837685
 20
6.177898708959883
 30
0.0
 11
22.66179328783286
 21
6.177898708959883
 31
0.0
  0
LINE
  5
550
330
1F
100
AcDbEntity
  8
TitleBlock&Notes
  6
Continuous
 62
     3
100
AcDbLine
 10
22.49615886837685
 20
6.365584005087892
 30
0.0
 11
22.78975742479285
 21
6.365584005087892
 31
0.0
  0
LINE
  5
551
330
1F
100
AcDbEntity
  8
TitleBlock&Notes
  6
Continuous
 62
     3
100
AcDbLine
 10
22.49615886837685
 20
6.352912005087882
 30
0.0
 11
22.77613173007286
 21
6.352912005087882
 31
0.0
  0
LINE
  5
552
330
1F
100
AcDbEntity
  8
TitleBlock&Notes
  6
Continuous
 62
     3
100
AcDbLine
 10
22.49615886837685
 20
6.340240005087884
 30
0.0
 11
22.76352022620088
 21
6.340240005087884
 31
0.0
  0
LINE
  5
553
330
1F
100
AcDbEntity
  8
TitleBlock&Notes
  6
Continuous
 62
     3
100
AcDbLine
 10
22.49615886837685
 20
6.165226708959889
 30
0.0
 11
22.65729333391289
 21
6.165226708959889
 31
0.0
  0
LINE
  5
554
330
1F
100
AcDbEntity
  8
TitleBlock&Notes
  6
Continuous
 62
     3
100
AcDbLine
 10
22.49615886837685
 20
6.152554708959888
 30
0.0
 11
22.65319396725688
 21
6.152554708959888
 31
0.0
  0
TEXT
  5
555
330
1F
100
AcDbEntity
  8
TitleBlock&Notes
  6
Continuous
 62
     3
100
AcDbText
 10
22.10536688296888
 20
4.729417866975891
 30
0.0
 40
0.177408
  1
 POWER
 41
0.8
 51
11.0
100
AcDbText
  0
LINE
  5
556
330
1F
100
AcDbEntity
  8
TitleBlock&Notes
  6
Continuous
 62
     3
100
AcDbLine
 10
22.13020050549689
 20
5.15515856943989
 30
0.0
 11
25.47522631797686
 21
5.21354620335988
 31
0.0
  0
LINE
  5
559
330
1F
100
AcDbEntity
  8
TitleBlock&Notes
  6
Continuous
 62
     3
100
AcDbLine
 10
18.49065939343289
 20
5.24371729763188
 30
0.0
 11
23.04815907036087
 21
5.323268742879883
 31
0.0
  0
LINE
  5
55A
330
1F
100
AcDbEntity
  8
TitleBlock&Notes
  6
Continuous
 62
     3
100
AcDbLine
 10
18.49065939343289
 20
5.233578151647884
 30
0.0
 11
23.83939086837686
 21
5.326940606943886
 31
0.0
  0
LINE
  5
55B
330
1F
100
AcDbEntity
  8
TitleBlock&Notes
  6
Continuous
 62
     3
100
AcDbLine
 10
18.49065939343289
 20
5.223439005663881
 30
0.0
 11
24.01659421557686
 21
5.319894569439882
 31
0.0
  0
LINE
  5
55C
330
1F
100
AcDbEntity
  8
TitleBlock&Notes
  6
Continuous
 62
     3
100
AcDbLine
 10
25.47522631797686
 20
6.801520776159887
 30
0.0
 11
18.49065939343289
 21
6.801520776159887
 31
0.0
  0
LINE
  5
55D
330
1F
100
AcDbEntity
  8
TitleBlock&Notes
  6
Continuous
 62
     3
100
AcDbLine
 10
25.47522631797686
 20
6.552071949279886
 30
0.0
 11
18.49065939343289
 21
6.552071949279886
 31
0.0
  0
LINE
  5
55E
330
1F
100
AcDbEntity
  8
TitleBlock&Notes
  6
Continuous
 62
     3
100
AcDbLine
 10
18.49065939343289
 20
5.15515856943989
 30
0.0
 11
25.47522631797686
 21
5.15515856943989
 31
0.0
  0
LINE
  5
55F
330
1F
100
AcDbEntity
  8
TitleBlock&Notes
  6
Continuous
 62
     3
100
AcDbLine
 10
18.49065939343289
 20
5.213299859679884
 30
0.0
 11
24.59746538997686
 21
5.319894569439882
 31
0.0
  0
LINE
  5
560
330
1F
100
AcDbEntity
  8
TitleBlock&Notes
  6
Continuous
 62
     3
100
AcDbLine
 10
18.49065939343289
 20
5.203160713695887
 30
0.0
 11
25.17833658972087
 21
5.319894569439882
 31
0.0
  0
LINE
  5
561
330
1F
100
AcDbEntity
  8
TitleBlock&Notes
  6
Continuous
 62
     3
100
AcDbLine
 10
18.49065939343289
 20
5.193021567711887
 30
0.0
 11
25.47522631797686
 21
5.314937637855891
 31
0.0
  0
LINE
  5
562
330
1F
100
AcDbEntity
  8
TitleBlock&Notes
  6
Continuous
 62
     3
100
AcDbLine
 10
18.49065939343289
 20
5.182882421727888
 30
0.0
 11
25.47522631797686
 21
5.30479849187188
 31
0.0
  0
LINE
  5
563
330
1F
100
AcDbEntity
  8
TitleBlock&Notes
  6
Continuous
 62
     3
100
AcDbLine
 10
18.49065939343289
 20
5.172743275743886
 30
0.0
 11
25.47522631797686
 21
5.294659345887883
 31
0.0
  0
LINE
  5
564
330
1F
100
AcDbEntity
  8
TitleBlock&Notes
  6
Continuous
 62
     3
100
AcDbLine
 10
18.49065939343289
 20
5.162604155103891
 30
0.0
 11
25.47522631797686
 21
5.284520225247884
 31
0.0
  0
LINE
  5
565
330
1F
100
AcDbEntity
  8
TitleBlock&Notes
  6
Continuous
 62
     3
100
AcDbLine
 10
18.64497338306489
 20
5.15515856943989
 30
0.0
 11
25.47522631797686
 21
5.274381079263886
 31
0.0
  0
LINE
  5
566
330
1F
100
AcDbEntity
  8
TitleBlock&Notes
  6
Continuous
 62
     3
100
AcDbLine
 10
19.22584458280885
 20
5.15515856943989
 30
0.0
 11
25.47522631797686
 21
5.264241933279884
 31
0.0
  0
LINE
  5
567
330
1F
100
AcDbEntity
  8
TitleBlock&Notes
  6
Continuous
 62
     3
100
AcDbLine
 10
19.80671575720886
 20
5.15515856943989
 30
0.0
 11
25.47522631797686
 21
5.254102787295886
 31
0.0
  0
LINE
  5
568
330
1F
100
AcDbEntity
  8
TitleBlock&Notes
  6
Continuous
 62
     3
100
AcDbLine
 10
20.38758693160886
 20
5.15515856943989
 30
0.0
 11
25.47522631797686
 21
5.243963641311889
 31
0.0
  0
LINE
  5
569
330
1F
100
AcDbEntity
  8
TitleBlock&Notes
  6
Continuous
 62
     3
100
AcDbLine
 10
20.96845813135288
 20
5.15515856943989
 30
0.0
 11
25.47522631797686
 21
5.233824495327888
 31
0.0
  0
LINE
  5
56A
330
1F
100
AcDbEntity
  8
TitleBlock&Notes
  6
Continuous
 62
     3
100
AcDbLine
 10
21.54932930575284
 20
5.15515856943989
 30
0.0
 11
25.47522631797686
 21
5.223685349343892
 31
0.0
  0
LINE
  5
56D
330
1F
100
AcDbEntity
  8
TitleBlock&Notes
  6
Continuous
 62
     3
100
AcDbLine
 10
18.49065939343289
 20
7.250528639199889
 30
0.0
 11
30.52905939343288
 21
7.250528639199889
 31
0.0
  0
LINE
  5
57B
330
1F
100
AcDbEntity
  8
TitleBlock&Notes
  6
Continuous
 62
     3
100
AcDbLine
 10
21.89423886837686
 20
5.414657584863888
 30
0.0
 11
22.25539086837684
 21
5.420961524703881
 31
0.0
  0
LINE
  5
57C
330
1F
100
AcDbEntity
  8
TitleBlock&Notes
  6
Continuous
 62
     3
100
AcDbLine
 10
21.86889486837688
 20
6.270294569439884
 30
0.0
 11
21.86889486837688
 21
5.345238569439877
 31
0.0
  0
LINE
  5
57D
330
1F
100
AcDbEntity
  8
TitleBlock&Notes
  6
Continuous
 62
     3
100
AcDbLine
 10
22.28073486837686
 20
6.460374569439884
 30
0.0
 11
22.28073486837686
 21
5.345238569439877
 31
0.0
  0
LINE
  5
57E
330
1F
100
AcDbEntity
  8
TitleBlock&Notes
  6
Continuous
 62
     3
100
AcDbLine
 10
22.47081486837687
 20
6.460374569439884
 30
0.0
 11
22.47081486837687
 21
5.345238569439877
 31
0.0
  0
LINE
  5
57F
330
1F
100
AcDbEntity
  8
TitleBlock&Notes
  6
Continuous
 62
     3
100
AcDbLine
 10
21.89423886837686
 20
5.319894569439882
 30
0.0
 11
21.89423886837686
 21
6.244950569439889
 31
0.0
  0
LINE
  5
580
330
1F
100
AcDbEntity
  8
TitleBlock&Notes
  6
Continuous
 62
     3
100
AcDbLine
 10
22.25539086837684
 20
6.485718569439889
 30
0.0
 11
22.25539086837684
 21
5.319894569439882
 31
0.0
  0
LINE
  5
581
330
1F
100
AcDbEntity
  8
TitleBlock&Notes
  6
Continuous
 62
     3
100
AcDbLine
 10
22.49615886837685
 20
5.319894569439882
 30
0.0
 11
22.49615886837685
 21
6.485718569439889
 31
0.0
  0
LINE
  5
582
330
1F
100
AcDbEntity
  8
TitleBlock&Notes
  6
Continuous
 62
     3
100
AcDbLine
 10
22.48348686837687
 20
6.473046569439882
 30
0.0
 11
22.48348686837687
 21
5.33256656943988
 31
0.0
  0
LINE
  5
583
330
1F
100
AcDbEntity
  8
TitleBlock&Notes
  6
Continuous
 62
     3
100
AcDbLine
 10
22.26806286837688
 20
6.473046569439882
 30
0.0
 11
22.26806286837688
 21
5.33256656943988
 31
0.0
  0
LINE
  5
584
330
1F
100
AcDbEntity
  8
TitleBlock&Notes
  6
Continuous
 62
     3
100
AcDbLine
 10
21.88156686837686
 20
6.257622569439886
 30
0.0
 11
21.88156686837686
 21
5.33256656943988
 31
0.0
  0
LINE
  5
585
330
1F
100
AcDbEntity
  8
TitleBlock&Notes
  6
Continuous
 62
     3
100
AcDbLine
 10
21.54575886837686
 20
5.319894569439882
 30
0.0
 11
21.54575886837686
 21
5.560662569439881
 31
0.0
  0
LINE
  5
586
330
1F
100
AcDbEntity
  8
TitleBlock&Notes
  6
Continuous
 62
     3
100
AcDbLine
 10
21.52041486837688
 20
5.345238569439877
 30
0.0
 11
21.52041486837688
 21
5.535318569439886
 31
0.0
  0
LINE
  5
587
330
1F
100
AcDbEntity
  8
TitleBlock&Notes
  6
Continuous
 62
     3
100
AcDbLine
 10
21.53308686837687
 20
5.547990569439884
 30
0.0
 11
21.53308686837687
 21
5.33256656943988
 31
0.0
  0
LINE
  5
588
330
1F
100
AcDbEntity
  8
TitleBlock&Notes
  6
Continuous
 62
     3
100
AcDbLine
 10
20.61411109672885
 20
5.412591161823884
 30
0.0
 11
20.82345486837685
 21
5.416245259743885
 31
0.0
  0
LINE
  5
589
330
1F
100
AcDbEntity
  8
TitleBlock&Notes
  6
Continuous
 62
     3
100
AcDbLine
 10
21.67881486837687
 20
6.270294569439884
 30
0.0
 11
21.67881486837687
 21
5.345238569439877
 31
0.0
  0
LINE
  5
58A
330
1F
100
AcDbEntity
  8
TitleBlock&Notes
  6
Continuous
 62
     3
100
AcDbLine
 10
21.65347086837685
 20
6.244950569439889
 30
0.0
 11
21.65347086837685
 21
5.319894569439882
 31
0.0
  0
LINE
  5
58B
330
1F
100
AcDbEntity
  8
TitleBlock&Notes
  6
Continuous
 62
     3
100
AcDbLine
 10
21.66614286837688
 20
6.257622569439886
 30
0.0
 11
21.66614286837688
 21
5.33256656943988
 31
0.0
  0
LINE
  5
58C
330
1F
100
AcDbEntity
  8
TitleBlock&Notes
  6
Continuous
 62
     3
100
AcDbLine
 10
20.84879886837687
 20
5.345238569439877
 30
0.0
 11
20.84879886837687
 21
6.460374569439884
 31
0.0
  0
LINE
  5
58D
330
1F
100
AcDbEntity
  8
TitleBlock&Notes
  6
Continuous
 62
     3
100
AcDbLine
 10
20.82345486837685
 20
6.485718569439889
 30
0.0
 11
20.82345486837685
 21
5.319894569439882
 31
0.0
  0
LINE
  5
58E
330
1F
100
AcDbEntity
  8
TitleBlock&Notes
  6
Continuous
 62
     3
100
AcDbLine
 10
20.83612686837685
 20
5.33256656943988
 30
0.0
 11
20.83612686837685
 21
6.473046569439882
 31
0.0
  0
ARC
  5
58F
330
1F
100
AcDbEntity
  8
TitleBlock&Notes
  6
Continuous
 62
     3
100
AcDbCircle
 10
20.25321486837687
 20
5.662038569439887
 30
0.0
 40
0.3168
100
AcDbArc
 50
180.0000000000004
 51
269.9999931700005
  0
ARC
  5
590
330
1F
100
AcDbEntity
  8
TitleBlock&Notes
  6
Continuous
 62
     3
100
AcDbCircle
 10
20.25321486837687
 20
5.662038569439887
 30
0.0
 40
0.342144
100
AcDbArc
 50
180.0000000000004
 51
269.9999934300003
  0
ARC
  5
591
330
1F
100
AcDbEntity
  8
TitleBlock&Notes
  6
Continuous
 62
     3
100
AcDbCircle
 10
20.25321486837687
 20
5.662038569439887
 30
0.0
 40
0.329472
100
AcDbArc
 50
180.0000000000004
 51
269.9999934300003
  0
LINE
  5
592
330
1F
100
AcDbEntity
  8
TitleBlock&Notes
  6
Continuous
 62
     3
100
AcDbLine
 10
19.36617486837688
 20
5.345238569439877
 30
0.0
 11
19.55625486837687
 21
5.890134569439892
 31
0.0
  0
LINE
  5
593
330
1F
100
AcDbEntity
  8
TitleBlock&Notes
  6
Continuous
 62
     3
100
AcDbLine
 10
19.55625486837687
 20
5.345238569439877
 30
0.0
 11
19.55625486837687
 21
5.890134569439892
 31
0.0
  0
LINE
  5
594
330
1F
100
AcDbEntity
  8
TitleBlock&Notes
  6
Continuous
 62
     3
100
AcDbLine
 10
19.38417569781689
 20
5.319894569439882
 30
0.0
 11
19.53091086837689
 21
5.740535374815882
 31
0.0
  0
LINE
  5
595
330
1F
100
AcDbEntity
  8
TitleBlock&Notes
  6
Continuous
 62
     3
100
AcDbLine
 10
19.53091086837689
 20
5.740535374815882
 30
0.0
 11
19.53091086837689
 21
5.319894569439882
 31
0.0
  0
LINE
  5
596
330
1F
100
AcDbEntity
  8
TitleBlock&Notes
  6
Continuous
 62
     3
100
AcDbLine
 10
19.54358286837686
 20
5.815334972127884
 30
0.0
 11
19.37517528309689
 21
5.33256656943988
 31
0.0
  0
LINE
  5
597
330
1F
100
AcDbEntity
  8
TitleBlock&Notes
  6
Continuous
 62
     3
100
AcDbLine
 10
19.54358286837686
 20
5.815334972127884
 30
0.0
 11
19.54358286837686
 21
5.33256656943988
 31
0.0
  0
LINE
  5
598
330
1F
100
AcDbEntity
  8
TitleBlock&Notes
  6
Continuous
 62
     3
100
AcDbLine
 10
19.74633486837687
 20
5.345238569439877
 30
0.0
 11
19.74633486837687
 21
6.460374569439884
 31
0.0
  0
LINE
  5
599
330
1F
100
AcDbEntity
  8
TitleBlock&Notes
  6
Continuous
 62
     3
100
AcDbLine
 10
19.77167886837689
 20
5.319894569439882
 30
0.0
 11
19.77167886837689
 21
6.485718569439889
 31
0.0
  0
LINE
  5
59A
330
1F
100
AcDbEntity
  8
TitleBlock&Notes
  6
Continuous
 62
     3
100
AcDbLine
 10
19.75900686837688
 20
6.473046569439882
 30
0.0
 11
19.75900686837688
 21
5.33256656943988
 31
0.0
  0
ARC
  5
59B
330
1F
100
AcDbEntity
  8
TitleBlock&Notes
  6
Continuous
 62
     3
100
AcDbCircle
 10
20.37993486837688
 20
5.662038569439887
 30
0.0
 40
0.3168
100
AcDbArc
 50
270.0000000000008
 51
0.0000000000008142
  0
ARC
  5
59C
330
1F
100
AcDbEntity
  8
TitleBlock&Notes
  6
Continuous
 62
     3
100
AcDbCircle
 10
20.37993486837688
 20
5.662038569439887
 30
0.0
 40
0.342144
100
AcDbArc
 50
270.0000000000008
 51
0.0000000000008142
  0
ARC
  5
59D
330
1F
100
AcDbEntity
  8
TitleBlock&Notes
  6
Continuous
 62
     3
100
AcDbCircle
 10
20.37993486837688
 20
5.662038569439887
 30
0.0
 40
0.329472
100
AcDbArc
 50
270.0000000000008
 51
0.0000000000008142
  0
LINE
  5
59E
330
1F
100
AcDbEntity
  8
TitleBlock&Notes
  6
Continuous
 62
     3
100
AcDbLine
 10
18.98601486837686
 20
5.345238569439877
 30
0.0
 11
18.98601486837686
 21
5.890134569439892
 31
0.0
  0
LINE
  5
59F
330
1F
100
AcDbEntity
  8
TitleBlock&Notes
  6
Continuous
 62
     3
100
AcDbLine
 10
19.01135886837685
 20
5.319894569439882
 30
0.0
 11
19.01135886837685
 21
5.740535374815882
 31
0.0
  0
LINE
  5
5A0
330
1F
100
AcDbEntity
  8
TitleBlock&Notes
  6
Continuous
 62
     3
100
AcDbLine
 10
18.99868686837685
 20
5.815334972127884
 30
0.0
 11
18.99868686837685
 21
5.33256656943988
 31
0.0
  0
LINE
  5
5A1
330
1F
100
AcDbEntity
  8
TitleBlock&Notes
  6
Continuous
 62
     3
100
AcDbLine
 10
18.77059086837684
 20
5.319894569439882
 30
0.0
 11
18.77059086837684
 21
6.485718569439889
 31
0.0
  0
LINE
  5
5A2
330
1F
100
AcDbEntity
  8
TitleBlock&Notes
  6
Continuous
 62
     3
100
AcDbLine
 10
18.79593486837687
 20
5.345238569439877
 30
0.0
 11
18.79593486837687
 21
6.460374569439884
 31
0.0
  0
LINE
  5
5A3
330
1F
100
AcDbEntity
  8
TitleBlock&Notes
  6
Continuous
 62
     3
100
AcDbLine
 10
18.78326286837688
 20
5.33256656943988
 30
0.0
 11
18.78326286837688
 21
6.473046569439882
 31
0.0
  0
LINE
  5
5A4
330
1F
100
AcDbEntity
  8
TitleBlock&Notes
  6
Continuous
 62
     3
100
AcDbLine
 10
18.98601486837686
 20
5.890134569439892
 30
0.0
 11
19.17609486837688
 21
5.345238569439877
 31
0.0
  0
LINE
  5
5A5
330
1F
100
AcDbEntity
  8
TitleBlock&Notes
  6
Continuous
 62
     3
100
AcDbLine
 10
19.15809401359285
 20
5.319894569439882
 30
0.0
 11
19.01135886837685
 21
5.740535374815882
 31
0.0
  0
LINE
  5
5A6
330
1F
100
AcDbEntity
  8
TitleBlock&Notes
  6
Continuous
 62
     3
100
AcDbLine
 10
18.99868686837685
 20
5.815334972127884
 30
0.0
 11
19.16709442831287
 21
5.33256656943988
 31
0.0
  0
LINE
  5
5A7
330
1F
100
AcDbEntity
  8
TitleBlock&Notes
  6
Continuous
 62
     3
100
AcDbLine
 10
19.01135886837685
 20
5.41503244796788
 30
0.0
 11
19.12421917250488
 21
5.417002437087893
 31
0.0
  0
LINE
  5
5A8
330
1F
100
AcDbEntity
  8
TitleBlock&Notes
  6
Continuous
 62
     3
100
AcDbLine
 10
18.49065939343289
 20
4.399328639199881
 30
0.0
 11
18.49065939343289
 21
7.250528639199889
 31
0.0
  0
LINE
  5
5A9
330
1F
100
AcDbEntity
  8
TitleBlock&Notes
  6
Continuous
 62
     3
100
AcDbLine
 10
19.17609486837688
 20
5.345238569439877
 30
0.0
 11
19.36617486837688
 21
5.345238569439877
 31
0.0
  0
LINE
  5
5AA
330
1F
100
AcDbEntity
  8
TitleBlock&Notes
  6
Continuous
 62
     3
100
AcDbLine
 10
19.15809401359285
 20
5.319894569439882
 30
0.0
 11
19.38417569781689
 21
5.319894569439882
 31
0.0
  0
LINE
  5
5AB
330
1F
100
AcDbEntity
  8
TitleBlock&Notes
  6
Continuous
 62
     3
100
AcDbLine
 10
19.16709442831287
 20
5.33256656943988
 30
0.0
 11
19.37517528309689
 21
5.33256656943988
 31
0.0
  0
TEXT
  5
5AC
330
1F
100
AcDbEntity
  8
TitleBlock&Notes
  6
Continuous
 62
     3
100
AcDbText
 10
18.98642622684086
 20
4.729417866975887
 30
0.0
 40
0.177408
  1
 SPEED
 41
0.8
 51
11.0
100
AcDbText
  0
LINE
  5
5AD
330
1F
100
AcDbEntity
  8
TitleBlock&Notes
  6
Continuous
 62
     3
100
AcDbLine
 10
18.49065939343289
 20
5.284273881567887
 30
0.0
 11
20.82345486837685
 21
5.32499297123188
 31
0.0
  0
LINE
  5
5AE
330
1F
100
AcDbEntity
  8
TitleBlock&Notes
  6
Continuous
 62
     3
100
AcDbLine
 10
18.49065939343289
 20
5.274134735583878
 30
0.0
 11
21.11223829288889
 21
5.319894569439882
 31
0.0
  0
LINE
  5
5AF
330
1F
100
AcDbEntity
  8
TitleBlock&Notes
  6
Continuous
 62
     3
100
AcDbLine
 10
18.49065939343289
 20
5.26399558959988
 30
0.0
 11
21.69310946728886
 21
5.319894569439882
 31
0.0
  0
LINE
  5
5B0
330
1F
100
AcDbEntity
  8
TitleBlock&Notes
  6
Continuous
 62
     3
100
AcDbLine
 10
18.49065939343289
 20
5.304552173535887
 30
0.0
 11
19.36962474434487
 21
5.319894569439882
 31
0.0
  0
LINE
  5
5B1
330
1F
100
AcDbEntity
  8
TitleBlock&Notes
  6
Continuous
 62
     3
100
AcDbLine
 10
18.49065939343289
 20
5.294413027551884
 30
0.0
 11
20.19838877608889
 21
5.324221550559887
 31
0.0
  0
LINE
  5
5B2
330
1F
100
AcDbEntity
  8
TitleBlock&Notes
  6
Continuous
 62
     3
100
AcDbLine
 10
18.49065939343289
 20
5.253856443615886
 30
0.0
 11
22.27398066703286
 21
5.319894569439882
 31
0.0
  0
TEXT
  5
5B3
330
1F
100
AcDbEntity
  8
TitleBlock&Notes
  6
Continuous
 62
     3
100
AcDbText
 10
18.51818419394485
 20
4.729417866975891
 30
0.0
 40
0.177408
  1
The
 41
0.8
 51
11.0
100
AcDbText
  0
LINE
  5
5B4
330
1F
100
AcDbEntity
  8
TitleBlock&Notes
  6
Continuous
 62
     3
100
AcDbLine
 10
18.77059086837684
 20
5.319894569439882
 30
0.0
 11
19.01135886837685
 21
5.319894569439882
 31
0.0
  0
LINE
  5
5B5
330
1F
100
AcDbEntity
  8
TitleBlock&Notes
  6
Continuous
 62
     3
100
AcDbLine
 10
18.79593486837687
 20
5.345238569439877
 30
0.0
 11
18.98601486837686
 21
5.345238569439877
 31
0.0
  0
LINE
  5
5B6
330
1F
100
AcDbEntity
  8
TitleBlock&Notes
  6
Continuous
 62
     3
100
AcDbLine
 10
18.78326286837688
 20
5.33256656943988
 30
0.0
 11
18.99868686837685
 21
5.33256656943988
 31
0.0
  0
LINE
  5
5B7
330
1F
100
AcDbEntity
  8
TitleBlock&Notes
  6
Continuous
 62
     3
100
AcDbLine
 10
18.49065939343289
 20
5.314691319519884
 30
0.0
 11
18.78875356994486
 21
5.319894569439882
 31
0.0
  0
LINE
  5
5B8
330
1F
100
AcDbEntity
  8
TitleBlock&Notes
  6
Continuous
 62
     3
100
AcDbLine
 10
18.49065939343289
 20
5.405943608031884
 30
0.0
 11
18.77059086837684
 21
5.410829829855878
 31
0.0
  0
LINE
  5
5B9
330
1F
100
AcDbEntity
  8
TitleBlock&Notes
  6
Continuous
 62
     3
100
AcDbLine
 10
18.49065939343289
 20
5.395804462047891
 30
0.0
 11
18.77059086837684
 21
5.400690683871888
 31
0.0
  0
LINE
  5
5BA
330
1F
100
AcDbEntity
  8
TitleBlock&Notes
  6
Continuous
 62
     3
100
AcDbLine
 10
18.49065939343289
 20
5.385665316063884
 30
0.0
 11
18.77059086837684
 21
5.390551537887879
 31
0.0
  0
LINE
  5
5BB
330
1F
100
AcDbEntity
  8
TitleBlock&Notes
  6
Continuous
 62
     3
100
AcDbLine
 10
18.49065939343289
 20
5.375526170079887
 30
0.0
 11
18.77059086837684
 21
5.380412391903883
 31
0.0
  0
LINE
  5
5BC
330
1F
100
AcDbEntity
  8
TitleBlock&Notes
  6
Continuous
 62
     3
100
AcDbLine
 10
18.49065939343289
 20
5.365387024095878
 30
0.0
 11
18.77059086837684
 21
5.370273245919888
 31
0.0
  0
LINE
  5
5BD
330
1F
100
AcDbEntity
  8
TitleBlock&Notes
  6
Continuous
 62
     3
100
AcDbLine
 10
18.49065939343289
 20
5.355247878111883
 30
0.0
 11
18.77059086837684
 21
5.360134099935883
 31
0.0
  0
LINE
  5
5BE
330
1F
100
AcDbEntity
  8
TitleBlock&Notes
  6
Continuous
 62
     3
100
AcDbLine
 10
18.49065939343289
 20
5.345108732127886
 30
0.0
 11
18.77059086837684
 21
5.349994953951886
 31
0.0
  0
LINE
  5
5BF
330
1F
100
AcDbEntity
  8
TitleBlock&Notes
  6
Continuous
 62
     3
100
AcDbLine
 10
18.49065939343289
 20
5.334969586143881
 30
0.0
 11
18.77059086837684
 21
5.339855807967883
 31
0.0
  0
LINE
  5
5C0
330
1F
100
AcDbEntity
  8
TitleBlock&Notes
  6
Continuous
 62
     3
100
AcDbLine
 10
18.49065939343289
 20
5.324830440159887
 30
0.0
 11
18.77059086837684
 21
5.329716661983886
 31
0.0
  0
LINE
  5
5C1
330
1F
100
AcDbEntity
  8
TitleBlock&Notes
  6
Continuous
 62
     3
100
AcDbLine
 10
19.01135886837685
 20
5.404893301983883
 30
0.0
 11
19.12773468943287
 21
5.406924648927883
 31
0.0
  0
LINE
  5
5C2
330
1F
100
AcDbEntity
  8
TitleBlock&Notes
  6
Continuous
 62
     3
100
AcDbLine
 10
19.01135886837685
 20
5.394754155999882
 30
0.0
 11
19.13125018101689
 21
5.396846860767888
 31
0.0
  0
LINE
  5
5C3
330
1F
100
AcDbEntity
  8
TitleBlock&Notes
  6
Continuous
 62
     3
100
AcDbLine
 10
19.01135886837685
 20
5.384615010015884
 30
0.0
 11
19.13476569794487
 21
5.386769097951884
 31
0.0
  0
LINE
  5
5C4
330
1F
100
AcDbEntity
  8
TitleBlock&Notes
  6
Continuous
 62
     3
100
AcDbLine
 10
19.01135886837685
 20
5.374475864031881
 30
0.0
 11
19.13828121487288
 21
5.376691309791882
 31
0.0
  0
LINE
  5
5C5
330
1F
100
AcDbEntity
  8
TitleBlock&Notes
  6
Continuous
 62
     3
100
AcDbLine
 10
19.01135886837685
 20
5.364336718047884
 30
0.0
 11
19.14179670645687
 21
5.366613521631887
 31
0.0
  0
LINE
  5
5C6
330
1F
100
AcDbEntity
  8
TitleBlock&Notes
  6
Continuous
 62
     3
100
AcDbLine
 10
19.01135886837685
 20
5.354197572063887
 30
0.0
 11
19.14531222338487
 21
5.356535758815888
 31
0.0
  0
LINE
  5
5C7
330
1F
100
AcDbEntity
  8
TitleBlock&Notes
  6
Continuous
 62
     3
100
AcDbLine
 10
19.01135886837685
 20
5.344058451423888
 30
0.0
 11
19.14882771496886
 21
5.346457970655886
 31
0.0
  0
LINE
  5
5C8
330
1F
100
AcDbEntity
  8
TitleBlock&Notes
  6
Continuous
 62
     3
100
AcDbLine
 10
19.01135886837685
 20
5.333919305439878
 30
0.0
 11
19.15234323189688
 21
5.336380182495883
 31
0.0
  0
LINE
  5
5C9
330
1F
100
AcDbEntity
  8
TitleBlock&Notes
  6
Continuous
 62
     3
100
AcDbLine
 10
19.01135886837685
 20
5.32378015945588
 30
0.0
 11
19.15585872348087
 21
5.326302394335884
 31
0.0
  0
LINE
  5
5CA
330
1F
100
AcDbEntity
  8
TitleBlock&Notes
  6
Continuous
 62
     3
100
AcDbLine
 10
20.84879886837687
 20
5.345238569439877
 30
0.0
 11
21.52041486837688
 21
5.345238569439877
 31
0.0
  0
LINE
  5
5CB
330
1F
100
AcDbEntity
  8
TitleBlock&Notes
  6
Continuous
 62
     3
100
AcDbLine
 10
21.53308686837687
 20
5.33256656943988
 30
0.0
 11
20.83612686837685
 21
5.33256656943988
 31
0.0
  0
LINE
  5
5CC
330
1F
100
AcDbEntity
  8
TitleBlock&Notes
  6
Continuous
 62
     3
100
AcDbLine
 10
20.82345486837685
 20
5.319894569439882
 30
0.0
 11
21.54575886837686
 21
5.319894569439882
 31
0.0
  0
LINE
  5
5CD
330
1F
100
AcDbEntity
  8
TitleBlock&Notes
  6
Continuous
 62
     3
100
AcDbLine
 10
19.77167886837689
 20
5.326912449759888
 30
0.0
 11
20.15689132149688
 21
5.333636339679888
 31
0.0
  0
TEXT
  5
5CE
330
1F
100
AcDbEntity
  8
TitleBlock&Notes
  6
Continuous
 62
     3
100
AcDbText
 10
19.75206659138487
 20
4.729417866975891
 30
0.0
 40
0.177408
  1
 of
 41
1.098901099999998
 51
11.0
100
AcDbText
  0
LINE
  5
5CF
330
1F
100
AcDbEntity
  8
TitleBlock&Notes
  6
Continuous
 62
     3
100
AcDbLine
 10
19.74633486837687
 20
5.345238569439877
 30
0.0
 11
19.55625486837687
 21
5.345238569439877
 31
0.0
  0
LINE
  5
5D0
330
1F
100
AcDbEntity
  8
TitleBlock&Notes
  6
Continuous
 62
     3
100
AcDbLine
 10
19.53091086837689
 20
5.319894569439882
 30
0.0
 11
19.77167886837689
 21
5.319894569439882
 31
0.0
  0
LINE
  5
5D1
330
1F
100
AcDbEntity
  8
TitleBlock&Notes
  6
Continuous
 62
     3
100
AcDbLine
 10
19.54358286837686
 20
5.33256656943988
 30
0.0
 11
19.75900686837688
 21
5.33256656943988
 31
0.0
  0
LINE
  5
5D2
330
1F
100
AcDbEntity
  8
TitleBlock&Notes
  6
Continuous
 62
     3
100
AcDbLine
 10
19.41629204546488
 20
5.411961439455882
 30
0.0
 11
19.53091086837689
 21
5.413962120159891
 31
0.0
  0
LINE
  5
5D3
330
1F
100
AcDbEntity
  8
TitleBlock&Notes
  6
Continuous
 62
     3
100
AcDbLine
 10
19.41273346908086
 20
5.401760175327887
 30
0.0
 11
19.53091086837689
 21
5.403822974175884
 31
0.0
  0
LINE
  5
5D4
330
1F
100
AcDbEntity
  8
TitleBlock&Notes
  6
Continuous
 62
     3
100
AcDbLine
 10
19.40917489269687
 20
5.391558911199887
 30
0.0
 11
19.53091086837689
 21
5.393683828191886
 31
0.0
  0
LINE
  5
5D5
330
1F
100
AcDbEntity
  8
TitleBlock&Notes
  6
Continuous
 62
     3
100
AcDbLine
 10
19.40561631631287
 20
5.381357672415889
 30
0.0
 11
19.53091086837689
 21
5.383544682207877
 31
0.0
  0
LINE
  5
5D6
330
1F
100
AcDbEntity
  8
TitleBlock&Notes
  6
Continuous
 62
     3
100
AcDbLine
 10
19.40205773992887
 20
5.371156408287886
 30
0.0
 11
19.53091086837689
 21
5.373405536223883
 31
0.0
  0
LINE
  5
5D7
330
1F
100
AcDbEntity
  8
TitleBlock&Notes
  6
Continuous
 62
     3
100
AcDbLine
 10
19.39849916354487
 20
5.360955144159887
 30
0.0
 11
19.53091086837689
 21
5.363266390239886
 31
0.0
  0
LINE
  5
5D8
330
1F
100
AcDbEntity
  8
TitleBlock&Notes
  6
Continuous
 62
     3
100
AcDbLine
 10
19.39494056181685
 20
5.350753880031886
 30
0.0
 11
19.53091086837689
 21
5.353127244255881
 31
0.0
  0
LINE
  5
5D9
330
1F
100
AcDbEntity
  8
TitleBlock&Notes
  6
Continuous
 62
     3
100
AcDbLine
 10
19.39138198543286
 20
5.340552615903886
 30
0.0
 11
19.53091086837689
 21
5.342988098271887
 31
0.0
  0
LINE
  5
5DA
330
1F
100
AcDbEntity
  8
TitleBlock&Notes
  6
Continuous
 62
     3
100
AcDbLine
 10
19.38782340904887
 20
5.330351351775891
 30
0.0
 11
19.53091086837689
 21
5.332848952287881
 31
0.0
  0
LINE
  5
5DB
330
1F
100
AcDbEntity
  8
TitleBlock&Notes
  6
Continuous
 62
     3
100
AcDbLine
 10
19.38426483266485
 20
5.320150112991888
 30
0.0
 11
19.53091086837689
 21
5.322709831647886
 31
0.0
  0
LINE
  5
5DC
330
1F
100
AcDbEntity
  8
TitleBlock&Notes
  6
Continuous
 62
     3
100
AcDbLine
 10
19.77167886837689
 20
5.408025592287885
 30
0.0
 11
20.01916444764086
 21
5.412345477087893
 31
0.0
  0
LINE
  5
5DD
330
1F
100
AcDbEntity
  8
TitleBlock&Notes
  6
Continuous
 62
     3
100
AcDbLine
 10
19.77167886837689
 20
5.397886446303889
 30
0.0
 11
20.03024859535289
 21
5.402399807199887
 31
0.0
  0
LINE
  5
5DE
330
1F
100
AcDbEntity
  8
TitleBlock&Notes
  6
Continuous
 62
     3
100
AcDbLine
 10
19.77167886837689
 20
5.387747300319892
 30
0.0
 11
20.04235914972086
 21
5.392472055519883
 31
0.0
  0
LINE
  5
5DF
330
1F
100
AcDbEntity
  8
TitleBlock&Notes
  6
Continuous
 62
     3
100
AcDbLine
 10
19.77167886837689
 20
5.377608154335882
 30
0.0
 11
20.05567757378485
 21
5.382565390047886
 31
0.0
  0
LINE
  5
5E0
330
1F
100
AcDbEntity
  8
TitleBlock&Notes
  6
Continuous
 62
     3
100
AcDbLine
 10
19.77167886837689
 20
5.367469008351879
 30
0.0
 11
20.07045738357685
 21
5.372684220639879
 31
0.0
  0
LINE
  5
5E1
330
1F
100
AcDbEntity
  8
TitleBlock&Notes
  6
Continuous
 62
     3
100
AcDbLine
 10
19.77167886837689
 20
5.357329862367882
 30
0.0
 11
20.08707182018486
 21
5.362835086047888
 31
0.0
  0
LINE
  5
5E2
330
1F
100
AcDbEntity
  8
TitleBlock&Notes
  6
Continuous
 62
     3
100
AcDbLine
 10
19.77167886837689
 20
5.347190741727888
 30
0.0
 11
20.10611319823286
 21
5.353028301279879
 31
0.0
  0
LINE
  5
5E3
330
1F
100
AcDbEntity
  8
TitleBlock&Notes
  6
Continuous
 62
     3
100
AcDbLine
 10
19.77167886837689
 20
5.337051595743886
 30
0.0
 11
20.12863298959288
 21
5.343282240735886
 31
0.0
  0
TEXT
  5
5E4
330
1F
100
AcDbEntity
  8
TitleBlock&Notes
  6
Continuous
 62
     3
100
AcDbText
 10
20.20964711311287
 20
4.729417866975891
 30
0.0
 40
0.177408
  1
 AIR
 41
1.098901099999998
 51
11.0
100
AcDbText
  0
LINE
  5
5E5
330
1F
100
AcDbEntity
  8
TitleBlock&Notes
  6
Continuous
 62
     3
100
AcDbLine
 10
20.54185436431287
 20
5.360634187743889
 30
0.0
 11
20.82345486837685
 21
5.365549555167888
 31
0.0
  0
LINE
  5
5E6
330
1F
100
AcDbEntity
  8
TitleBlock&Notes
  6
Continuous
 62
     3
100
AcDbLine
 10
20.52054517980085
 20
5.350123093215881
 30
0.0
 11
20.82345486837685
 21
5.355410409183877
 31
0.0
  0
LINE
  5
5E7
330
1F
100
AcDbEntity
  8
TitleBlock&Notes
  6
Continuous
 62
     3
100
AcDbLine
 10
20.49415586652088
 20
5.339523320031888
 30
0.0
 11
20.82345486837685
 21
5.345271263199885
 31
0.0
  0
LINE
  5
5E8
330
1F
100
AcDbEntity
  8
TitleBlock&Notes
  6
Continuous
 62
     3
100
AcDbLine
 10
20.45722864476086
 20
5.328739625439886
 30
0.0
 11
20.82345486837685
 21
5.335132117215886
 31
0.0
  0
LINE
  5
5E9
330
1F
100
AcDbEntity
  8
TitleBlock&Notes
  6
Continuous
 62
     3
100
AcDbLine
 10
20.25321481768887
 20
5.345238569439877
 30
0.0
 11
20.37993486837688
 21
5.345238569439877
 31
0.0
  0
LINE
  5
5EA
330
1F
100
AcDbEntity
  8
TitleBlock&Notes
  6
Continuous
 62
     3
100
AcDbLine
 10
20.25321481768887
 20
5.319894569439882
 30
0.0
 11
20.37993486837688
 21
5.319894569439882
 31
0.0
  0
LINE
  5
5EB
330
1F
100
AcDbEntity
  8
TitleBlock&Notes
  6
Continuous
 62
     3
100
AcDbLine
 10
20.25321481768887
 20
5.33256656943988
 30
0.0
 11
20.37993486837688
 21
5.33256656943988
 31
0.0
  0
LINE
  5
5EC
330
1F
100
AcDbEntity
  8
TitleBlock&Notes
  6
Continuous
 62
     3
100
AcDbLine
 10
20.60258446812086
 20
5.402250809823883
 30
0.0
 11
20.82345486837685
 21
5.406106113759887
 31
0.0
  0
LINE
  5
5ED
330
1F
100
AcDbEntity
  8
TitleBlock&Notes
  6
Continuous
 62
     3
100
AcDbLine
 10
20.58989282652088
 20
5.391890131935888
 30
0.0
 11
20.82345486837685
 21
5.395966993119883
 31
0.0
  0
LINE
  5
5EE
330
1F
100
AcDbEntity
  8
TitleBlock&Notes
  6
Continuous
 62
     3
100
AcDbLine
 10
20.57580075151288
 20
5.381505022431888
 30
0.0
 11
20.82345486837685
 21
5.385827847135892
 31
0.0
  0
LINE
  5
5EF
330
1F
100
AcDbEntity
  8
TitleBlock&Notes
  6
Continuous
 62
     3
100
AcDbLine
 10
20.55996582031287
 20
5.371089474783886
 30
0.0
 11
20.82345486837685
 21
5.375688701151893
 31
0.0
  0
TEXT
  5
5F0
330
1F
100
AcDbEntity
  8
TitleBlock&Notes
  6
Continuous
 62
     3
100
AcDbText
 10
20.8847128116729
 20
4.729417866975891
 30
0.0
 40
0.177408
  1
 with the
 41
0.8
 51
11.0
100
AcDbText
  0
LINE
  5
5F1
330
1F
100
AcDbEntity
  8
TitleBlock&Notes
  6
Continuous
 62
     3
100
AcDbLine
 10
21.65347086837685
 20
5.319894569439882
 30
0.0
 11
21.89423886837686
 21
5.319894569439882
 31
0.0
  0
LINE
  5
5F2
330
1F
100
AcDbEntity
  8
TitleBlock&Notes
  6
Continuous
 62
     3
100
AcDbLine
 10
21.66614286837688
 20
5.33256656943988
 30
0.0
 11
21.88156686837686
 21
5.33256656943988
 31
0.0
  0
LINE
  5
5F3
330
1F
100
AcDbEntity
  8
TitleBlock&Notes
  6
Continuous
 62
     3
100
AcDbLine
 10
21.67881486837687
 20
5.345238569439877
 30
0.0
 11
21.86889486837688
 21
5.345238569439877
 31
0.0
  0
LINE
  5
5F4
330
1F
100
AcDbEntity
  8
TitleBlock&Notes
  6
Continuous
 62
     3
100
AcDbLine
 10
21.54575886837686
 20
5.408574847455891
 30
0.0
 11
21.65347086837685
 21
5.410454966751886
 31
0.0
  0
LINE
  5
5F5
330
1F
100
AcDbEntity
  8
TitleBlock&Notes
  6
Continuous
 62
     3
100
AcDbLine
 10
21.54575886837686
 20
5.398435701471879
 30
0.0
 11
21.65347086837685
 21
5.400315820767889
 31
0.0
  0
LINE
  5
5F6
330
1F
100
AcDbEntity
  8
TitleBlock&Notes
  6
Continuous
 62
     3
100
AcDbLine
 10
21.54575886837686
 20
5.388296555487882
 30
0.0
 11
21.65347086837685
 21
5.390176674783886
 31
0.0
  0
LINE
  5
5F7
330
1F
100
AcDbEntity
  8
TitleBlock&Notes
  6
Continuous
 62
     3
100
AcDbLine
 10
21.54575886837686
 20
5.378157409503886
 30
0.0
 11
21.65347086837685
 21
5.380037528799888
 31
0.0
  0
LINE
  5
5F8
330
1F
100
AcDbEntity
  8
TitleBlock&Notes
  6
Continuous
 62
     3
100
AcDbLine
 10
21.54575886837686
 20
5.368018263519883
 30
0.0
 11
21.65347086837685
 21
5.369898382815879
 31
0.0
  0
LINE
  5
5F9
330
1F
100
AcDbEntity
  8
TitleBlock&Notes
  6
Continuous
 62
     3
100
AcDbLine
 10
21.54575886837686
 20
5.357879117535886
 30
0.0
 11
21.65347086837685
 21
5.359759236831881
 31
0.0
  0
LINE
  5
5FA
330
1F
100
AcDbEntity
  8
TitleBlock&Notes
  6
Continuous
 62
     3
100
AcDbLine
 10
21.54575886837686
 20
5.347739971551884
 30
0.0
 11
21.65347086837685
 21
5.349620090847889
 31
0.0
  0
LINE
  5
5FB
330
1F
100
AcDbEntity
  8
TitleBlock&Notes
  6
Continuous
 62
     3
100
AcDbLine
 10
21.54575886837686
 20
5.337600825567887
 30
0.0
 11
21.65347086837685
 21
5.339480944863884
 31
0.0
  0
LINE
  5
5FC
330
1F
100
AcDbEntity
  8
TitleBlock&Notes
  6
Continuous
 62
     3
100
AcDbLine
 10
21.54575886837686
 20
5.32746167958389
 30
0.0
 11
21.65347086837685
 21
5.329341798879887
 31
0.0
  0
LINE
  5
5FD
330
1F
100
AcDbEntity
  8
TitleBlock&Notes
  6
Continuous
 62
     3
100
AcDbLine
 10
21.89423886837686
 20
5.404518438879878
 30
0.0
 11
22.25539086837684
 21
5.410822378719894
 31
0.0
  0
LINE
  5
5FE
330
1F
100
AcDbEntity
  8
TitleBlock&Notes
  6
Continuous
 62
     3
100
AcDbLine
 10
21.89423886837686
 20
5.394379292895887
 30
0.0
 11
22.25539086837684
 21
5.400683232735882
 31
0.0
  0
LINE
  5
5FF
330
1F
100
AcDbEntity
  8
TitleBlock&Notes
  6
Continuous
 62
     3
100
AcDbLine
 10
21.89423886837686
 20
5.384240146911891
 30
0.0
 11
22.25539086837684
 21
5.390544086751884
 31
0.0
  0
LINE
  5
600
330
1F
100
AcDbEntity
  8
TitleBlock&Notes
  6
Continuous
 62
     3
100
AcDbLine
 10
21.89423886837686
 20
5.374101000927882
 30
0.0
 11
22.25539086837684
 21
5.380404940767879
 31
0.0
  0
LINE
  5
601
330
1F
100
AcDbEntity
  8
TitleBlock&Notes
  6
Continuous
 62
     3
100
AcDbLine
 10
21.89423886837686
 20
5.363961854943884
 30
0.0
 11
22.25539086837684
 21
5.370265794783886
 31
0.0
  0
LINE
  5
602
330
1F
100
AcDbEntity
  8
TitleBlock&Notes
  6
Continuous
 62
     3
100
AcDbLine
 10
21.89423886837686
 20
5.353822708959882
 30
0.0
 11
22.25539086837684
 21
5.360126648799888
 31
0.0
  0
LINE
  5
603
330
1F
100
AcDbEntity
  8
TitleBlock&Notes
  6
Continuous
 62
     3
100
AcDbLine
 10
21.89423886837686
 20
5.343683562975884
 30
0.0
 11
22.25539086837684
 21
5.349987502815882
 31
0.0
  0
LINE
  5
604
330
1F
100
AcDbEntity
  8
TitleBlock&Notes
  6
Continuous
 62
     3
100
AcDbLine
 10
21.89423886837686
 20
5.333544442335886
 30
0.0
 11
22.25539086837684
 21
5.339848356831891
 31
0.0
  0
LINE
  5
605
330
1F
100
AcDbEntity
  8
TitleBlock&Notes
  6
Continuous
 62
     3
100
AcDbLine
 10
21.89423886837686
 20
5.323405296351887
 30
0.0
 11
22.25539086837684
 21
5.329709210847885
 31
0.0
  0
LINE
  5
606
330
1F
100
AcDbEntity
  8
TitleBlock&Notes
  6
Continuous
 62
     3
100
AcDbLine
 10
22.28073486837686
 20
5.345238569439877
 30
0.0
 11
22.47081486837687
 21
5.345238569439877
 31
0.0
  0
LINE
  5
607
330
1F
100
AcDbEntity
  8
TitleBlock&Notes
  6
Continuous
 62
     3
100
AcDbLine
 10
22.25539086837684
 20
5.319894569439882
 30
0.0
 11
22.49615886837685
 21
5.319894569439882
 31
0.0
  0
LINE
  5
608
330
1F
100
AcDbEntity
  8
TitleBlock&Notes
  6
Continuous
 62
     3
100
AcDbLine
 10
22.48348686837687
 20
5.33256656943988
 30
0.0
 11
22.26806286837688
 21
5.33256656943988
 31
0.0
  0
LINE
  5
609
330
1F
100
AcDbEntity
  8
TitleBlock&Notes
  6
Continuous
 62
     3
100
AcDbLine
 10
19.22831458370485
 20
5.953394790111882
 30
0.0
 11
19.31395512770487
 21
5.953394790111882
 31
0.0
  0
LINE
  5
60A
330
1F
100
AcDbEntity
  8
TitleBlock&Notes
  6
Continuous
 62
     3
100
AcDbLine
 10
19.22700680796089
 20
5.959163312607879
 30
0.0
 11
19.31561353768885
 21
5.960709955551892
 31
0.0
  0
LINE
  5
60B
330
1F
100
AcDbEntity
  8
TitleBlock&Notes
  6
Continuous
 62
     3
100
AcDbLine
 10
19.20003851100085
 20
6.078119178207884
 30
0.0
 11
19.34223120040886
 21
6.078119178207884
 31
0.0
  0
LINE
  5
60C
330
1F
100
AcDbEntity
  8
TitleBlock&Notes
  6
Continuous
 62
     3
100
AcDbLine
 10
19.20182153743288
 20
6.070254276063883
 30
0.0
 11
19.34099892444087
 21
6.072683625183888
 31
0.0
  0
LINE
  5
60D
330
1F
100
AcDbEntity
  8
TitleBlock&Notes
  6
Continuous
 62
     3
100
AcDbLine
 10
19.20411111439288
 20
6.060155097567887
 30
0.0
 11
19.33869117583289
 21
6.062504207583883
 31
0.0
  0
LINE
  5
60E
330
1F
100
AcDbEntity
  8
TitleBlock&Notes
  6
Continuous
 62
     3
100
AcDbLine
 10
19.20640069135288
 20
6.05005591907189
 30
0.0
 11
19.33638340188087
 21
6.052324789983885
 31
0.0
  0
LINE
  5
60F
330
1F
100
AcDbEntity
  8
TitleBlock&Notes
  6
Continuous
 62
     3
100
AcDbLine
 10
19.20869024296889
 20
6.039956740575891
 30
0.0
 11
19.33407565327287
 21
6.042145347039888
 31
0.0
  0
LINE
  5
610
330
1F
100
AcDbEntity
  8
TitleBlock&Notes
  6
Continuous
 62
     3
100
AcDbLine
 10
19.21097981992888
 20
6.029857562079887
 30
0.0
 11
19.33176787932087
 21
6.031965929439888
 31
0.0
  0
LINE
  5
611
330
1F
100
AcDbEntity
  8
TitleBlock&Notes
  6
Continuous
 62
     3
100
AcDbLine
 10
19.21326939688888
 20
6.01975838358388
 30
0.0
 11
19.32946013071287
 21
6.021786511839883
 31
0.0
  0
LINE
  5
612
330
1F
100
AcDbEntity
  8
TitleBlock&Notes
  6
Continuous
 62
     3
100
AcDbLine
 10
19.21555894850484
 20
6.009659205087889
 30
0.0
 11
19.32715235676087
 21
6.011607068895886
 31
0.0
  0
LINE
  5
613
330
1F
100
AcDbEntity
  8
TitleBlock&Notes
  6
Continuous
 62
     3
100
AcDbLine
 10
19.21784852546485
 20
5.999560026591887
 30
0.0
 11
19.32484458280885
 21
6.001427651295887
 31
0.0
  0
LINE
  5
614
330
1F
100
AcDbEntity
  8
TitleBlock&Notes
  6
Continuous
 62
     3
100
AcDbLine
 10
19.22013810242484
 20
5.989460848095879
 30
0.0
 11
19.32253683420087
 21
5.99124823369588
 31
0.0
  0
LINE
  5
615
330
1F
100
AcDbEntity
  8
TitleBlock&Notes
  6
Continuous
 62
     3
100
AcDbLine
 10
19.22242765404085
 20
5.979361669599891
 30
0.0
 11
19.32022906024886
 21
5.981068790751884
 31
0.0
  0
LINE
  5
616
330
1F
100
AcDbEntity
  8
TitleBlock&Notes
  6
Continuous
 62
     3
100
AcDbLine
 10
19.22471723100089
 20
5.969262491103887
 30
0.0
 11
19.31792131164089
 21
5.970889373151884
 31
0.0
  0
LINE
  5
617
330
1F
100
AcDbEntity
  8
TitleBlock&Notes
  6
Continuous
 62
     3
100
AcDbLine
 10
19.18872806671289
 20
6.128008943583879
 30
0.0
 11
19.35354164469686
 21
6.128008943583879
 31
0.0
  0
LINE
  5
618
330
1F
100
AcDbEntity
  8
TitleBlock&Notes
  6
Continuous
 62
     3
100
AcDbLine
 10
19.35641448847286
 20
6.140680943583889
 30
0.0
 11
19.18585522293685
 21
6.140680943583889
 31
0.0
  0
LINE
  5
619
330
1F
100
AcDbEntity
  8
TitleBlock&Notes
  6
Continuous
 62
     3
100
AcDbLine
 10
19.17741764776885
 20
6.177898708959883
 30
0.0
 11
19.36485206364085
 21
6.177898708959883
 31
0.0
  0
LINE
  5
61A
330
1F
100
AcDbEntity
  8
TitleBlock&Notes
  6
Continuous
 62
     3
100
AcDbLine
 10
19.14348636559287
 20
6.327568005087893
 30
0.0
 11
19.39878334581688
 21
6.327568005087893
 31
0.0
  0
LINE
  5
61B
330
1F
100
AcDbEntity
  8
TitleBlock&Notes
  6
Continuous
 62
     3
100
AcDbLine
 10
19.13486780892088
 20
6.365584005087892
 30
0.0
 11
19.40740190248887
 21
6.365584005087892
 31
0.0
  0
LINE
  5
61C
330
1F
100
AcDbEntity
  8
TitleBlock&Notes
  6
Continuous
 62
     3
100
AcDbLine
 10
19.40165621493686
 20
6.340240005087891
 30
0.0
 11
19.14061352181687
 21
6.340240005087891
 31
0.0
  0
LINE
  5
61D
330
1F
100
AcDbEntity
  8
TitleBlock&Notes
  6
Continuous
 62
     3
100
AcDbLine
 10
19.40452905871287
 20
6.352912005087882
 30
0.0
 11
19.13774065269687
 21
6.352912005087882
 31
0.0
  0
LINE
  5
61E
330
1F
100
AcDbEntity
  8
TitleBlock&Notes
  6
Continuous
 62
     3
100
AcDbLine
 10
19.18029049154485
 20
6.165226708959889
 30
0.0
 11
19.36197921986485
 21
6.165226708959889
 31
0.0
  0
LINE
  5
61F
330
1F
100
AcDbEntity
  8
TitleBlock&Notes
  6
Continuous
 62
     3
100
AcDbLine
 10
19.18298237916086
 20
6.153352943583887
 30
0.0
 11
19.35928733224885
 21
6.153352943583887
 31
0.0
  0
LINE
  5
620
330
1F
100
AcDbEntity
  8
TitleBlock&Notes
  6
Continuous
 62
     3
100
AcDbLine
 10
19.43463742658487
 20
6.485718569439889
 30
0.0
 11
19.27113486837686
 21
5.764516551903884
 31
0.0
  0
LINE
  5
621
330
1F
100
AcDbEntity
  8
TitleBlock&Notes
  6
Continuous
 62
     3
100
AcDbLine
 10
19.44475814748086
 20
6.473046569439882
 30
0.0
 11
19.27113486837686
 21
5.707202540511888
 31
0.0
  0
LINE
  5
622
330
1F
100
AcDbEntity
  8
TitleBlock&Notes
  6
Continuous
 62
     3
100
AcDbLine
 10
19.27113486837686
 20
5.649888529119888
 30
0.0
 11
19.45487886837689
 21
6.460374569439884
 31
0.0
  0
LINE
  5
626
330
1F
100
AcDbEntity
  8
TitleBlock&Notes
  6
Continuous
 62
     3
100
AcDbLine
 10
19.27113486837686
 20
5.764516551903884
 30
0.0
 11
19.10763231016886
 21
6.485718569439889
 31
0.0
  0
LINE
  5
627
330
1F
100
AcDbEntity
  8
TitleBlock&Notes
  6
Continuous
 62
     3
100
AcDbLine
 10
19.27113486837686
 20
5.707202540511888
 30
0.0
 11
19.09751158927287
 21
6.473046569439882
 31
0.0
  0
LINE
  5
628
330
1F
100
AcDbEntity
  8
TitleBlock&Notes
  6
Continuous
 62
     3
100
AcDbLine
 10
19.27113486837686
 20
5.649888529119888
 30
0.0
 11
19.08739086837685
 21
6.460374569439884
 31
0.0
  0
LINE
  5
629
330
1F
100
AcDbEntity
  8
TitleBlock&Notes
  6
Continuous
 62
     3
100
AcDbLine
 10
18.49065939343289
 20
5.654056197855888
 30
0.0
 11
18.77059086837684
 21
5.654056197855888
 31
0.0
  0
LINE
  5
62A
330
1F
100
AcDbEntity
  8
TitleBlock&Notes
  6
Continuous
 62
     3
100
AcDbLine
 10
18.49065939343289
 20
5.649283060959884
 30
0.0
 11
18.76411187752887
 21
5.654056197855888
 31
0.0
  0
LINE
  5
62B
330
1F
100
AcDbEntity
  8
TitleBlock&Notes
  6
Continuous
 62
     3
100
AcDbLine
 10
18.49065939343289
 20
5.639143914975884
 30
0.0
 11
18.77059086837684
 21
5.644030136799885
 31
0.0
  0
LINE
  5
62C
330
1F
100
AcDbEntity
  8
TitleBlock&Notes
  6
Continuous
 62
     3
100
AcDbLine
 10
18.49065939343289
 20
5.629004768991886
 30
0.0
 11
18.77059086837684
 21
5.633890990815888
 31
0.0
  0
LINE
  5
62D
330
1F
100
AcDbEntity
  8
TitleBlock&Notes
  6
Continuous
 62
     3
100
AcDbLine
 10
18.49065939343289
 20
5.618865623007888
 30
0.0
 11
18.77059086837684
 21
5.623751844831883
 31
0.0
  0
LINE
  5
62E
330
1F
100
AcDbEntity
  8
TitleBlock&Notes
  6
Continuous
 62
     3
100
AcDbLine
 10
18.49065939343289
 20
5.608726502367888
 30
0.0
 11
18.77059086837684
 21
5.613612724191892
 31
0.0
  0
LINE
  5
62F
330
1F
100
AcDbEntity
  8
TitleBlock&Notes
  6
Continuous
 62
     3
100
AcDbLine
 10
18.49065939343289
 20
5.598587356383886
 30
0.0
 11
18.77059086837684
 21
5.603473578207894
 31
0.0
  0
LINE
  5
630
330
1F
100
AcDbEntity
  8
TitleBlock&Notes
  6
Continuous
 62
     3
100
AcDbLine
 10
18.49065939343289
 20
5.58844821039989
 30
0.0
 11
18.77059086837684
 21
5.593334432223884
 31
0.0
  0
LINE
  5
631
330
1F
100
AcDbEntity
  8
TitleBlock&Notes
  6
Continuous
 62
     3
100
AcDbLine
 10
18.49065939343289
 20
5.578309064415893
 30
0.0
 11
18.77059086837684
 21
5.583195286239878
 31
0.0
  0
LINE
  5
632
330
1F
100
AcDbEntity
  8
TitleBlock&Notes
  6
Continuous
 62
     3
100
AcDbLine
 10
18.49065939343289
 20
5.568169918431881
 30
0.0
 11
18.77059086837684
 21
5.573056140255886
 31
0.0
  0
LINE
  5
633
330
1F
100
AcDbEntity
  8
TitleBlock&Notes
  6
Continuous
 62
     3
100
AcDbLine
 10
18.49065939343289
 20
5.558030772447885
 30
0.0
 11
18.77059086837684
 21
5.562916994271888
 31
0.0
  0
LINE
  5
634
330
1F
100
AcDbEntity
  8
TitleBlock&Notes
  6
Continuous
 62
     3
100
AcDbLine
 10
18.49065939343289
 20
5.547891626463884
 30
0.0
 11
18.77059086837684
 21
5.552777848287882
 31
0.0
  0
LINE
  5
635
330
1F
100
AcDbEntity
  8
TitleBlock&Notes
  6
Continuous
 62
     3
100
AcDbLine
 10
18.49065939343289
 20
5.537752480479886
 30
0.0
 11
18.77059086837684
 21
5.542638702303888
 31
0.0
  0
LINE
  5
636
330
1F
100
AcDbEntity
  8
TitleBlock&Notes
  6
Continuous
 62
     3
100
AcDbLine
 10
18.49065939343289
 20
5.527613334495889
 30
0.0
 11
18.77059086837684
 21
5.532499556319883
 31
0.0
  0
LINE
  5
637
330
1F
100
AcDbEntity
  8
TitleBlock&Notes
  6
Continuous
 62
     3
100
AcDbLine
 10
18.49065939343289
 20
5.517474188511886
 30
0.0
 11
18.77059086837684
 21
5.522360410335886
 31
0.0
  0
LINE
  5
638
330
1F
100
AcDbEntity
  8
TitleBlock&Notes
  6
Continuous
 62
     3
100
AcDbLine
 10
18.49065939343289
 20
5.507335042527881
 30
0.0
 11
18.77059086837684
 21
5.512221264351893
 31
0.0
  0
LINE
  5
639
330
1F
100
AcDbEntity
  8
TitleBlock&Notes
  6
Continuous
 62
     3
100
AcDbLine
 10
18.49065939343289
 20
5.497195896543887
 30
0.0
 11
18.77059086837684
 21
5.502082118367883
 31
0.0
  0
LINE
  5
63A
330
1F
100
AcDbEntity
  8
TitleBlock&Notes
  6
Continuous
 62
     3
100
AcDbLine
 10
18.49065939343289
 20
5.487056750559891
 30
0.0
 11
18.77059086837684
 21
5.491942972383886
 31
0.0
  0
LINE
  5
63B
330
1F
100
AcDbEntity
  8
TitleBlock&Notes
  6
Continuous
 62
     3
100
AcDbLine
 10
18.49065939343289
 20
5.476917604575881
 30
0.0
 11
18.77059086837684
 21
5.481803826399879
 31
0.0
  0
LINE
  5
63C
330
1F
100
AcDbEntity
  8
TitleBlock&Notes
  6
Continuous
 62
     3
100
AcDbLine
 10
18.49065939343289
 20
5.466778458591891
 30
0.0
 11
18.77059086837684
 21
5.471664680415886
 31
0.0
  0
LINE
  5
63D
330
1F
100
AcDbEntity
  8
TitleBlock&Notes
  6
Continuous
 62
     3
100
AcDbLine
 10
18.49065939343289
 20
5.456639337951884
 30
0.0
 11
18.77059086837684
 21
5.461525559775883
 31
0.0
  0
LINE
  5
63E
330
1F
100
AcDbEntity
  8
TitleBlock&Notes
  6
Continuous
 62
     3
100
AcDbLine
 10
18.49065939343289
 20
5.446500191967886
 30
0.0
 11
18.77059086837684
 21
5.451386413791884
 31
0.0
  0
LINE
  5
63F
330
1F
100
AcDbEntity
  8
TitleBlock&Notes
  6
Continuous
 62
     3
100
AcDbLine
 10
18.49065939343289
 20
5.436361045983889
 30
0.0
 11
18.77059086837684
 21
5.441247267807884
 31
0.0
  0
LINE
  5
640
330
1F
100
AcDbEntity
  8
TitleBlock&Notes
  6
Continuous
 62
     3
100
AcDbLine
 10
18.49065939343289
 20
5.426221899999887
 30
0.0
 11
18.77059086837684
 21
5.431108121823887
 31
0.0
  0
LINE
  5
641
330
1F
100
AcDbEntity
  8
TitleBlock&Notes
  6
Continuous
 62
     3
100
AcDbLine
 10
18.49065939343289
 20
5.416082754015882
 30
0.0
 11
18.77059086837684
 21
5.420968975839889
 31
0.0
  0
LINE
  5
642
330
1F
100
AcDbEntity
  8
TitleBlock&Notes
  6
Continuous
 62
     3
100
AcDbLine
 10
18.49065939343289
 20
5.903505024735882
 30
0.0
 11
18.77059086837684
 21
5.903505024735882
 31
0.0
  0
LINE
  5
643
330
1F
100
AcDbEntity
  8
TitleBlock&Notes
  6
Continuous
 62
     3
100
AcDbLine
 10
18.49065939343289
 20
5.953394790111882
 30
0.0
 11
18.77059086837684
 21
5.953394790111882
 31
0.0
  0
LINE
  5
644
330
1F
100
AcDbEntity
  8
TitleBlock&Notes
  6
Continuous
 62
     3
100
AcDbLine
 10
18.49065939343289
 20
5.893365878751887
 30
0.0
 11
18.77059086837684
 21
5.898252100575881
 31
0.0
  0
LINE
  5
645
330
1F
100
AcDbEntity
  8
TitleBlock&Notes
  6
Continuous
 62
     3
100
AcDbLine
 10
18.49065939343289
 20
5.883226732767888
 30
0.0
 11
18.77059086837684
 21
5.888112954591883
 31
0.0
  0
LINE
  5
646
330
1F
100
AcDbEntity
  8
TitleBlock&Notes
  6
Continuous
 62
     3
100
AcDbLine
 10
18.49065939343289
 20
5.873087586783879
 30
0.0
 11
18.77059086837684
 21
5.87797380860788
 31
0.0
  0
LINE
  5
647
330
1F
100
AcDbEntity
  8
TitleBlock&Notes
  6
Continuous
 62
     3
100
AcDbLine
 10
18.49065939343289
 20
5.862948440799884
 30
0.0
 11
18.77059086837684
 21
5.867834662623883
 31
0.0
  0
LINE
  5
648
330
1F
100
AcDbEntity
  8
TitleBlock&Notes
  6
Continuous
 62
     3
100
AcDbLine
 10
18.49065939343289
 20
5.852809294815878
 30
0.0
 11
18.77059086837684
 21
5.857695516639887
 31
0.0
  0
LINE
  5
649
330
1F
100
AcDbEntity
  8
TitleBlock&Notes
  6
Continuous
 62
     3
100
AcDbLine
 10
18.49065939343289
 20
5.842670148831882
 30
0.0
 11
18.77059086837684
 21
5.847556370655884
 31
0.0
  0
LINE
  5
64A
330
1F
100
AcDbEntity
  8
TitleBlock&Notes
  6
Continuous
 62
     3
100
AcDbLine
 10
18.49065939343289
 20
5.832531002847888
 30
0.0
 11
18.77059086837684
 21
5.837417224671886
 31
0.0
  0
LINE
  5
64B
330
1F
100
AcDbEntity
  8
TitleBlock&Notes
  6
Continuous
 62
     3
100
AcDbLine
 10
18.49065939343289
 20
5.822391856863882
 30
0.0
 11
18.77059086837684
 21
5.827278078687887
 31
0.0
  0
LINE
  5
64C
330
1F
100
AcDbEntity
  8
TitleBlock&Notes
  6
Continuous
 62
     3
100
AcDbLine
 10
18.49065939343289
 20
5.812252710879886
 30
0.0
 11
18.77059086837684
 21
5.817138932703888
 31
0.0
  0
LINE
  5
64D
330
1F
100
AcDbEntity
  8
TitleBlock&Notes
  6
Continuous
 62
     3
100
AcDbLine
 10
18.49065939343289
 20
5.802113564895885
 30
0.0
 11
18.77059086837684
 21
5.806999786719892
 31
0.0
  0
LINE
  5
64E
330
1F
100
AcDbEntity
  8
TitleBlock&Notes
  6
Continuous
 62
     3
100
AcDbLine
 10
18.49065939343289
 20
5.791974418911887
 30
0.0
 11
18.77059086837684
 21
5.79686064073588
 31
0.0
  0
LINE
  5
64F
330
1F
100
AcDbEntity
  8
TitleBlock&Notes
  6
Continuous
 62
     3
100
AcDbLine
 10
18.49065939343289
 20
5.781835298271887
 30
0.0
 11
18.77059086837684
 21
5.786721520095882
 31
0.0
  0
LINE
  5
650
330
1F
100
AcDbEntity
  8
TitleBlock&Notes
  6
Continuous
 62
     3
100
AcDbLine
 10
18.49065939343289
 20
5.771696152287889
 30
0.0
 11
18.77059086837684
 21
5.776582374111884
 31
0.0
  0
LINE
  5
651
330
1F
100
AcDbEntity
  8
TitleBlock&Notes
  6
Continuous
 62
     3
100
AcDbLine
 10
18.49065939343289
 20
5.761557006303879
 30
0.0
 11
18.77059086837684
 21
5.766443228127887
 31
0.0
  0
LINE
  5
652
330
1F
100
AcDbEntity
  8
TitleBlock&Notes
  6
Continuous
 62
     3
100
AcDbLine
 10
18.49065939343289
 20
5.751417860319882
 30
0.0
 11
18.77059086837684
 21
5.756304082143887
 31
0.0
  0
LINE
  5
653
330
1F
100
AcDbEntity
  8
TitleBlock&Notes
  6
Continuous
 62
     3
100
AcDbLine
 10
18.49065939343289
 20
5.741278714335884
 30
0.0
 11
18.77059086837684
 21
5.746164936159887
 31
0.0
  0
LINE
  5
654
330
1F
100
AcDbEntity
  8
TitleBlock&Notes
  6
Continuous
 62
     3
100
AcDbLine
 10
18.49065939343289
 20
5.731139568351882
 30
0.0
 11
18.77059086837684
 21
5.736025790175887
 31
0.0
  0
LINE
  5
655
330
1F
100
AcDbEntity
  8
TitleBlock&Notes
  6
Continuous
 62
     3
100
AcDbLine
 10
18.49065939343289
 20
5.721000422367886
 30
0.0
 11
18.77059086837684
 21
5.72588664419189
 31
0.0
  0
LINE
  5
656
330
1F
100
AcDbEntity
  8
TitleBlock&Notes
  6
Continuous
 62
     3
100
AcDbLine
 10
18.49065939343289
 20
6.047701765599886
 30
0.0
 11
18.77059086837684
 21
6.052587987423891
 31
0.0
  0
LINE
  5
657
330
1F
100
AcDbEntity
  8
TitleBlock&Notes
  6
Continuous
 62
     3
100
AcDbLine
 10
18.49065939343289
 20
6.037562619615887
 30
0.0
 11
18.77059086837684
 21
6.042448841439882
 31
0.0
  0
LINE
  5
658
330
1F
100
AcDbEntity
  8
TitleBlock&Notes
  6
Continuous
 62
     3
100
AcDbLine
 10
18.49065939343289
 20
6.02742347363189
 30
0.0
 11
18.77059086837684
 21
6.032309695455886
 31
0.0
  0
LINE
  5
659
330
1F
100
AcDbEntity
  8
TitleBlock&Notes
  6
Continuous
 62
     3
100
AcDbLine
 10
18.49065939343289
 20
6.01728432764788
 30
0.0
 11
18.77059086837684
 21
6.022170549471884
 31
0.0
  0
LINE
  5
65A
330
1F
100
AcDbEntity
  8
TitleBlock&Notes
  6
Continuous
 62
     3
100
AcDbLine
 10
18.49065939343289
 20
6.007145181663884
 30
0.0
 11
18.77059086837684
 21
6.012031403487887
 31
0.0
  0
LINE
  5
65B
330
1F
100
AcDbEntity
  8
TitleBlock&Notes
  6
Continuous
 62
     3
100
AcDbLine
 10
18.49065939343289
 20
5.997006035679882
 30
0.0
 11
18.77059086837684
 21
6.001892257503888
 31
0.0
  0
LINE
  5
65C
330
1F
100
AcDbEntity
  8
TitleBlock&Notes
  6
Continuous
 62
     3
100
AcDbLine
 10
18.49065939343289
 20
5.986866889695884
 30
0.0
 11
18.77059086837684
 21
5.991753111519887
 31
0.0
  0
LINE
  5
65D
330
1F
100
AcDbEntity
  8
TitleBlock&Notes
  6
Continuous
 62
     3
100
AcDbLine
 10
18.49065939343289
 20
5.976727743711887
 30
0.0
 11
18.77059086837684
 21
5.981613965535882
 31
0.0
  0
LINE
  5
65E
330
1F
100
AcDbEntity
  8
TitleBlock&Notes
  6
Continuous
 62
     3
100
AcDbLine
 10
18.49065939343289
 20
5.966588597727886
 30
0.0
 11
18.77059086837684
 21
5.971474819551888
 31
0.0
  0
LINE
  5
65F
330
1F
100
AcDbEntity
  8
TitleBlock&Notes
  6
Continuous
 62
     3
100
AcDbLine
 10
18.49065939343289
 20
5.956449451743887
 30
0.0
 11
18.77059086837684
 21
5.961335673567892
 31
0.0
  0
LINE
  5
660
330
1F
100
AcDbEntity
  8
TitleBlock&Notes
  6
Continuous
 62
     3
100
AcDbLine
 10
18.49065939343289
 20
5.703945963231884
 30
0.0
 11
18.77059086837684
 21
5.703945963231884
 31
0.0
  0
LINE
  5
661
330
1F
100
AcDbEntity
  8
TitleBlock&Notes
  6
Continuous
 62
     3
100
AcDbLine
 10
18.49065939343289
 20
5.710861276383885
 30
0.0
 11
18.77059086837684
 21
5.715747498207892
 31
0.0
  0
LINE
  5
662
330
1F
100
AcDbEntity
  8
TitleBlock&Notes
  6
Continuous
 62
     3
100
AcDbLine
 10
18.67535247554488
 20
5.703945963231884
 30
0.0
 11
18.77059086837684
 21
5.705608352223889
 31
0.0
  0
LINE
  5
663
330
1F
100
AcDbEntity
  8
TitleBlock&Notes
  6
Continuous
 62
     3
100
AcDbLine
 10
19.23962500264887
 20
5.903505024735882
 30
0.0
 11
19.30264470876089
 21
5.903505024735882
 31
0.0
  0
LINE
  5
664
330
1F
100
AcDbEntity
  8
TitleBlock&Notes
  6
Continuous
 62
     3
100
AcDbLine
 10
19.24125201141688
 20
5.896328364255882
 30
0.0
 11
19.30125514792887
 21
5.897375730399879
 31
0.0
  0
LINE
  5
665
330
1F
100
AcDbEntity
  8
TitleBlock&Notes
  6
Continuous
 62
     3
100
AcDbLine
 10
19.24354158837688
 20
5.886229185759884
 30
0.0
 11
19.29894739932086
 21
5.887196312799887
 31
0.0
  0
LINE
  5
666
330
1F
100
AcDbEntity
  8
TitleBlock&Notes
  6
Continuous
 62
     3
100
AcDbLine
 10
19.24583113999289
 20
5.876130007263888
 30
0.0
 11
19.29663962536888
 21
5.877016869855887
 31
0.0
  0
LINE
  5
667
330
1F
100
AcDbEntity
  8
TitleBlock&Notes
  6
Continuous
 62
     3
100
AcDbLine
 10
19.24812071695289
 20
5.866030828767882
 30
0.0
 11
19.29433187676087
 21
5.866837452255889
 31
0.0
  0
LINE
  5
668
330
1F
100
AcDbEntity
  8
TitleBlock&Notes
  6
Continuous
 62
     3
100
AcDbLine
 10
19.25041029391287
 20
5.855931650271884
 30
0.0
 11
19.29202410280887
 21
5.856658034655886
 31
0.0
  0
LINE
  5
669
330
1F
100
AcDbEntity
  8
TitleBlock&Notes
  6
Continuous
 62
     3
100
AcDbLine
 10
19.25269984552885
 20
5.845832471775881
 30
0.0
 11
19.28971635420086
 21
5.846478591711883
 31
0.0
  0
LINE
  5
66A
330
1F
100
AcDbEntity
  8
TitleBlock&Notes
  6
Continuous
 62
     3
100
AcDbLine
 10
19.25498942248886
 20
5.835733293279891
 30
0.0
 11
19.28740858024884
 21
5.836299174111887
 31
0.0
  0
LINE
  5
66B
330
1F
100
AcDbEntity
  8
TitleBlock&Notes
  6
Continuous
 62
     3
100
AcDbLine
 10
19.25727899944886
 20
5.825634114783882
 30
0.0
 11
19.28510083164088
 21
5.826119756511883
 31
0.0
  0
LINE
  5
66C
330
1F
100
AcDbEntity
  8
TitleBlock&Notes
  6
Continuous
 62
     3
100
AcDbLine
 10
19.25956855106487
 20
5.815534936287892
 30
0.0
 11
19.28279305768888
 21
5.815940313567883
 31
0.0
  0
LINE
  5
66D
330
1F
100
AcDbEntity
  8
TitleBlock&Notes
  6
Continuous
 62
     3
100
AcDbLine
 10
19.26185812802486
 20
5.805435757791889
 30
0.0
 11
19.28048530908088
 21
5.805760895967887
 31
0.0
  0
LINE
  5
66E
330
1F
100
AcDbEntity
  8
TitleBlock&Notes
  6
Continuous
 62
     3
100
AcDbLine
 10
19.26414770498486
 20
5.795336579295883
 30
0.0
 11
19.27817753512886
 21
5.795581478367887
 31
0.0
  0
LINE
  5
66F
330
1F
100
AcDbEntity
  8
TitleBlock&Notes
  6
Continuous
 62
     3
100
AcDbLine
 10
19.26643725660087
 20
5.785237400799879
 30
0.0
 11
19.27586976117687
 21
5.785402035423893
 31
0.0
  0
LINE
  5
670
330
1F
100
AcDbEntity
  8
TitleBlock&Notes
  6
Continuous
 62
     3
100
AcDbLine
 10
19.26872683356085
 20
5.77513822230389
 30
0.0
 11
19.27356201256886
 21
5.775222617823884
 31
0.0
  0
LINE
  5
671
330
1F
100
AcDbEntity
  8
TitleBlock&Notes
  6
Continuous
 62
     3
100
AcDbLine
 10
19.27101641052085
 20
5.765039043807883
 30
0.0
 11
19.27125423861687
 21
5.765043174879882
 31
0.0
  0
LINE
  5
672
330
1F
100
AcDbEntity
  8
TitleBlock&Notes
  6
Continuous
 62
     3
100
AcDbLine
 10
19.01135886837685
 20
5.658371900895891
 30
0.0
 11
19.03984707036088
 21
5.658869175519892
 31
0.0
  0
LINE
  5
673
330
1F
100
AcDbEntity
  8
TitleBlock&Notes
  6
Continuous
 62
     3
100
AcDbLine
 10
19.01135886837685
 20
5.648232754911885
 30
0.0
 11
19.04336256194487
 21
5.648791387359887
 31
0.0
  0
LINE
  5
674
330
1F
100
AcDbEntity
  8
TitleBlock&Notes
  6
Continuous
 62
     3
100
AcDbLine
 10
19.01135886837685
 20
5.638093634271893
 30
0.0
 11
19.04687807887288
 21
5.638713624543878
 31
0.0
  0
LINE
  5
675
330
1F
100
AcDbEntity
  8
TitleBlock&Notes
  6
Continuous
 62
     3
100
AcDbLine
 10
19.01135886837685
 20
5.627954488287882
 30
0.0
 11
19.05039357045687
 21
5.628635836383884
 31
0.0
  0
LINE
  5
676
330
1F
100
AcDbEntity
  8
TitleBlock&Notes
  6
Continuous
 62
     3
100
AcDbLine
 10
19.01135886837685
 20
5.617815342303886
 30
0.0
 11
19.05390908738489
 21
5.618558048223882
 31
0.0
  0
LINE
  5
677
330
1F
100
AcDbEntity
  8
TitleBlock&Notes
  6
Continuous
 62
     3
100
AcDbLine
 10
19.01135886837685
 20
5.607676196319879
 30
0.0
 11
19.05742457896888
 21
5.608480260063888
 31
0.0
  0
LINE
  5
678
330
1F
100
AcDbEntity
  8
TitleBlock&Notes
  6
Continuous
 62
     3
100
AcDbLine
 10
19.01135886837685
 20
5.597537050335886
 30
0.0
 11
19.06094009589688
 21
5.598402497247883
 31
0.0
  0
LINE
  5
679
330
1F
100
AcDbEntity
  8
TitleBlock&Notes
  6
Continuous
 62
     3
100
AcDbLine
 10
19.01135886837685
 20
5.58739790435189
 30
0.0
 11
19.06445558748087
 21
5.588324709087888
 31
0.0
  0
LINE
  5
67A
330
1F
100
AcDbEntity
  8
TitleBlock&Notes
  6
Continuous
 62
     3
100
AcDbLine
 10
19.01135886837685
 20
5.577258758367884
 30
0.0
 11
19.06797110440889
 21
5.578246920927878
 31
0.0
  0
LINE
  5
67B
330
1F
100
AcDbEntity
  8
TitleBlock&Notes
  6
Continuous
 62
     3
100
AcDbLine
 10
19.01135886837685
 20
5.739485068767891
 30
0.0
 11
19.01172303631289
 21
5.739491430111887
 31
0.0
  0
LINE
  5
67C
330
1F
100
AcDbEntity
  8
TitleBlock&Notes
  6
Continuous
 62
     3
100
AcDbLine
 10
19.01135886837685
 20
5.729345922783893
 30
0.0
 11
19.01523852789688
 21
5.72941364195188
 31
0.0
  0
LINE
  5
67D
330
1F
100
AcDbEntity
  8
TitleBlock&Notes
  6
Continuous
 62
     3
100
AcDbLine
 10
19.01135886837685
 20
5.719206776799882
 30
0.0
 11
19.01875404482487
 21
5.719335853791887
 31
0.0
  0
LINE
  5
67E
330
1F
100
AcDbEntity
  8
TitleBlock&Notes
  6
Continuous
 62
     3
100
AcDbLine
 10
19.01135886837685
 20
5.709067630815884
 30
0.0
 11
19.02226953640889
 21
5.709258065631884
 31
0.0
  0
LINE
  5
67F
330
1F
100
AcDbEntity
  8
TitleBlock&Notes
  6
Continuous
 62
     3
100
AcDbLine
 10
19.01135886837685
 20
5.698928484831883
 30
0.0
 11
19.02578505333688
 21
5.699180302815884
 31
0.0
  0
LINE
  5
680
330
1F
100
AcDbEntity
  8
TitleBlock&Notes
  6
Continuous
 62
     3
100
AcDbLine
 10
19.01135886837685
 20
5.688789338847887
 30
0.0
 11
19.02930054492087
 21
5.689102514655883
 31
0.0
  0
LINE
  5
681
330
1F
100
AcDbEntity
  8
TitleBlock&Notes
  6
Continuous
 62
     3
100
AcDbLine
 10
19.01135886837685
 20
5.678650192863888
 30
0.0
 11
19.03281606184889
 21
5.679024726495888
 31
0.0
  0
LINE
  5
682
330
1F
100
AcDbEntity
  8
TitleBlock&Notes
  6
Continuous
 62
     3
100
AcDbLine
 10
19.01135886837685
 20
5.668511046879887
 30
0.0
 11
19.03633155343288
 21
5.668946963679883
 31
0.0
  0
LINE
  5
683
330
1F
100
AcDbEntity
  8
TitleBlock&Notes
  6
Continuous
 62
     3
100
AcDbLine
 10
19.01135886837685
 20
5.465728177887884
 30
0.0
 11
19.10664166389685
 21
5.467391327199885
 31
0.0
  0
LINE
  5
684
330
1F
100
AcDbEntity
  8
TitleBlock&Notes
  6
Continuous
 62
     3
100
AcDbLine
 10
19.01135886837685
 20
5.455589031903888
 30
0.0
 11
19.1101571554809
 21
5.457313564383884
 31
0.0
  0
LINE
  5
685
330
1F
100
AcDbEntity
  8
TitleBlock&Notes
  6
Continuous
 62
     3
100
AcDbLine
 10
19.01135886837685
 20
5.445449885919889
 30
0.0
 11
19.11367267240886
 21
5.447235776223881
 31
0.0
  0
LINE
  5
686
330
1F
100
AcDbEntity
  8
TitleBlock&Notes
  6
Continuous
 62
     3
100
AcDbLine
 10
19.01135886837685
 20
5.435310739935887
 30
0.0
 11
19.11718816399289
 21
5.437157988063888
 31
0.0
  0
LINE
  5
687
330
1F
100
AcDbEntity
  8
TitleBlock&Notes
  6
Continuous
 62
     3
100
AcDbLine
 10
19.01135886837685
 20
5.425171593951877
 30
0.0
 11
19.12070368092085
 21
5.427080225247887
 31
0.0
  0
LINE
  5
688
330
1F
100
AcDbEntity
  8
TitleBlock&Notes
  6
Continuous
 62
     3
100
AcDbLine
 10
19.01135886837685
 20
5.567119612383891
 30
0.0
 11
19.07148662133687
 21
5.568169158111888
 31
0.0
  0
LINE
  5
689
330
1F
100
AcDbEntity
  8
TitleBlock&Notes
  6
Continuous
 62
     3
100
AcDbLine
 10
19.01135886837685
 20
5.556980466399884
 30
0.0
 11
19.0750021129209
 21
5.558091369951887
 31
0.0
  0
LINE
  5
68A
330
1F
100
AcDbEntity
  8
TitleBlock&Notes
  6
Continuous
 62
     3
100
AcDbLine
 10
19.01135886837685
 20
5.546841320415888
 30
0.0
 11
19.07851762984886
 21
5.548013581791892
 31
0.0
  0
LINE
  5
68B
330
1F
100
AcDbEntity
  8
TitleBlock&Notes
  6
Continuous
 62
     3
100
AcDbLine
 10
19.01135886837685
 20
5.536702174431893
 30
0.0
 11
19.08203312143289
 21
5.537935793631884
 31
0.0
  0
LINE
  5
68C
330
1F
100
AcDbEntity
  8
TitleBlock&Notes
  6
Continuous
 62
     3
100
AcDbLine
 10
19.01135886837685
 20
5.526563028447887
 30
0.0
 11
19.08554863836087
 21
5.527858030815888
 31
0.0
  0
LINE
  5
68D
330
1F
100
AcDbEntity
  8
TitleBlock&Notes
  6
Continuous
 62
     3
100
AcDbLine
 10
19.01135886837685
 20
5.516423882463878
 30
0.0
 11
19.08906412994488
 21
5.517780242655883
 31
0.0
  0
LINE
  5
68E
330
1F
100
AcDbEntity
  8
TitleBlock&Notes
  6
Continuous
 62
     3
100
AcDbLine
 10
19.01135886837685
 20
5.50628473647988
 30
0.0
 11
19.09257964687285
 21
5.507702454495879
 31
0.0
  0
LINE
  5
68F
330
1F
100
AcDbEntity
  8
TitleBlock&Notes
  6
Continuous
 62
     3
100
AcDbLine
 10
19.01135886837685
 20
5.496145590495888
 30
0.0
 11
19.0960951384569
 21
5.497624691679887
 31
0.0
  0
LINE
  5
690
330
1F
100
AcDbEntity
  8
TitleBlock&Notes
  6
Continuous
 62
     3
100
AcDbLine
 10
19.01135886837685
 20
5.486006469855884
 30
0.0
 11
19.09961065538487
 21
5.487546903519886
 31
0.0
  0
LINE
  5
691
330
1F
100
AcDbEntity
  8
TitleBlock&Notes
  6
Continuous
 62
     3
100
AcDbLine
 10
19.01135886837685
 20
5.475867323871886
 30
0.0
 11
19.10312614696889
 21
5.477469115359883
 31
0.0
  0
LINE
  5
692
330
1F
100
AcDbEntity
  8
TitleBlock&Notes
  6
Continuous
 62
     3
100
AcDbLine
 10
18.77059086837684
 20
6.485718569439889
 30
0.0
 11
19.10763231016886
 21
6.485718569439889
 31
0.0
  0
LINE
  5
693
330
1F
100
AcDbEntity
  8
TitleBlock&Notes
  6
Continuous
 62
     3
100
AcDbLine
 10
18.79593486837687
 20
6.460374569439884
 30
0.0
 11
19.08739086837685
 21
6.460374569439884
 31
0.0
  0
LINE
  5
694
330
1F
100
AcDbEntity
  8
TitleBlock&Notes
  6
Continuous
 62
     3
100
AcDbLine
 10
19.09751158927287
 20
6.473046569439882
 30
0.0
 11
18.78326286837688
 21
6.473046569439882
 31
0.0
  0
LINE
  5
695
330
1F
100
AcDbEntity
  8
TitleBlock&Notes
  6
Continuous
 62
     3
100
AcDbLine
 10
18.49065939343289
 20
6.078119178207884
 30
0.0
 11
18.77059086837684
 21
6.078119178207884
 31
0.0
  0
LINE
  5
696
330
1F
100
AcDbEntity
  8
TitleBlock&Notes
  6
Continuous
 62
     3
100
AcDbLine
 10
18.49065939343289
 20
6.067980057567885
 30
0.0
 11
18.77059086837684
 21
6.072866279391878
 31
0.0
  0
LINE
  5
697
330
1F
100
AcDbEntity
  8
TitleBlock&Notes
  6
Continuous
 62
     3
100
AcDbLine
 10
18.49065939343289
 20
6.057840911583887
 30
0.0
 11
18.77059086837684
 21
6.062727133407882
 31
0.0
  0
LINE
  5
698
330
1F
100
AcDbEntity
  8
TitleBlock&Notes
  6
Continuous
 62
     3
100
AcDbLine
 10
18.49065939343289
 20
6.177898708959883
 30
0.0
 11
18.77059086837684
 21
6.177898708959883
 31
0.0
  0
LINE
  5
699
330
1F
100
AcDbEntity
  8
TitleBlock&Notes
  6
Continuous
 62
     3
100
AcDbLine
 10
18.49065939343289
 20
6.327568005087893
 30
0.0
 11
18.77059086837684
 21
6.327568005087893
 31
0.0
  0
LINE
  5
69A
330
1F
100
AcDbEntity
  8
TitleBlock&Notes
  6
Continuous
 62
     3
100
AcDbLine
 10
18.49065939343289
 20
6.365584005087892
 30
0.0
 11
18.77059086837684
 21
6.365584005087892
 31
0.0
  0
LINE
  5
69B
330
1F
100
AcDbEntity
  8
TitleBlock&Notes
  6
Continuous
 62
     3
100
AcDbLine
 10
18.49065939343289
 20
6.352912005087882
 30
0.0
 11
18.77059086837684
 21
6.352912005087882
 31
0.0
  0
LINE
  5
69C
330
1F
100
AcDbEntity
  8
TitleBlock&Notes
  6
Continuous
 62
     3
100
AcDbLine
 10
18.49065939343289
 20
6.340240005087891
 30
0.0
 11
18.77059086837684
 21
6.340240005087891
 31
0.0
  0
LINE
  5
69D
330
1F
100
AcDbEntity
  8
TitleBlock&Notes
  6
Continuous
 62
     3
100
AcDbLine
 10
18.49065939343289
 20
6.165226708959889
 30
0.0
 11
18.77059086837684
 21
6.165226708959889
 31
0.0
  0
LINE
  5
69E
330
1F
100
AcDbEntity
  8
TitleBlock&Notes
  6
Continuous
 62
     3
100
AcDbLine
 10
18.49065939343289
 20
6.128008943583879
 30
0.0
 11
18.77059086837684
 21
6.128008943583879
 31
0.0
  0
LINE
  5
69F
330
1F
100
AcDbEntity
  8
TitleBlock&Notes
  6
Continuous
 62
     3
100
AcDbLine
 10
18.49065939343289
 20
6.140680943583889
 30
0.0
 11
18.77059086837684
 21
6.140680943583889
 31
0.0
  0
LINE
  5
6A0
330
1F
100
AcDbEntity
  8
TitleBlock&Notes
  6
Continuous
 62
     3
100
AcDbLine
 10
18.49065939343289
 20
6.152554708959888
 30
0.0
 11
18.77059086837684
 21
6.152554708959888
 31
0.0
  0
LINE
  5
6A2
330
1F
100
AcDbEntity
  8
TitleBlock&Notes
  6
Continuous
 62
     3
100
AcDbLine
 10
20.84879886837687
 20
6.460374569439884
 30
0.0
 11
21.03887886837688
 21
6.460374569439884
 31
0.0
  0
LINE
  5
6A3
330
1F
100
AcDbEntity
  8
TitleBlock&Notes
  6
Continuous
 62
     3
100
AcDbLine
 10
20.82345486837685
 20
6.485718569439889
 30
0.0
 11
21.06422286837685
 21
6.485718569439889
 31
0.0
  0
LINE
  5
6A4
330
1F
100
AcDbEntity
  8
TitleBlock&Notes
  6
Continuous
 62
     3
100
AcDbLine
 10
20.83612686837685
 20
6.473046569439882
 30
0.0
 11
21.05155086837688
 21
6.473046569439882
 31
0.0
  0
ARC
  5
6A5
330
1F
100
AcDbEntity
  8
TitleBlock&Notes
  6
Continuous
 62
     3
100
AcDbCircle
 10
20.25321486837687
 20
5.662038569439887
 30
0.0
 40
0.12672
100
AcDbArc
 50
180.0000046800004
 51
269.9999931700005
  0
ARC
  5
6A6
330
1F
100
AcDbEntity
  8
TitleBlock&Notes
  6
Continuous
 62
     3
100
AcDbCircle
 10
20.25321486837687
 20
5.662038569439887
 30
0.0
 40
0.101376
100
AcDbArc
 50
180.0000052300004
 51
269.9999947700005
  0
ARC
  5
6A7
330
1F
100
AcDbEntity
  8
TitleBlock&Notes
  6
Continuous
 62
     3
100
AcDbCircle
 10
20.25321486837687
 20
5.662038569439887
 30
0.0
 40
0.114048
100
AcDbArc
 50
180.0000046800004
 51
269.9999931700005
  0
LINE
  5
6A8
330
1F
100
AcDbEntity
  8
TitleBlock&Notes
  6
Continuous
 62
     3
100
AcDbLine
 10
19.91107086837685
 20
6.485718569439889
 30
0.0
 11
20.15183886837685
 21
6.485718569439889
 31
0.0
  0
LINE
  5
6A9
330
1F
100
AcDbEntity
  8
TitleBlock&Notes
  6
Continuous
 62
     3
100
AcDbLine
 10
19.92374286837689
 20
6.473046569439882
 30
0.0
 11
20.13916686837686
 21
6.473046569439882
 31
0.0
  0
LINE
  5
6AA
330
1F
100
AcDbEntity
  8
TitleBlock&Notes
  6
Continuous
 62
     3
100
AcDbLine
 10
19.93641486837687
 20
6.460374569439884
 30
0.0
 11
19.93641486837687
 21
5.662038569439887
 31
0.0
  0
LINE
  5
6AB
330
1F
100
AcDbEntity
  8
TitleBlock&Notes
  6
Continuous
 62
     3
100
AcDbLine
 10
20.12649486837689
 20
6.460374569439884
 30
0.0
 11
20.12649486837689
 21
5.662038544095888
 31
0.0
  0
LINE
  5
6AC
330
1F
100
AcDbEntity
  8
TitleBlock&Notes
  6
Continuous
 62
     3
100
AcDbLine
 10
19.91107086837685
 20
6.485718569439889
 30
0.0
 11
19.91107086837685
 21
5.662038569439887
 31
0.0
  0
LINE
  5
6AD
330
1F
100
AcDbEntity
  8
TitleBlock&Notes
  6
Continuous
 62
     3
100
AcDbLine
 10
19.92374286837689
 20
5.662038569439887
 30
0.0
 11
19.92374286837689
 21
6.473046569439882
 31
0.0
  0
LINE
  5
6AE
330
1F
100
AcDbEntity
  8
TitleBlock&Notes
  6
Continuous
 62
     3
100
AcDbLine
 10
19.43764352911287
 20
5.473168998879883
 30
0.0
 11
19.53091086837689
 21
5.474796996063883
 31
0.0
  0
LINE
  5
6AF
330
1F
100
AcDbEntity
  8
TitleBlock&Notes
  6
Continuous
 62
     3
100
AcDbLine
 10
19.42696777461689
 20
5.442565206495884
 30
0.0
 11
19.53091086837689
 21
5.444379558111887
 31
0.0
  0
LINE
  5
6B0
330
1F
100
AcDbEntity
  8
TitleBlock&Notes
  6
Continuous
 62
     3
100
AcDbLine
 10
19.42340919823287
 20
5.432363967711887
 30
0.0
 11
19.53091086837689
 21
5.434240412127882
 31
0.0
  0
LINE
  5
6B1
330
1F
100
AcDbEntity
  8
TitleBlock&Notes
  6
Continuous
 62
     3
100
AcDbLine
 10
19.41985062184887
 20
5.422162703583882
 30
0.0
 11
19.53091086837689
 21
5.424101266143883
 31
0.0
  0
LINE
  5
6B2
330
1F
100
AcDbEntity
  8
TitleBlock&Notes
  6
Continuous
 62
     3
100
AcDbLine
 10
19.43408495272889
 20
5.462967734751885
 30
0.0
 11
19.53091086837689
 21
5.464657850079887
 31
0.0
  0
LINE
  5
6B3
330
1F
100
AcDbEntity
  8
TitleBlock&Notes
  6
Continuous
 62
     3
100
AcDbLine
 10
19.43052635100087
 20
5.452766470623884
 30
0.0
 11
19.53091086837689
 21
5.454518704095888
 31
0.0
  0
LINE
  5
6B4
330
1F
100
AcDbEntity
  8
TitleBlock&Notes
  6
Continuous
 62
     3
100
AcDbLine
 10
19.50169792936888
 20
5.656791677151892
 30
0.0
 11
19.53091086837689
 21
5.657301573087883
 31
0.0
  0
LINE
  5
6B5
330
1F
100
AcDbEntity
  8
TitleBlock&Notes
  6
Continuous
 62
     3
100
AcDbLine
 10
19.49813935298486
 20
5.646590413023884
 30
0.0
 11
19.53091086837689
 21
5.647162427103886
 31
0.0
  0
LINE
  5
6B6
330
1F
100
AcDbEntity
  8
TitleBlock&Notes
  6
Continuous
 62
     3
100
AcDbLine
 10
19.49458077660086
 20
5.636389148895883
 30
0.0
 11
19.53091086837689
 21
5.637023281119889
 31
0.0
  0
LINE
  5
6B7
330
1F
100
AcDbEntity
  8
TitleBlock&Notes
  6
Continuous
 62
     3
100
AcDbLine
 10
19.49102220021687
 20
5.626187884767883
 30
0.0
 11
19.53091086837689
 21
5.626884135135886
 31
0.0
  0
LINE
  5
6B8
330
1F
100
AcDbEntity
  8
TitleBlock&Notes
  6
Continuous
 62
     3
100
AcDbLine
 10
19.48746362383285
 20
5.615986620639891
 30
0.0
 11
19.53091086837689
 21
5.616745014495886
 31
0.0
  0
LINE
  5
6B9
330
1F
100
AcDbEntity
  8
TitleBlock&Notes
  6
Continuous
 62
     3
100
AcDbLine
 10
19.48390504744887
 20
5.605785381855894
 30
0.0
 11
19.53091086837689
 21
5.60660586851189
 31
0.0
  0
LINE
  5
6BA
330
1F
100
AcDbEntity
  8
TitleBlock&Notes
  6
Continuous
 62
     3
100
AcDbLine
 10
19.48034647106488
 20
5.595584117727886
 30
0.0
 11
19.53091086837689
 21
5.596466722527893
 31
0.0
  0
LINE
  5
6BB
330
1F
100
AcDbEntity
  8
TitleBlock&Notes
  6
Continuous
 62
     3
100
AcDbLine
 10
19.47678789468086
 20
5.585382853599877
 30
0.0
 11
19.53091086837689
 21
5.586327576543881
 31
0.0
  0
LINE
  5
6BC
330
1F
100
AcDbEntity
  8
TitleBlock&Notes
  6
Continuous
 62
     3
100
AcDbLine
 10
19.47322931829686
 20
5.575181589471886
 30
0.0
 11
19.53091086837689
 21
5.57618843055988
 31
0.0
  0
LINE
  5
6BD
330
1F
100
AcDbEntity
  8
TitleBlock&Notes
  6
Continuous
 62
     3
100
AcDbLine
 10
19.46967074191287
 20
5.564980325343886
 30
0.0
 11
19.53091086837689
 21
5.566049284575884
 31
0.0
  0
LINE
  5
6BE
330
1F
100
AcDbEntity
  8
TitleBlock&Notes
  6
Continuous
 62
     3
100
AcDbLine
 10
19.46611214018486
 20
5.554779061215887
 30
0.0
 11
19.53091086837689
 21
5.555910138591886
 31
0.0
  0
LINE
  5
6BF
330
1F
100
AcDbEntity
  8
TitleBlock&Notes
  6
Continuous
 62
     3
100
AcDbLine
 10
19.46255356380087
 20
5.54457782243189
 30
0.0
 11
19.53091086837689
 21
5.545770992607889
 31
0.0
  0
LINE
  5
6C0
330
1F
100
AcDbEntity
  8
TitleBlock&Notes
  6
Continuous
 62
     3
100
AcDbLine
 10
19.45899498741689
 20
5.53437655830388
 30
0.0
 11
19.53091086837689
 21
5.535631846623886
 31
0.0
  0
LINE
  5
6C1
330
1F
100
AcDbEntity
  8
TitleBlock&Notes
  6
Continuous
 62
     3
100
AcDbLine
 10
19.45543641103287
 20
5.524175294175881
 30
0.0
 11
19.53091086837689
 21
5.525492700639881
 31
0.0
  0
LINE
  5
6C2
330
1F
100
AcDbEntity
  8
TitleBlock&Notes
  6
Continuous
 62
     3
100
AcDbLine
 10
19.45187783464887
 20
5.51397403004788
 30
0.0
 11
19.53091086837689
 21
5.515353554655888
 31
0.0
  0
LINE
  5
6C3
330
1F
100
AcDbEntity
  8
TitleBlock&Notes
  6
Continuous
 62
     3
100
AcDbLine
 10
19.44831925826487
 20
5.503772765919888
 30
0.0
 11
19.53091086837689
 21
5.505214408671891
 31
0.0
  0
LINE
  5
6C4
330
1F
100
AcDbEntity
  8
TitleBlock&Notes
  6
Continuous
 62
     3
100
AcDbLine
 10
19.44476068188087
 20
5.493571527135893
 30
0.0
 11
19.53091086837689
 21
5.495075262687884
 31
0.0
  0
LINE
  5
6C5
330
1F
100
AcDbEntity
  8
TitleBlock&Notes
  6
Continuous
 62
     3
100
AcDbLine
 10
19.44120210549685
 20
5.483370263007883
 30
0.0
 11
19.53091086837689
 21
5.484936116703892
 31
0.0
  0
LINE
  5
6C6
330
1F
100
AcDbEntity
  8
TitleBlock&Notes
  6
Continuous
 62
     3
100
AcDbLine
 10
19.53016656578489
 20
5.738401739487886
 30
0.0
 11
19.53091086837689
 21
5.738414740959887
 31
0.0
  0
LINE
  5
6C7
330
1F
100
AcDbEntity
  8
TitleBlock&Notes
  6
Continuous
 62
     3
100
AcDbLine
 10
19.52660798940085
 20
5.728200475359892
 30
0.0
 11
19.53091086837689
 21
5.728275594975886
 31
0.0
  0
LINE
  5
6C8
330
1F
100
AcDbEntity
  8
TitleBlock&Notes
  6
Continuous
 62
     3
100
AcDbLine
 10
19.52304941301687
 20
5.717999211231886
 30
0.0
 11
19.53091086837689
 21
5.718136448991888
 31
0.0
  0
LINE
  5
6C9
330
1F
100
AcDbEntity
  8
TitleBlock&Notes
  6
Continuous
 62
     3
100
AcDbLine
 10
19.51949083663289
 20
5.707797972447888
 30
0.0
 11
19.53091086837689
 21
5.707997303007887
 31
0.0
  0
LINE
  5
6CA
330
1F
100
AcDbEntity
  8
TitleBlock&Notes
  6
Continuous
 62
     3
100
AcDbLine
 10
19.51593226024886
 20
5.697596708319879
 30
0.0
 11
19.53091086837689
 21
5.697858157023889
 31
0.0
  0
LINE
  5
6CB
330
1F
100
AcDbEntity
  8
TitleBlock&Notes
  6
Continuous
 62
     3
100
AcDbLine
 10
19.51237368386488
 20
5.687395444191888
 30
0.0
 11
19.53091086837689
 21
5.687719011039892
 31
0.0
  0
LINE
  5
6CC
330
1F
100
AcDbEntity
  8
TitleBlock&Notes
  6
Continuous
 62
     3
100
AcDbLine
 10
19.50881510748087
 20
5.67719418006388
 30
0.0
 11
19.53091086837689
 21
5.677579865055882
 31
0.0
  0
LINE
  5
6CD
330
1F
100
AcDbEntity
  8
TitleBlock&Notes
  6
Continuous
 62
     3
100
AcDbLine
 10
19.50525653109685
 20
5.666992915935889
 30
0.0
 11
19.53091086837689
 21
5.66744071907188
 31
0.0
  0
LINE
  5
6CE
330
1F
100
AcDbEntity
  8
TitleBlock&Notes
  6
Continuous
 62
     3
100
AcDbLine
 10
19.77167886837689
 20
5.468860468191888
 30
0.0
 11
19.96839337000887
 21
5.472294123999886
 31
0.0
  0
LINE
  5
6CF
330
1F
100
AcDbEntity
  8
TitleBlock&Notes
  6
Continuous
 62
     3
100
AcDbLine
 10
19.77167886837689
 20
5.458721322207882
 30
0.0
 11
19.97532789391287
 21
5.46227602095988
 31
0.0
  0
LINE
  5
6D0
330
1F
100
AcDbEntity
  8
TitleBlock&Notes
  6
Continuous
 62
     3
100
AcDbLine
 10
19.77167886837689
 20
5.448582176223884
 30
0.0
 11
19.98280353756089
 21
5.452267371231892
 31
0.0
  0
LINE
  5
6D1
330
1F
100
AcDbEntity
  8
TitleBlock&Notes
  6
Continuous
 62
     3
100
AcDbLine
 10
19.77167886837689
 20
5.438443030239891
 30
0.0
 11
19.99086480501685
 21
5.442268935135889
 31
0.0
  0
LINE
  5
6D2
330
1F
100
AcDbEntity
  8
TitleBlock&Notes
  6
Continuous
 62
     3
100
AcDbLine
 10
19.77167886837689
 20
5.428303884255886
 30
0.0
 11
19.99956550159287
 21
5.432281650399883
 31
0.0
  0
LINE
  5
6D3
330
1F
100
AcDbEntity
  8
TitleBlock&Notes
  6
Continuous
 62
     3
100
AcDbLine
 10
19.77167886837689
 20
5.418164738271884
 30
0.0
 11
20.00897139496886
 21
5.422306708191887
 31
0.0
  0
LINE
  5
6D4
330
1F
100
AcDbEntity
  8
TitleBlock&Notes
  6
Continuous
 62
     3
100
AcDbLine
 10
19.91107086837685
 20
5.654056197855888
 30
0.0
 11
19.77167886837689
 21
5.654056197855888
 31
0.0
  0
LINE
  5
6D5
330
1F
100
AcDbEntity
  8
TitleBlock&Notes
  6
Continuous
 62
     3
100
AcDbLine
 10
19.77167886837689
 20
5.651365045215888
 30
0.0
 11
19.91107697628089
 21
5.653798271967886
 31
0.0
  0
LINE
  5
6D6
330
1F
100
AcDbEntity
  8
TitleBlock&Notes
  6
Continuous
 62
     3
100
AcDbLine
 10
19.77167886837689
 20
5.641225924575889
 30
0.0
 11
19.91147125288885
 21
5.643665994207889
 31
0.0
  0
LINE
  5
6D7
330
1F
100
AcDbEntity
  8
TitleBlock&Notes
  6
Continuous
 62
     3
100
AcDbLine
 10
19.77167886837689
 20
5.631086778591891
 30
0.0
 11
19.91216646415288
 21
5.633538987999891
 31
0.0
  0
LINE
  5
6D8
330
1F
100
AcDbEntity
  8
TitleBlock&Notes
  6
Continuous
 62
     3
100
AcDbLine
 10
19.77167886837689
 20
5.620947632607884
 30
0.0
 11
19.91316392796088
 21
5.623417253343888
 31
0.0
  0
LINE
  5
6D9
330
1F
100
AcDbEntity
  8
TitleBlock&Notes
  6
Continuous
 62
     3
100
AcDbLine
 10
19.77167886837689
 20
5.610808486623891
 30
0.0
 11
19.91446587458487
 21
5.613300840927887
 31
0.0
  0
LINE
  5
6DA
330
1F
100
AcDbEntity
  8
TitleBlock&Notes
  6
Continuous
 62
     3
100
AcDbLine
 10
19.77167886837689
 20
5.600669340639882
 30
0.0
 11
19.91607534530485
 21
5.603189776095891
 31
0.0
  0
LINE
  5
6DB
330
1F
100
AcDbEntity
  8
TitleBlock&Notes
  6
Continuous
 62
     3
100
AcDbLine
 10
19.77167886837689
 20
5.590530194655884
 30
0.0
 11
19.91799624309687
 21
5.593084160223883
 31
0.0
  0
LINE
  5
6DC
330
1F
100
AcDbEntity
  8
TitleBlock&Notes
  6
Continuous
 62
     3
100
AcDbLine
 10
19.77167886837689
 20
5.580391048671886
 30
0.0
 11
19.92023343400887
 21
5.582984069343886
 31
0.0
  0
LINE
  5
6DD
330
1F
100
AcDbEntity
  8
TitleBlock&Notes
  6
Continuous
 62
     3
100
AcDbLine
 10
19.77167886837689
 20
5.570251902687886
 30
0.0
 11
19.92279284853685
 21
5.572889604831885
 31
0.0
  0
LINE
  5
6DE
330
1F
100
AcDbEntity
  8
TitleBlock&Notes
  6
Continuous
 62
     3
100
AcDbLine
 10
19.77167886837689
 20
5.560112756703888
 30
0.0
 11
19.92568148162488
 21
5.562800893407891
 31
0.0
  0
LINE
  5
6DF
330
1F
100
AcDbEntity
  8
TitleBlock&Notes
  6
Continuous
 62
     3
100
AcDbLine
 10
19.77167886837689
 20
5.549973610719882
 30
0.0
 11
19.92890749404086
 21
5.552718061791889
 31
0.0
  0
LINE
  5
6E0
330
1F
100
AcDbEntity
  8
TitleBlock&Notes
  6
Continuous
 62
     3
100
AcDbLine
 10
19.77167886837689
 20
5.539834464735887
 30
0.0
 11
19.93248051650486
 21
5.542641262047895
 31
0.0
  0
LINE
  5
6E1
330
1F
100
AcDbEntity
  8
TitleBlock&Notes
  6
Continuous
 62
     3
100
AcDbLine
 10
19.77167886837689
 20
5.529695318751891
 30
0.0
 11
19.93641157365685
 21
5.532570747615881
 31
0.0
  0
LINE
  5
6E2
330
1F
100
AcDbEntity
  8
TitleBlock&Notes
  6
Continuous
 62
     3
100
AcDbLine
 10
19.77167886837689
 20
5.519556172767886
 30
0.0
 11
19.94071351490485
 21
5.522506695903889
 31
0.0
  0
LINE
  5
6E3
330
1F
100
AcDbEntity
  8
TitleBlock&Notes
  6
Continuous
 62
     3
100
AcDbLine
 10
19.77167886837689
 20
5.509417026783876
 30
0.0
 11
19.94540109045685
 21
5.512449360351888
 31
0.0
  0
LINE
  5
6E4
330
1F
100
AcDbEntity
  8
TitleBlock&Notes
  6
Continuous
 62
     3
100
AcDbLine
 10
19.77167886837689
 20
5.499277880799882
 30
0.0
 11
19.95049143285688
 21
5.502399070431893
 31
0.0
  0
LINE
  5
6E5
330
1F
100
AcDbEntity
  8
TitleBlock&Notes
  6
Continuous
 62
     3
100
AcDbLine
 10
19.77167886837689
 20
5.489138760159891
 30
0.0
 11
19.95600428508085
 21
5.492356155615885
 31
0.0
  0
LINE
  5
6E6
330
1F
100
AcDbEntity
  8
TitleBlock&Notes
  6
Continuous
 62
     3
100
AcDbLine
 10
19.77167886837689
 20
5.47899961417588
 30
0.0
 11
19.96196265948087
 21
5.482321021407891
 31
0.0
  0
LINE
  5
6E7
330
1F
100
AcDbEntity
  8
TitleBlock&Notes
  6
Continuous
 62
     3
100
AcDbLine
 10
19.91107086837685
 20
5.903505024735882
 30
0.0
 11
19.77167886837689
 21
5.903505024735882
 31
0.0
  0
LINE
  5
6E8
330
1F
100
AcDbEntity
  8
TitleBlock&Notes
  6
Continuous
 62
     3
100
AcDbLine
 10
19.91107086837685
 20
5.953394790111882
 30
0.0
 11
19.77167886837689
 21
5.953394790111882
 31
0.0
  0
LINE
  5
6E9
330
1F
100
AcDbEntity
  8
TitleBlock&Notes
  6
Continuous
 62
     3
100
AcDbLine
 10
19.77167886837689
 20
5.89544786300788
 30
0.0
 11
19.91107086837685
 21
5.897880963039889
 31
0.0
  0
LINE
  5
6EA
330
1F
100
AcDbEntity
  8
TitleBlock&Notes
  6
Continuous
 62
     3
100
AcDbLine
 10
19.77167886837689
 20
5.885308717023884
 30
0.0
 11
19.91107086837685
 21
5.887741817055887
 31
0.0
  0
LINE
  5
6EB
330
1F
100
AcDbEntity
  8
TitleBlock&Notes
  6
Continuous
 62
     3
100
AcDbLine
 10
19.77167886837689
 20
5.875169571039895
 30
0.0
 11
19.91107086837685
 21
5.877602671071889
 31
0.0
  0
LINE
  5
6EC
330
1F
100
AcDbEntity
  8
TitleBlock&Notes
  6
Continuous
 62
     3
100
AcDbLine
 10
19.77167886837689
 20
5.865030425055883
 30
0.0
 11
19.91107086837685
 21
5.867463525087879
 31
0.0
  0
LINE
  5
6ED
330
1F
100
AcDbEntity
  8
TitleBlock&Notes
  6
Continuous
 62
     3
100
AcDbLine
 10
19.77167886837689
 20
5.854891279071883
 30
0.0
 11
19.91107086837685
 21
5.857324379103882
 31
0.0
  0
LINE
  5
6EE
330
1F
100
AcDbEntity
  8
TitleBlock&Notes
  6
Continuous
 62
     3
100
AcDbLine
 10
19.77167886837689
 20
5.844752133087884
 30
0.0
 11
19.91107086837685
 21
5.847185233119884
 31
0.0
  0
LINE
  5
6EF
330
1F
100
AcDbEntity
  8
TitleBlock&Notes
  6
Continuous
 62
     3
100
AcDbLine
 10
19.77167886837689
 20
5.834612987103887
 30
0.0
 11
19.91107086837685
 21
5.837046087135883
 31
0.0
  0
LINE
  5
6F0
330
1F
100
AcDbEntity
  8
TitleBlock&Notes
  6
Continuous
 62
     3
100
AcDbLine
 10
19.77167886837689
 20
5.824473841119886
 30
0.0
 11
19.91107086837685
 21
5.826906941151887
 31
0.0
  0
LINE
  5
6F1
330
1F
100
AcDbEntity
  8
TitleBlock&Notes
  6
Continuous
 62
     3
100
AcDbLine
 10
19.77167886837689
 20
5.814334720479878
 30
0.0
 11
19.91107086837685
 21
5.816767795167884
 31
0.0
  0
LINE
  5
6F2
330
1F
100
AcDbEntity
  8
TitleBlock&Notes
  6
Continuous
 62
     3
100
AcDbLine
 10
19.77167886837689
 20
5.804195574495889
 30
0.0
 11
19.91107086837685
 21
5.806628649183886
 31
0.0
  0
LINE
  5
6F3
330
1F
100
AcDbEntity
  8
TitleBlock&Notes
  6
Continuous
 62
     3
100
AcDbLine
 10
19.77167886837689
 20
5.794056428511892
 30
0.0
 11
19.91107086837685
 21
5.796489528543883
 31
0.0
  0
LINE
  5
6F4
330
1F
100
AcDbEntity
  8
TitleBlock&Notes
  6
Continuous
 62
     3
100
AcDbLine
 10
19.77167886837689
 20
5.783917282527895
 30
0.0
 11
19.91107086837685
 21
5.786350382559889
 31
0.0
  0
LINE
  5
6F5
330
1F
100
AcDbEntity
  8
TitleBlock&Notes
  6
Continuous
 62
     3
100
AcDbLine
 10
19.77167886837689
 20
5.773778136543884
 30
0.0
 11
19.91107086837685
 21
5.776211236575879
 31
0.0
  0
LINE
  5
6F6
330
1F
100
AcDbEntity
  8
TitleBlock&Notes
  6
Continuous
 62
     3
100
AcDbLine
 10
19.77167886837689
 20
5.763638990559883
 30
0.0
 11
19.91107086837685
 21
5.766072090591882
 31
0.0
  0
LINE
  5
6F7
330
1F
100
AcDbEntity
  8
TitleBlock&Notes
  6
Continuous
 62
     3
100
AcDbLine
 10
19.77167886837689
 20
5.753499844575887
 30
0.0
 11
19.91107086837685
 21
5.755932944607892
 31
0.0
  0
LINE
  5
6F8
330
1F
100
AcDbEntity
  8
TitleBlock&Notes
  6
Continuous
 62
     3
100
AcDbLine
 10
19.77167886837689
 20
5.743360698591888
 30
0.0
 11
19.91107086837685
 21
5.745793798623883
 31
0.0
  0
LINE
  5
6F9
330
1F
100
AcDbEntity
  8
TitleBlock&Notes
  6
Continuous
 62
     3
100
AcDbLine
 10
19.77167886837689
 20
5.733221552607886
 30
0.0
 11
19.91107086837685
 21
5.735654652639887
 31
0.0
  0
LINE
  5
6FA
330
1F
100
AcDbEntity
  8
TitleBlock&Notes
  6
Continuous
 62
     3
100
AcDbLine
 10
19.77167886837689
 20
5.723082406623889
 30
0.0
 11
19.91107086837685
 21
5.725515506655881
 31
0.0
  0
LINE
  5
6FB
330
1F
100
AcDbEntity
  8
TitleBlock&Notes
  6
Continuous
 62
     3
100
AcDbLine
 10
19.77167886837689
 20
6.049783749855881
 30
0.0
 11
19.91107086837685
 21
6.052216849887888
 31
0.0
  0
LINE
  5
6FC
330
1F
100
AcDbEntity
  8
TitleBlock&Notes
  6
Continuous
 62
     3
100
AcDbLine
 10
19.77167886837689
 20
6.039644603871883
 30
0.0
 11
19.91107086837685
 21
6.042077703903892
 31
0.0
  0
LINE
  5
6FD
330
1F
100
AcDbEntity
  8
TitleBlock&Notes
  6
Continuous
 62
     3
100
AcDbLine
 10
19.77167886837689
 20
6.029505457887887
 30
0.0
 11
19.91107086837685
 21
6.031938557919882
 31
0.0
  0
LINE
  5
6FE
330
1F
100
AcDbEntity
  8
TitleBlock&Notes
  6
Continuous
 62
     3
100
AcDbLine
 10
19.77167886837689
 20
6.019366311903882
 30
0.0
 11
19.91107086837685
 21
6.021799411935892
 31
0.0
  0
LINE
  5
6FF
330
1F
100
AcDbEntity
  8
TitleBlock&Notes
  6
Continuous
 62
     3
100
AcDbLine
 10
19.77167886837689
 20
6.009227165919886
 30
0.0
 11
19.91107086837685
 21
6.011660265951882
 31
0.0
  0
LINE
  5
700
330
1F
100
AcDbEntity
  8
TitleBlock&Notes
  6
Continuous
 62
     3
100
AcDbLine
 10
19.77167886837689
 20
5.999088019935884
 30
0.0
 11
19.91107086837685
 21
6.001521119967884
 31
0.0
  0
LINE
  5
701
330
1F
100
AcDbEntity
  8
TitleBlock&Notes
  6
Continuous
 62
     3
100
AcDbLine
 10
19.77167886837689
 20
5.988948873951888
 30
0.0
 11
19.91107086837685
 21
5.991381973983887
 31
0.0
  0
LINE
  5
702
330
1F
100
AcDbEntity
  8
TitleBlock&Notes
  6
Continuous
 62
     3
100
AcDbLine
 10
19.77167886837689
 20
5.978809727967889
 30
0.0
 11
19.91107086837685
 21
5.981242827999887
 31
0.0
  0
LINE
  5
703
330
1F
100
AcDbEntity
  8
TitleBlock&Notes
  6
Continuous
 62
     3
100
AcDbLine
 10
19.77167886837689
 20
5.968670581983888
 30
0.0
 11
19.91107086837685
 21
5.971103682015888
 31
0.0
  0
LINE
  5
704
330
1F
100
AcDbEntity
  8
TitleBlock&Notes
  6
Continuous
 62
     3
100
AcDbLine
 10
19.77167886837689
 20
5.958531461343881
 30
0.0
 11
19.91107086837685
 21
5.960964536031882
 31
0.0
  0
LINE
  5
705
330
1F
100
AcDbEntity
  8
TitleBlock&Notes
  6
Continuous
 62
     3
100
AcDbLine
 10
19.91107086837685
 20
5.703945963231884
 30
0.0
 11
19.77167886837689
 21
5.703945963231884
 31
0.0
  0
LINE
  5
706
330
1F
100
AcDbEntity
  8
TitleBlock&Notes
  6
Continuous
 62
     3
100
AcDbLine
 10
19.77167886837689
 20
5.712943260639883
 30
0.0
 11
19.91107086837685
 21
5.715376360671887
 31
0.0
  0
LINE
  5
707
330
1F
100
AcDbEntity
  8
TitleBlock&Notes
  6
Continuous
 62
     3
100
AcDbLine
 10
19.83709484968885
 20
5.703945963231884
 30
0.0
 11
19.91107086837685
 21
5.70523721468789
 31
0.0
  0
LINE
  5
708
330
1F
100
AcDbEntity
  8
TitleBlock&Notes
  6
Continuous
 62
     3
100
AcDbLine
 10
19.74633486837687
 20
6.460374569439884
 30
0.0
 11
19.45487886837689
 21
6.460374569439884
 31
0.0
  0
LINE
  5
709
330
1F
100
AcDbEntity
  8
TitleBlock&Notes
  6
Continuous
 62
     3
100
AcDbLine
 10
19.77167886837689
 20
6.485718569439889
 30
0.0
 11
19.43463742658487
 21
6.485718569439889
 31
0.0
  0
LINE
  5
70A
330
1F
100
AcDbEntity
  8
TitleBlock&Notes
  6
Continuous
 62
     3
100
AcDbLine
 10
19.44475814748086
 20
6.473046569439882
 30
0.0
 11
19.75900686837688
 21
6.473046569439882
 31
0.0
  0
LINE
  5
70B
330
1F
100
AcDbEntity
  8
TitleBlock&Notes
  6
Continuous
 62
     3
100
AcDbLine
 10
19.91107086837685
 20
6.078119178207884
 30
0.0
 11
19.77167886837689
 21
6.078119178207884
 31
0.0
  0
LINE
  5
70C
330
1F
100
AcDbEntity
  8
TitleBlock&Notes
  6
Continuous
 62
     3
100
AcDbLine
 10
19.77167886837689
 20
6.070062041823892
 30
0.0
 11
19.91107086837685
 21
6.072495141855887
 31
0.0
  0
LINE
  5
70D
330
1F
100
AcDbEntity
  8
TitleBlock&Notes
  6
Continuous
 62
     3
100
AcDbLine
 10
19.77167886837689
 20
6.059922895839891
 30
0.0
 11
19.91107086837685
 21
6.062355995871882
 31
0.0
  0
LINE
  5
70E
330
1F
100
AcDbEntity
  8
TitleBlock&Notes
  6
Continuous
 62
     3
100
AcDbLine
 10
19.91107086837685
 20
6.128008943583879
 30
0.0
 11
19.77167886837689
 21
6.128008943583879
 31
0.0
  0
LINE
  5
70F
330
1F
100
AcDbEntity
  8
TitleBlock&Notes
  6
Continuous
 62
     3
100
AcDbLine
 10
19.91107086837685
 20
6.140680943583889
 30
0.0
 11
19.77167886837689
 21
6.140680943583889
 31
0.0
  0
LINE
  5
710
330
1F
100
AcDbEntity
  8
TitleBlock&Notes
  6
Continuous
 62
     3
100
AcDbLine
 10
19.91107086837685
 20
6.177898708959883
 30
0.0
 11
19.77167886837689
 21
6.177898708959883
 31
0.0
  0
LINE
  5
711
330
1F
100
AcDbEntity
  8
TitleBlock&Notes
  6
Continuous
 62
     3
100
AcDbLine
 10
19.91107086837685
 20
6.327568005087888
 30
0.0
 11
19.77167886837689
 21
6.327568005087888
 31
0.0
  0
LINE
  5
712
330
1F
100
AcDbEntity
  8
TitleBlock&Notes
  6
Continuous
 62
     3
100
AcDbLine
 10
19.91107086837685
 20
6.365584005087892
 30
0.0
 11
19.77167886837689
 21
6.365584005087892
 31
0.0
  0
LINE
  5
713
330
1F
100
AcDbEntity
  8
TitleBlock&Notes
  6
Continuous
 62
     3
100
AcDbLine
 10
19.91107086837685
 20
6.340240005087884
 30
0.0
 11
19.77167886837689
 21
6.340240005087884
 31
0.0
  0
LINE
  5
714
330
1F
100
AcDbEntity
  8
TitleBlock&Notes
  6
Continuous
 62
     3
100
AcDbLine
 10
19.91107086837685
 20
6.352912005087882
 30
0.0
 11
19.77167886837689
 21
6.352912005087882
 31
0.0
  0
LINE
  5
715
330
1F
100
AcDbEntity
  8
TitleBlock&Notes
  6
Continuous
 62
     3
100
AcDbLine
 10
19.91107086837685
 20
6.165226708959889
 30
0.0
 11
19.77167886837689
 21
6.165226708959889
 31
0.0
  0
LINE
  5
716
330
1F
100
AcDbEntity
  8
TitleBlock&Notes
  6
Continuous
 62
     3
100
AcDbLine
 10
19.91107086837685
 20
6.153352943583887
 30
0.0
 11
19.77167886837689
 21
6.153352943583887
 31
0.0
  0
LINE
  5
717
330
1F
100
AcDbEntity
  8
TitleBlock&Notes
  6
Continuous
 62
     3
100
AcDbLine
 10
19.93641486837687
 20
6.460374569439884
 30
0.0
 11
20.12649486837689
 21
6.460374569439884
 31
0.0
  0
LINE
  5
718
330
1F
100
AcDbEntity
  8
TitleBlock&Notes
  6
Continuous
 62
     3
100
AcDbLine
 10
20.50665486837686
 20
6.460374569439884
 30
0.0
 11
20.50665486837686
 21
5.662038544095888
 31
0.0
  0
LINE
  5
719
330
1F
100
AcDbEntity
  8
TitleBlock&Notes
  6
Continuous
 62
     3
100
AcDbLine
 10
20.48131086837688
 20
6.485718569439889
 30
0.0
 11
20.48131086837688
 21
5.662038569439887
 31
0.0
  0
LINE
  5
71A
330
1F
100
AcDbEntity
  8
TitleBlock&Notes
  6
Continuous
 62
     3
100
AcDbLine
 10
20.49398286837687
 20
5.662038544095888
 30
0.0
 11
20.49398286837687
 21
6.473046569439882
 31
0.0
  0
LINE
  5
71B
330
1F
100
AcDbEntity
  8
TitleBlock&Notes
  6
Continuous
 62
     3
100
AcDbLine
 10
20.69673486837687
 20
6.460374569439884
 30
0.0
 11
20.69673486837687
 21
5.662038569439887
 31
0.0
  0
LINE
  5
71C
330
1F
100
AcDbEntity
  8
TitleBlock&Notes
  6
Continuous
 62
     3
100
AcDbLine
 10
20.72207886837687
 20
5.662038569439887
 30
0.0
 11
20.72207886837687
 21
6.485718569439889
 31
0.0
  0
LINE
  5
71D
330
1F
100
AcDbEntity
  8
TitleBlock&Notes
  6
Continuous
 62
     3
100
AcDbLine
 10
20.7094068683769
 20
5.662038569439887
 30
0.0
 11
20.7094068683769
 21
6.473046569439882
 31
0.0
  0
LINE
  5
71E
330
1F
100
AcDbEntity
  8
TitleBlock&Notes
  6
Continuous
 62
     3
100
AcDbLine
 10
20.15183886837685
 20
5.662038544095888
 30
0.0
 11
20.15183886837685
 21
6.485718569439889
 31
0.0
  0
LINE
  5
71F
330
1F
100
AcDbEntity
  8
TitleBlock&Notes
  6
Continuous
 62
     3
100
AcDbLine
 10
20.13916686837686
 20
5.662038544095888
 30
0.0
 11
20.13916686837686
 21
6.473046569439882
 31
0.0
  0
LINE
  5
720
330
1F
100
AcDbEntity
  8
TitleBlock&Notes
  6
Continuous
 62
     3
100
AcDbLine
 10
20.25321481768887
 20
5.535318569439886
 30
0.0
 11
20.37993486837688
 21
5.535318569439886
 31
0.0
  0
LINE
  5
721
330
1F
100
AcDbEntity
  8
TitleBlock&Notes
  6
Continuous
 62
     3
100
AcDbLine
 10
20.37993486837688
 20
5.560662569439881
 30
0.0
 11
20.25321484303284
 21
5.560662569439881
 31
0.0
  0
LINE
  5
722
330
1F
100
AcDbEntity
  8
TitleBlock&Notes
  6
Continuous
 62
     3
100
AcDbLine
 10
20.25321481768887
 20
5.547990569439884
 30
0.0
 11
20.37993486837688
 21
5.547990569439884
 31
0.0
  0
LINE
  5
723
330
1F
100
AcDbEntity
  8
TitleBlock&Notes
  6
Continuous
 62
     3
100
AcDbLine
 10
20.22700108764087
 20
5.564110367199892
 30
0.0
 11
20.41631402613687
 21
5.567414844639889
 31
0.0
  0
LINE
  5
724
330
1F
100
AcDbEntity
  8
TitleBlock&Notes
  6
Continuous
 62
     3
100
AcDbLine
 10
20.15183886837685
 20
5.902083581151878
 30
0.0
 11
20.23327294197688
 21
5.903505024735882
 31
0.0
  0
LINE
  5
725
330
1F
100
AcDbEntity
  8
TitleBlock&Notes
  6
Continuous
 62
     3
100
AcDbLine
 10
20.48099609589687
 20
5.654056197855888
 30
0.0
 11
20.15215361551287
 21
5.654056197855888
 31
0.0
  0
LINE
  5
726
330
1F
100
AcDbEntity
  8
TitleBlock&Notes
  6
Continuous
 62
     3
100
AcDbLine
 10
20.48131086837688
 20
5.703945963231884
 30
0.0
 11
20.15183886837685
 21
5.703945963231884
 31
0.0
  0
LINE
  5
727
330
1F
100
AcDbEntity
  8
TitleBlock&Notes
  6
Continuous
 62
     3
100
AcDbLine
 10
20.48131086837688
 20
5.903505024735882
 30
0.0
 11
20.15183886837685
 21
5.903505024735882
 31
0.0
  0
LINE
  5
728
330
1F
100
AcDbEntity
  8
TitleBlock&Notes
  6
Continuous
 62
     3
100
AcDbLine
 10
20.48131086837688
 20
5.953394790111882
 30
0.0
 11
20.15183886837685
 21
5.953394790111882
 31
0.0
  0
LINE
  5
729
330
1F
100
AcDbEntity
  8
TitleBlock&Notes
  6
Continuous
 62
     3
100
AcDbLine
 10
20.15183886837685
 20
5.891944435167887
 30
0.0
 11
20.48131086837688
 21
5.897695394271882
 31
0.0
  0
LINE
  5
72A
330
1F
100
AcDbEntity
  8
TitleBlock&Notes
  6
Continuous
 62
     3
100
AcDbLine
 10
20.15183886837685
 20
5.881805289183891
 30
0.0
 11
20.48131086837688
 21
5.88755624828788
 31
0.0
  0
LINE
  5
72B
330
1F
100
AcDbEntity
  8
TitleBlock&Notes
  6
Continuous
 62
     3
100
AcDbLine
 10
20.15183886837685
 20
5.871666143199893
 30
0.0
 11
20.48131086837688
 21
5.877417102303883
 31
0.0
  0
LINE
  5
72C
330
1F
100
AcDbEntity
  8
TitleBlock&Notes
  6
Continuous
 62
     3
100
AcDbLine
 10
20.15183886837685
 20
5.861526997215884
 30
0.0
 11
20.48131086837688
 21
5.867277956319886
 31
0.0
  0
LINE
  5
72D
330
1F
100
AcDbEntity
  8
TitleBlock&Notes
  6
Continuous
 62
     3
100
AcDbLine
 10
20.15183886837685
 20
5.851387851231878
 30
0.0
 11
20.48131086837688
 21
5.857138810335885
 31
0.0
  0
LINE
  5
72E
330
1F
100
AcDbEntity
  8
TitleBlock&Notes
  6
Continuous
 62
     3
100
AcDbLine
 10
20.15183886837685
 20
5.841248705247886
 30
0.0
 11
20.48131086837688
 21
5.846999664351887
 31
0.0
  0
LINE
  5
72F
330
1F
100
AcDbEntity
  8
TitleBlock&Notes
  6
Continuous
 62
     3
100
AcDbLine
 10
20.15183886837685
 20
5.831109559263888
 30
0.0
 11
20.48131086837688
 21
5.836860518367882
 31
0.0
  0
LINE
  5
730
330
1F
100
AcDbEntity
  8
TitleBlock&Notes
  6
Continuous
 62
     3
100
AcDbLine
 10
20.15183886837685
 20
5.820970413279882
 30
0.0
 11
20.48131086837688
 21
5.826721372383889
 31
0.0
  0
LINE
  5
731
330
1F
100
AcDbEntity
  8
TitleBlock&Notes
  6
Continuous
 62
     3
100
AcDbLine
 10
20.15183886837685
 20
5.810831292639892
 30
0.0
 11
20.48131086837688
 21
5.816582226399892
 31
0.0
  0
LINE
  5
732
330
1F
100
AcDbEntity
  8
TitleBlock&Notes
  6
Continuous
 62
     3
100
AcDbLine
 10
20.15183886837685
 20
5.800692146655886
 30
0.0
 11
20.48131086837688
 21
5.806443080415887
 31
0.0
  0
LINE
  5
733
330
1F
100
AcDbEntity
  8
TitleBlock&Notes
  6
Continuous
 62
     3
100
AcDbLine
 10
20.15183886837685
 20
5.790553000671888
 30
0.0
 11
20.48131086837688
 21
5.796303959775878
 31
0.0
  0
LINE
  5
734
330
1F
100
AcDbEntity
  8
TitleBlock&Notes
  6
Continuous
 62
     3
100
AcDbLine
 10
20.15183886837685
 20
5.780413854687894
 30
0.0
 11
20.48131086837688
 21
5.786164813791883
 31
0.0
  0
LINE
  5
735
330
1F
100
AcDbEntity
  8
TitleBlock&Notes
  6
Continuous
 62
     3
100
AcDbLine
 10
20.15183886837685
 20
5.770274708703885
 30
0.0
 11
20.48131086837688
 21
5.776025667807887
 31
0.0
  0
LINE
  5
736
330
1F
100
AcDbEntity
  8
TitleBlock&Notes
  6
Continuous
 62
     3
100
AcDbLine
 10
20.15183886837685
 20
5.760135562719879
 30
0.0
 11
20.48131086837688
 21
5.765886521823881
 31
0.0
  0
LINE
  5
737
330
1F
100
AcDbEntity
  8
TitleBlock&Notes
  6
Continuous
 62
     3
100
AcDbLine
 10
20.15183886837685
 20
5.749996416735882
 30
0.0
 11
20.48131086837688
 21
5.755747375839887
 31
0.0
  0
LINE
  5
738
330
1F
100
AcDbEntity
  8
TitleBlock&Notes
  6
Continuous
 62
     3
100
AcDbLine
 10
20.15183886837685
 20
5.739857270751889
 30
0.0
 11
20.48131086837688
 21
5.745608229855883
 31
0.0
  0
LINE
  5
739
330
1F
100
AcDbEntity
  8
TitleBlock&Notes
  6
Continuous
 62
     3
100
AcDbLine
 10
20.15183886837685
 20
5.729718124767883
 30
0.0
 11
20.48131086837688
 21
5.735469083871884
 31
0.0
  0
LINE
  5
73A
330
1F
100
AcDbEntity
  8
TitleBlock&Notes
  6
Continuous
 62
     3
100
AcDbLine
 10
20.15183886837685
 20
5.719578978783886
 30
0.0
 11
20.48131086837688
 21
5.725329937887893
 31
0.0
  0
LINE
  5
73B
330
1F
100
AcDbEntity
  8
TitleBlock&Notes
  6
Continuous
 62
     3
100
AcDbLine
 10
20.15183886837685
 20
5.709439832799883
 30
0.0
 11
20.48131086837688
 21
5.715190791903887
 31
0.0
  0
LINE
  5
73C
330
1F
100
AcDbEntity
  8
TitleBlock&Notes
  6
Continuous
 62
     3
100
AcDbLine
 10
20.15183886837685
 20
6.046280322015878
 30
0.0
 11
20.48131086837688
 21
6.052031281119883
 31
0.0
  0
LINE
  5
73D
330
1F
100
AcDbEntity
  8
TitleBlock&Notes
  6
Continuous
 62
     3
100
AcDbLine
 10
20.15183886837685
 20
6.036141176031883
 30
0.0
 11
20.48131086837688
 21
6.041892135135886
 31
0.0
  0
LINE
  5
73E
330
1F
100
AcDbEntity
  8
TitleBlock&Notes
  6
Continuous
 62
     3
100
AcDbLine
 10
20.15183886837685
 20
6.026002030047886
 30
0.0
 11
20.48131086837688
 21
6.031752989151879
 31
0.0
  0
LINE
  5
73F
330
1F
100
AcDbEntity
  8
TitleBlock&Notes
  6
Continuous
 62
     3
100
AcDbLine
 10
20.15183886837685
 20
6.01586288406388
 30
0.0
 11
20.48131086837688
 21
6.021613843167886
 31
0.0
  0
LINE
  5
740
330
1F
100
AcDbEntity
  8
TitleBlock&Notes
  6
Continuous
 62
     3
100
AcDbLine
 10
20.15183886837685
 20
6.005723738079887
 30
0.0
 11
20.48131086837688
 21
6.011474697183889
 31
0.0
  0
LINE
  5
741
330
1F
100
AcDbEntity
  8
TitleBlock&Notes
  6
Continuous
 62
     3
100
AcDbLine
 10
20.15183886837685
 20
5.995584592095882
 30
0.0
 11
20.48131086837688
 21
6.001335551199883
 31
0.0
  0
LINE
  5
742
330
1F
100
AcDbEntity
  8
TitleBlock&Notes
  6
Continuous
 62
     3
100
AcDbLine
 10
20.15183886837685
 20
5.985445446111883
 30
0.0
 11
20.48131086837688
 21
5.991196405215888
 31
0.0
  0
LINE
  5
743
330
1F
100
AcDbEntity
  8
TitleBlock&Notes
  6
Continuous
 62
     3
100
AcDbLine
 10
20.15183886837685
 20
5.975306300127892
 30
0.0
 11
20.48131086837688
 21
5.981057259231882
 31
0.0
  0
LINE
  5
744
330
1F
100
AcDbEntity
  8
TitleBlock&Notes
  6
Continuous
 62
     3
100
AcDbLine
 10
20.15183886837685
 20
5.965167154143886
 30
0.0
 11
20.48131086837688
 21
5.970918113247887
 31
0.0
  0
LINE
  5
745
330
1F
100
AcDbEntity
  8
TitleBlock&Notes
  6
Continuous
 62
     3
100
AcDbLine
 10
20.15183886837685
 20
5.955028033503878
 30
0.0
 11
20.48131086837688
 21
5.960778967263894
 31
0.0
  0
LINE
  5
746
330
1F
100
AcDbEntity
  8
TitleBlock&Notes
  6
Continuous
 62
     3
100
AcDbLine
 10
20.15346749916087
 20
5.643939988191887
 30
0.0
 11
20.4805509538809
 21
5.649649256415893
 31
0.0
  0
LINE
  5
747
330
1F
100
AcDbEntity
  8
TitleBlock&Notes
  6
Continuous
 62
     3
100
AcDbLine
 10
20.15583898792886
 20
5.633842228959882
 30
0.0
 11
20.47876886517689
 21
5.639478987999887
 31
0.0
  0
LINE
  5
748
330
1F
100
AcDbEntity
  8
TitleBlock&Notes
  6
Continuous
 62
     3
100
AcDbLine
 10
20.15934170613687
 20
5.623764238047881
 30
0.0
 11
20.47587536604086
 21
5.629289356767887
 31
0.0
  0
LINE
  5
749
330
1F
100
AcDbEntity
  8
TitleBlock&Notes
  6
Continuous
 62
     3
100
AcDbLine
 10
20.16410108124089
 20
5.61370816969589
 30
0.0
 11
20.47175813186487
 21
5.61907833519989
 31
0.0
  0
LINE
  5
74A
330
1F
100
AcDbEntity
  8
TitleBlock&Notes
  6
Continuous
 62
     3
100
AcDbLine
 10
20.17032280514488
 20
5.603677622751883
 30
0.0
 11
20.46623258229689
 21
5.608842755295881
 31
0.0
  0
LINE
  5
74B
330
1F
100
AcDbEntity
  8
TitleBlock&Notes
  6
Continuous
 62
     3
100
AcDbLine
 10
20.17835485096887
 20
5.593678679775888
 30
0.0
 11
20.45899020482488
 21
5.598577193439891
 31
0.0
  0
LINE
  5
74C
330
1F
100
AcDbEntity
  8
TitleBlock&Notes
  6
Continuous
 62
     3
100
AcDbLine
 10
20.18884323727286
 20
5.583722618847888
 30
0.0
 11
20.44947317800886
 21
5.588271917535887
 31
0.0
  0
LINE
  5
74D
330
1F
100
AcDbEntity
  8
TitleBlock&Notes
  6
Continuous
 62
     3
100
AcDbLine
 10
20.20324293775284
 20
5.573834809311887
 30
0.0
 11
20.43649314703285
 21
5.577906221535882
 31
0.0
  0
ARC
  5
74E
330
1F
100
AcDbEntity
  8
TitleBlock&Notes
  6
Continuous
 62
     3
100
AcDbCircle
 10
20.37993486837688
 20
5.662038569439887
 30
0.0
 40
0.12672
100
AcDbArc
 50
270.0000000000008
 51
359.9999953200008
  0
ARC
  5
74F
330
1F
100
AcDbEntity
  8
TitleBlock&Notes
  6
Continuous
 62
     3
100
AcDbCircle
 10
20.37993486837688
 20
5.662038569439887
 30
0.0
 40
0.101376
100
AcDbArc
 50
270.0000000000008
 51
0.0000000000008142
  0
LINE
  5
750
330
1F
100
AcDbEntity
  8
TitleBlock&Notes
  6
Continuous
 62
     3
100
AcDbLine
 10
20.41796602408886
 20
5.703945963231884
 30
0.0
 11
20.48131086837688
 21
5.705051645919889
 31
0.0
  0
ARC
  5
751
330
1F
100
AcDbEntity
  8
TitleBlock&Notes
  6
Continuous
 62
     3
100
AcDbCircle
 10
20.37993486837688
 20
5.662038569439887
 30
0.0
 40
0.114048
100
AcDbArc
 50
270.0000000000008
 51
359.9999953200008
  0
LINE
  5
752
330
1F
100
AcDbEntity
  8
TitleBlock&Notes
  6
Continuous
 62
     3
100
AcDbLine
 10
20.66599188674487
 20
5.474331604191886
 30
0.0
 11
20.82345486837685
 21
5.477080135647891
 31
0.0
  0
LINE
  5
753
330
1F
100
AcDbEntity
  8
TitleBlock&Notes
  6
Continuous
 62
     3
100
AcDbLine
 10
20.65898870594487
 20
5.464070224095888
 30
0.0
 11
20.82345486837685
 21
5.466940989663893
 31
0.0
  0
LINE
  5
754
330
1F
100
AcDbEntity
  8
TitleBlock&Notes
  6
Continuous
 62
     3
100
AcDbLine
 10
20.65140993756088
 20
5.453798782431883
 30
0.0
 11
20.82345486837685
 21
5.456801843679881
 31
0.0
  0
LINE
  5
755
330
1F
100
AcDbEntity
  8
TitleBlock&Notes
  6
Continuous
 62
     3
100
AcDbLine
 10
20.64320390517685
 20
5.443516417503881
 30
0.0
 11
20.82345486837685
 21
5.446662697695882
 31
0.0
  0
LINE
  5
756
330
1F
100
AcDbEntity
  8
TitleBlock&Notes
  6
Continuous
 62
     3
100
AcDbLine
 10
20.63430760360887
 20
5.433221988831887
 30
0.0
 11
20.82345486837685
 21
5.436523551711883
 31
0.0
  0
LINE
  5
757
330
1F
100
AcDbEntity
  8
TitleBlock&Notes
  6
Continuous
 62
     3
100
AcDbLine
 10
20.62464289730484
 20
5.422914127839884
 30
0.0
 11
20.82345486837685
 21
5.426384405727887
 31
0.0
  0
LINE
  5
758
330
1F
100
AcDbEntity
  8
TitleBlock&Notes
  6
Continuous
 62
     3
100
AcDbLine
 10
20.67246226063287
 20
5.484583683039891
 30
0.0
 11
20.82345486837685
 21
5.487219281631888
 31
0.0
  0
LINE
  5
759
330
1F
100
AcDbEntity
  8
TitleBlock&Notes
  6
Continuous
 62
     3
100
AcDbLine
 10
20.82345486837685
 20
5.654056197855888
 30
0.0
 11
20.72198572917687
 21
5.654056197855888
 31
0.0
  0
LINE
  5
75A
330
1F
100
AcDbEntity
  8
TitleBlock&Notes
  6
Continuous
 62
     3
100
AcDbLine
 10
20.72177704668089
 20
5.647670802399883
 30
0.0
 11
20.82345486837685
 21
5.649445592031883
 31
0.0
  0
LINE
  5
75B
330
1F
100
AcDbEntity
  8
TitleBlock&Notes
  6
Continuous
 62
     3
100
AcDbLine
 10
20.72119933020086
 20
5.637521569503882
 30
0.0
 11
20.82345486837685
 21
5.639306446047884
 31
0.0
  0
LINE
  5
75C
330
1F
100
AcDbEntity
  8
TitleBlock&Notes
  6
Continuous
 62
     3
100
AcDbLine
 10
20.72031758709689
 20
5.627367039711891
 30
0.0
 11
20.82345486837685
 21
5.629167300063882
 31
0.0
  0
LINE
  5
75D
330
1F
100
AcDbEntity
  8
TitleBlock&Notes
  6
Continuous
 62
     3
100
AcDbLine
 10
20.71912900418487
 20
5.617207136991892
 30
0.0
 11
20.82345486837685
 21
5.619028154079886
 31
0.0
  0
LINE
  5
75E
330
1F
100
AcDbEntity
  8
TitleBlock&Notes
  6
Continuous
 62
     3
100
AcDbLine
 10
20.71762980520885
 20
5.607041835999892
 30
0.0
 11
20.82345486837685
 21
5.608889008095887
 31
0.0
  0
LINE
  5
75F
330
1F
100
AcDbEntity
  8
TitleBlock&Notes
  6
Continuous
 62
     3
100
AcDbLine
 10
20.71581535221687
 20
5.596871010015886
 30
0.0
 11
20.82345486837685
 21
5.598749862111886
 31
0.0
  0
LINE
  5
760
330
1F
100
AcDbEntity
  8
TitleBlock&Notes
  6
Continuous
 62
     3
100
AcDbLine
 10
20.71367996815288
 20
5.58669458300788
 30
0.0
 11
20.82345486837685
 21
5.588610716127884
 31
0.0
  0
LINE
  5
761
330
1F
100
AcDbEntity
  8
TitleBlock&Notes
  6
Continuous
 62
     3
100
AcDbLine
 10
20.71121691151287
 20
5.576512453599886
 30
0.0
 11
20.82345486837685
 21
5.578471570143888
 31
0.0
  0
LINE
  5
762
330
1F
100
AcDbEntity
  8
TitleBlock&Notes
  6
Continuous
 62
     3
100
AcDbLine
 10
20.70841822428087
 20
5.566324469727891
 30
0.0
 11
20.82345486837685
 21
5.568332424159891
 31
0.0
  0
LINE
  5
763
330
1F
100
AcDbEntity
  8
TitleBlock&Notes
  6
Continuous
 62
     3
100
AcDbLine
 10
20.70527465589687
 20
5.55613045398388
 30
0.0
 11
20.82345486837685
 21
5.558193278175894
 31
0.0
  0
LINE
  5
764
330
1F
100
AcDbEntity
  8
TitleBlock&Notes
  6
Continuous
 62
     3
100
AcDbLine
 10
20.70177546050488
 20
5.545930228959886
 30
0.0
 11
20.82345486837685
 21
5.548054132191883
 31
0.0
  0
LINE
  5
765
330
1F
100
AcDbEntity
  8
TitleBlock&Notes
  6
Continuous
 62
     3
100
AcDbLine
 10
20.69790819420089
 20
5.535723566559883
 30
0.0
 11
20.82345486837685
 21
5.537915011551882
 31
0.0
  0
LINE
  5
766
330
1F
100
AcDbEntity
  8
TitleBlock&Notes
  6
Continuous
 62
     3
100
AcDbLine
 10
20.69365851228086
 20
5.525510264031883
 30
0.0
 11
20.82345486837685
 21
5.527775865567886
 31
0.0
  0
LINE
  5
767
330
1F
100
AcDbEntity
  8
TitleBlock&Notes
  6
Continuous
 62
     3
100
AcDbLine
 10
20.68900986511287
 20
5.515289966559883
 30
0.0
 11
20.82345486837685
 21
5.517636719583888
 31
0.0
  0
LINE
  5
768
330
1F
100
AcDbEntity
  8
TitleBlock&Notes
  6
Continuous
 62
     3
100
AcDbLine
 10
20.68394306728889
 20
5.505062370015886
 30
0.0
 11
20.82345486837685
 21
5.507497573599886
 31
0.0
  0
LINE
  5
769
330
1F
100
AcDbEntity
  8
TitleBlock&Notes
  6
Continuous
 62
     3
100
AcDbLine
 10
20.67843586677687
 20
5.494827119583884
 30
0.0
 11
20.82345486837685
 21
5.49735842761588
 31
0.0
  0
LINE
  5
76A
330
1F
100
AcDbEntity
  8
TitleBlock&Notes
  6
Continuous
 62
     3
100
AcDbLine
 10
20.82345486837685
 20
5.903505024735882
 30
0.0
 11
20.72207886837687
 21
5.903505024735882
 31
0.0
  0
LINE
  5
76B
330
1F
100
AcDbEntity
  8
TitleBlock&Notes
  6
Continuous
 62
     3
100
AcDbLine
 10
20.82345486837685
 20
5.953394790111882
 30
0.0
 11
20.72207886837687
 21
5.953394790111882
 31
0.0
  0
LINE
  5
76C
330
1F
100
AcDbEntity
  8
TitleBlock&Notes
  6
Continuous
 62
     3
100
AcDbLine
 10
20.72207886837687
 20
5.901898012383886
 30
0.0
 11
20.81414414172087
 21
5.903505024735882
 31
0.0
  0
LINE
  5
76D
330
1F
100
AcDbEntity
  8
TitleBlock&Notes
  6
Continuous
 62
     3
100
AcDbLine
 10
20.72207886837687
 20
5.891758866399888
 30
0.0
 11
20.82345486837685
 21
5.893528384479889
 31
0.0
  0
LINE
  5
76E
330
1F
100
AcDbEntity
  8
TitleBlock&Notes
  6
Continuous
 62
     3
100
AcDbLine
 10
20.72207886837687
 20
5.881619720415886
 30
0.0
 11
20.82345486837685
 21
5.883389238495883
 31
0.0
  0
LINE
  5
76F
330
1F
100
AcDbEntity
  8
TitleBlock&Notes
  6
Continuous
 62
     3
100
AcDbLine
 10
20.72207886837687
 20
5.871480574431879
 30
0.0
 11
20.82345486837685
 21
5.873250092511886
 31
0.0
  0
LINE
  5
770
330
1F
100
AcDbEntity
  8
TitleBlock&Notes
  6
Continuous
 62
     3
100
AcDbLine
 10
20.72207886837687
 20
5.861341428447882
 30
0.0
 11
20.82345486837685
 21
5.863110971871894
 31
0.0
  0
LINE
  5
771
330
1F
100
AcDbEntity
  8
TitleBlock&Notes
  6
Continuous
 62
     3
100
AcDbLine
 10
20.72207886837687
 20
5.851202282463889
 30
0.0
 11
20.82345486837685
 21
5.852971825887886
 31
0.0
  0
LINE
  5
772
330
1F
100
AcDbEntity
  8
TitleBlock&Notes
  6
Continuous
 62
     3
100
AcDbLine
 10
20.72207886837687
 20
5.841063136479892
 30
0.0
 11
20.82345486837685
 21
5.84283267990388
 31
0.0
  0
LINE
  5
773
330
1F
100
AcDbEntity
  8
TitleBlock&Notes
  6
Continuous
 62
     3
100
AcDbLine
 10
20.72207886837687
 20
5.830923990495888
 30
0.0
 11
20.82345486837685
 21
5.832693533919882
 31
0.0
  0
LINE
  5
774
330
1F
100
AcDbEntity
  8
TitleBlock&Notes
  6
Continuous
 62
     3
100
AcDbLine
 10
20.72207886837687
 20
5.820784869855878
 30
0.0
 11
20.82345486837685
 21
5.822554387935888
 31
0.0
  0
LINE
  5
775
330
1F
100
AcDbEntity
  8
TitleBlock&Notes
  6
Continuous
 62
     3
100
AcDbLine
 10
20.72207886837687
 20
5.810645723871886
 30
0.0
 11
20.82345486837685
 21
5.812415241951883
 31
0.0
  0
LINE
  5
776
330
1F
100
AcDbEntity
  8
TitleBlock&Notes
  6
Continuous
 62
     3
100
AcDbLine
 10
20.72207886837687
 20
5.800506577887892
 30
0.0
 11
20.82345486837685
 21
5.802276095967886
 31
0.0
  0
LINE
  5
777
330
1F
100
AcDbEntity
  8
TitleBlock&Notes
  6
Continuous
 62
     3
100
AcDbLine
 10
20.72207886837687
 20
5.790367431903883
 30
0.0
 11
20.82345486837685
 21
5.792136949983883
 31
0.0
  0
LINE
  5
778
330
1F
100
AcDbEntity
  8
TitleBlock&Notes
  6
Continuous
 62
     3
100
AcDbLine
 10
20.72207886837687
 20
5.780228285919879
 30
0.0
 11
20.82345486837685
 21
5.781997803999887
 31
0.0
  0
LINE
  5
779
330
1F
100
AcDbEntity
  8
TitleBlock&Notes
  6
Continuous
 62
     3
100
AcDbLine
 10
20.72207886837687
 20
5.770089139935882
 30
0.0
 11
20.82345486837685
 21
5.771858658015888
 31
0.0
  0
LINE
  5
77A
330
1F
100
AcDbEntity
  8
TitleBlock&Notes
  6
Continuous
 62
     3
100
AcDbLine
 10
20.72207886837687
 20
5.759949993951886
 30
0.0
 11
20.82345486837685
 21
5.761719512031887
 31
0.0
  0
LINE
  5
77B
330
1F
100
AcDbEntity
  8
TitleBlock&Notes
  6
Continuous
 62
     3
100
AcDbLine
 10
20.72207886837687
 20
5.749810847967893
 30
0.0
 11
20.82345486837685
 21
5.751580366047891
 31
0.0
  0
LINE
  5
77C
330
1F
100
AcDbEntity
  8
TitleBlock&Notes
  6
Continuous
 62
     3
100
AcDbLine
 10
20.72207886837687
 20
5.739671701983888
 30
0.0
 11
20.82345486837685
 21
5.741441220063879
 31
0.0
  0
LINE
  5
77D
330
1F
100
AcDbEntity
  8
TitleBlock&Notes
  6
Continuous
 62
     3
100
AcDbLine
 10
20.72207886837687
 20
5.729532555999884
 30
0.0
 11
20.82345486837685
 21
5.731302074079883
 31
0.0
  0
LINE
  5
77E
330
1F
100
AcDbEntity
  8
TitleBlock&Notes
  6
Continuous
 62
     3
100
AcDbLine
 10
20.72207886837687
 20
5.719393410015888
 30
0.0
 11
20.82345486837685
 21
5.721162928095888
 31
0.0
  0
LINE
  5
77F
330
1F
100
AcDbEntity
  8
TitleBlock&Notes
  6
Continuous
 62
     3
100
AcDbLine
 10
20.72207886837687
 20
6.046094753247888
 30
0.0
 11
20.82345486837685
 21
6.047864271327886
 31
0.0
  0
LINE
  5
780
330
1F
100
AcDbEntity
  8
TitleBlock&Notes
  6
Continuous
 62
     3
100
AcDbLine
 10
20.72207886837687
 20
6.035955607263892
 30
0.0
 11
20.82345486837685
 21
6.037725125343888
 31
0.0
  0
LINE
  5
781
330
1F
100
AcDbEntity
  8
TitleBlock&Notes
  6
Continuous
 62
     3
100
AcDbLine
 10
20.72207886837687
 20
6.025816461279884
 30
0.0
 11
20.82345486837685
 21
6.027585979359886
 31
0.0
  0
LINE
  5
782
330
1F
100
AcDbEntity
  8
TitleBlock&Notes
  6
Continuous
 62
     3
100
AcDbLine
 10
20.72207886837687
 20
6.015677315295882
 30
0.0
 11
20.82345486837685
 21
6.017446833375888
 31
0.0
  0
LINE
  5
783
330
1F
100
AcDbEntity
  8
TitleBlock&Notes
  6
Continuous
 62
     3
100
AcDbLine
 10
20.72207886837687
 20
6.005538169311884
 30
0.0
 11
20.82345486837685
 21
6.007307687391891
 31
0.0
  0
LINE
  5
784
330
1F
100
AcDbEntity
  8
TitleBlock&Notes
  6
Continuous
 62
     3
100
AcDbLine
 10
20.72207886837687
 20
5.995399023327887
 30
0.0
 11
20.82345486837685
 21
5.997168566751883
 31
0.0
  0
LINE
  5
785
330
1F
100
AcDbEntity
  8
TitleBlock&Notes
  6
Continuous
 62
     3
100
AcDbLine
 10
20.72207886837687
 20
5.985259877343888
 30
0.0
 11
20.82345486837685
 21
5.987029420767883
 31
0.0
  0
LINE
  5
786
330
1F
100
AcDbEntity
  8
TitleBlock&Notes
  6
Continuous
 62
     3
100
AcDbLine
 10
20.72207886837687
 20
5.975120731359888
 30
0.0
 11
20.82345486837685
 21
5.976890274783884
 31
0.0
  0
LINE
  5
787
330
1F
100
AcDbEntity
  8
TitleBlock&Notes
  6
Continuous
 62
     3
100
AcDbLine
 10
20.72207886837687
 20
5.96498161071988
 30
0.0
 11
20.82345486837685
 21
5.966751128799887
 31
0.0
  0
LINE
  5
788
330
1F
100
AcDbEntity
  8
TitleBlock&Notes
  6
Continuous
 62
     3
100
AcDbLine
 10
20.72207886837687
 20
5.954842464735883
 30
0.0
 11
20.82345486837685
 21
5.956611982815886
 31
0.0
  0
LINE
  5
789
330
1F
100
AcDbEntity
  8
TitleBlock&Notes
  6
Continuous
 62
     3
100
AcDbLine
 10
20.82345486837685
 20
5.703945963231884
 30
0.0
 11
20.72207886837687
 21
5.703945963231884
 31
0.0
  0
LINE
  5
78A
330
1F
100
AcDbEntity
  8
TitleBlock&Notes
  6
Continuous
 62
     3
100
AcDbLine
 10
20.72207886837687
 20
5.709254264031891
 30
0.0
 11
20.82345486837685
 21
5.711023807455887
 31
0.0
  0
LINE
  5
78B
330
1F
100
AcDbEntity
  8
TitleBlock&Notes
  6
Continuous
 62
     3
100
AcDbLine
 10
20.69673486837687
 20
6.460374569439884
 30
0.0
 11
20.50665486837686
 21
6.460374569439884
 31
0.0
  0
LINE
  5
78C
330
1F
100
AcDbEntity
  8
TitleBlock&Notes
  6
Continuous
 62
     3
100
AcDbLine
 10
20.72207886837687
 20
6.485718569439889
 30
0.0
 11
20.48131086837688
 21
6.485718569439889
 31
0.0
  0
LINE
  5
78D
330
1F
100
AcDbEntity
  8
TitleBlock&Notes
  6
Continuous
 62
     3
100
AcDbLine
 10
20.49398286837687
 20
6.473046569439882
 30
0.0
 11
20.7094068683769
 21
6.473046569439882
 31
0.0
  0
LINE
  5
78E
330
1F
100
AcDbEntity
  8
TitleBlock&Notes
  6
Continuous
 62
     3
100
AcDbLine
 10
20.15183886837685
 20
6.076697759967889
 30
0.0
 11
20.23327294197688
 21
6.078119178207884
 31
0.0
  0
LINE
  5
78F
330
1F
100
AcDbEntity
  8
TitleBlock&Notes
  6
Continuous
 62
     3
100
AcDbLine
 10
20.48131086837688
 20
6.128008943583879
 30
0.0
 11
20.15183886837685
 21
6.128008943583879
 31
0.0
  0
LINE
  5
790
330
1F
100
AcDbEntity
  8
TitleBlock&Notes
  6
Continuous
 62
     3
100
AcDbLine
 10
20.48131086837688
 20
6.177898708959883
 30
0.0
 11
20.15183886837685
 21
6.177898708959883
 31
0.0
  0
LINE
  5
791
330
1F
100
AcDbEntity
  8
TitleBlock&Notes
  6
Continuous
 62
     3
100
AcDbLine
 10
20.48131086837688
 20
6.078119178207884
 30
0.0
 11
20.15183886837685
 21
6.078119178207884
 31
0.0
  0
LINE
  5
792
330
1F
100
AcDbEntity
  8
TitleBlock&Notes
  6
Continuous
 62
     3
100
AcDbLine
 10
20.48131086837688
 20
6.327568005087888
 30
0.0
 11
20.15183886837685
 21
6.327568005087888
 31
0.0
  0
LINE
  5
793
330
1F
100
AcDbEntity
  8
TitleBlock&Notes
  6
Continuous
 62
     3
100
AcDbLine
 10
20.48131086837688
 20
6.365584005087892
 30
0.0
 11
20.15183886837685
 21
6.365584005087892
 31
0.0
  0
LINE
  5
794
330
1F
100
AcDbEntity
  8
TitleBlock&Notes
  6
Continuous
 62
     3
100
AcDbLine
 10
20.15183886837685
 20
6.066558613983891
 30
0.0
 11
20.48131086837688
 21
6.072309573087887
 31
0.0
  0
LINE
  5
795
330
1F
100
AcDbEntity
  8
TitleBlock&Notes
  6
Continuous
 62
     3
100
AcDbLine
 10
20.15183886837685
 20
6.056419467999887
 30
0.0
 11
20.48131086837688
 21
6.062170427103892
 31
0.0
  0
LINE
  5
796
330
1F
100
AcDbEntity
  8
TitleBlock&Notes
  6
Continuous
 62
     3
100
AcDbLine
 10
20.48131086837688
 20
6.352912005087882
 30
0.0
 11
20.15183886837685
 21
6.352912005087882
 31
0.0
  0
LINE
  5
797
330
1F
100
AcDbEntity
  8
TitleBlock&Notes
  6
Continuous
 62
     3
100
AcDbLine
 10
20.48131086837688
 20
6.340240005087884
 30
0.0
 11
20.15183886837685
 21
6.340240005087884
 31
0.0
  0
LINE
  5
798
330
1F
100
AcDbEntity
  8
TitleBlock&Notes
  6
Continuous
 62
     3
100
AcDbLine
 10
20.48131086837688
 20
6.165226708959889
 30
0.0
 11
20.15183886837685
 21
6.165226708959889
 31
0.0
  0
LINE
  5
799
330
1F
100
AcDbEntity
  8
TitleBlock&Notes
  6
Continuous
 62
     3
100
AcDbLine
 10
20.48131086837688
 20
6.152554708959888
 30
0.0
 11
20.15183886837685
 21
6.152554708959888
 31
0.0
  0
LINE
  5
79A
330
1F
100
AcDbEntity
  8
TitleBlock&Notes
  6
Continuous
 62
     3
100
AcDbLine
 10
20.48131086837688
 20
6.139882708959889
 30
0.0
 11
20.15183886837685
 21
6.139882708959889
 31
0.0
  0
LINE
  5
79B
330
1F
100
AcDbEntity
  8
TitleBlock&Notes
  6
Continuous
 62
     3
100
AcDbLine
 10
20.82345486837685
 20
6.078119178207884
 30
0.0
 11
20.72207886837687
 21
6.078119178207884
 31
0.0
  0
LINE
  5
79C
330
1F
100
AcDbEntity
  8
TitleBlock&Notes
  6
Continuous
 62
     3
100
AcDbLine
 10
20.72207886837687
 20
6.076512191199883
 30
0.0
 11
20.81414414172087
 21
6.078119178207884
 31
0.0
  0
LINE
  5
79D
330
1F
100
AcDbEntity
  8
TitleBlock&Notes
  6
Continuous
 62
     3
100
AcDbLine
 10
20.72207886837687
 20
6.066373045215878
 30
0.0
 11
20.82345486837685
 21
6.068142563295884
 31
0.0
  0
LINE
  5
79E
330
1F
100
AcDbEntity
  8
TitleBlock&Notes
  6
Continuous
 62
     3
100
AcDbLine
 10
20.72207886837687
 20
6.05623389923188
 30
0.0
 11
20.82345486837685
 21
6.058003417311891
 31
0.0
  0
LINE
  5
79F
330
1F
100
AcDbEntity
  8
TitleBlock&Notes
  6
Continuous
 62
     3
100
AcDbLine
 10
20.82345486837685
 20
6.128008943583879
 30
0.0
 11
20.72207886837687
 21
6.128008943583879
 31
0.0
  0
LINE
  5
7A0
330
1F
100
AcDbEntity
  8
TitleBlock&Notes
  6
Continuous
 62
     3
100
AcDbLine
 10
20.82345486837685
 20
6.139882708959889
 30
0.0
 11
20.72207886837687
 21
6.139882708959889
 31
0.0
  0
LINE
  5
7A1
330
1F
100
AcDbEntity
  8
TitleBlock&Notes
  6
Continuous
 62
     3
100
AcDbLine
 10
20.82345486837685
 20
6.177898708959883
 30
0.0
 11
20.72207886837687
 21
6.177898708959883
 31
0.0
  0
LINE
  5
7A2
330
1F
100
AcDbEntity
  8
TitleBlock&Notes
  6
Continuous
 62
     3
100
AcDbLine
 10
20.82345486837685
 20
6.327568005087888
 30
0.0
 11
20.72207886837687
 21
6.327568005087888
 31
0.0
  0
LINE
  5
7A3
330
1F
100
AcDbEntity
  8
TitleBlock&Notes
  6
Continuous
 62
     3
100
AcDbLine
 10
20.82345486837685
 20
6.365584005087892
 30
0.0
 11
20.72207886837687
 21
6.365584005087892
 31
0.0
  0
LINE
  5
7A4
330
1F
100
AcDbEntity
  8
TitleBlock&Notes
  6
Continuous
 62
     3
100
AcDbLine
 10
20.82345486837685
 20
6.352912005087882
 30
0.0
 11
20.72207886837687
 21
6.352912005087882
 31
0.0
  0
LINE
  5
7A5
330
1F
100
AcDbEntity
  8
TitleBlock&Notes
  6
Continuous
 62
     3
100
AcDbLine
 10
20.82345486837685
 20
6.340240005087884
 30
0.0
 11
20.72207886837687
 21
6.340240005087884
 31
0.0
  0
LINE
  5
7A6
330
1F
100
AcDbEntity
  8
TitleBlock&Notes
  6
Continuous
 62
     3
100
AcDbLine
 10
20.82345486837685
 20
6.165226708959889
 30
0.0
 11
20.72207886837687
 21
6.165226708959889
 31
0.0
  0
LINE
  5
7A7
330
1F
100
AcDbEntity
  8
TitleBlock&Notes
  6
Continuous
 62
     3
100
AcDbLine
 10
20.82345486837685
 20
6.152554708959888
 30
0.0
 11
20.72207886837687
 21
6.152554708959888
 31
0.0
  0
LINE
  5
7A9
330
1F
100
AcDbEntity
  8
TitleBlock&Notes
  6
Continuous
 62
     3
100
AcDbLine
 10
21.39369486837689
 20
6.460374569439884
 30
0.0
 11
22.15401486837687
 21
6.460374569439884
 31
0.0
  0
LINE
  5
7AA
330
1F
100
AcDbEntity
  8
TitleBlock&Notes
  6
Continuous
 62
     3
100
AcDbLine
 10
21.36835086837686
 20
6.485718569439889
 30
0.0
 11
22.17935886837685
 21
6.485718569439889
 31
0.0
  0
LINE
  5
7AB
330
1F
100
AcDbEntity
  8
TitleBlock&Notes
  6
Continuous
 62
     3
100
AcDbLine
 10
21.38102286837685
 20
6.473046569439882
 30
0.0
 11
22.16668686837687
 21
6.473046569439882
 31
0.0
  0
LINE
  5
7AC
330
1F
100
AcDbEntity
  8
TitleBlock&Notes
  6
Continuous
 62
     3
100
AcDbLine
 10
21.06422286837685
 20
6.052066889439887
 30
0.0
 11
21.65347086837685
 21
6.062352270303889
 31
0.0
  0
LINE
  5
7AD
330
1F
100
AcDbEntity
  8
TitleBlock&Notes
  6
Continuous
 62
     3
100
AcDbLine
 10
21.03887886837688
 20
6.460374569439884
 30
0.0
 11
21.03887886837688
 21
5.535318569439886
 31
0.0
  0
LINE
  5
7AE
330
1F
100
AcDbEntity
  8
TitleBlock&Notes
  6
Continuous
 62
     3
100
AcDbLine
 10
21.06422286837685
 20
5.560662569439881
 30
0.0
 11
21.06422286837685
 21
6.485718569439889
 31
0.0
  0
LINE
  5
7AF
330
1F
100
AcDbEntity
  8
TitleBlock&Notes
  6
Continuous
 62
     3
100
AcDbLine
 10
21.05155086837688
 20
5.547990569439884
 30
0.0
 11
21.05155086837688
 21
6.473046569439882
 31
0.0
  0
LINE
  5
7B0
330
1F
100
AcDbEntity
  8
TitleBlock&Notes
  6
Continuous
 62
     3
100
AcDbLine
 10
21.03887886837688
 20
5.535318569439886
 30
0.0
 11
21.52041486837688
 21
5.535318569439886
 31
0.0
  0
LINE
  5
7B1
330
1F
100
AcDbEntity
  8
TitleBlock&Notes
  6
Continuous
 62
     3
100
AcDbLine
 10
21.53308686837687
 20
5.547990569439884
 30
0.0
 11
21.05155086837688
 21
5.547990569439884
 31
0.0
  0
LINE
  5
7B2
330
1F
100
AcDbEntity
  8
TitleBlock&Notes
  6
Continuous
 62
     3
100
AcDbLine
 10
21.54575886837686
 20
5.560662569439881
 30
0.0
 11
21.06422286837685
 21
5.560662569439881
 31
0.0
  0
LINE
  5
7B3
330
1F
100
AcDbEntity
  8
TitleBlock&Notes
  6
Continuous
 62
     3
100
AcDbLine
 10
21.06422286837685
 20
5.654056197855888
 30
0.0
 11
21.65347086837685
 21
5.654056197855888
 31
0.0
  0
LINE
  5
7B4
330
1F
100
AcDbEntity
  8
TitleBlock&Notes
  6
Continuous
 62
     3
100
AcDbLine
 10
21.06422286837685
 20
5.643509064159887
 30
0.0
 11
21.65347086837685
 21
5.653794419679882
 31
0.0
  0
LINE
  5
7B5
330
1F
100
AcDbEntity
  8
TitleBlock&Notes
  6
Continuous
 62
     3
100
AcDbLine
 10
21.06422286837685
 20
5.633369918175884
 30
0.0
 11
21.65347086837685
 21
5.643655273695886
 31
0.0
  0
LINE
  5
7B6
330
1F
100
AcDbEntity
  8
TitleBlock&Notes
  6
Continuous
 62
     3
100
AcDbLine
 10
21.06422286837685
 20
5.623230772191887
 30
0.0
 11
21.65347086837685
 21
5.633516127711887
 31
0.0
  0
LINE
  5
7B7
330
1F
100
AcDbEntity
  8
TitleBlock&Notes
  6
Continuous
 62
     3
100
AcDbLine
 10
21.06422286837685
 20
5.613091626207887
 30
0.0
 11
21.65347086837685
 21
5.623376981727886
 31
0.0
  0
LINE
  5
7B8
330
1F
100
AcDbEntity
  8
TitleBlock&Notes
  6
Continuous
 62
     3
100
AcDbLine
 10
21.06422286837685
 20
5.602952480223888
 30
0.0
 11
21.65347086837685
 21
5.613237861087882
 31
0.0
  0
LINE
  5
7B9
330
1F
100
AcDbEntity
  8
TitleBlock&Notes
  6
Continuous
 62
     3
100
AcDbLine
 10
21.06422286837685
 20
5.592813334239891
 30
0.0
 11
21.65347086837685
 21
5.603098715103884
 31
0.0
  0
LINE
  5
7BA
330
1F
100
AcDbEntity
  8
TitleBlock&Notes
  6
Continuous
 62
     3
100
AcDbLine
 10
21.06422286837685
 20
5.582674188255889
 30
0.0
 11
21.65347086837685
 21
5.592959569119893
 31
0.0
  0
LINE
  5
7BB
330
1F
100
AcDbEntity
  8
TitleBlock&Notes
  6
Continuous
 62
     3
100
AcDbLine
 10
21.06422286837685
 20
5.572535042271892
 30
0.0
 11
21.65347086837685
 21
5.582820423135881
 31
0.0
  0
LINE
  5
7BC
330
1F
100
AcDbEntity
  8
TitleBlock&Notes
  6
Continuous
 62
     3
100
AcDbLine
 10
21.06422286837685
 20
5.562395921631885
 30
0.0
 11
21.65347086837685
 21
5.572681277151883
 31
0.0
  0
LINE
  5
7BD
330
1F
100
AcDbEntity
  8
TitleBlock&Notes
  6
Continuous
 62
     3
100
AcDbLine
 10
21.22001289256886
 20
5.953394790111882
 30
0.0
 11
21.65347086837685
 21
5.960960810463882
 31
0.0
  0
LINE
  5
7BE
330
1F
100
AcDbEntity
  8
TitleBlock&Notes
  6
Continuous
 62
     3
100
AcDbLine
 10
21.06422286837685
 20
5.897731002591887
 30
0.0
 11
21.39501531612089
 21
5.903505024735882
 31
0.0
  0
LINE
  5
7BF
330
1F
100
AcDbEntity
  8
TitleBlock&Notes
  6
Continuous
 62
     3
100
AcDbLine
 10
21.06422286837685
 20
5.703945963231884
 30
0.0
 11
21.65347086837685
 21
5.703945963231884
 31
0.0
  0
LINE
  5
7C0
330
1F
100
AcDbEntity
  8
TitleBlock&Notes
  6
Continuous
 62
     3
100
AcDbLine
 10
21.06422286837685
 20
5.903505024735882
 30
0.0
 11
21.65347086837685
 21
5.903505024735882
 31
0.0
  0
LINE
  5
7C1
330
1F
100
AcDbEntity
  8
TitleBlock&Notes
  6
Continuous
 62
     3
100
AcDbLine
 10
21.06422286837685
 20
5.953394790111882
 30
0.0
 11
21.65347086837685
 21
5.953394790111882
 31
0.0
  0
LINE
  5
7C2
330
1F
100
AcDbEntity
  8
TitleBlock&Notes
  6
Continuous
 62
     3
100
AcDbLine
 10
21.06422286837685
 20
5.887591856607886
 30
0.0
 11
21.65347086837685
 21
5.897877237471887
 31
0.0
  0
LINE
  5
7C3
330
1F
100
AcDbEntity
  8
TitleBlock&Notes
  6
Continuous
 62
     3
100
AcDbLine
 10
21.06422286837685
 20
5.87745273596789
 30
0.0
 11
21.65347086837685
 21
5.887738091487891
 31
0.0
  0
LINE
  5
7C4
330
1F
100
AcDbEntity
  8
TitleBlock&Notes
  6
Continuous
 62
     3
100
AcDbLine
 10
21.06422286837685
 20
5.86731358998388
 30
0.0
 11
21.65347086837685
 21
5.877598945503888
 31
0.0
  0
LINE
  5
7C5
330
1F
100
AcDbEntity
  8
TitleBlock&Notes
  6
Continuous
 62
     3
100
AcDbLine
 10
21.06422286837685
 20
5.857174443999882
 30
0.0
 11
21.65347086837685
 21
5.867459799519893
 31
0.0
  0
LINE
  5
7C6
330
1F
100
AcDbEntity
  8
TitleBlock&Notes
  6
Continuous
 62
     3
100
AcDbLine
 10
21.06422286837685
 20
5.847035298015891
 30
0.0
 11
21.65347086837685
 21
5.857320653535881
 31
0.0
  0
LINE
  5
7C7
330
1F
100
AcDbEntity
  8
TitleBlock&Notes
  6
Continuous
 62
     3
100
AcDbLine
 10
21.06422286837685
 20
5.836896152031884
 30
0.0
 11
21.65347086837685
 21
5.847181507551883
 31
0.0
  0
LINE
  5
7C8
330
1F
100
AcDbEntity
  8
TitleBlock&Notes
  6
Continuous
 62
     3
100
AcDbLine
 10
21.06422286837685
 20
5.826757006047882
 30
0.0
 11
21.65347086837685
 21
5.837042361567887
 31
0.0
  0
LINE
  5
7C9
330
1F
100
AcDbEntity
  8
TitleBlock&Notes
  6
Continuous
 62
     3
100
AcDbLine
 10
21.06422286837685
 20
5.816617860063884
 30
0.0
 11
21.65347086837685
 21
5.826903215583884
 31
0.0
  0
LINE
  5
7CA
330
1F
100
AcDbEntity
  8
TitleBlock&Notes
  6
Continuous
 62
     3
100
AcDbLine
 10
21.06422286837685
 20
5.806478714079887
 30
0.0
 11
21.65347086837685
 21
5.816764069599883
 31
0.0
  0
LINE
  5
7CB
330
1F
100
AcDbEntity
  8
TitleBlock&Notes
  6
Continuous
 62
     3
100
AcDbLine
 10
21.06422286837685
 20
5.796339568095886
 30
0.0
 11
21.65347086837685
 21
5.806624923615887
 31
0.0
  0
LINE
  5
7CC
330
1F
100
AcDbEntity
  8
TitleBlock&Notes
  6
Continuous
 62
     3
100
AcDbLine
 10
21.06422286837685
 20
5.786200422111889
 30
0.0
 11
21.65347086837685
 21
5.796485777631888
 31
0.0
  0
LINE
  5
7CD
330
1F
100
AcDbEntity
  8
TitleBlock&Notes
  6
Continuous
 62
     3
100
AcDbLine
 10
21.06422286837685
 20
5.776061276127878
 30
0.0
 11
21.65347086837685
 21
5.786346656991889
 31
0.0
  0
LINE
  5
7CE
330
1F
100
AcDbEntity
  8
TitleBlock&Notes
  6
Continuous
 62
     3
100
AcDbLine
 10
21.06422286837685
 20
5.765922130143882
 30
0.0
 11
21.65347086837685
 21
5.776207511007893
 31
0.0
  0
LINE
  5
7CF
330
1F
100
AcDbEntity
  8
TitleBlock&Notes
  6
Continuous
 62
     3
100
AcDbLine
 10
21.06422286837685
 20
5.755782984159883
 30
0.0
 11
21.65347086837685
 21
5.766068365023881
 31
0.0
  0
LINE
  5
7D0
330
1F
100
AcDbEntity
  8
TitleBlock&Notes
  6
Continuous
 62
     3
100
AcDbLine
 10
21.06422286837685
 20
5.745643838175883
 30
0.0
 11
21.65347086837685
 21
5.755929219039883
 31
0.0
  0
LINE
  5
7D1
330
1F
100
AcDbEntity
  8
TitleBlock&Notes
  6
Continuous
 62
     3
100
AcDbLine
 10
21.06422286837685
 20
5.735504717535882
 30
0.0
 11
21.65347086837685
 21
5.745790073055887
 31
0.0
  0
LINE
  5
7D2
330
1F
100
AcDbEntity
  8
TitleBlock&Notes
  6
Continuous
 62
     3
100
AcDbLine
 10
21.06422286837685
 20
5.725365571551884
 30
0.0
 11
21.65347086837685
 21
5.735650927071884
 31
0.0
  0
LINE
  5
7D3
330
1F
100
AcDbEntity
  8
TitleBlock&Notes
  6
Continuous
 62
     3
100
AcDbLine
 10
21.06422286837685
 20
5.715226425567887
 30
0.0
 11
21.65347086837685
 21
5.725511781087878
 31
0.0
  0
LINE
  5
7D4
330
1F
100
AcDbEntity
  8
TitleBlock&Notes
  6
Continuous
 62
     3
100
AcDbLine
 10
21.06422286837685
 20
5.705087279583888
 30
0.0
 11
21.65347086837685
 21
5.715372635103887
 31
0.0
  0
LINE
  5
7D5
330
1F
100
AcDbEntity
  8
TitleBlock&Notes
  6
Continuous
 62
     3
100
AcDbLine
 10
21.06422286837685
 20
6.041927743455889
 30
0.0
 11
21.65347086837685
 21
6.052213124319886
 31
0.0
  0
LINE
  5
7D6
330
1F
100
AcDbEntity
  8
TitleBlock&Notes
  6
Continuous
 62
     3
100
AcDbLine
 10
21.06422286837685
 20
6.031788597471879
 30
0.0
 11
21.65347086837685
 21
6.042073978335889
 31
0.0
  0
LINE
  5
7D7
330
1F
100
AcDbEntity
  8
TitleBlock&Notes
  6
Continuous
 62
     3
100
AcDbLine
 10
21.06422286837685
 20
6.021649476831879
 30
0.0
 11
21.65347086837685
 21
6.031934832351891
 31
0.0
  0
LINE
  5
7D8
330
1F
100
AcDbEntity
  8
TitleBlock&Notes
  6
Continuous
 62
     3
100
AcDbLine
 10
21.06422286837685
 20
6.011510330847883
 30
0.0
 11
21.65347086837685
 21
6.021795686367882
 31
0.0
  0
LINE
  5
7D9
330
1F
100
AcDbEntity
  8
TitleBlock&Notes
  6
Continuous
 62
     3
100
AcDbLine
 10
21.06422286837685
 20
6.001371184863886
 30
0.0
 11
21.65347086837685
 21
6.011656540383881
 31
0.0
  0
LINE
  5
7DA
330
1F
100
AcDbEntity
  8
TitleBlock&Notes
  6
Continuous
 62
     3
100
AcDbLine
 10
21.06422286837685
 20
5.991232038879887
 30
0.0
 11
21.65347086837685
 21
6.001517394399884
 31
0.0
  0
LINE
  5
7DB
330
1F
100
AcDbEntity
  8
TitleBlock&Notes
  6
Continuous
 62
     3
100
AcDbLine
 10
21.06422286837685
 20
5.981092892895888
 30
0.0
 11
21.65347086837685
 21
5.991378248415887
 31
0.0
  0
LINE
  5
7DC
330
1F
100
AcDbEntity
  8
TitleBlock&Notes
  6
Continuous
 62
     3
100
AcDbLine
 10
21.06422286837685
 20
5.970953746911884
 30
0.0
 11
21.65347086837685
 21
5.98123910243189
 31
0.0
  0
LINE
  5
7DD
330
1F
100
AcDbEntity
  8
TitleBlock&Notes
  6
Continuous
 62
     3
100
AcDbLine
 10
21.06422286837685
 20
5.960814600927887
 30
0.0
 11
21.65347086837685
 21
5.971099956447887
 31
0.0
  0
LINE
  5
7DE
330
1F
100
AcDbEntity
  8
TitleBlock&Notes
  6
Continuous
 62
     3
100
AcDbLine
 10
21.06422286837685
 20
5.653648210143883
 30
0.0
 11
21.08759662581686
 21
5.654056197855888
 31
0.0
  0
LINE
  5
7DF
330
1F
100
AcDbEntity
  8
TitleBlock&Notes
  6
Continuous
 62
     3
100
AcDbLine
 10
21.54575886837686
 20
5.469409698015885
 30
0.0
 11
21.65347086837685
 21
5.471289817311888
 31
0.0
  0
LINE
  5
7E0
330
1F
100
AcDbEntity
  8
TitleBlock&Notes
  6
Continuous
 62
     3
100
AcDbLine
 10
21.54575886837686
 20
5.459270577375886
 30
0.0
 11
21.65347086837685
 21
5.46115069667188
 31
0.0
  0
LINE
  5
7E1
330
1F
100
AcDbEntity
  8
TitleBlock&Notes
  6
Continuous
 62
     3
100
AcDbLine
 10
21.54575886837686
 20
5.449131431391885
 30
0.0
 11
21.65347086837685
 21
5.451011550687888
 31
0.0
  0
LINE
  5
7E2
330
1F
100
AcDbEntity
  8
TitleBlock&Notes
  6
Continuous
 62
     3
100
AcDbLine
 10
21.54575886837686
 20
5.438992285407886
 30
0.0
 11
21.65347086837685
 21
5.440872404703882
 31
0.0
  0
LINE
  5
7E3
330
1F
100
AcDbEntity
  8
TitleBlock&Notes
  6
Continuous
 62
     3
100
AcDbLine
 10
21.54575886837686
 20
5.42885313942389
 30
0.0
 11
21.65347086837685
 21
5.430733258719885
 31
0.0
  0
LINE
  5
7E4
330
1F
100
AcDbEntity
  8
TitleBlock&Notes
  6
Continuous
 62
     3
100
AcDbLine
 10
21.54575886837686
 20
5.418713993439891
 30
0.0
 11
21.65347086837685
 21
5.420594112735884
 31
0.0
  0
LINE
  5
7E5
330
1F
100
AcDbEntity
  8
TitleBlock&Notes
  6
Continuous
 62
     3
100
AcDbLine
 10
21.54575886837686
 20
5.56066201187189
 30
0.0
 11
21.65347086837685
 21
5.562542131167877
 31
0.0
  0
LINE
  5
7E6
330
1F
100
AcDbEntity
  8
TitleBlock&Notes
  6
Continuous
 62
     3
100
AcDbLine
 10
21.54575886837686
 20
5.550522865887886
 30
0.0
 11
21.65347086837685
 21
5.552402985183886
 31
0.0
  0
LINE
  5
7E7
330
1F
100
AcDbEntity
  8
TitleBlock&Notes
  6
Continuous
 62
     3
100
AcDbLine
 10
21.54575886837686
 20
5.540383719903884
 30
0.0
 11
21.65347086837685
 21
5.542263839199887
 31
0.0
  0
LINE
  5
7E8
330
1F
100
AcDbEntity
  8
TitleBlock&Notes
  6
Continuous
 62
     3
100
AcDbLine
 10
21.54575886837686
 20
5.530244573919886
 30
0.0
 11
21.65347086837685
 21
5.532124693215881
 31
0.0
  0
LINE
  5
7E9
330
1F
100
AcDbEntity
  8
TitleBlock&Notes
  6
Continuous
 62
     3
100
AcDbLine
 10
21.54575886837686
 20
5.52010542793589
 30
0.0
 11
21.65347086837685
 21
5.521985547231889
 31
0.0
  0
LINE
  5
7EA
330
1F
100
AcDbEntity
  8
TitleBlock&Notes
  6
Continuous
 62
     3
100
AcDbLine
 10
21.54575886837686
 20
5.509966281951891
 30
0.0
 11
21.65347086837685
 21
5.511846401247884
 31
0.0
  0
LINE
  5
7EB
330
1F
100
AcDbEntity
  8
TitleBlock&Notes
  6
Continuous
 62
     3
100
AcDbLine
 10
21.54575886837686
 20
5.499827135967882
 30
0.0
 11
21.65347086837685
 21
5.501707255263886
 31
0.0
  0
LINE
  5
7EC
330
1F
100
AcDbEntity
  8
TitleBlock&Notes
  6
Continuous
 62
     3
100
AcDbLine
 10
21.54575886837686
 20
5.489687989983879
 30
0.0
 11
21.65347086837685
 21
5.491568109279893
 31
0.0
  0
LINE
  5
7ED
330
1F
100
AcDbEntity
  8
TitleBlock&Notes
  6
Continuous
 62
     3
100
AcDbLine
 10
21.54575886837686
 20
5.479548843999882
 30
0.0
 11
21.65347086837685
 21
5.481428963295886
 31
0.0
  0
LINE
  5
7EE
330
1F
100
AcDbEntity
  8
TitleBlock&Notes
  6
Continuous
 62
     3
100
AcDbLine
 10
21.57970839823287
 20
5.703945963231884
 30
0.0
 11
21.65347086837685
 21
5.705233489119888
 31
0.0
  0
LINE
  5
7EF
330
1F
100
AcDbEntity
  8
TitleBlock&Notes
  6
Continuous
 62
     3
100
AcDbLine
 10
21.36835086837686
 20
6.244950569439889
 30
0.0
 11
21.65347086837685
 21
6.244950569439889
 31
0.0
  0
LINE
  5
7F0
330
1F
100
AcDbEntity
  8
TitleBlock&Notes
  6
Continuous
 62
     3
100
AcDbLine
 10
21.06422286837685
 20
6.072345181407888
 30
0.0
 11
21.39501531612089
 21
6.078119178207884
 31
0.0
  0
LINE
  5
7F1
330
1F
100
AcDbEntity
  8
TitleBlock&Notes
  6
Continuous
 62
     3
100
AcDbLine
 10
21.06422286837685
 20
6.078119178207884
 30
0.0
 11
21.65347086837685
 21
6.078119178207884
 31
0.0
  0
LINE
  5
7F2
330
1F
100
AcDbEntity
  8
TitleBlock&Notes
  6
Continuous
 62
     3
100
AcDbLine
 10
21.06422286837685
 20
6.128008943583879
 30
0.0
 11
21.65347086837685
 21
6.128008943583879
 31
0.0
  0
LINE
  5
7F3
330
1F
100
AcDbEntity
  8
TitleBlock&Notes
  6
Continuous
 62
     3
100
AcDbLine
 10
21.06422286837685
 20
6.177898708959883
 30
0.0
 11
21.65347086837685
 21
6.177898708959883
 31
0.0
  0
LINE
  5
7F4
330
1F
100
AcDbEntity
  8
TitleBlock&Notes
  6
Continuous
 62
     3
100
AcDbLine
 10
21.06422286837685
 20
6.062206035423884
 30
0.0
 11
21.65347086837685
 21
6.072491416287888
 31
0.0
  0
LINE
  5
7F5
330
1F
100
AcDbEntity
  8
TitleBlock&Notes
  6
Continuous
 62
     3
100
AcDbLine
 10
21.06422286837685
 20
6.165226708959889
 30
0.0
 11
21.65347086837685
 21
6.165226708959889
 31
0.0
  0
LINE
  5
7F6
330
1F
100
AcDbEntity
  8
TitleBlock&Notes
  6
Continuous
 62
     3
100
AcDbLine
 10
21.06422286837685
 20
6.152554708959888
 30
0.0
 11
21.65347086837685
 21
6.152554708959888
 31
0.0
  0
LINE
  5
7F7
330
1F
100
AcDbEntity
  8
TitleBlock&Notes
  6
Continuous
 62
     3
100
AcDbLine
 10
21.06422286837685
 20
6.139882708959889
 30
0.0
 11
21.65347086837685
 21
6.139882708959889
 31
0.0
  0
LINE
  5
7F8
330
1F
100
AcDbEntity
  8
TitleBlock&Notes
  6
Continuous
 62
     3
100
AcDbLine
 10
21.36835086837686
 20
6.485718569439889
 30
0.0
 11
21.36835086837686
 21
6.244950569439889
 31
0.0
  0
LINE
  5
7F9
330
1F
100
AcDbEntity
  8
TitleBlock&Notes
  6
Continuous
 62
     3
100
AcDbLine
 10
21.06422286837685
 20
6.327568005087888
 30
0.0
 11
21.36835086837686
 21
6.327568005087888
 31
0.0
  0
LINE
  5
7FA
330
1F
100
AcDbEntity
  8
TitleBlock&Notes
  6
Continuous
 62
     3
100
AcDbLine
 10
21.06422286837685
 20
6.365584005087892
 30
0.0
 11
21.36835086837686
 21
6.365584005087892
 31
0.0
  0
LINE
  5
7FB
330
1F
100
AcDbEntity
  8
TitleBlock&Notes
  6
Continuous
 62
     3
100
AcDbLine
 10
21.06422286837685
 20
6.352912005087882
 30
0.0
 11
21.36835086837686
 21
6.352912005087882
 31
0.0
  0
LINE
  5
7FC
330
1F
100
AcDbEntity
  8
TitleBlock&Notes
  6
Continuous
 62
     3
100
AcDbLine
 10
21.06422286837685
 20
6.340240005087884
 30
0.0
 11
21.36835086837686
 21
6.340240005087884
 31
0.0
  0
LINE
  5
7FD
330
1F
100
AcDbEntity
  8
TitleBlock&Notes
  6
Continuous
 62
     3
100
AcDbLine
 10
21.39369486837689
 20
6.270294569439884
 30
0.0
 11
21.67881486837687
 21
6.270294569439884
 31
0.0
  0
LINE
  5
7FE
330
1F
100
AcDbEntity
  8
TitleBlock&Notes
  6
Continuous
 62
     3
100
AcDbLine
 10
21.39369486837689
 20
6.270294569439884
 30
0.0
 11
21.39369486837689
 21
6.460374569439884
 31
0.0
  0
LINE
  5
7FF
330
1F
100
AcDbEntity
  8
TitleBlock&Notes
  6
Continuous
 62
     3
100
AcDbLine
 10
21.38102286837685
 20
6.473046569439882
 30
0.0
 11
21.38102286837685
 21
6.257622569439886
 31
0.0
  0
LINE
  5
800
330
1F
100
AcDbEntity
  8
TitleBlock&Notes
  6
Continuous
 62
     3
100
AcDbLine
 10
21.38102286837685
 20
6.257622569439886
 30
0.0
 11
21.66614286837688
 21
6.257622569439886
 31
0.0
  0
LINE
  5
801
330
1F
100
AcDbEntity
  8
TitleBlock&Notes
  6
Continuous
 62
     3
100
AcDbLine
 10
21.89423886837686
 20
5.465353314783884
 30
0.0
 11
22.25539086837684
 21
5.471657229279884
 31
0.0
  0
LINE
  5
802
330
1F
100
AcDbEntity
  8
TitleBlock&Notes
  6
Continuous
 62
     3
100
AcDbLine
 10
21.89423886837686
 20
5.455214168799882
 30
0.0
 11
22.25539086837684
 21
5.461518083295886
 31
0.0
  0
LINE
  5
803
330
1F
100
AcDbEntity
  8
TitleBlock&Notes
  6
Continuous
 62
     3
100
AcDbLine
 10
21.89423886837686
 20
5.445075022815884
 30
0.0
 11
22.25539086837684
 21
5.451378937311888
 31
0.0
  0
LINE
  5
804
330
1F
100
AcDbEntity
  8
TitleBlock&Notes
  6
Continuous
 62
     3
100
AcDbLine
 10
21.89423886837686
 20
5.434935876831888
 30
0.0
 11
22.25539086837684
 21
5.441239816671889
 31
0.0
  0
LINE
  5
805
330
1F
100
AcDbEntity
  8
TitleBlock&Notes
  6
Continuous
 62
     3
100
AcDbLine
 10
21.89423886837686
 20
5.424796730847884
 30
0.0
 11
22.25539086837684
 21
5.431100670687879
 31
0.0
  0
LINE
  5
806
330
1F
100
AcDbEntity
  8
TitleBlock&Notes
  6
Continuous
 62
     3
100
AcDbLine
 10
21.89423886837686
 20
5.654056197855888
 30
0.0
 11
22.25539086837684
 21
5.654056197855888
 31
0.0
  0
LINE
  5
807
330
1F
100
AcDbEntity
  8
TitleBlock&Notes
  6
Continuous
 62
     3
100
AcDbLine
 10
21.89423886837686
 20
5.647857891807887
 30
0.0
 11
22.24933897461685
 21
5.654056197855888
 31
0.0
  0
LINE
  5
808
330
1F
100
AcDbEntity
  8
TitleBlock&Notes
  6
Continuous
 62
     3
100
AcDbLine
 10
21.89423886837686
 20
5.637718745823883
 30
0.0
 11
22.25539086837684
 21
5.644022685663887
 31
0.0
  0
LINE
  5
809
330
1F
100
AcDbEntity
  8
TitleBlock&Notes
  6
Continuous
 62
     3
100
AcDbLine
 10
21.89423886837686
 20
5.627579625183885
 30
0.0
 11
22.25539086837684
 21
5.63388353967989
 31
0.0
  0
LINE
  5
80A
330
1F
100
AcDbEntity
  8
TitleBlock&Notes
  6
Continuous
 62
     3
100
AcDbLine
 10
21.89423886837686
 20
5.617440479199893
 30
0.0
 11
22.25539086837684
 21
5.623744393695888
 31
0.0
  0
LINE
  5
80B
330
1F
100
AcDbEntity
  8
TitleBlock&Notes
  6
Continuous
 62
     3
100
AcDbLine
 10
21.89423886837686
 20
5.607301333215887
 30
0.0
 11
22.25539086837684
 21
5.613605247711879
 31
0.0
  0
LINE
  5
80C
330
1F
100
AcDbEntity
  8
TitleBlock&Notes
  6
Continuous
 62
     3
100
AcDbLine
 10
21.89423886837686
 20
5.59716218723189
 30
0.0
 11
22.25539086837684
 21
5.603466101727881
 31
0.0
  0
LINE
  5
80D
330
1F
100
AcDbEntity
  8
TitleBlock&Notes
  6
Continuous
 62
     3
100
AcDbLine
 10
21.89423886837686
 20
5.58702304124788
 30
0.0
 11
22.25539086837684
 21
5.593326981087887
 31
0.0
  0
LINE
  5
80E
330
1F
100
AcDbEntity
  8
TitleBlock&Notes
  6
Continuous
 62
     3
100
AcDbLine
 10
21.89423886837686
 20
5.576883895263886
 30
0.0
 11
22.25539086837684
 21
5.583187835103885
 31
0.0
  0
LINE
  5
80F
330
1F
100
AcDbEntity
  8
TitleBlock&Notes
  6
Continuous
 62
     3
100
AcDbLine
 10
21.89423886837686
 20
5.566744749279888
 30
0.0
 11
22.25539086837684
 21
5.573048689119887
 31
0.0
  0
LINE
  5
810
330
1F
100
AcDbEntity
  8
TitleBlock&Notes
  6
Continuous
 62
     3
100
AcDbLine
 10
21.89423886837686
 20
5.556605603295882
 30
0.0
 11
22.25539086837684
 21
5.562909543135885
 31
0.0
  0
LINE
  5
811
330
1F
100
AcDbEntity
  8
TitleBlock&Notes
  6
Continuous
 62
     3
100
AcDbLine
 10
21.89423886837686
 20
5.546466457311881
 30
0.0
 11
22.25539086837684
 21
5.552770397151887
 31
0.0
  0
LINE
  5
812
330
1F
100
AcDbEntity
  8
TitleBlock&Notes
  6
Continuous
 62
     3
100
AcDbLine
 10
21.89423886837686
 20
5.536327311327884
 30
0.0
 11
22.25539086837684
 21
5.542631251167891
 31
0.0
  0
LINE
  5
813
330
1F
100
AcDbEntity
  8
TitleBlock&Notes
  6
Continuous
 62
     3
100
AcDbLine
 10
21.89423886837686
 20
5.526188165343886
 30
0.0
 11
22.25539086837684
 21
5.532492105183888
 31
0.0
  0
LINE
  5
814
330
1F
100
AcDbEntity
  8
TitleBlock&Notes
  6
Continuous
 62
     3
100
AcDbLine
 10
21.89423886837686
 20
5.516049019359884
 30
0.0
 11
22.25539086837684
 21
5.52235295919988
 31
0.0
  0
LINE
  5
815
330
1F
100
AcDbEntity
  8
TitleBlock&Notes
  6
Continuous
 62
     3
100
AcDbLine
 10
21.89423886837686
 20
5.505909873375887
 30
0.0
 11
22.25539086837684
 21
5.512213813215881
 31
0.0
  0
LINE
  5
816
330
1F
100
AcDbEntity
  8
TitleBlock&Notes
  6
Continuous
 62
     3
100
AcDbLine
 10
21.89423886837686
 20
5.495770727391878
 30
0.0
 11
22.25539086837684
 21
5.502074667231885
 31
0.0
  0
LINE
  5
817
330
1F
100
AcDbEntity
  8
TitleBlock&Notes
  6
Continuous
 62
     3
100
AcDbLine
 10
21.89423886837686
 20
5.485631606751883
 30
0.0
 11
22.25539086837684
 21
5.491935521247882
 31
0.0
  0
LINE
  5
818
330
1F
100
AcDbEntity
  8
TitleBlock&Notes
  6
Continuous
 62
     3
100
AcDbLine
 10
21.89423886837686
 20
5.47549246076789
 30
0.0
 11
22.25539086837684
 21
5.481796375263884
 31
0.0
  0
LINE
  5
819
330
1F
100
AcDbEntity
  8
TitleBlock&Notes
  6
Continuous
 62
     3
100
AcDbLine
 10
21.89423886837686
 20
5.953394790111882
 30
0.0
 11
22.25539086837684
 21
5.953394790111882
 31
0.0
  0
LINE
  5
81A
330
1F
100
AcDbEntity
  8
TitleBlock&Notes
  6
Continuous
 62
     3
100
AcDbLine
 10
21.89423886837686
 20
5.903505024735882
 30
0.0
 11
22.25539086837684
 21
5.903505024735882
 31
0.0
  0
LINE
  5
81B
330
1F
100
AcDbEntity
  8
TitleBlock&Notes
  6
Continuous
 62
     3
100
AcDbLine
 10
21.89423886837686
 20
5.703945963231884
 30
0.0
 11
22.25539086837684
 21
5.703945963231884
 31
0.0
  0
LINE
  5
81C
330
1F
100
AcDbEntity
  8
TitleBlock&Notes
  6
Continuous
 62
     3
100
AcDbLine
 10
21.89423886837686
 20
5.891940709599881
 30
0.0
 11
22.25539086837684
 21
5.898244649439886
 31
0.0
  0
LINE
  5
81D
330
1F
100
AcDbEntity
  8
TitleBlock&Notes
  6
Continuous
 62
     3
100
AcDbLine
 10
21.89423886837686
 20
5.881801563615882
 30
0.0
 11
22.25539086837684
 21
5.88810550345588
 31
0.0
  0
LINE
  5
81E
330
1F
100
AcDbEntity
  8
TitleBlock&Notes
  6
Continuous
 62
     3
100
AcDbLine
 10
21.89423886837686
 20
5.871662417631887
 30
0.0
 11
22.25539086837684
 21
5.877966357471888
 31
0.0
  0
LINE
  5
81F
330
1F
100
AcDbEntity
  8
TitleBlock&Notes
  6
Continuous
 62
     3
100
AcDbLine
 10
21.89423886837686
 20
5.861523271647883
 30
0.0
 11
22.25539086837684
 21
5.867827211487883
 31
0.0
  0
LINE
  5
820
330
1F
100
AcDbEntity
  8
TitleBlock&Notes
  6
Continuous
 62
     3
100
AcDbLine
 10
21.89423886837686
 20
5.851384125663887
 30
0.0
 11
22.25539086837684
 21
5.857688065503883
 31
0.0
  0
LINE
  5
821
330
1F
100
AcDbEntity
  8
TitleBlock&Notes
  6
Continuous
 62
     3
100
AcDbLine
 10
21.89423886837686
 20
5.841244979679885
 30
0.0
 11
22.25539086837684
 21
5.847548919519891
 31
0.0
  0
LINE
  5
822
330
1F
100
AcDbEntity
  8
TitleBlock&Notes
  6
Continuous
 62
     3
100
AcDbLine
 10
21.89423886837686
 20
5.831105833695887
 30
0.0
 11
22.25539086837684
 21
5.837409773535886
 31
0.0
  0
LINE
  5
823
330
1F
100
AcDbEntity
  8
TitleBlock&Notes
  6
Continuous
 62
     3
100
AcDbLine
 10
21.89423886837686
 20
5.820966687711889
 30
0.0
 11
22.25539086837684
 21
5.827270627551888
 31
0.0
  0
LINE
  5
824
330
1F
100
AcDbEntity
  8
TitleBlock&Notes
  6
Continuous
 62
     3
100
AcDbLine
 10
21.89423886837686
 20
5.810827541727887
 30
0.0
 11
22.25539086837684
 21
5.817131481567877
 31
0.0
  0
LINE
  5
825
330
1F
100
AcDbEntity
  8
TitleBlock&Notes
  6
Continuous
 62
     3
100
AcDbLine
 10
21.89423886837686
 20
5.800688421087881
 30
0.0
 11
22.25539086837684
 21
5.806992335583884
 31
0.0
  0
LINE
  5
826
330
1F
100
AcDbEntity
  8
TitleBlock&Notes
  6
Continuous
 62
     3
100
AcDbLine
 10
21.89423886837686
 20
5.790549275103882
 30
0.0
 11
22.25539086837684
 21
5.796853189599891
 31
0.0
  0
LINE
  5
827
330
1F
100
AcDbEntity
  8
TitleBlock&Notes
  6
Continuous
 62
     3
100
AcDbLine
 10
21.89423886837686
 20
5.780410129119894
 30
0.0
 11
22.25539086837684
 21
5.786714043615882
 31
0.0
  0
LINE
  5
828
330
1F
100
AcDbEntity
  8
TitleBlock&Notes
  6
Continuous
 62
     3
100
AcDbLine
 10
21.89423886837686
 20
5.770270983135883
 30
0.0
 11
22.25539086837684
 21
5.776574897631887
 31
0.0
  0
LINE
  5
829
330
1F
100
AcDbEntity
  8
TitleBlock&Notes
  6
Continuous
 62
     3
100
AcDbLine
 10
21.89423886837686
 20
5.760131837151885
 30
0.0
 11
22.25539086837684
 21
5.766435776991884
 31
0.0
  0
LINE
  5
82A
330
1F
100
AcDbEntity
  8
TitleBlock&Notes
  6
Continuous
 62
     3
100
AcDbLine
 10
21.89423886837686
 20
5.74999269116788
 30
0.0
 11
22.25539086837684
 21
5.756296631007886
 31
0.0
  0
LINE
  5
82B
330
1F
100
AcDbEntity
  8
TitleBlock&Notes
  6
Continuous
 62
     3
100
AcDbLine
 10
21.89423886837686
 20
5.739853545183887
 30
0.0
 11
22.25539086837684
 21
5.746157485023887
 31
0.0
  0
LINE
  5
82C
330
1F
100
AcDbEntity
  8
TitleBlock&Notes
  6
Continuous
 62
     3
100
AcDbLine
 10
21.89423886837686
 20
5.729714399199889
 30
0.0
 11
22.25539086837684
 21
5.736018339039888
 31
0.0
  0
LINE
  5
82D
330
1F
100
AcDbEntity
  8
TitleBlock&Notes
  6
Continuous
 62
     3
100
AcDbLine
 10
21.89423886837686
 20
5.719575253215883
 30
0.0
 11
22.25539086837684
 21
5.725879193055887
 31
0.0
  0
LINE
  5
82E
330
1F
100
AcDbEntity
  8
TitleBlock&Notes
  6
Continuous
 62
     3
100
AcDbLine
 10
21.89423886837686
 20
5.709436107231891
 30
0.0
 11
22.25539086837684
 21
5.715740047071888
 31
0.0
  0
LINE
  5
82F
330
1F
100
AcDbEntity
  8
TitleBlock&Notes
  6
Continuous
 62
     3
100
AcDbLine
 10
21.89423886837686
 20
6.046276596447892
 30
0.0
 11
22.25539086837684
 21
6.052580536287882
 31
0.0
  0
LINE
  5
830
330
1F
100
AcDbEntity
  8
TitleBlock&Notes
  6
Continuous
 62
     3
100
AcDbLine
 10
21.89423886837686
 20
6.036137450463882
 30
0.0
 11
22.25539086837684
 21
6.042441390303888
 31
0.0
  0
LINE
  5
831
330
1F
100
AcDbEntity
  8
TitleBlock&Notes
  6
Continuous
 62
     3
100
AcDbLine
 10
21.89423886837686
 20
6.025998304479886
 30
0.0
 11
22.25539086837684
 21
6.032302244319882
 31
0.0
  0
LINE
  5
832
330
1F
100
AcDbEntity
  8
TitleBlock&Notes
  6
Continuous
 62
     3
100
AcDbLine
 10
21.89423886837686
 20
6.015859158495887
 30
0.0
 11
22.25539086837684
 21
6.022163098335886
 31
0.0
  0
LINE
  5
833
330
1F
100
AcDbEntity
  8
TitleBlock&Notes
  6
Continuous
 62
     3
100
AcDbLine
 10
21.89423886837686
 20
6.005720012511885
 30
0.0
 11
22.25539086837684
 21
6.012023952351883
 31
0.0
  0
LINE
  5
834
330
1F
100
AcDbEntity
  8
TitleBlock&Notes
  6
Continuous
 62
     3
100
AcDbLine
 10
21.89423886837686
 20
5.995580866527888
 30
0.0
 11
22.25539086837684
 21
6.001884806367887
 31
0.0
  0
LINE
  5
835
330
1F
100
AcDbEntity
  8
TitleBlock&Notes
  6
Continuous
 62
     3
100
AcDbLine
 10
21.89423886837686
 20
5.985441720543883
 30
0.0
 11
22.25539086837684
 21
5.991745660383888
 31
0.0
  0
LINE
  5
836
330
1F
100
AcDbEntity
  8
TitleBlock&Notes
  6
Continuous
 62
     3
100
AcDbLine
 10
21.89423886837686
 20
5.97530257455989
 30
0.0
 11
22.25539086837684
 21
5.981606514399887
 31
0.0
  0
LINE
  5
837
330
1F
100
AcDbEntity
  8
TitleBlock&Notes
  6
Continuous
 62
     3
100
AcDbLine
 10
21.89423886837686
 20
5.965163428575892
 30
0.0
 11
22.25539086837684
 21
5.971467368415892
 31
0.0
  0
LINE
  5
838
330
1F
100
AcDbEntity
  8
TitleBlock&Notes
  6
Continuous
 62
     3
100
AcDbLine
 10
21.89423886837686
 20
5.955024282591887
 30
0.0
 11
22.25539086837684
 21
5.961328222431879
 31
0.0
  0
LINE
  5
839
330
1F
100
AcDbEntity
  8
TitleBlock&Notes
  6
Continuous
 62
     3
100
AcDbLine
 10
22.16057957263285
 20
5.703945963231884
 30
0.0
 11
22.25539086837684
 21
5.705600901087891
 31
0.0
  0
LINE
  5
83A
330
1F
100
AcDbEntity
  8
TitleBlock&Notes
  6
Continuous
 62
     3
100
AcDbLine
 10
21.89423886837686
 20
5.902079855583889
 30
0.0
 11
21.97588649052085
 21
5.903505024735882
 31
0.0
  0
LINE
  5
83B
330
1F
100
AcDbEntity
  8
TitleBlock&Notes
  6
Continuous
 62
     3
100
AcDbLine
 10
22.49615886837685
 20
5.902447267551879
 30
0.0
 11
22.55675769026489
 21
5.903505024735882
 31
0.0
  0
LINE
  5
83C
330
1F
100
AcDbEntity
  8
TitleBlock&Notes
  6
Continuous
 62
     3
100
AcDbLine
 10
21.89423886837686
 20
6.078119178207884
 30
0.0
 11
22.25539086837684
 21
6.078119178207884
 31
0.0
  0
LINE
  5
83D
330
1F
100
AcDbEntity
  8
TitleBlock&Notes
  6
Continuous
 62
     3
100
AcDbLine
 10
21.89423886837686
 20
6.066554888415891
 30
0.0
 11
22.25539086837684
 21
6.072858802911887
 31
0.0
  0
LINE
  5
83E
330
1F
100
AcDbEntity
  8
TitleBlock&Notes
  6
Continuous
 62
     3
100
AcDbLine
 10
21.89423886837686
 20
6.056415742431886
 30
0.0
 11
22.25539086837684
 21
6.062719656927892
 31
0.0
  0
LINE
  5
83F
330
1F
100
AcDbEntity
  8
TitleBlock&Notes
  6
Continuous
 62
     3
100
AcDbLine
 10
21.89423886837686
 20
6.177898708959883
 30
0.0
 11
22.25539086837684
 21
6.177898708959883
 31
0.0
  0
LINE
  5
840
330
1F
100
AcDbEntity
  8
TitleBlock&Notes
  6
Continuous
 62
     3
100
AcDbLine
 10
21.89423886837686
 20
6.165226708959889
 30
0.0
 11
22.25539086837684
 21
6.165226708959889
 31
0.0
  0
LINE
  5
841
330
1F
100
AcDbEntity
  8
TitleBlock&Notes
  6
Continuous
 62
     3
100
AcDbLine
 10
21.89423886837686
 20
6.128008943583879
 30
0.0
 11
22.25539086837684
 21
6.128008943583879
 31
0.0
  0
LINE
  5
842
330
1F
100
AcDbEntity
  8
TitleBlock&Notes
  6
Continuous
 62
     3
100
AcDbLine
 10
21.89423886837686
 20
6.152554708959888
 30
0.0
 11
22.25539086837684
 21
6.152554708959888
 31
0.0
  0
LINE
  5
843
330
1F
100
AcDbEntity
  8
TitleBlock&Notes
  6
Continuous
 62
     3
100
AcDbLine
 10
21.89423886837686
 20
6.139882708959889
 30
0.0
 11
22.25539086837684
 21
6.139882708959889
 31
0.0
  0
LINE
  5
844
330
1F
100
AcDbEntity
  8
TitleBlock&Notes
  6
Continuous
 62
     3
100
AcDbLine
 10
22.17935886837685
 20
6.327568005087888
 30
0.0
 11
22.25539086837684
 21
6.327568005087888
 31
0.0
  0
LINE
  5
845
330
1F
100
AcDbEntity
  8
TitleBlock&Notes
  6
Continuous
 62
     3
100
AcDbLine
 10
22.17935886837685
 20
6.365584005087892
 30
0.0
 11
22.25539086837684
 21
6.365584005087892
 31
0.0
  0
LINE
  5
846
330
1F
100
AcDbEntity
  8
TitleBlock&Notes
  6
Continuous
 62
     3
100
AcDbLine
 10
22.17935886837685
 20
6.340240005087884
 30
0.0
 11
22.25539086837684
 21
6.340240005087884
 31
0.0
  0
LINE
  5
847
330
1F
100
AcDbEntity
  8
TitleBlock&Notes
  6
Continuous
 62
     3
100
AcDbLine
 10
22.17935886837685
 20
6.352912005087882
 30
0.0
 11
22.25539086837684
 21
6.352912005087882
 31
0.0
  0
LINE
  5
848
330
1F
100
AcDbEntity
  8
TitleBlock&Notes
  6
Continuous
 62
     3
100
AcDbLine
 10
21.89423886837686
 20
6.076694034399888
 30
0.0
 11
21.97588649052085
 21
6.078119178207884
 31
0.0
  0
LINE
  5
849
330
1F
100
AcDbEntity
  8
TitleBlock&Notes
  6
Continuous
 62
     3
100
AcDbLine
 10
21.89423886837686
 20
6.244950569439889
 30
0.0
 11
22.17935886837685
 21
6.244950569439889
 31
0.0
  0
LINE
  5
84A
330
1F
100
AcDbEntity
  8
TitleBlock&Notes
  6
Continuous
 62
     3
100
AcDbLine
 10
21.88156686837686
 20
6.257622569439886
 30
0.0
 11
22.16668686837687
 21
6.257622569439886
 31
0.0
  0
LINE
  5
84B
330
1F
100
AcDbEntity
  8
TitleBlock&Notes
  6
Continuous
 62
     3
100
AcDbLine
 10
22.15401486837687
 20
6.270294569439884
 30
0.0
 11
21.86889486837688
 21
6.270294569439884
 31
0.0
  0
LINE
  5
84C
330
1F
100
AcDbEntity
  8
TitleBlock&Notes
  6
Continuous
 62
     3
100
AcDbLine
 10
22.15401486837687
 20
6.460374569439884
 30
0.0
 11
22.15401486837687
 21
6.270294569439884
 31
0.0
  0
LINE
  5
84D
330
1F
100
AcDbEntity
  8
TitleBlock&Notes
  6
Continuous
 62
     3
100
AcDbLine
 10
22.17935886837685
 20
6.244950569439889
 30
0.0
 11
22.17935886837685
 21
6.485718569439889
 31
0.0
  0
LINE
  5
84E
330
1F
100
AcDbEntity
  8
TitleBlock&Notes
  6
Continuous
 62
     3
100
AcDbLine
 10
22.16668686837687
 20
6.257622569439886
 30
0.0
 11
22.16668686837687
 21
6.473046569439882
 31
0.0
  0
LINE
  5
84F
330
1F
100
AcDbEntity
  8
TitleBlock&Notes
  6
Continuous
 62
     3
100
AcDbLine
 10
22.49615886837685
 20
6.077061446367882
 30
0.0
 11
22.55675769026489
 21
6.078119178207884
 31
0.0
  0
LINE
  5
850
330
1F
100
AcDbEntity
  8
TitleBlock&Notes
  6
Continuous
 62
     3
100
AcDbLine
 10
22.28073486837686
 20
6.460374569439884
 30
0.0
 11
22.47081486837687
 21
6.460374569439884
 31
0.0
  0
LINE
  5
851
330
1F
100
AcDbEntity
  8
TitleBlock&Notes
  6
Continuous
 62
     3
100
AcDbLine
 10
22.25539086837684
 20
6.485718569439889
 30
0.0
 11
22.49615886837685
 21
6.485718569439889
 31
0.0
  0
LINE
  5
852
330
1F
100
AcDbEntity
  8
TitleBlock&Notes
  6
Continuous
 62
     3
100
AcDbLine
 10
22.26806286837688
 20
6.473046569439882
 30
0.0
 11
22.48348686837687
 21
6.473046569439882
 31
0.0
  0
LINE
  5
854
330
1F
100
AcDbEntity
  8
TitleBlock&Notes
 62
     3
100
AcDbLine
 10
30.52905939343288
 20
39.59932863919989
 30
0.0
 11
30.52905939343288
 21
4.39932863919989
 31
0.0
  0
TEXT
  5
855
330
1F
100
AcDbEntity
  8
TitleBlock&Notes
  6
Continuous
 62
     3
100
AcDbText
 10
26.40842203303667
 20
4.846688541261841
 30
0.0
 40
0.1622016
  1
FAX (905) 951-0672
 41
1.282051279999999
100
AcDbText
  0
TEXT
  5
856
330
1F
100
AcDbEntity
  8
TitleBlock&Notes
  6
Continuous
 62
     3
100
AcDbText
 10
26.85136766877671
 20
5.131740596135597
 30
0.0
 40
0.1622016
  1
(905) 951-0670 
 41
1.282051279999999
100
AcDbText
  0
TEXT
  5
857
330
1F
100
AcDbEntity
  8
TitleBlock&Notes
  6
Continuous
 62
     3
100
AcDbText
 10
26.12986931295728
 20
6.508560430767476
 30
0.0
 40
0.38016
  1
MULTICYL  Inc.
 41
0.85470085
100
AcDbText
  0
TEXT
  5
858
330
1F
100
AcDbEntity
  8
TitleBlock&Notes
  6
Continuous
 62
     3
100
AcDbText
 10
26.46000381255269
 20
6.12475345223615
 30
0.0
 40
0.202752
  1
640 Hardwick Road, Unit 5
 41
0.7000000000000001
100
AcDbText
  0
LINE
  5
859
330
1F
100
AcDbEntity
  8
TitleBlock&Notes
  6
Continuous
 62
     3
100
AcDbLine
 10
25.19529486837689
 20
5.319894569439882
 30
0.0
 11
25.19529486837689
 21
5.560662569439881
 31
0.0
  0
LINE
  5
85A
330
1F
100
AcDbEntity
  8
TitleBlock&Notes
  6
Continuous
 62
     3
100
AcDbLine
 10
25.18262286837687
 20
5.33256656943988
 30
0.0
 11
25.18262286837687
 21
5.547990569439884
 31
0.0
  0
LINE
  5
85B
330
1F
100
AcDbEntity
  8
TitleBlock&Notes
  6
Continuous
 62
     3
100
AcDbLine
 10
25.16995086837686
 20
5.345238569439877
 30
0.0
 11
25.16995086837686
 21
5.535318569439886
 31
0.0
  0
LINE
  5
85C
330
1F
100
AcDbEntity
  8
TitleBlock&Notes
  6
Continuous
 62
     3
100
AcDbLine
 10
25.19529486837689
 20
5.411442875871887
 30
0.0
 11
25.47522631797686
 21
5.416329097695889
 31
0.0
  0
LINE
  5
85D
330
1F
100
AcDbEntity
  8
TitleBlock&Notes
  6
Continuous
 62
     3
100
AcDbLine
 10
24.49833486837686
 20
5.345238569439877
 30
0.0
 11
24.49833486837686
 21
6.460374569439884
 31
0.0
  0
LINE
  5
85E
330
1F
100
AcDbEntity
  8
TitleBlock&Notes
  6
Continuous
 62
     3
100
AcDbLine
 10
24.47299086837686
 20
6.485718569439889
 30
0.0
 11
24.47299086837686
 21
5.319894569439882
 31
0.0
  0
LINE
  5
85F
330
1F
100
AcDbEntity
  8
TitleBlock&Notes
  6
Continuous
 62
     3
100
AcDbLine
 10
24.48566286837688
 20
6.473046569439882
 30
0.0
 11
24.48566286837688
 21
5.33256656943988
 31
0.0
  0
LINE
  5
860
330
1F
100
AcDbEntity
  8
TitleBlock&Notes
  6
Continuous
 62
     3
100
AcDbLine
 10
23.38163463669685
 20
5.410202743263889
 30
0.0
 11
23.83939086837686
 21
5.418192895455885
 31
0.0
  0
LINE
  5
861
330
1F
100
AcDbEntity
  8
TitleBlock&Notes
  6
Continuous
 62
     3
100
AcDbLine
 10
23.86473486837687
 20
5.345238569439877
 30
0.0
 11
23.86473486837687
 21
5.725398569439888
 31
0.0
  0
LINE
  5
862
330
1F
100
AcDbEntity
  8
TitleBlock&Notes
  6
Continuous
 62
     3
100
AcDbLine
 10
24.05481486837687
 20
5.345238569439877
 30
0.0
 11
24.05481486837687
 21
5.725398569439888
 31
0.0
  0
LINE
  5
863
330
1F
100
AcDbEntity
  8
TitleBlock&Notes
  6
Continuous
 62
     3
100
AcDbLine
 10
23.83939086837686
 20
5.720169037791889
 30
0.0
 11
23.83939086837686
 21
5.319894569439882
 31
0.0
  0
LINE
  5
864
330
1F
100
AcDbEntity
  8
TitleBlock&Notes
  6
Continuous
 62
     3
100
AcDbLine
 10
24.08015886837686
 20
5.319894569439882
 30
0.0
 11
24.08015886837686
 21
5.720169037791889
 31
0.0
  0
LINE
  5
865
330
1F
100
AcDbEntity
  8
TitleBlock&Notes
  6
Continuous
 62
     3
100
AcDbLine
 10
24.06748686837686
 20
5.722783803615887
 30
0.0
 11
24.06748686837686
 21
5.33256656943988
 31
0.0
  0
LINE
  5
866
330
1F
100
AcDbEntity
  8
TitleBlock&Notes
  6
Continuous
 62
     3
100
AcDbLine
 10
23.85206286837687
 20
5.33256656943988
 30
0.0
 11
23.85206286837687
 21
5.722783803615887
 31
0.0
  0
ARC
  5
867
330
1F
100
AcDbEntity
  8
TitleBlock&Notes
  6
Continuous
 62
     3
100
AcDbCircle
 10
23.10441486837687
 20
5.790540556767883
 30
0.0
 40
0.4453020126720002
100
AcDbArc
 50
185.1275404200004
 51
354.8724595800009
  0
ARC
  5
868
330
1F
100
AcDbEntity
  8
TitleBlock&Notes
  6
Continuous
 62
     3
100
AcDbCircle
 10
23.10441486837687
 20
5.790540556767883
 30
0.0
 40
0.470646012672
100
AcDbArc
 50
184.9874829000004
 51
358.2401137300008
  0
ARC
  5
869
330
1F
100
AcDbEntity
  8
TitleBlock&Notes
  6
Continuous
 62
     3
100
AcDbCircle
 10
23.10441486837687
 20
5.790540556767883
 30
0.0
 40
0.457974012672
100
AcDbArc
 50
184.9874829000004
 51
356.6043585300008
  0
LINE
  5
86A
330
1F
100
AcDbEntity
  8
TitleBlock&Notes
  6
Continuous
 62
     3
100
AcDbLine
 10
24.08015886837686
 20
5.412256392927888
 30
0.0
 11
24.47299086837686
 21
5.419113288159882
 31
0.0
  0
LINE
  5
86B
330
1F
100
AcDbEntity
  8
TitleBlock&Notes
  6
Continuous
 62
     3
100
AcDbLine
 10
25.47522631797686
 20
7.250528639199889
 30
0.0
 11
25.47522631797686
 21
4.399328639199881
 31
0.0
  0
TEXT
  5
86C
330
1F
100
AcDbEntity
  8
TitleBlock&Notes
  6
Continuous
 62
     3
100
AcDbText
 10
23.26749894645686
 20
4.729417866975891
 30
0.0
 40
0.177408
  1
 HYDRAULICS
 41
0.8
 51
11.0
100
AcDbText
  0
LINE
  5
86D
330
1F
100
AcDbEntity
  8
TitleBlock&Notes
  6
Continuous
 62
     3
100
AcDbLine
 10
22.71107167989686
 20
5.15515856943989
 30
0.0
 11
25.47522631797686
 21
5.203407057375891
 31
0.0
  0
LINE
  5
86E
330
1F
100
AcDbEntity
  8
TitleBlock&Notes
  6
Continuous
 62
     3
100
AcDbLine
 10
23.29194285429687
 20
5.15515856943989
 30
0.0
 11
25.47522631797686
 21
5.193267911391894
 31
0.0
  0
LINE
  5
86F
330
1F
100
AcDbEntity
  8
TitleBlock&Notes
  6
Continuous
 62
     3
100
AcDbLine
 10
23.87281405404086
 20
5.15515856943989
 30
0.0
 11
25.47522631797686
 21
5.183128765407883
 31
0.0
  0
LINE
  5
870
330
1F
100
AcDbEntity
  8
TitleBlock&Notes
  6
Continuous
 62
     3
100
AcDbLine
 10
24.08015886837686
 20
5.40211724694389
 30
0.0
 11
24.47299086837686
 21
5.408974142175884
 31
0.0
  0
LINE
  5
871
330
1F
100
AcDbEntity
  8
TitleBlock&Notes
  6
Continuous
 62
     3
100
AcDbLine
 10
24.08015886837686
 20
5.391978100959881
 30
0.0
 11
24.47299086837686
 21
5.398834996191881
 31
0.0
  0
LINE
  5
872
330
1F
100
AcDbEntity
  8
TitleBlock&Notes
  6
Continuous
 62
     3
100
AcDbLine
 10
24.08015886837686
 20
5.381838954975885
 30
0.0
 11
24.47299086837686
 21
5.388695850207883
 31
0.0
  0
LINE
  5
873
330
1F
100
AcDbEntity
  8
TitleBlock&Notes
  6
Continuous
 62
     3
100
AcDbLine
 10
24.08015886837686
 20
5.371699808991881
 30
0.0
 11
24.47299086837686
 21
5.378556704223884
 31
0.0
  0
LINE
  5
874
330
1F
100
AcDbEntity
  8
TitleBlock&Notes
  6
Continuous
 62
     3
100
AcDbLine
 10
24.08015886837686
 20
5.361560663007884
 30
0.0
 11
24.47299086837686
 21
5.368417558239887
 31
0.0
  0
LINE
  5
875
330
1F
100
AcDbEntity
  8
TitleBlock&Notes
  6
Continuous
 62
     3
100
AcDbLine
 10
24.08015886837686
 20
5.351421517023887
 30
0.0
 11
24.47299086837686
 21
5.358278437599889
 31
0.0
  0
LINE
  5
876
330
1F
100
AcDbEntity
  8
TitleBlock&Notes
  6
Continuous
 62
     3
100
AcDbLine
 10
24.08015886837686
 20
5.341282371039886
 30
0.0
 11
24.47299086837686
 21
5.348139291615888
 31
0.0
  0
LINE
  5
877
330
1F
100
AcDbEntity
  8
TitleBlock&Notes
  6
Continuous
 62
     3
100
AcDbLine
 10
24.08015886837686
 20
5.331143225055888
 30
0.0
 11
24.47299086837686
 21
5.338000145631879
 31
0.0
  0
LINE
  5
878
330
1F
100
AcDbEntity
  8
TitleBlock&Notes
  6
Continuous
 62
     3
100
AcDbLine
 10
24.08015886837686
 20
5.321004079071882
 30
0.0
 11
24.47299086837686
 21
5.327860999647882
 31
0.0
  0
LINE
  5
879
330
1F
100
AcDbEntity
  8
TitleBlock&Notes
  6
Continuous
 62
     3
100
AcDbLine
 10
23.36677486658487
 20
5.399804226783884
 30
0.0
 11
23.83939086837686
 21
5.408053774815886
 31
0.0
  0
LINE
  5
87A
330
1F
100
AcDbEntity
  8
TitleBlock&Notes
  6
Continuous
 62
     3
100
AcDbLine
 10
23.35054342850487
 20
5.389381760223884
 30
0.0
 11
23.83939086837686
 21
5.397914628831887
 31
0.0
  0
LINE
  5
87B
330
1F
100
AcDbEntity
  8
TitleBlock&Notes
  6
Continuous
 62
     3
100
AcDbLine
 10
23.33263497794487
 20
5.378930021343884
 30
0.0
 11
23.83939086837686
 21
5.38777548284788
 31
0.0
  0
LINE
  5
87C
330
1F
100
AcDbEntity
  8
TitleBlock&Notes
  6
Continuous
 62
     3
100
AcDbLine
 10
23.31259676968887
 20
5.368441102815889
 30
0.0
 11
23.83939086837686
 21
5.377636336863881
 31
0.0
  0
LINE
  5
87D
330
1F
100
AcDbEntity
  8
TitleBlock&Notes
  6
Continuous
 62
     3
100
AcDbLine
 10
23.28970338242486
 20
5.357902357983886
 30
0.0
 11
23.83939086837686
 21
5.367497190879884
 31
0.0
  0
LINE
  5
87E
330
1F
100
AcDbEntity
  8
TitleBlock&Notes
  6
Continuous
 62
     3
100
AcDbLine
 10
23.26264706575287
 20
5.347290951903879
 30
0.0
 11
23.83939086837686
 21
5.357358044895882
 31
0.0
  0
LINE
  5
87F
330
1F
100
AcDbEntity
  8
TitleBlock&Notes
  6
Continuous
 62
     3
100
AcDbLine
 10
23.22853586652085
 20
5.336556373983887
 30
0.0
 11
23.83939086837686
 21
5.347218898911886
 31
0.0
  0
LINE
  5
880
330
1F
100
AcDbEntity
  8
TitleBlock&Notes
  6
Continuous
 62
     3
100
AcDbLine
 10
23.17694392207286
 20
5.325516704991883
 30
0.0
 11
23.83939086837686
 21
5.337079752927883
 31
0.0
  0
TEXT
  5
881
330
1F
100
AcDbEntity
  8
TitleBlock&Notes
  6
Continuous
 62
     3
100
AcDbText
 10
22.86917104936887
 20
4.729417866975891
 30
0.0
 40
0.177408
  1
 of
 41
0.8
 51
11.0
100
AcDbText
  0
LINE
  5
882
330
1F
100
AcDbEntity
  8
TitleBlock&Notes
  6
Continuous
 62
     3
100
AcDbLine
 10
23.83939086837686
 20
5.319894569439882
 30
0.0
 11
24.08015886837686
 21
5.319894569439882
 31
0.0
  0
LINE
  5
883
330
1F
100
AcDbEntity
  8
TitleBlock&Notes
  6
Continuous
 62
     3
100
AcDbLine
 10
23.86473486837687
 20
5.345238569439877
 30
0.0
 11
24.05481486837687
 21
5.345238569439877
 31
0.0
  0
LINE
  5
884
330
1F
100
AcDbEntity
  8
TitleBlock&Notes
  6
Continuous
 62
     3
100
AcDbLine
 10
24.06748686837686
 20
5.33256656943988
 30
0.0
 11
23.85206286837687
 21
5.33256656943988
 31
0.0
  0
LINE
  5
885
330
1F
100
AcDbEntity
  8
TitleBlock&Notes
  6
Continuous
 62
     3
100
AcDbLine
 10
24.49833486837686
 20
5.345238569439877
 30
0.0
 11
25.16995086837686
 21
5.345238569439877
 31
0.0
  0
LINE
  5
886
330
1F
100
AcDbEntity
  8
TitleBlock&Notes
  6
Continuous
 62
     3
100
AcDbLine
 10
24.47299086837686
 20
5.319894569439882
 30
0.0
 11
25.19529486837689
 21
5.319894569439882
 31
0.0
  0
LINE
  5
887
330
1F
100
AcDbEntity
  8
TitleBlock&Notes
  6
Continuous
 62
     3
100
AcDbLine
 10
24.48566286837688
 20
5.33256656943988
 30
0.0
 11
25.18262286837687
 21
5.33256656943988
 31
0.0
  0
LINE
  5
888
330
1F
100
AcDbEntity
  8
TitleBlock&Notes
  6
Continuous
 62
     3
100
AcDbLine
 10
25.03455642818488
 20
5.15515856943989
 30
0.0
 11
25.47522631797686
 21
5.162850473439887
 31
0.0
  0
LINE
  5
889
330
1F
100
AcDbEntity
  8
TitleBlock&Notes
  6
Continuous
 62
     3
100
AcDbLine
 10
24.45368522844088
 20
5.15515856943989
 30
0.0
 11
25.47522631797686
 21
5.172989619423877
 31
0.0
  0
LINE
  5
88A
330
1F
100
AcDbEntity
  8
TitleBlock&Notes
  6
Continuous
 62
     3
100
AcDbLine
 10
25.19529486837689
 20
5.401303729887892
 30
0.0
 11
25.47522631797686
 21
5.40618995171188
 31
0.0
  0
LINE
  5
88B
330
1F
100
AcDbEntity
  8
TitleBlock&Notes
  6
Continuous
 62
     3
100
AcDbLine
 10
25.19529486837689
 20
5.391164583903886
 30
0.0
 11
25.47522631797686
 21
5.396050805727882
 31
0.0
  0
LINE
  5
88C
330
1F
100
AcDbEntity
  8
TitleBlock&Notes
  6
Continuous
 62
     3
100
AcDbLine
 10
25.19529486837689
 20
5.381025437919877
 30
0.0
 11
25.47522631797686
 21
5.385911659743884
 31
0.0
  0
LINE
  5
88D
330
1F
100
AcDbEntity
  8
TitleBlock&Notes
  6
Continuous
 62
     3
100
AcDbLine
 10
25.19529486837689
 20
5.37088629193588
 30
0.0
 11
25.47522631797686
 21
5.375772513759882
 31
0.0
  0
LINE
  5
88E
330
1F
100
AcDbEntity
  8
TitleBlock&Notes
  6
Continuous
 62
     3
100
AcDbLine
 10
25.19529486837689
 20
5.360747145951886
 30
0.0
 11
25.47522631797686
 21
5.365633367775886
 31
0.0
  0
LINE
  5
88F
330
1F
100
AcDbEntity
  8
TitleBlock&Notes
  6
Continuous
 62
     3
100
AcDbLine
 10
25.19529486837689
 20
5.350607999967881
 30
0.0
 11
25.47522631797686
 21
5.355494221791883
 31
0.0
  0
LINE
  5
890
330
1F
100
AcDbEntity
  8
TitleBlock&Notes
  6
Continuous
 62
     3
100
AcDbLine
 10
25.19529486837689
 20
5.340468853983884
 30
0.0
 11
25.47522631797686
 21
5.345355075807886
 31
0.0
  0
LINE
  5
891
330
1F
100
AcDbEntity
  8
TitleBlock&Notes
  6
Continuous
 62
     3
100
AcDbLine
 10
25.19529486837689
 20
5.330329707999881
 30
0.0
 11
25.47522631797686
 21
5.335215929823889
 31
0.0
  0
LINE
  5
892
330
1F
100
AcDbEntity
  8
TitleBlock&Notes
  6
Continuous
 62
     3
100
AcDbLine
 10
25.19529486837689
 20
5.320190562015884
 30
0.0
 11
25.47522631797686
 21
5.325076783839888
 31
0.0
  0
LINE
  5
894
330
1F
100
AcDbEntity
  8
TitleBlock&Notes
  6
Continuous
 62
     3
100
AcDbLine
 10
24.23395553628088
 20
6.076977354975879
 30
0.0
 11
24.29937123880888
 21
6.078119178207884
 31
0.0
  0
LINE
  5
895
330
1F
100
AcDbEntity
  8
TitleBlock&Notes
  6
Continuous
 62
     3
100
AcDbLine
 10
24.15812025640887
 20
5.901039484383883
 30
0.0
 11
24.29937123880888
 21
5.903505024735882
 31
0.0
  0
LINE
  5
896
330
1F
100
AcDbEntity
  8
TitleBlock&Notes
  6
Continuous
 62
     3
100
AcDbLine
 10
24.41013708943287
 20
6.485718569439889
 30
0.0
 11
24.14795515816887
 21
6.485718569439889
 31
0.0
  0
LINE
  5
897
330
1F
100
AcDbEntity
  8
TitleBlock&Notes
  6
Continuous
 62
     3
100
AcDbLine
 10
24.15629211765686
 20
6.473046569439882
 30
0.0
 11
24.39087597890487
 21
6.473046569439882
 31
0.0
  0
LINE
  5
898
330
1F
100
AcDbEntity
  8
TitleBlock&Notes
  6
Continuous
 62
     3
100
AcDbLine
 10
24.16462910248888
 20
6.460374569439884
 30
0.0
 11
24.37161486837688
 21
6.460374569439884
 31
0.0
  0
LINE
  5
899
330
1F
100
AcDbEntity
  8
TitleBlock&Notes
  6
Continuous
 62
     3
100
AcDbLine
 10
24.05481486837687
 20
5.725398569439888
 30
0.0
 11
24.37161486837688
 21
6.460374569439884
 31
0.0
  0
LINE
  5
89A
330
1F
100
AcDbEntity
  8
TitleBlock&Notes
  6
Continuous
 62
     3
100
AcDbLine
 10
24.08015886837686
 20
5.720169037791889
 30
0.0
 11
24.41013708943287
 21
6.485718569439889
 31
0.0
  0
LINE
  5
89B
330
1F
100
AcDbEntity
  8
TitleBlock&Notes
  6
Continuous
 62
     3
100
AcDbLine
 10
24.06748686837686
 20
5.722783803615887
 30
0.0
 11
24.39087597890487
 21
6.473046569439882
 31
0.0
  0
LINE
  5
89C
330
1F
100
AcDbEntity
  8
TitleBlock&Notes
  6
Continuous
 62
     3
100
AcDbLine
 10
24.08015886837686
 20
5.473091243487884
 30
0.0
 11
24.47299086837686
 21
5.479948164063886
 31
0.0
  0
LINE
  5
89D
330
1F
100
AcDbEntity
  8
TitleBlock&Notes
  6
Continuous
 62
     3
100
AcDbLine
 10
24.08015886837686
 20
5.462952097503881
 30
0.0
 11
24.47299086837686
 21
5.469809018079884
 31
0.0
  0
LINE
  5
89E
330
1F
100
AcDbEntity
  8
TitleBlock&Notes
  6
Continuous
 62
     3
100
AcDbLine
 10
24.08015886837686
 20
5.452812951519884
 30
0.0
 11
24.47299086837686
 21
5.459669872095887
 31
0.0
  0
LINE
  5
89F
330
1F
100
AcDbEntity
  8
TitleBlock&Notes
  6
Continuous
 62
     3
100
AcDbLine
 10
24.08015886837686
 20
5.442673805535886
 30
0.0
 11
24.47299086837686
 21
5.449530726111889
 31
0.0
  0
LINE
  5
8A0
330
1F
100
AcDbEntity
  8
TitleBlock&Notes
  6
Continuous
 62
     3
100
AcDbLine
 10
24.08015886837686
 20
5.432534659551886
 30
0.0
 11
24.47299086837686
 21
5.439391580127888
 31
0.0
  0
LINE
  5
8A1
330
1F
100
AcDbEntity
  8
TitleBlock&Notes
  6
Continuous
 62
     3
100
AcDbLine
 10
24.08015886837686
 20
5.422395538911881
 30
0.0
 11
24.47299086837686
 21
5.429252434143879
 31
0.0
  0
LINE
  5
8A2
330
1F
100
AcDbEntity
  8
TitleBlock&Notes
  6
Continuous
 62
     3
100
AcDbLine
 10
24.23444771676086
 20
6.078119178207884
 30
0.0
 11
24.47299086837686
 21
6.078119178207884
 31
0.0
  0
LINE
  5
8A3
330
1F
100
AcDbEntity
  8
TitleBlock&Notes
  6
Continuous
 62
     3
100
AcDbLine
 10
24.25595192335288
 20
6.128008943583879
 30
0.0
 11
24.47299086837686
 21
6.128008943583879
 31
0.0
  0
LINE
  5
8A4
330
1F
100
AcDbEntity
  8
TitleBlock&Notes
  6
Continuous
 62
     3
100
AcDbLine
 10
24.22955209231286
 20
6.066761340639878
 30
0.0
 11
24.47299086837686
 21
6.071010591711885
 31
0.0
  0
LINE
  5
8A5
330
1F
100
AcDbEntity
  8
TitleBlock&Notes
  6
Continuous
 62
     3
100
AcDbLine
 10
24.22514864834486
 20
6.056545351647882
 30
0.0
 11
24.47299086837686
 21
6.060871445727882
 31
0.0
  0
LINE
  5
8A6
330
1F
100
AcDbEntity
  8
TitleBlock&Notes
  6
Continuous
 62
     3
100
AcDbLine
 10
24.22074517903286
 20
6.046329337311883
 30
0.0
 11
24.47299086837686
 21
6.050732299743887
 31
0.0
  0
LINE
  5
8A7
330
1F
100
AcDbEntity
  8
TitleBlock&Notes
  6
Continuous
 62
     3
100
AcDbLine
 10
24.21634173506487
 20
6.03611332297588
 30
0.0
 11
24.47299086837686
 21
6.040593153759886
 31
0.0
  0
LINE
  5
8A8
330
1F
100
AcDbEntity
  8
TitleBlock&Notes
  6
Continuous
 62
     3
100
AcDbLine
 10
24.21193829109689
 20
6.025897308639884
 30
0.0
 11
24.47299086837686
 21
6.030454007775887
 31
0.0
  0
LINE
  5
8A9
330
1F
100
AcDbEntity
  8
TitleBlock&Notes
  6
Continuous
 62
     3
100
AcDbLine
 10
24.20753484712887
 20
6.015681319647886
 30
0.0
 11
24.47299086837686
 21
6.020314861791889
 31
0.0
  0
LINE
  5
8AA
330
1F
100
AcDbEntity
  8
TitleBlock&Notes
  6
Continuous
 62
     3
100
AcDbLine
 10
24.20313137781689
 20
6.005465305311888
 30
0.0
 11
24.47299086837686
 21
6.010175715807883
 31
0.0
  0
LINE
  5
8AB
330
1F
100
AcDbEntity
  8
TitleBlock&Notes
  6
Continuous
 62
     3
100
AcDbLine
 10
24.19872793384886
 20
5.995249290975888
 30
0.0
 11
24.47299086837686
 21
6.000036569823889
 31
0.0
  0
LINE
  5
8AC
330
1F
100
AcDbEntity
  8
TitleBlock&Notes
  6
Continuous
 62
     3
100
AcDbLine
 10
24.19432448988088
 20
5.985033301983888
 30
0.0
 11
24.47299086837686
 21
5.989897423839892
 31
0.0
  0
LINE
  5
8AD
330
1F
100
AcDbEntity
  8
TitleBlock&Notes
  6
Continuous
 62
     3
100
AcDbLine
 10
24.18992102056887
 20
5.974817287647884
 30
0.0
 11
24.47299086837686
 21
5.979758277855882
 31
0.0
  0
LINE
  5
8AE
330
1F
100
AcDbEntity
  8
TitleBlock&Notes
  6
Continuous
 62
     3
100
AcDbLine
 10
24.18551757660085
 20
5.964601273311887
 30
0.0
 11
24.47299086837686
 21
5.969619157215879
 31
0.0
  0
LINE
  5
8AF
330
1F
100
AcDbEntity
  8
TitleBlock&Notes
  6
Continuous
 62
     3
100
AcDbLine
 10
24.08015886837686
 20
5.654056197855888
 30
0.0
 11
24.47299086837686
 21
5.654056197855888
 31
0.0
  0
LINE
  5
8B0
330
1F
100
AcDbEntity
  8
TitleBlock&Notes
  6
Continuous
 62
     3
100
AcDbLine
 10
24.08015886837686
 20
5.703945963231884
 30
0.0
 11
24.47299086837686
 21
5.703945963231884
 31
0.0
  0
LINE
  5
8B1
330
1F
100
AcDbEntity
  8
TitleBlock&Notes
  6
Continuous
 62
     3
100
AcDbLine
 10
24.15918298101686
 20
5.903505024735882
 30
0.0
 11
24.47299086837686
 21
5.903505024735882
 31
0.0
  0
LINE
  5
8B2
330
1F
100
AcDbEntity
  8
TitleBlock&Notes
  6
Continuous
 62
     3
100
AcDbLine
 10
24.18068718760888
 20
5.953394790111882
 30
0.0
 11
24.47299086837686
 21
5.953394790111882
 31
0.0
  0
LINE
  5
8B3
330
1F
100
AcDbEntity
  8
TitleBlock&Notes
  6
Continuous
 62
     3
100
AcDbLine
 10
24.08015886837686
 20
5.645456699871883
 30
0.0
 11
24.47299086837686
 21
5.652313620447887
 31
0.0
  0
LINE
  5
8B4
330
1F
100
AcDbEntity
  8
TitleBlock&Notes
  6
Continuous
 62
     3
100
AcDbLine
 10
24.08015886837686
 20
5.635317553887888
 30
0.0
 11
24.47299086837686
 21
5.642174474463892
 31
0.0
  0
LINE
  5
8B5
330
1F
100
AcDbEntity
  8
TitleBlock&Notes
  6
Continuous
 62
     3
100
AcDbLine
 10
24.08015886837686
 20
5.625178407903892
 30
0.0
 11
24.47299086837686
 21
5.632035328479883
 31
0.0
  0
LINE
  5
8B6
330
1F
100
AcDbEntity
  8
TitleBlock&Notes
  6
Continuous
 62
     3
100
AcDbLine
 10
24.08015886837686
 20
5.615039261919887
 30
0.0
 11
24.47299086837686
 21
5.621896182495887
 31
0.0
  0
LINE
  5
8B7
330
1F
100
AcDbEntity
  8
TitleBlock&Notes
  6
Continuous
 62
     3
100
AcDbLine
 10
24.08015886837686
 20
5.604900115935877
 30
0.0
 11
24.47299086837686
 21
5.61175703651188
 31
0.0
  0
LINE
  5
8B8
330
1F
100
AcDbEntity
  8
TitleBlock&Notes
  6
Continuous
 62
     3
100
AcDbLine
 10
24.08015886837686
 20
5.594760969951879
 30
0.0
 11
24.47299086837686
 21
5.601617890527886
 31
0.0
  0
LINE
  5
8B9
330
1F
100
AcDbEntity
  8
TitleBlock&Notes
  6
Continuous
 62
     3
100
AcDbLine
 10
24.08015886837686
 20
5.584621823967887
 30
0.0
 11
24.47299086837686
 21
5.59147874454389
 31
0.0
  0
LINE
  5
8BA
330
1F
100
AcDbEntity
  8
TitleBlock&Notes
  6
Continuous
 62
     3
100
AcDbLine
 10
24.08015886837686
 20
5.574482703327881
 30
0.0
 11
24.47299086837686
 21
5.581339598559884
 31
0.0
  0
LINE
  5
8BB
330
1F
100
AcDbEntity
  8
TitleBlock&Notes
  6
Continuous
 62
     3
100
AcDbLine
 10
24.08015886837686
 20
5.564343557343887
 30
0.0
 11
24.47299086837686
 21
5.571200452575881
 31
0.0
  0
LINE
  5
8BC
330
1F
100
AcDbEntity
  8
TitleBlock&Notes
  6
Continuous
 62
     3
100
AcDbLine
 10
24.08015886837686
 20
5.554204411359884
 30
0.0
 11
24.47299086837686
 21
5.561061306591884
 31
0.0
  0
LINE
  5
8BD
330
1F
100
AcDbEntity
  8
TitleBlock&Notes
  6
Continuous
 62
     3
100
AcDbLine
 10
24.08015886837686
 20
5.544065265375887
 30
0.0
 11
24.47299086837686
 21
5.550922160607886
 31
0.0
  0
LINE
  5
8BE
330
1F
100
AcDbEntity
  8
TitleBlock&Notes
  6
Continuous
 62
     3
100
AcDbLine
 10
24.08015886837686
 20
5.533926119391889
 30
0.0
 11
24.47299086837686
 21
5.540783014623894
 31
0.0
  0
LINE
  5
8BF
330
1F
100
AcDbEntity
  8
TitleBlock&Notes
  6
Continuous
 62
     3
100
AcDbLine
 10
24.08015886837686
 20
5.523786973407887
 30
0.0
 11
24.47299086837686
 21
5.530643868639888
 31
0.0
  0
LINE
  5
8C0
330
1F
100
AcDbEntity
  8
TitleBlock&Notes
  6
Continuous
 62
     3
100
AcDbLine
 10
24.08015886837686
 20
5.513647827423877
 30
0.0
 11
24.47299086837686
 21
5.520504722655878
 31
0.0
  0
LINE
  5
8C1
330
1F
100
AcDbEntity
  8
TitleBlock&Notes
  6
Continuous
 62
     3
100
AcDbLine
 10
24.08015886837686
 20
5.503508681439879
 30
0.0
 11
24.47299086837686
 21
5.510365602015882
 31
0.0
  0
LINE
  5
8C2
330
1F
100
AcDbEntity
  8
TitleBlock&Notes
  6
Continuous
 62
     3
100
AcDbLine
 10
24.08015886837686
 20
5.493369535455892
 30
0.0
 11
24.47299086837686
 21
5.50022645603189
 31
0.0
  0
LINE
  5
8C3
330
1F
100
AcDbEntity
  8
TitleBlock&Notes
  6
Continuous
 62
     3
100
AcDbLine
 10
24.08015886837686
 20
5.483230389471881
 30
0.0
 11
24.47299086837686
 21
5.490087310047885
 31
0.0
  0
LINE
  5
8C4
330
1F
100
AcDbEntity
  8
TitleBlock&Notes
  6
Continuous
 62
     3
100
AcDbLine
 10
24.15371678709687
 20
5.890823470047887
 30
0.0
 11
24.47299086837686
 21
5.896396412895886
 31
0.0
  0
LINE
  5
8C5
330
1F
100
AcDbEntity
  8
TitleBlock&Notes
  6
Continuous
 62
     3
100
AcDbLine
 10
24.14931334312887
 20
5.880607455711888
 30
0.0
 11
24.47299086837686
 21
5.886257266911884
 31
0.0
  0
LINE
  5
8C6
330
1F
100
AcDbEntity
  8
TitleBlock&Notes
  6
Continuous
 62
     3
100
AcDbLine
 10
24.14490989916089
 20
5.870391441375886
 30
0.0
 11
24.47299086837686
 21
5.876118120927888
 31
0.0
  0
LINE
  5
8C7
330
1F
100
AcDbEntity
  8
TitleBlock&Notes
  6
Continuous
 62
     3
100
AcDbLine
 10
24.14050645519287
 20
5.860175452383892
 30
0.0
 11
24.47299086837686
 21
5.865978974943884
 31
0.0
  0
LINE
  5
8C8
330
1F
100
AcDbEntity
  8
TitleBlock&Notes
  6
Continuous
 62
     3
100
AcDbLine
 10
24.13610298588086
 20
5.849959438047891
 30
0.0
 11
24.47299086837686
 21
5.855839828959887
 31
0.0
  0
LINE
  5
8C9
330
1F
100
AcDbEntity
  8
TitleBlock&Notes
  6
Continuous
 62
     3
100
AcDbLine
 10
24.13169954191288
 20
5.839743423711878
 30
0.0
 11
24.47299086837686
 21
5.845700682975889
 31
0.0
  0
LINE
  5
8CA
330
1F
100
AcDbEntity
  8
TitleBlock&Notes
  6
Continuous
 62
     3
100
AcDbLine
 10
24.12729609794486
 20
5.829527434719882
 30
0.0
 11
24.47299086837686
 21
5.835561536991888
 31
0.0
  0
LINE
  5
8CB
330
1F
100
AcDbEntity
  8
TitleBlock&Notes
  6
Continuous
 62
     3
100
AcDbLine
 10
24.12289262863287
 20
5.819311420383881
 30
0.0
 11
24.47299086837686
 21
5.82542241635188
 31
0.0
  0
LINE
  5
8CC
330
1F
100
AcDbEntity
  8
TitleBlock&Notes
  6
Continuous
 62
     3
100
AcDbLine
 10
24.11848918466485
 20
5.809095406047884
 30
0.0
 11
24.47299086837686
 21
5.815283270367881
 31
0.0
  0
LINE
  5
8CD
330
1F
100
AcDbEntity
  8
TitleBlock&Notes
  6
Continuous
 62
     3
100
AcDbLine
 10
24.11408574069688
 20
5.798879391711881
 30
0.0
 11
24.47299086837686
 21
5.805144124383887
 31
0.0
  0
LINE
  5
8CE
330
1F
100
AcDbEntity
  8
TitleBlock&Notes
  6
Continuous
 62
     3
100
AcDbLine
 10
24.10968229672887
 20
5.788663402719885
 30
0.0
 11
24.47299086837686
 21
5.795004978399884
 31
0.0
  0
LINE
  5
8CF
330
1F
100
AcDbEntity
  8
TitleBlock&Notes
  6
Continuous
 62
     3
100
AcDbLine
 10
24.10527882741687
 20
5.778447388383887
 30
0.0
 11
24.47299086837686
 21
5.784865832415887
 31
0.0
  0
LINE
  5
8D0
330
1F
100
AcDbEntity
  8
TitleBlock&Notes
  6
Continuous
 62
     3
100
AcDbLine
 10
24.10087538344889
 20
5.768231374047886
 30
0.0
 11
24.47299086837686
 21
5.774726686431881
 31
0.0
  0
LINE
  5
8D1
330
1F
100
AcDbEntity
  8
TitleBlock&Notes
  6
Continuous
 62
     3
100
AcDbLine
 10
24.09647193948087
 20
5.758015385055892
 30
0.0
 11
24.47299086837686
 21
5.764587540447887
 31
0.0
  0
LINE
  5
8D2
330
1F
100
AcDbEntity
  8
TitleBlock&Notes
  6
Continuous
 62
     3
100
AcDbLine
 10
24.09206847016886
 20
5.747799370719891
 30
0.0
 11
24.47299086837686
 21
5.75444839446389
 31
0.0
  0
LINE
  5
8D3
330
1F
100
AcDbEntity
  8
TitleBlock&Notes
  6
Continuous
 62
     3
100
AcDbLine
 10
24.08766502620088
 20
5.737583356383891
 30
0.0
 11
24.47299086837686
 21
5.744309248479884
 31
0.0
  0
LINE
  5
8D4
330
1F
100
AcDbEntity
  8
TitleBlock&Notes
  6
Continuous
 62
     3
100
AcDbLine
 10
24.08326158223285
 20
5.727367367391887
 30
0.0
 11
24.47299086837686
 21
5.734170102495892
 31
0.0
  0
LINE
  5
8D5
330
1F
100
AcDbEntity
  8
TitleBlock&Notes
  6
Continuous
 62
     3
100
AcDbLine
 10
24.08015886837686
 20
5.717174061279886
 30
0.0
 11
24.47299086837686
 21
5.724030956511882
 31
0.0
  0
LINE
  5
8D6
330
1F
100
AcDbEntity
  8
TitleBlock&Notes
  6
Continuous
 62
     3
100
AcDbLine
 10
24.08015886837686
 20
5.707034915295888
 30
0.0
 11
24.47299086837686
 21
5.713891810527885
 31
0.0
  0
LINE
  5
8D7
330
1F
100
AcDbEntity
  8
TitleBlock&Notes
  6
Continuous
 62
     3
100
AcDbLine
 10
24.18111413263287
 20
5.954385284319887
 30
0.0
 11
24.47299086837686
 21
5.959480011231885
 31
0.0
  0
LINE
  5
8D9
330
1F
100
AcDbEntity
  8
TitleBlock&Notes
  6
Continuous
 62
     3
100
AcDbLine
 10
23.43097400642486
 20
5.451620541663893
 30
0.0
 11
23.83939086837686
 21
5.458749479391887
 31
0.0
  0
LINE
  5
8DA
330
1F
100
AcDbEntity
  8
TitleBlock&Notes
  6
Continuous
 62
     3
100
AcDbLine
 10
23.41989918530487
 20
5.441288096991884
 30
0.0
 11
23.83939086837686
 21
5.448610333407882
 31
0.0
  0
LINE
  5
8DB
330
1F
100
AcDbEntity
  8
TitleBlock&Notes
  6
Continuous
 62
     3
100
AcDbLine
 10
23.40805388124087
 20
5.430942169311888
 30
0.0
 11
23.83939086837686
 21
5.438471187423886
 31
0.0
  0
LINE
  5
8DC
330
1F
100
AcDbEntity
  8
TitleBlock&Notes
  6
Continuous
 62
     3
100
AcDbLine
 10
23.39534039311288
 20
5.420581111263886
 30
0.0
 11
23.83939086837686
 21
5.428332041439883
 31
0.0
  0
LINE
  5
8DD
330
1F
100
AcDbEntity
  8
TitleBlock&Notes
  6
Continuous
 62
     3
100
AcDbLine
 10
23.35539024040887
 20
6.067542569439886
 30
0.0
 11
23.54793486837686
 21
6.067542569439886
 31
0.0
  0
LINE
  5
8DE
330
1F
100
AcDbEntity
  8
TitleBlock&Notes
  6
Continuous
 62
     3
100
AcDbLine
 10
23.54793486837686
 20
5.750742569439887
 30
0.0
 11
23.35651480437686
 21
5.750742569439887
 31
0.0
  0
LINE
  5
8DF
330
1F
100
AcDbEntity
  8
TitleBlock&Notes
  6
Continuous
 62
     3
100
AcDbLine
 10
23.57568365916085
 20
6.042198569439888
 30
0.0
 11
23.33491591260086
 21
6.042198569439888
 31
0.0
  0
LINE
  5
8E0
330
1F
100
AcDbEntity
  8
TitleBlock&Notes
  6
Continuous
 62
     3
100
AcDbLine
 10
23.33384289832884
 20
5.776086569439883
 30
0.0
 11
23.5748388676089
 21
5.776086569439883
 31
0.0
  0
LINE
  5
8E1
330
1F
100
AcDbEntity
  8
TitleBlock&Notes
  6
Continuous
 62
     3
100
AcDbLine
 10
23.34585263426486
 20
6.054870569439882
 30
0.0
 11
23.56202086082487
 21
6.054870569439882
 31
0.0
  0
LINE
  5
8E2
330
1F
100
AcDbEntity
  8
TitleBlock&Notes
  6
Continuous
 62
     3
100
AcDbLine
 10
23.34544816936884
 20
5.763414569439884
 30
0.0
 11
23.56158481730487
 21
5.763414569439884
 31
0.0
  0
LINE
  5
8E3
330
1F
100
AcDbEntity
  8
TitleBlock&Notes
  6
Continuous
 62
     3
100
AcDbLine
 10
23.41907231196088
 20
6.365584005087892
 30
0.0
 11
23.56119474780086
 21
6.365584005087892
 31
0.0
  0
LINE
  5
8E4
330
1F
100
AcDbEntity
  8
TitleBlock&Notes
  6
Continuous
 62
     3
100
AcDbLine
 10
23.56665681064886
 20
6.352912005087882
 30
0.0
 11
23.43269798133686
 21
6.352912005087882
 31
0.0
  0
LINE
  5
8E5
330
1F
100
AcDbEntity
  8
TitleBlock&Notes
  6
Continuous
 62
     3
100
AcDbLine
 10
23.38915577282488
 20
5.776086569439883
 30
0.0
 11
23.81210630364086
 21
5.783469200607885
 31
0.0
  0
LINE
  5
8E6
330
1F
100
AcDbEntity
  8
TitleBlock&Notes
  6
Continuous
 62
     3
100
AcDbLine
 10
22.87747072783289
 20
5.903505024735882
 30
0.0
 11
23.76036673039287
 21
5.903505024735882
 31
0.0
  0
LINE
  5
8E7
330
1F
100
AcDbEntity
  8
TitleBlock&Notes
  6
Continuous
 62
     3
100
AcDbLine
 10
22.87787666268087
 20
5.953394790111882
 30
0.0
 11
23.73886252380089
 21
5.953394790111882
 31
0.0
  0
LINE
  5
8E8
330
1F
100
AcDbEntity
  8
TitleBlock&Notes
  6
Continuous
 62
     3
100
AcDbLine
 10
22.87735128156085
 20
5.888822713311878
 30
0.0
 11
23.71850006440886
 21
5.903505024735882
 31
0.0
  0
LINE
  5
8E9
330
1F
100
AcDbEntity
  8
TitleBlock&Notes
  6
Continuous
 62
     3
100
AcDbLine
 10
22.87726876149688
 20
5.878682122719893
 30
0.0
 11
23.76439178844088
 21
5.894166926559884
 31
0.0
  0
LINE
  5
8EA
330
1F
100
AcDbEntity
  8
TitleBlock&Notes
  6
Continuous
 62
     3
100
AcDbLine
 10
22.87718626677686
 20
5.868541532127879
 30
0.0
 11
23.76872946472885
 21
5.884103483103883
 31
0.0
  0
LINE
  5
8EB
330
1F
100
AcDbEntity
  8
TitleBlock&Notes
  6
Continuous
 62
     3
100
AcDbLine
 10
22.87710374671286
 20
5.858400966879887
 30
0.0
 11
23.77306714101687
 21
5.87404006499189
 31
0.0
  0
LINE
  5
8EC
330
1F
100
AcDbEntity
  8
TitleBlock&Notes
  6
Continuous
 62
     3
100
AcDbLine
 10
22.87702125199289
 20
5.848260376287892
 30
0.0
 11
23.77740484264887
 21
5.863976621535887
 31
0.0
  0
LINE
  5
8ED
330
1F
100
AcDbEntity
  8
TitleBlock&Notes
  6
Continuous
 62
     3
100
AcDbLine
 10
22.87693873192887
 20
5.838119785695888
 30
0.0
 11
23.78174251893687
 21
5.85391320342388
 31
0.0
  0
LINE
  5
8EE
330
1F
100
AcDbEntity
  8
TitleBlock&Notes
  6
Continuous
 62
     3
100
AcDbLine
 10
22.87685623720887
 20
5.827979195103887
 30
0.0
 11
23.78608019522487
 21
5.843849759967881
 31
0.0
  0
LINE
  5
8EF
330
1F
100
AcDbEntity
  8
TitleBlock&Notes
  6
Continuous
 62
     3
100
AcDbLine
 10
22.87677371714488
 20
5.817838629855883
 30
0.0
 11
23.79041789685686
 21
5.833786341855887
 31
0.0
  0
LINE
  5
8F0
330
1F
100
AcDbEntity
  8
TitleBlock&Notes
  6
Continuous
 62
     3
100
AcDbLine
 10
22.87669122242487
 20
5.807698039263884
 30
0.0
 11
23.79475557314486
 21
5.823722898399886
 31
0.0
  0
LINE
  5
8F1
330
1F
100
AcDbEntity
  8
TitleBlock&Notes
  6
Continuous
 62
     3
100
AcDbLine
 10
22.87660870236086
 20
5.797557448671883
 30
0.0
 11
23.79909324943286
 21
5.813659480287888
 31
0.0
  0
LINE
  5
8F2
330
1F
100
AcDbEntity
  8
TitleBlock&Notes
  6
Continuous
 62
     3
100
AcDbLine
 10
22.87652620764085
 20
5.787416858079891
 30
0.0
 11
23.80343095106485
 21
5.803596036831891
 31
0.0
  0
LINE
  5
8F3
330
1F
100
AcDbEntity
  8
TitleBlock&Notes
  6
Continuous
 62
     3
100
AcDbLine
 10
22.87644368757688
 20
5.777276292831889
 30
0.0
 11
23.80776862735288
 21
5.793532618719887
 31
0.0
  0
LINE
  5
8F4
330
1F
100
AcDbEntity
  8
TitleBlock&Notes
  6
Continuous
 62
     3
100
AcDbLine
 10
22.87844216335289
 20
6.022899341535885
 30
0.0
 11
23.70270213544887
 21
6.037286851551879
 31
0.0
  0
LINE
  5
8F5
330
1F
100
AcDbEntity
  8
TitleBlock&Notes
  6
Continuous
 62
     3
100
AcDbLine
 10
22.87835966863287
 20
6.012758776287887
 30
0.0
 11
23.70703983708087
 21
6.02722343343989
 31
0.0
  0
LINE
  5
8F6
330
1F
100
AcDbEntity
  8
TitleBlock&Notes
  6
Continuous
 62
     3
100
AcDbLine
 10
22.87827714856886
 20
6.002618185695888
 30
0.0
 11
23.71137751336884
 21
6.017159989983889
 31
0.0
  0
LINE
  5
8F7
330
1F
100
AcDbEntity
  8
TitleBlock&Notes
  6
Continuous
 62
     3
100
AcDbLine
 10
22.87819465384886
 20
5.992477595103894
 30
0.0
 11
23.71571518965687
 21
6.007096571871886
 31
0.0
  0
LINE
  5
8F8
330
1F
100
AcDbEntity
  8
TitleBlock&Notes
  6
Continuous
 62
     3
100
AcDbLine
 10
22.87811213378488
 20
5.982337004511879
 30
0.0
 11
23.72005289128887
 21
5.997033153759882
 31
0.0
  0
LINE
  5
8F9
330
1F
100
AcDbEntity
  8
TitleBlock&Notes
  6
Continuous
 62
     3
100
AcDbLine
 10
22.87802963906487
 20
5.972196413919887
 30
0.0
 11
23.72439056757687
 21
5.986969710303887
 31
0.0
  0
LINE
  5
8FA
330
1F
100
AcDbEntity
  8
TitleBlock&Notes
  6
Continuous
 62
     3
100
AcDbLine
 10
22.87794711900084
 20
5.962055848671887
 30
0.0
 11
23.72872826920886
 21
5.976906292191888
 31
0.0
  0
LINE
  5
8FB
330
1F
100
AcDbEntity
  8
TitleBlock&Notes
  6
Continuous
 62
     3
100
AcDbLine
 10
22.96262644111286
 20
5.953394790111882
 30
0.0
 11
23.73306594549686
 21
5.966842848735888
 31
0.0
  0
ARC
  5
8FC
330
1F
100
AcDbEntity
  8
TitleBlock&Notes
  6
Continuous
 62
     3
100
AcDbCircle
 10
23.10441486837687
 20
6.013584357087892
 30
0.0
 40
0.4467901870080002
100
AcDbArc
 50
6.936458520000009
 51
173.0635414800004
  0
ARC
  5
8FD
330
1F
100
AcDbEntity
  8
TitleBlock&Notes
  6
Continuous
 62
     3
100
AcDbCircle
 10
23.10441486837687
 20
6.013584357087892
 30
0.0
 40
0.4721366960640001
100
AcDbArc
 50
3.474582379999962
 51
173.2499419800004
  0
ARC
  5
8FE
330
1F
100
AcDbEntity
  8
TitleBlock&Notes
  6
Continuous
 62
     3
100
AcDbCircle
 10
23.10441486837687
 20
6.013584357087892
 30
0.0
 40
0.4594646960640001
100
AcDbArc
 50
5.155389820000086
 51
173.2499419800004
  0
LINE
  5
8FF
330
1F
100
AcDbEntity
  8
TitleBlock&Notes
  6
Continuous
 62
     3
100
AcDbLine
 10
22.87881606338487
 20
6.068853715935888
 30
0.0
 11
22.87631886837686
 21
5.761933567455884
 31
0.0
  0
LINE
  5
900
330
1F
100
AcDbEntity
  8
TitleBlock&Notes
  6
Continuous
 62
     3
100
AcDbLine
 10
22.86614449423289
 20
6.068956815327892
 30
0.0
 11
22.86364727388087
 21
5.762036666847888
 31
0.0
  0
LINE
  5
901
330
1F
100
AcDbEntity
  8
TitleBlock&Notes
  6
Continuous
 62
     3
100
AcDbLine
 10
22.66089486837687
 20
5.750742569439887
 30
0.0
 11
22.66089486837687
 21
6.067542569439886
 31
0.0
  0
LINE
  5
902
330
1F
100
AcDbEntity
  8
TitleBlock&Notes
  6
Continuous
 62
     3
100
AcDbLine
 10
22.63555086837687
 20
5.749623479775888
 30
0.0
 11
22.63555086837687
 21
6.069078567903892
 31
0.0
  0
LINE
  5
903
330
1F
100
AcDbEntity
  8
TitleBlock&Notes
  6
Continuous
 62
     3
100
AcDbLine
 10
22.85097486837688
 20
5.760433481439883
 30
0.0
 11
22.85097486837688
 21
6.054429076959882
 31
0.0
  0
LINE
  5
904
330
1F
100
AcDbEntity
  8
TitleBlock&Notes
  6
Continuous
 62
     3
100
AcDbLine
 10
22.64822286837687
 20
5.749623479775888
 30
0.0
 11
22.64822286837687
 21
6.069078567903892
 31
0.0
  0
LINE
  5
905
330
1F
100
AcDbEntity
  8
TitleBlock&Notes
  6
Continuous
 62
     3
100
AcDbLine
 10
22.87868969820085
 20
6.053321113311878
 30
0.0
 11
23.33174606248886
 21
6.061229226975886
 31
0.0
  0
ARC
  5
906
330
1F
100
AcDbEntity
  8
TitleBlock&Notes
  6
Continuous
 62
     3
100
AcDbCircle
 10
23.10441486837687
 20
6.013584357087892
 30
0.0
 40
0.232270334208
100
AcDbArc
 50
7.076443859999884
 51
166.2342647900003
  0
LINE
  5
907
330
1F
100
AcDbEntity
  8
TitleBlock&Notes
  6
Continuous
 62
     3
100
AcDbLine
 10
22.87743377628085
 20
5.898963303903887
 30
0.0
 11
23.13762886466486
 21
5.903505024735882
 31
0.0
  0
LINE
  5
908
330
1F
100
AcDbEntity
  8
TitleBlock&Notes
  6
Continuous
 62
     3
100
AcDbLine
 10
22.87636119285687
 20
5.767135702239885
 30
0.0
 11
23.33377996917684
 21
5.77511997462388
 31
0.0
  0
LINE
  5
909
330
1F
100
AcDbEntity
  8
TitleBlock&Notes
  6
Continuous
 62
     3
100
AcDbLine
 10
22.87699083919285
 20
5.757007555551894
 30
0.0
 11
23.33287062645688
 21
5.764964963295887
 31
0.0
  0
LINE
  5
90A
330
1F
100
AcDbEntity
  8
TitleBlock&Notes
  6
Continuous
 62
     3
100
AcDbLine
 10
22.87871258383286
 20
5.746898442207882
 30
0.0
 11
23.33150270940085
 21
5.754801943263884
 31
0.0
  0
LINE
  5
90B
330
1F
100
AcDbEntity
  8
TitleBlock&Notes
  6
Continuous
 62
     3
100
AcDbLine
 10
22.88090238146485
 20
5.736797540319877
 30
0.0
 11
23.32966679004087
 21
5.744630737119883
 31
0.0
  0
LINE
  5
90C
330
1F
100
AcDbEntity
  8
TitleBlock&Notes
  6
Continuous
 62
     3
100
AcDbLine
 10
22.88357290408888
 20
5.726705001951887
 30
0.0
 11
23.32735009500086
 21
5.734451167455888
 31
0.0
  0
LINE
  5
90D
330
1F
100
AcDbEntity
  8
TitleBlock&Notes
  6
Continuous
 62
     3
100
AcDbLine
 10
22.87860717813687
 20
6.043180522719892
 30
0.0
 11
23.33363170677685
 21
6.051123002847885
 31
0.0
  0
LINE
  5
90E
330
1F
100
AcDbEntity
  8
TitleBlock&Notes
  6
Continuous
 62
     3
100
AcDbLine
 10
22.87852468341687
 20
6.033039932127882
 30
0.0
 11
23.40322209832887
 21
6.042198569439888
 31
0.0
  0
LINE
  5
90F
330
1F
100
AcDbEntity
  8
TitleBlock&Notes
  6
Continuous
 62
     3
100
AcDbLine
 10
22.91943334620087
 20
5.654056197855888
 30
0.0
 11
23.28939639055287
 21
5.654056197855888
 31
0.0
  0
LINE
  5
910
330
1F
100
AcDbEntity
  8
TitleBlock&Notes
  6
Continuous
 62
     3
100
AcDbLine
 10
22.89146527912889
 20
5.703945963231884
 30
0.0
 11
23.31736443228087
 21
5.703945963231884
 31
0.0
  0
LINE
  5
911
330
1F
100
AcDbEntity
  8
TitleBlock&Notes
  6
Continuous
 62
     3
100
AcDbLine
 10
22.92599075138486
 20
5.645588919519884
 30
0.0
 11
23.28778902338488
 21
5.651904112095889
 31
0.0
  0
LINE
  5
912
330
1F
100
AcDbEntity
  8
TitleBlock&Notes
  6
Continuous
 62
     3
100
AcDbLine
 10
22.93459275842487
 20
5.635599911391887
 30
0.0
 11
23.27954084392886
 21
5.641621012191888
 31
0.0
  0
LINE
  5
913
330
1F
100
AcDbEntity
  8
TitleBlock&Notes
  6
Continuous
 62
     3
100
AcDbLine
 10
22.94425721128887
 20
5.625629455071879
 30
0.0
 11
23.27023026933685
 21
5.631319335135883
 31
0.0
  0
LINE
  5
914
330
1F
100
AcDbEntity
  8
TitleBlock&Notes
  6
Continuous
 62
     3
100
AcDbLine
 10
22.95518252815285
 20
5.615681022687891
 30
0.0
 11
23.25965878005689
 21
5.620995684831886
 31
0.0
  0
LINE
  5
915
330
1F
100
AcDbEntity
  8
TitleBlock&Notes
  6
Continuous
 62
     3
100
AcDbLine
 10
22.96765899919285
 20
5.605759657695887
 30
0.0
 11
23.24753616194485
 21
5.610644941791892
 31
0.0
  0
LINE
  5
916
330
1F
100
AcDbEntity
  8
TitleBlock&Notes
  6
Continuous
 62
     3
100
AcDbLine
 10
22.98214137180085
 20
5.595873292767891
 30
0.0
 11
23.23340764226486
 21
5.600259173343893
 31
0.0
  0
LINE
  5
917
330
1F
100
AcDbEntity
  8
TitleBlock&Notes
  6
Continuous
 62
     3
100
AcDbLine
 10
22.99941994792885
 20
5.586035765727876
 30
0.0
 11
23.21648291906488
 21
5.589824592351883
 31
0.0
  0
LINE
  5
918
330
1F
100
AcDbEntity
  8
TitleBlock&Notes
  6
Continuous
 62
     3
100
AcDbLine
 10
23.02112835112887
 20
5.576275537887883
 30
0.0
 11
23.19512836879287
 21
5.579312712159886
 31
0.0
  0
LINE
  5
919
330
1F
100
AcDbEntity
  8
TitleBlock&Notes
  6
Continuous
 62
     3
100
AcDbLine
 10
22.89042627650486
 20
5.706546333663887
 30
0.0
 11
23.32120445378487
 21
5.714065594335882
 31
0.0
  0
ARC
  5
91A
330
1F
100
AcDbEntity
  8
TitleBlock&Notes
  6
Continuous
 62
     3
100
AcDbCircle
 10
23.10441486837687
 20
5.790540556767883
 30
0.0
 40
0.229882904064
100
AcDbArc
 50
187.1485089300005
 51
356.3951218200006
  0
LINE
  5
91B
330
1F
100
AcDbEntity
  8
TitleBlock&Notes
  6
Continuous
 62
     3
100
AcDbLine
 10
22.8867406506489
 20
5.716621156575887
 30
0.0
 11
23.32453622671287
 21
5.724262904799887
 31
0.0
  0
ARC
  5
91C
330
1F
100
AcDbEntity
  8
TitleBlock&Notes
  6
Continuous
 62
     3
100
AcDbCircle
 10
23.10441486837687
 20
5.790540556767883
 30
0.0
 40
0.242554904064
100
AcDbArc
 50
187.1485089300005
 51
353.5789239900008
  0
ARC
  5
91D
330
1F
100
AcDbEntity
  8
TitleBlock&Notes
  6
Continuous
 62
     3
100
AcDbCircle
 10
23.10441486837687
 20
5.790540556767883
 30
0.0
 40
0.255222012672
100
AcDbArc
 50
186.7746279100004
 51
351.0289824700008
  0
LINE
  5
91E
330
1F
100
AcDbEntity
  8
TitleBlock&Notes
  6
Continuous
 62
     3
100
AcDbLine
 10
23.05214976194489
 20
5.566677866463884
 30
0.0
 11
23.16446081090485
 21
5.56863827555188
 31
0.0
  0
LINE
  5
91F
330
1F
100
AcDbEntity
  8
TitleBlock&Notes
  6
Continuous
 62
     3
100
AcDbLine
 10
22.94024936181686
 20
6.177898708959883
 30
0.0
 11
23.26858034959285
 21
6.177898708959883
 31
0.0
  0
LINE
  5
920
330
1F
100
AcDbEntity
  8
TitleBlock&Notes
  6
Continuous
 62
     3
100
AcDbLine
 10
22.92847704847289
 20
6.165226708959889
 30
0.0
 11
23.28035266293687
 21
6.165226708959889
 31
0.0
  0
LINE
  5
921
330
1F
100
AcDbEntity
  8
TitleBlock&Notes
  6
Continuous
 62
     3
100
AcDbLine
 10
22.88003820175283
 20
6.073622924511893
 30
0.0
 11
23.13762886466486
 21
6.078119178207884
 31
0.0
  0
LINE
  5
922
330
1F
100
AcDbEntity
  8
TitleBlock&Notes
  6
Continuous
 62
     3
100
AcDbLine
 10
22.90228488616887
 20
6.128008943583879
 30
0.0
 11
23.30654482524086
 21
6.128008943583879
 31
0.0
  0
LINE
  5
923
330
1F
100
AcDbEntity
  8
TitleBlock&Notes
  6
Continuous
 62
     3
100
AcDbLine
 10
23.32753987087286
 20
6.078119178207884
 30
0.0
 11
22.88128984053686
 21
6.078119178207884
 31
0.0
  0
LINE
  5
924
330
1F
100
AcDbEntity
  8
TitleBlock&Notes
  6
Continuous
 62
     3
100
AcDbLine
 10
22.87877219292087
 20
6.063461678559882
 30
0.0
 11
23.32939322690485
 21
6.071327315679885
 31
0.0
  0
LINE
  5
925
330
1F
100
AcDbEntity
  8
TitleBlock&Notes
  6
Continuous
 62
     3
100
AcDbLine
 10
22.91830533544886
 20
6.152554708959888
 30
0.0
 11
23.29052437596085
 21
6.152554708959888
 31
0.0
  0
LINE
  5
926
330
1F
100
AcDbEntity
  8
TitleBlock&Notes
  6
Continuous
 62
     3
100
AcDbLine
 10
22.90948349455288
 20
6.139882708959889
 30
0.0
 11
23.29934621685687
 21
6.139882708959889
 31
0.0
  0
ARC
  5
927
330
1F
100
AcDbEntity
  8
TitleBlock&Notes
  6
Continuous
 62
     3
100
AcDbCircle
 10
23.10441486837687
 20
6.013584357087892
 30
0.0
 40
0.244942334208
100
AcDbArc
 50
9.703799320000019
 51
166.2342647900003
  0
ARC
  5
928
330
1F
100
AcDbEntity
  8
TitleBlock&Notes
  6
Continuous
 62
     3
100
AcDbCircle
 10
23.10441486837687
 20
6.013584357087892
 30
0.0
 40
0.256710187008
100
AcDbArc
 50
12.1335504200001
 51
170.8448616600005
  0
LINE
  5
929
330
1F
100
AcDbEntity
  8
TitleBlock&Notes
  6
Continuous
 62
     3
100
AcDbLine
 10
23.95977486837689
 20
5.985112704735884
 30
0.0
 11
24.16462910248888
 21
6.460374569439884
 31
0.0
  0
LINE
  5
92A
330
1F
100
AcDbEntity
  8
TitleBlock&Notes
  6
Continuous
 62
     3
100
AcDbLine
 10
24.14795515816887
 20
6.485718569439889
 30
0.0
 11
23.95977486837689
 21
6.049140291039892
 31
0.0
  0
LINE
  5
92B
330
1F
100
AcDbEntity
  8
TitleBlock&Notes
  6
Continuous
 62
     3
100
AcDbLine
 10
23.95977486837689
 20
6.017126485215892
 30
0.0
 11
24.15629211765686
 21
6.473046569439882
 31
0.0
  0
LINE
  5
92C
330
1F
100
AcDbEntity
  8
TitleBlock&Notes
  6
Continuous
 62
     3
100
AcDbLine
 10
23.95977486837689
 20
5.985112704735884
 30
0.0
 11
23.75492060892085
 21
6.460374569439884
 31
0.0
  0
LINE
  5
92D
330
1F
100
AcDbEntity
  8
TitleBlock&Notes
  6
Continuous
 62
     3
100
AcDbLine
 10
23.95977486837689
 20
6.049140291039892
 30
0.0
 11
23.77159457858487
 21
6.485718569439889
 31
0.0
  0
LINE
  5
92E
330
1F
100
AcDbEntity
  8
TitleBlock&Notes
  6
Continuous
 62
     3
100
AcDbLine
 10
23.95977486837689
 20
6.017126485215892
 30
0.0
 11
23.76325759375287
 21
6.473046569439882
 31
0.0
  0
LINE
  5
92F
330
1F
100
AcDbEntity
  8
TitleBlock&Notes
  6
Continuous
 62
     3
100
AcDbLine
 10
23.86473486837687
 20
5.725398569439888
 30
0.0
 11
23.54793486837686
 21
6.460374569439884
 31
0.0
  0
LINE
  5
930
330
1F
100
AcDbEntity
  8
TitleBlock&Notes
  6
Continuous
 62
     3
100
AcDbLine
 10
23.50941262197685
 20
6.485718569439889
 30
0.0
 11
23.83939086837686
 21
5.720169037791889
 31
0.0
  0
LINE
  5
931
330
1F
100
AcDbEntity
  8
TitleBlock&Notes
  6
Continuous
 62
     3
100
AcDbLine
 10
23.52867373250485
 20
6.473046569439882
 30
0.0
 11
23.85206286837687
 21
5.722783803615887
 31
0.0
  0
LINE
  5
932
330
1F
100
AcDbEntity
  8
TitleBlock&Notes
  6
Continuous
 62
     3
100
AcDbLine
 10
23.45111212072886
 20
5.472250329567883
 30
0.0
 11
23.83939086837686
 21
5.479027771359878
 31
0.0
  0
LINE
  5
933
330
1F
100
AcDbEntity
  8
TitleBlock&Notes
  6
Continuous
 62
     3
100
AcDbLine
 10
23.44135688565688
 20
5.461940922591879
 30
0.0
 11
23.83939086837686
 21
5.468888625375882
 31
0.0
  0
LINE
  5
934
330
1F
100
AcDbEntity
  8
TitleBlock&Notes
  6
Continuous
 62
     3
100
AcDbLine
 10
23.47710497781685
 20
5.503121475807881
 30
0.0
 11
23.83939086837686
 21
5.509445209311888
 31
0.0
  0
LINE
  5
935
330
1F
100
AcDbEntity
  8
TitleBlock&Notes
  6
Continuous
 62
     3
100
AcDbLine
 10
23.46894466600886
 20
5.492839896543886
 30
0.0
 11
23.83939086837686
 21
5.499306063327886
 31
0.0
  0
LINE
  5
936
330
1F
100
AcDbEntity
  8
TitleBlock&Notes
  6
Continuous
 62
     3
100
AcDbLine
 10
23.46029308610485
 20
5.482549751007887
 30
0.0
 11
23.83939086837686
 21
5.489166917343887
 31
0.0
  0
LINE
  5
937
330
1F
100
AcDbEntity
  8
TitleBlock&Notes
  6
Continuous
 62
     3
100
AcDbLine
 10
23.55483652111287
 20
5.654056197855888
 30
0.0
 11
23.83939086837686
 21
5.654056197855888
 31
0.0
  0
LINE
  5
938
330
1F
100
AcDbEntity
  8
TitleBlock&Notes
  6
Continuous
 62
     3
100
AcDbLine
 10
23.55244016988087
 20
5.646384493023886
 30
0.0
 11
23.83939086837686
 21
5.651393227743888
 31
0.0
  0
LINE
  5
939
330
1F
100
AcDbEntity
  8
TitleBlock&Notes
  6
Continuous
 62
     3
100
AcDbLine
 10
23.54902960245685
 20
5.636185813983887
 30
0.0
 11
23.83939086837686
 21
5.641254081759883
 31
0.0
  0
LINE
  5
93A
330
1F
100
AcDbEntity
  8
TitleBlock&Notes
  6
Continuous
 62
     3
100
AcDbLine
 10
23.54535510261685
 20
5.625982522335887
 30
0.0
 11
23.83939086837686
 21
5.631114935775888
 31
0.0
  0
LINE
  5
93B
330
1F
100
AcDbEntity
  8
TitleBlock&Notes
  6
Continuous
 62
     3
100
AcDbLine
 10
23.54140970076088
 20
5.615774516703877
 30
0.0
 11
23.83939086837686
 21
5.620975789791883
 31
0.0
  0
LINE
  5
93C
330
1F
100
AcDbEntity
  8
TitleBlock&Notes
  6
Continuous
 62
     3
100
AcDbLine
 10
23.53718554024887
 20
5.605561645023884
 30
0.0
 11
23.83939086837686
 21
5.610836643807886
 31
0.0
  0
LINE
  5
93D
330
1F
100
AcDbEntity
  8
TitleBlock&Notes
  6
Continuous
 62
     3
100
AcDbLine
 10
23.53267395343287
 20
5.595343729887888
 30
0.0
 11
23.83939086837686
 21
5.600697497823891
 31
0.0
  0
LINE
  5
93E
330
1F
100
AcDbEntity
  8
TitleBlock&Notes
  6
Continuous
 62
     3
100
AcDbLine
 10
23.52786536028087
 20
5.585120669919893
 30
0.0
 11
23.83939086837686
 21
5.590558351839886
 31
0.0
  0
LINE
  5
93F
330
1F
100
AcDbEntity
  8
TitleBlock&Notes
  6
Continuous
 62
     3
100
AcDbLine
 10
23.52274898959288
 20
5.574892211679886
 30
0.0
 11
23.83939086837686
 21
5.580419205855887
 31
0.0
  0
LINE
  5
940
330
1F
100
AcDbEntity
  8
TitleBlock&Notes
  6
Continuous
 62
     3
100
AcDbLine
 10
23.51731290434487
 20
5.564658177759889
 30
0.0
 11
23.83939086837686
 21
5.570280059871878
 31
0.0
  0
LINE
  5
941
330
1F
100
AcDbEntity
  8
TitleBlock&Notes
  6
Continuous
 62
     3
100
AcDbLine
 10
23.51154377359285
 20
5.554418340063884
 30
0.0
 11
23.83939086837686
 21
5.560140913887886
 31
0.0
  0
LINE
  5
942
330
1F
100
AcDbEntity
  8
TitleBlock&Notes
  6
Continuous
 62
     3
100
AcDbLine
 10
23.50542656834487
 20
5.544172419807884
 30
0.0
 11
23.83939086837686
 21
5.550001793247882
 31
0.0
  0
LINE
  5
943
330
1F
100
AcDbEntity
  8
TitleBlock&Notes
  6
Continuous
 62
     3
100
AcDbLine
 10
23.49894446018488
 20
5.533920112863879
 30
0.0
 11
23.83939086837686
 21
5.539862647263884
 31
0.0
  0
LINE
  5
944
330
1F
100
AcDbEntity
  8
TitleBlock&Notes
  6
Continuous
 62
     3
100
AcDbLine
 10
23.49207841576888
 20
5.523661140447886
 30
0.0
 11
23.83939086837686
 21
5.529723501279883
 31
0.0
  0
LINE
  5
945
330
1F
100
AcDbEntity
  8
TitleBlock&Notes
  6
Continuous
 62
     3
100
AcDbLine
 10
23.48480679132085
 20
5.513395071711884
 30
0.0
 11
23.83939086837686
 21
5.519584355295886
 31
0.0
  0
LINE
  5
946
330
1F
100
AcDbEntity
  8
TitleBlock&Notes
  6
Continuous
 62
     3
100
AcDbLine
 10
23.57549145026487
 20
6.045205533663883
 30
0.0
 11
23.69836445916085
 21
6.047350295007884
 31
0.0
  0
LINE
  5
947
330
1F
100
AcDbEntity
  8
TitleBlock&Notes
  6
Continuous
 62
     3
100
AcDbLine
 10
23.54349764085687
 20
5.953394790111882
 30
0.0
 11
23.73740362178487
 21
5.956779430623879
 31
0.0
  0
LINE
  5
948
330
1F
100
AcDbEntity
  8
TitleBlock&Notes
  6
Continuous
 62
     3
100
AcDbLine
 10
23.57457605032887
 20
5.769183928287882
 30
0.0
 11
23.81644400527287
 21
5.773405757151883
 31
0.0
  0
LINE
  5
949
330
1F
100
AcDbEntity
  8
TitleBlock&Notes
  6
Continuous
 62
     3
100
AcDbLine
 10
23.57400515138488
 20
5.759034822111887
 30
0.0
 11
23.82078168156087
 21
5.763342339039877
 31
0.0
  0
LINE
  5
94A
330
1F
100
AcDbEntity
  8
TitleBlock&Notes
  6
Continuous
 62
     3
100
AcDbLine
 10
23.57321355688887
 20
5.748881863647886
 30
0.0
 11
23.82511935784887
 21
5.753278895583884
 31
0.0
  0
LINE
  5
94B
330
1F
100
AcDbEntity
  8
TitleBlock&Notes
  6
Continuous
 62
     3
100
AcDbLine
 10
23.57219984757686
 20
5.738725027551878
 30
0.0
 11
23.82945705948087
 21
5.743215477471887
 31
0.0
  0
LINE
  5
94C
330
1F
100
AcDbEntity
  8
TitleBlock&Notes
  6
Continuous
 62
     3
100
AcDbLine
 10
23.57096240143287
 20
5.728564288479884
 30
0.0
 11
23.83379473576887
 21
5.733152034015883
 31
0.0
  0
LINE
  5
94D
330
1F
100
AcDbEntity
  8
TitleBlock&Notes
  6
Continuous
 62
     3
100
AcDbLine
 10
23.56702597135287
 20
5.703945963231884
 30
0.0
 11
23.83939086837686
 21
5.703945963231884
 31
0.0
  0
LINE
  5
94E
330
1F
100
AcDbEntity
  8
TitleBlock&Notes
  6
Continuous
 62
     3
100
AcDbLine
 10
23.56780755496886
 20
5.708230923999892
 30
0.0
 11
23.83939086837686
 21
5.712971443167893
 31
0.0
  0
LINE
  5
94F
330
1F
100
AcDbEntity
  8
TitleBlock&Notes
  6
Continuous
 62
     3
100
AcDbLine
 10
23.56949908956085
 20
5.71839959574388
 30
0.0
 11
23.83813243740085
 21
5.723088615903892
 31
0.0
  0
LINE
  5
950
330
1F
100
AcDbEntity
  8
TitleBlock&Notes
  6
Continuous
 62
     3
100
AcDbLine
 10
23.95858856642488
 20
6.051892522719879
 30
0.0
 11
23.96097913922485
 21
6.051934238943887
 31
0.0
  0
LINE
  5
951
330
1F
100
AcDbEntity
  8
TitleBlock&Notes
  6
Continuous
 62
     3
100
AcDbLine
 10
23.83976291829688
 20
6.327568005087888
 30
0.0
 11
24.07978679311288
 21
6.327568005087888
 31
0.0
  0
LINE
  5
952
330
1F
100
AcDbEntity
  8
TitleBlock&Notes
  6
Continuous
 62
     3
100
AcDbLine
 10
23.82337670440886
 20
6.365584005087892
 30
0.0
 11
24.09617300700086
 21
6.365584005087892
 31
0.0
  0
LINE
  5
953
330
1F
100
AcDbEntity
  8
TitleBlock&Notes
  6
Continuous
 62
     3
100
AcDbLine
 10
24.09071094415287
 20
6.352912005087882
 30
0.0
 11
23.82883876725689
 21
6.352912005087882
 31
0.0
  0
LINE
  5
954
330
1F
100
AcDbEntity
  8
TitleBlock&Notes
  6
Continuous
 62
     3
100
AcDbLine
 10
24.08524888130485
 20
6.340240005087884
 30
0.0
 11
23.83430083010487
 21
6.340240005087884
 31
0.0
  0
LINE
  5
955
330
1F
100
AcDbEntity
  8
TitleBlock&Notes
  6
Continuous
 62
     3
100
AcDbLine
 10
23.68510199464885
 20
6.078119178207884
 30
0.0
 11
23.57212021672887
 21
6.078119178207884
 31
0.0
  0
LINE
  5
956
330
1F
100
AcDbEntity
  8
TitleBlock&Notes
  6
Continuous
 62
     3
100
AcDbLine
 10
23.57246486978488
 20
6.075570129375887
 30
0.0
 11
23.68535140495287
 21
6.077540574687883
 31
0.0
  0
LINE
  5
957
330
1F
100
AcDbEntity
  8
TitleBlock&Notes
  6
Continuous
 62
     3
100
AcDbLine
 10
23.57369382568887
 20
6.065452449759878
 30
0.0
 11
23.68968908124088
 21
6.067477156575876
 31
0.0
  0
LINE
  5
958
330
1F
100
AcDbEntity
  8
TitleBlock&Notes
  6
Continuous
 62
     3
100
AcDbLine
 10
23.57470231413687
 20
6.055330892511887
 30
0.0
 11
23.69402678287285
 21
6.057413713119882
 31
0.0
  0
LINE
  5
959
330
1F
100
AcDbEntity
  8
TitleBlock&Notes
  6
Continuous
 62
     3
100
AcDbLine
 10
23.66359778805687
 20
6.128008943583879
 30
0.0
 11
23.56247606440888
 21
6.128008943583879
 31
0.0
  0
LINE
  5
95A
330
1F
100
AcDbEntity
  8
TitleBlock&Notes
  6
Continuous
 62
     3
100
AcDbLine
 10
23.65847979535286
 20
6.139882708959889
 30
0.0
 11
23.55934537077687
 21
6.139882708959889
 31
0.0
  0
LINE
  5
95B
330
1F
100
AcDbEntity
  8
TitleBlock&Notes
  6
Continuous
 62
     3
100
AcDbLine
 10
23.57758096168885
 20
6.327568005087888
 30
0.0
 11
23.45701567605686
 21
6.327568005087888
 31
0.0
  0
LINE
  5
95C
330
1F
100
AcDbEntity
  8
TitleBlock&Notes
  6
Continuous
 62
     3
100
AcDbLine
 10
23.57211889884088
 20
6.340240005087884
 30
0.0
 11
23.44530948520886
 21
6.340240005087884
 31
0.0
  0
LINE
  5
95D
330
1F
100
AcDbEntity
  8
TitleBlock&Notes
  6
Continuous
 62
     3
100
AcDbLine
 10
23.54793486837686
 20
6.460374569439884
 30
0.0
 11
23.75492060892085
 21
6.460374569439884
 31
0.0
  0
LINE
  5
95E
330
1F
100
AcDbEntity
  8
TitleBlock&Notes
  6
Continuous
 62
     3
100
AcDbLine
 10
23.64209358146485
 20
6.177898708959883
 30
0.0
 11
23.54703642357687
 21
6.177898708959883
 31
0.0
  0
LINE
  5
95F
330
1F
100
AcDbEntity
  8
TitleBlock&Notes
  6
Continuous
 62
     3
100
AcDbLine
 10
23.76325759375287
 20
6.473046569439882
 30
0.0
 11
23.52867373250485
 21
6.473046569439882
 31
0.0
  0
LINE
  5
960
330
1F
100
AcDbEntity
  8
TitleBlock&Notes
  6
Continuous
 62
     3
100
AcDbLine
 10
23.64755564431287
 20
6.165226708959889
 30
0.0
 11
23.55153637749687
 21
6.165226708959889
 31
0.0
  0
LINE
  5
961
330
1F
100
AcDbEntity
  8
TitleBlock&Notes
  6
Continuous
 62
     3
100
AcDbLine
 10
23.50941262197685
 20
6.485718569439889
 30
0.0
 11
23.77159457858487
 21
6.485718569439889
 31
0.0
  0
LINE
  5
962
330
1F
100
AcDbEntity
  8
TitleBlock&Notes
  6
Continuous
 62
     3
100
AcDbLine
 10
23.55563574415289
 20
6.152554708959888
 30
0.0
 11
23.65301773250487
 21
6.152554708959888
 31
0.0
  0
LINE
  5
963
330
1F
100
AcDbEntity
  8
TitleBlock&Notes
  6
Continuous
 62
     3
100
AcDbLine
 10
23.97226576015288
 20
6.078119178207884
 30
0.0
 11
23.94728395125688
 21
6.078119178207884
 31
0.0
  0
LINE
  5
964
330
1F
100
AcDbEntity
  8
TitleBlock&Notes
  6
Continuous
 62
     3
100
AcDbLine
 10
23.94991318850489
 20
6.072019384287886
 30
0.0
 11
23.96978605250485
 21
6.072366267615888
 31
0.0
  0
LINE
  5
965
330
1F
100
AcDbEntity
  8
TitleBlock&Notes
  6
Continuous
 62
     3
100
AcDbLine
 10
23.95425086479285
 20
6.061955940831886
 30
0.0
 11
23.96538260853686
 21
6.062150253279885
 31
0.0
  0
LINE
  5
966
330
1F
100
AcDbEntity
  8
TitleBlock&Notes
  6
Continuous
 62
     3
100
AcDbLine
 10
23.90427553807287
 20
6.177898708959883
 30
0.0
 11
24.01527417333687
 21
6.177898708959883
 31
0.0
  0
LINE
  5
967
330
1F
100
AcDbEntity
  8
TitleBlock&Notes
  6
Continuous
 62
     3
100
AcDbLine
 10
24.00981211048886
 20
6.165226708959889
 30
0.0
 11
23.90973760092085
 21
6.165226708959889
 31
0.0
  0
LINE
  5
968
330
1F
100
AcDbEntity
  8
TitleBlock&Notes
  6
Continuous
 62
     3
100
AcDbLine
 10
23.91519966376884
 20
6.152554708959888
 30
0.0
 11
24.00435004764087
 21
6.152554708959888
 31
0.0
  0
LINE
  5
969
330
1F
100
AcDbEntity
  8
TitleBlock&Notes
  6
Continuous
 62
     3
100
AcDbLine
 10
23.92066175196089
 20
6.139882708959889
 30
0.0
 11
23.9988879847929
 21
6.139882708959889
 31
0.0
  0
LINE
  5
96A
330
1F
100
AcDbEntity
  8
TitleBlock&Notes
  6
Continuous
 62
     3
100
AcDbLine
 10
23.92612381480887
 20
6.127210708959893
 30
0.0
 11
23.99342589660089
 21
6.127210708959893
 31
0.0
  0
LINE
  5
96B
330
1F
100
AcDbEntity
  8
TitleBlock&Notes
  6
Continuous
 62
     3
100
AcDbLine
 10
24.68841486837687
 20
5.535318569439886
 30
0.0
 11
25.16995086837686
 21
5.535318569439886
 31
0.0
  0
LINE
  5
96C
330
1F
100
AcDbEntity
  8
TitleBlock&Notes
  6
Continuous
 62
     3
100
AcDbLine
 10
25.19529486837689
 20
5.560662569439881
 30
0.0
 11
24.71375886837686
 21
5.560662569439881
 31
0.0
  0
LINE
  5
96D
330
1F
100
AcDbEntity
  8
TitleBlock&Notes
  6
Continuous
 62
     3
100
AcDbLine
 10
25.47522631797686
 20
5.654056197855885
 30
0.0
 11
24.71375886837686
 21
5.654056197855888
 31
0.0
  0
LINE
  5
96E
330
1F
100
AcDbEntity
  8
TitleBlock&Notes
  6
Continuous
 62
     3
100
AcDbLine
 10
24.71375886837686
 20
5.646377092575878
 30
0.0
 11
25.15369489730487
 21
5.654056197855885
 31
0.0
  0
LINE
  5
96F
330
1F
100
AcDbEntity
  8
TitleBlock&Notes
  6
Continuous
 62
     3
100
AcDbLine
 10
24.71375886837686
 20
5.636237946591879
 30
0.0
 11
25.47522631797686
 21
5.649529404639888
 31
0.0
  0
LINE
  5
970
330
1F
100
AcDbEntity
  8
TitleBlock&Notes
  6
Continuous
 62
     3
100
AcDbLine
 10
24.71375886837686
 20
5.626098800607889
 30
0.0
 11
25.47522631797686
 21
5.639390258655883
 31
0.0
  0
LINE
  5
971
330
1F
100
AcDbEntity
  8
TitleBlock&Notes
  6
Continuous
 62
     3
100
AcDbLine
 10
24.71375886837686
 20
5.615959654623882
 30
0.0
 11
25.47522631797686
 21
5.629251112671886
 31
0.0
  0
LINE
  5
972
330
1F
100
AcDbEntity
  8
TitleBlock&Notes
  6
Continuous
 62
     3
100
AcDbLine
 10
24.71375886837686
 20
5.605820508639885
 30
0.0
 11
25.47522631797686
 21
5.619111966687893
 31
0.0
  0
LINE
  5
973
330
1F
100
AcDbEntity
  8
TitleBlock&Notes
  6
Continuous
 62
     3
100
AcDbLine
 10
24.71375886837686
 20
5.595681362655883
 30
0.0
 11
25.47522631797686
 21
5.608972820703883
 31
0.0
  0
LINE
  5
974
330
1F
100
AcDbEntity
  8
TitleBlock&Notes
  6
Continuous
 62
     3
100
AcDbLine
 10
24.71375886837686
 20
5.585542216671886
 30
0.0
 11
25.47522631797686
 21
5.598833674719887
 31
0.0
  0
LINE
  5
975
330
1F
100
AcDbEntity
  8
TitleBlock&Notes
  6
Continuous
 62
     3
100
AcDbLine
 10
24.71375886837686
 20
5.575403070687888
 30
0.0
 11
25.47522631797686
 21
5.588694528735879
 31
0.0
  0
LINE
  5
976
330
1F
100
AcDbEntity
  8
TitleBlock&Notes
  6
Continuous
 62
     3
100
AcDbLine
 10
24.71375886837686
 20
5.565263924703886
 30
0.0
 11
25.47522631797686
 21
5.578555408095889
 31
0.0
  0
LINE
  5
977
330
1F
100
AcDbEntity
  8
TitleBlock&Notes
  6
Continuous
 62
     3
100
AcDbLine
 10
25.18262286837687
 20
5.547990569439884
 30
0.0
 11
24.70108686837686
 21
5.547990569439884
 31
0.0
  0
LINE
  5
978
330
1F
100
AcDbEntity
  8
TitleBlock&Notes
  6
Continuous
 62
     3
100
AcDbLine
 10
25.03101764546489
 20
5.560662569439881
 30
0.0
 11
25.47522631797686
 21
5.568416262111891
 31
0.0
  0
TEXT
  5
979
330
1F
100
AcDbEntity
  8
TitleBlock&Notes
  6
Continuous
 62
     3
100
AcDbText
 10
24.93758937180089
 20
6.197438045919884
 30
0.0
 40
0.19008
  1
R
 41
1.1965812
100
AcDbText
  0
LINE
  5
97A
330
1F
100
AcDbEntity
  8
TitleBlock&Notes
  6
Continuous
 62
     3
100
AcDbLine
 10
25.47522631797686
 20
6.128008943583879
 30
0.0
 11
24.71375886837686
 21
6.128008943583879
 31
0.0
  0
LINE
  5
97B
330
1F
100
AcDbEntity
  8
TitleBlock&Notes
  6
Continuous
 62
     3
100
AcDbLine
 10
25.47522631797686
 20
6.078119178207884
 30
0.0
 11
24.71375886837686
 21
6.078119178207884
 31
0.0
  0
LINE
  5
97C
330
1F
100
AcDbEntity
  8
TitleBlock&Notes
  6
Continuous
 62
     3
100
AcDbLine
 10
25.47522631797686
 20
5.953394790111882
 30
0.0
 11
24.71375886837686
 21
5.953394790111882
 31
0.0
  0
LINE
  5
97D
330
1F
100
AcDbEntity
  8
TitleBlock&Notes
  6
Continuous
 62
     3
100
AcDbLine
 10
25.47522631797686
 20
5.903505024735882
 30
0.0
 11
24.71375886837686
 21
5.903505024735882
 31
0.0
  0
LINE
  5
97E
330
1F
100
AcDbEntity
  8
TitleBlock&Notes
  6
Continuous
 62
     3
100
AcDbLine
 10
25.47522631797686
 20
5.703945963231884
 30
0.0
 11
24.71375886837686
 21
5.703945963231884
 31
0.0
  0
LINE
  5
97F
330
1F
100
AcDbEntity
  8
TitleBlock&Notes
  6
Continuous
 62
     3
100
AcDbLine
 10
24.71375886837686
 20
5.890459885023886
 30
0.0
 11
25.46111361295285
 21
5.903505024735882
 31
0.0
  0
LINE
  5
980
330
1F
100
AcDbEntity
  8
TitleBlock&Notes
  6
Continuous
 62
     3
100
AcDbLine
 10
24.71375886837686
 20
5.880320739039888
 30
0.0
 11
25.47522631797686
 21
5.89361222243188
 31
0.0
  0
LINE
  5
981
330
1F
100
AcDbEntity
  8
TitleBlock&Notes
  6
Continuous
 62
     3
100
AcDbLine
 10
24.71375886837686
 20
5.870181593055884
 30
0.0
 11
25.47522631797686
 21
5.883473076447883
 31
0.0
  0
LINE
  5
982
330
1F
100
AcDbEntity
  8
TitleBlock&Notes
  6
Continuous
 62
     3
100
AcDbLine
 10
24.71375886837686
 20
5.860042447071889
 30
0.0
 11
25.47522631797686
 21
5.873333930463887
 31
0.0
  0
LINE
  5
983
330
1F
100
AcDbEntity
  8
TitleBlock&Notes
  6
Continuous
 62
     3
100
AcDbLine
 10
24.71375886837686
 20
5.849903326431882
 30
0.0
 11
25.47522631797686
 21
5.863194784479885
 31
0.0
  0
LINE
  5
984
330
1F
100
AcDbEntity
  8
TitleBlock&Notes
  6
Continuous
 62
     3
100
AcDbLine
 10
24.71375886837686
 20
5.839764180447883
 30
0.0
 11
25.47522631797686
 21
5.853055638495887
 31
0.0
  0
LINE
  5
985
330
1F
100
AcDbEntity
  8
TitleBlock&Notes
  6
Continuous
 62
     3
100
AcDbLine
 10
24.71375886837686
 20
5.829625034463896
 30
0.0
 11
25.47522631797686
 21
5.842916492511887
 31
0.0
  0
LINE
  5
986
330
1F
100
AcDbEntity
  8
TitleBlock&Notes
  6
Continuous
 62
     3
100
AcDbLine
 10
24.71375886837686
 20
5.819485888479887
 30
0.0
 11
25.47522631797686
 21
5.832777346527889
 31
0.0
  0
LINE
  5
987
330
1F
100
AcDbEntity
  8
TitleBlock&Notes
  6
Continuous
 62
     3
100
AcDbLine
 10
24.71375886837686
 20
5.80934674249588
 30
0.0
 11
25.47522631797686
 21
5.822638200543892
 31
0.0
  0
LINE
  5
988
330
1F
100
AcDbEntity
  8
TitleBlock&Notes
  6
Continuous
 62
     3
100
AcDbLine
 10
24.71375886837686
 20
5.799207596511882
 30
0.0
 11
25.47522631797686
 21
5.81249905455988
 31
0.0
  0
LINE
  5
989
330
1F
100
AcDbEntity
  8
TitleBlock&Notes
  6
Continuous
 62
     3
100
AcDbLine
 10
24.71375886837686
 20
5.789068450527888
 30
0.0
 11
25.47522631797686
 21
5.802359908575892
 31
0.0
  0
LINE
  5
98A
330
1F
100
AcDbEntity
  8
TitleBlock&Notes
  6
Continuous
 62
     3
100
AcDbLine
 10
24.71375886837686
 20
5.778929304543892
 30
0.0
 11
25.47522631797686
 21
5.792220762591883
 31
0.0
  0
LINE
  5
98B
330
1F
100
AcDbEntity
  8
TitleBlock&Notes
  6
Continuous
 62
     3
100
AcDbLine
 10
24.71375886837686
 20
5.768790158559886
 30
0.0
 11
25.47522631797686
 21
5.782081616607885
 31
0.0
  0
LINE
  5
98C
330
1F
100
AcDbEntity
  8
TitleBlock&Notes
  6
Continuous
 62
     3
100
AcDbLine
 10
24.71375886837686
 20
5.758651012575883
 30
0.0
 11
25.47522631797686
 21
5.771942470623887
 31
0.0
  0
LINE
  5
98D
330
1F
100
AcDbEntity
  8
TitleBlock&Notes
  6
Continuous
 62
     3
100
AcDbLine
 10
24.71375886837686
 20
5.748511866591887
 30
0.0
 11
25.47522631797686
 21
5.761803324639886
 31
0.0
  0
LINE
  5
98E
330
1F
100
AcDbEntity
  8
TitleBlock&Notes
  6
Continuous
 62
     3
100
AcDbLine
 10
24.71375886837686
 20
5.738372720607888
 30
0.0
 11
25.47522631797686
 21
5.751664203999882
 31
0.0
  0
LINE
  5
98F
330
1F
100
AcDbEntity
  8
TitleBlock&Notes
  6
Continuous
 62
     3
100
AcDbLine
 10
24.71375886837686
 20
5.72823357462388
 30
0.0
 11
25.47522631797686
 21
5.74152505801589
 31
0.0
  0
LINE
  5
990
330
1F
100
AcDbEntity
  8
TitleBlock&Notes
  6
Continuous
 62
     3
100
AcDbLine
 10
24.71375886837686
 20
5.718094428639886
 30
0.0
 11
25.47522631797686
 21
5.731385912031892
 31
0.0
  0
LINE
  5
991
330
1F
100
AcDbEntity
  8
TitleBlock&Notes
  6
Continuous
 62
     3
100
AcDbLine
 10
24.71375886837686
 20
5.70795528265588
 30
0.0
 11
25.47522631797686
 21
5.721246766047886
 31
0.0
  0
LINE
  5
992
330
1F
100
AcDbEntity
  8
TitleBlock&Notes
  6
Continuous
 62
     3
100
AcDbLine
 10
24.71375886837686
 20
6.065074063839889
 30
0.0
 11
25.46111361295285
 21
6.078119178207884
 31
0.0
  0
LINE
  5
993
330
1F
100
AcDbEntity
  8
TitleBlock&Notes
  6
Continuous
 62
     3
100
AcDbLine
 10
24.71375886837686
 20
6.054934917855887
 30
0.0
 11
25.47522631797686
 21
6.068226375903892
 31
0.0
  0
LINE
  5
994
330
1F
100
AcDbEntity
  8
TitleBlock&Notes
  6
Continuous
 62
     3
100
AcDbLine
 10
24.71375886837686
 20
6.044795771871882
 30
0.0
 11
25.47522631797686
 21
6.058087229919893
 31
0.0
  0
LINE
  5
995
330
1F
100
AcDbEntity
  8
TitleBlock&Notes
  6
Continuous
 62
     3
100
AcDbLine
 10
24.71375886837686
 20
6.034656625887884
 30
0.0
 11
25.47522631797686
 21
6.047948083935883
 31
0.0
  0
LINE
  5
996
330
1F
100
AcDbEntity
  8
TitleBlock&Notes
  6
Continuous
 62
     3
100
AcDbLine
 10
24.71375886837686
 20
6.024517479903892
 30
0.0
 11
25.47522631797686
 21
6.037808963295884
 31
0.0
  0
LINE
  5
997
330
1F
100
AcDbEntity
  8
TitleBlock&Notes
  6
Continuous
 62
     3
100
AcDbLine
 10
24.71375886837686
 20
6.014378333919886
 30
0.0
 11
25.47522631797686
 21
6.027669817311887
 31
0.0
  0
LINE
  5
998
330
1F
100
AcDbEntity
  8
TitleBlock&Notes
  6
Continuous
 62
     3
100
AcDbLine
 10
24.71375886837686
 20
6.004239187935889
 30
0.0
 11
25.47522631797686
 21
6.017530671327889
 31
0.0
  0
LINE
  5
999
330
1F
100
AcDbEntity
  8
TitleBlock&Notes
  6
Continuous
 62
     3
100
AcDbLine
 10
24.71375886837686
 20
5.99410006729588
 30
0.0
 11
25.47522631797686
 21
6.007391525343887
 31
0.0
  0
LINE
  5
99A
330
1F
100
AcDbEntity
  8
TitleBlock&Notes
  6
Continuous
 62
     3
100
AcDbLine
 10
24.71375886837686
 20
5.983960921311887
 30
0.0
 11
25.47522631797686
 21
5.99725237935989
 31
0.0
  0
LINE
  5
99B
330
1F
100
AcDbEntity
  8
TitleBlock&Notes
  6
Continuous
 62
     3
100
AcDbLine
 10
24.71375886837686
 20
5.97382177532788
 30
0.0
 11
25.47522631797686
 21
5.987113233375883
 31
0.0
  0
LINE
  5
99C
330
1F
100
AcDbEntity
  8
TitleBlock&Notes
  6
Continuous
 62
     3
100
AcDbLine
 10
24.71375886837686
 20
5.963682629343884
 30
0.0
 11
25.47522631797686
 21
5.976974087391893
 31
0.0
  0
LINE
  5
99D
330
1F
100
AcDbEntity
  8
TitleBlock&Notes
  6
Continuous
 62
     3
100
AcDbLine
 10
24.71375886837686
 20
5.953543483359882
 30
0.0
 11
25.47522631797686
 21
5.966834941407894
 31
0.0
  0
CIRCLE
  5
99E
330
1F
100
AcDbEntity
  8
TitleBlock&Notes
  6
Continuous
 62
     3
100
AcDbCircle
 10
25.01673939343286
 20
6.295638569439879
 30
0.0
 40
0.1584
  0
LINE
  5
99F
330
1F
100
AcDbEntity
  8
TitleBlock&Notes
  6
Continuous
 62
     3
100
AcDbLine
 10
25.47522631797686
 20
6.139882708959889
 30
0.0
 11
25.04556086901685
 21
6.139882708959889
 31
0.0
  0
LINE
  5
9A0
330
1F
100
AcDbEntity
  8
TitleBlock&Notes
  6
Continuous
 62
     3
100
AcDbLine
 10
25.06493549532088
 20
5.703945963231884
 30
0.0
 11
25.47522631797686
 21
5.711107620063892
 31
0.0
  0
LINE
  5
9A1
330
1F
100
AcDbEntity
  8
TitleBlock&Notes
  6
Continuous
 62
     3
100
AcDbLine
 10
25.47522631797686
 20
6.152554708959888
 30
0.0
 11
25.08469213173686
 21
6.152554708959888
 31
0.0
  0
LINE
  5
9A2
330
1F
100
AcDbEntity
  8
TitleBlock&Notes
  6
Continuous
 62
     3
100
AcDbLine
 10
24.68841486837687
 20
6.460374569439884
 30
0.0
 11
24.68841486837687
 21
5.535318569439886
 31
0.0
  0
LINE
  5
9A3
330
1F
100
AcDbEntity
  8
TitleBlock&Notes
  6
Continuous
 62
     3
100
AcDbLine
 10
24.71375886837686
 20
5.560662569439881
 30
0.0
 11
24.71375886837686
 21
6.485718569439889
 31
0.0
  0
LINE
  5
9A4
330
1F
100
AcDbEntity
  8
TitleBlock&Notes
  6
Continuous
 62
     3
100
AcDbLine
 10
24.70108686837686
 20
5.547990569439884
 30
0.0
 11
24.70108686837686
 21
6.473046569439882
 31
0.0
  0
LINE
  5
9A5
330
1F
100
AcDbEntity
  8
TitleBlock&Notes
  6
Continuous
 62
     3
100
AcDbLine
 10
24.71375886837686
 20
5.90059903100788
 30
0.0
 11
24.88024241320889
 21
5.903505024735882
 31
0.0
  0
LINE
  5
9A6
330
1F
100
AcDbEntity
  8
TitleBlock&Notes
  6
Continuous
 62
     3
100
AcDbLine
 10
24.49833486837686
 20
6.460374569439884
 30
0.0
 11
24.68841486837687
 21
6.460374569439884
 31
0.0
  0
LINE
  5
9A7
330
1F
100
AcDbEntity
  8
TitleBlock&Notes
  6
Continuous
 62
     3
100
AcDbLine
 10
24.47299086837686
 20
6.485718569439889
 30
0.0
 11
24.71375886837686
 21
6.485718569439889
 31
0.0
  0
LINE
  5
9A8
330
1F
100
AcDbEntity
  8
TitleBlock&Notes
  6
Continuous
 62
     3
100
AcDbLine
 10
24.48566286837688
 20
6.473046569439882
 30
0.0
 11
24.70108686837686
 21
6.473046569439882
 31
0.0
  0
LINE
  5
9A9
330
1F
100
AcDbEntity
  8
TitleBlock&Notes
  6
Continuous
 62
     3
100
AcDbLine
 10
24.47299086837686
 20
6.140680943583889
 30
0.0
 11
24.26141398620087
 21
6.140680943583889
 31
0.0
  0
LINE
  5
9AA
330
1F
100
AcDbEntity
  8
TitleBlock&Notes
  6
Continuous
 62
     3
100
AcDbLine
 10
24.34196874972085
 20
6.327568005087888
 30
0.0
 11
24.47299086837686
 21
6.327568005087888
 31
0.0
  0
LINE
  5
9AB
330
1F
100
AcDbEntity
  8
TitleBlock&Notes
  6
Continuous
 62
     3
100
AcDbLine
 10
24.47299086837686
 20
6.365584005087892
 30
0.0
 11
24.35835496360887
 21
6.365584005087892
 31
0.0
  0
LINE
  5
9AC
330
1F
100
AcDbEntity
  8
TitleBlock&Notes
  6
Continuous
 62
     3
100
AcDbLine
 10
24.47299086837686
 20
6.352912005087882
 30
0.0
 11
24.35289290076087
 21
6.352912005087882
 31
0.0
  0
LINE
  5
9AD
330
1F
100
AcDbEntity
  8
TitleBlock&Notes
  6
Continuous
 62
     3
100
AcDbLine
 10
24.47299086837686
 20
6.340240005087884
 30
0.0
 11
24.34743081256884
 21
6.340240005087884
 31
0.0
  0
LINE
  5
9AE
330
1F
100
AcDbEntity
  8
TitleBlock&Notes
  6
Continuous
 62
     3
100
AcDbLine
 10
24.47299086837686
 20
6.177898708959883
 30
0.0
 11
24.27745612994487
 21
6.177898708959883
 31
0.0
  0
LINE
  5
9AF
330
1F
100
AcDbEntity
  8
TitleBlock&Notes
  6
Continuous
 62
     3
100
AcDbLine
 10
24.47299086837686
 20
6.165226708959889
 30
0.0
 11
24.27199406709689
 21
6.165226708959889
 31
0.0
  0
LINE
  5
9B0
330
1F
100
AcDbEntity
  8
TitleBlock&Notes
  6
Continuous
 62
     3
100
AcDbLine
 10
24.47299086837686
 20
6.152554708959888
 30
0.0
 11
24.26653197890487
 21
6.152554708959888
 31
0.0
  0
LINE
  5
9B1
330
1F
100
AcDbEntity
  8
TitleBlock&Notes
  6
Continuous
 62
     3
100
AcDbLine
 10
24.71375886837686
 20
6.075213209823886
 30
0.0
 11
24.88024241320889
 21
6.078119178207884
 31
0.0
  0
LINE
  5
9B2
330
1F
100
AcDbEntity
  8
TitleBlock&Notes
  6
Continuous
 62
     3
100
AcDbLine
 10
24.71375886837686
 20
6.177898708959883
 30
0.0
 11
24.91077765007288
 21
6.177898708959883
 31
0.0
  0
LINE
  5
9B3
330
1F
100
AcDbEntity
  8
TitleBlock&Notes
  6
Continuous
 62
     3
100
AcDbLine
 10
24.71375886837686
 20
6.327568005087888
 30
0.0
 11
24.86159085122487
 21
6.327568005087888
 31
0.0
  0
LINE
  5
9B4
330
1F
100
AcDbEntity
  8
TitleBlock&Notes
  6
Continuous
 62
     3
100
AcDbLine
 10
24.71375886837686
 20
6.365584005087892
 30
0.0
 11
24.87461903580087
 21
6.365584005087892
 31
0.0
  0
LINE
  5
9B5
330
1F
100
AcDbEntity
  8
TitleBlock&Notes
  6
Continuous
 62
     3
100
AcDbLine
 10
24.71375886837686
 20
6.352912005087882
 30
0.0
 11
24.86905625589687
 21
6.352912005087882
 31
0.0
  0
LINE
  5
9B6
330
1F
100
AcDbEntity
  8
TitleBlock&Notes
  6
Continuous
 62
     3
100
AcDbLine
 10
24.71375886837686
 20
6.340240005087884
 30
0.0
 11
24.86474835880886
 21
6.340240005087884
 31
0.0
  0
LINE
  5
9B7
330
1F
100
AcDbEntity
  8
TitleBlock&Notes
  6
Continuous
 62
     3
100
AcDbLine
 10
24.71375886837686
 20
6.165226708959889
 30
0.0
 11
24.92683216168885
 21
6.165226708959889
 31
0.0
  0
LINE
  5
9B8
330
1F
100
AcDbEntity
  8
TitleBlock&Notes
  6
Continuous
 62
     3
100
AcDbLine
 10
24.71375886837686
 20
6.152554708959888
 30
0.0
 11
24.94878665512888
 21
6.152554708959888
 31
0.0
  0
LINE
  5
9B9
330
1F
100
AcDbEntity
  8
TitleBlock&Notes
  6
Continuous
 62
     3
100
AcDbLine
 10
24.71375886837686
 20
6.139882708959889
 30
0.0
 11
24.98791791784887
 21
6.139882708959889
 31
0.0
  0
LINE
  5
9BA
330
1F
100
AcDbEntity
  8
TitleBlock&Notes
  6
Continuous
 62
     3
100
AcDbLine
 10
25.19529486837689
 20
5.472277726431877
 30
0.0
 11
25.47522631797686
 21
5.477163948255888
 31
0.0
  0
LINE
  5
9BB
330
1F
100
AcDbEntity
  8
TitleBlock&Notes
  6
Continuous
 62
     3
100
AcDbLine
 10
25.19529486837689
 20
5.462138580447883
 30
0.0
 11
25.47522631797686
 21
5.467024802271882
 31
0.0
  0
LINE
  5
9BC
330
1F
100
AcDbEntity
  8
TitleBlock&Notes
  6
Continuous
 62
     3
100
AcDbLine
 10
25.19529486837689
 20
5.451999434463886
 30
0.0
 11
25.47522631797686
 21
5.456885656287886
 31
0.0
  0
LINE
  5
9BD
330
1F
100
AcDbEntity
  8
TitleBlock&Notes
  6
Continuous
 62
     3
100
AcDbLine
 10
25.19529486837689
 20
5.441860288479881
 30
0.0
 11
25.47522631797686
 21
5.446746510303883
 31
0.0
  0
LINE
  5
9BE
330
1F
100
AcDbEntity
  8
TitleBlock&Notes
  6
Continuous
 62
     3
100
AcDbLine
 10
25.19529486837689
 20
5.431721142495887
 30
0.0
 11
25.47522631797686
 21
5.436607364319887
 31
0.0
  0
LINE
  5
9BF
330
1F
100
AcDbEntity
  8
TitleBlock&Notes
  6
Continuous
 62
     3
100
AcDbLine
 10
25.19529486837689
 20
5.421582021855885
 30
0.0
 11
25.47522631797686
 21
5.426468243679878
 31
0.0
  0
LINE
  5
9C0
330
1F
100
AcDbEntity
  8
TitleBlock&Notes
  6
Continuous
 62
     3
100
AcDbLine
 10
25.19529486837689
 20
5.553390894303887
 30
0.0
 11
25.47522631797686
 21
5.558277116127884
 31
0.0
  0
LINE
  5
9C1
330
1F
100
AcDbEntity
  8
TitleBlock&Notes
  6
Continuous
 62
     3
100
AcDbLine
 10
25.19529486837689
 20
5.543251748319888
 30
0.0
 11
25.47522631797686
 21
5.548137970143883
 31
0.0
  0
LINE
  5
9C2
330
1F
100
AcDbEntity
  8
TitleBlock&Notes
  6
Continuous
 62
     3
100
AcDbLine
 10
25.19529486837689
 20
5.533112602335886
 30
0.0
 11
25.47522631797686
 21
5.537998824159886
 31
0.0
  0
LINE
  5
9C3
330
1F
100
AcDbEntity
  8
TitleBlock&Notes
  6
Continuous
 62
     3
100
AcDbLine
 10
25.19529486837689
 20
5.522973456351881
 30
0.0
 11
25.47522631797686
 21
5.527859678175889
 31
0.0
  0
LINE
  5
9C4
330
1F
100
AcDbEntity
  8
TitleBlock&Notes
  6
Continuous
 62
     3
100
AcDbLine
 10
25.19529486837689
 20
5.512834310367883
 30
0.0
 11
25.47522631797686
 21
5.517720532191876
 31
0.0
  0
LINE
  5
9C5
330
1F
100
AcDbEntity
  8
TitleBlock&Notes
  6
Continuous
 62
     3
100
AcDbLine
 10
25.19529486837689
 20
5.502695164383891
 30
0.0
 11
25.47522631797686
 21
5.507581386207887
 31
0.0
  0
LINE
  5
9C6
330
1F
100
AcDbEntity
  8
TitleBlock&Notes
  6
Continuous
 62
     3
100
AcDbLine
 10
25.19529486837689
 20
5.492556018399892
 30
0.0
 11
25.47522631797686
 21
5.497442240223879
 31
0.0
  0
LINE
  5
9C7
330
1F
100
AcDbEntity
  8
TitleBlock&Notes
  6
Continuous
 62
     3
100
AcDbLine
 10
25.19529486837689
 20
5.482416872415886
 30
0.0
 11
25.47522631797686
 21
5.487303094239882
 31
0.0
  0
LINE
  5
9C8
330
1F
100
AcDbEntity
  8
TitleBlock&Notes
  6
Continuous
 62
     3
100
AcDbLine
 10
25.28611118940087
 20
5.953394790111882
 30
0.0
 11
25.47522631797686
 21
5.956695795423883
 31
0.0
  0
TEXT
  5
9C9
330
1F
100
AcDbEntity
  8
TitleBlock&Notes
  6
Continuous
 62
     3
100
AcDbText
 10
25.22607338229688
 20
6.218216653791892
 30
0.0
 40
0.06336
  1
INC.
 41
1.282051279999999
100
AcDbText
  0
LINE
  5
9CA
330
1F
100
AcDbEntity
  8
TitleBlock&Notes
  6
Continuous
 62
     3
100
AcDbLine
 10
25.47522631797686
 20
6.327568005087888
 30
0.0
 11
25.17188793564085
 21
6.327568005087888
 31
0.0
  0
LINE
  5
9CB
330
1F
100
AcDbEntity
  8
TitleBlock&Notes
  6
Continuous
 62
     3
100
AcDbLine
 10
25.47522631797686
 20
6.365584005087892
 30
0.0
 11
25.15885975106489
 21
6.365584005087892
 31
0.0
  0
LINE
  5
9CC
330
1F
100
AcDbEntity
  8
TitleBlock&Notes
  6
Continuous
 62
     3
100
AcDbLine
 10
25.47522631797686
 20
6.352912005087882
 30
0.0
 11
25.16442253096885
 21
6.352912005087882
 31
0.0
  0
LINE
  5
9CD
330
1F
100
AcDbEntity
  8
TitleBlock&Notes
  6
Continuous
 62
     3
100
AcDbLine
 10
25.47522631797686
 20
6.340240005087884
 30
0.0
 11
25.16873042805686
 21
6.340240005087884
 31
0.0
  0
LINE
  5
9CE
330
1F
100
AcDbEntity
  8
TitleBlock&Notes
  6
Continuous
 62
     3
100
AcDbLine
 10
25.47522631797686
 20
6.177898708959883
 30
0.0
 11
25.12270113679288
 21
6.177898708959883
 31
0.0
  0
LINE
  5
9CF
330
1F
100
AcDbEntity
  8
TitleBlock&Notes
  6
Continuous
 62
     3
100
AcDbLine
 10
25.47522631797686
 20
6.165226708959889
 30
0.0
 11
25.10664662517685
 21
6.165226708959889
 31
0.0
  0
TEXT
  5
9D3
330
1F
100
AcDbEntity
  8
TitleBlock&Notes
  6
Continuous
 62
     3
100
AcDbText
 10
27.03908978837212
 20
5.810958409694054
 30
0.0
 40
0.202752
  1
 Bolton, Ontario
 41
0.7000000000000001
100
AcDbText
  0
TEXT
  5
9D4
330
1F
100
AcDbEntity
  8
TitleBlock&Notes
  6
Continuous
 62
     3
100
AcDbText
 10
25.75026448478161
 20
5.471789599486311
 30
0.0
 40
0.202752
  1
          Canada L7E 5R1
 41
0.7000000000000001
100
AcDbText
  0
CIRCLE
  5
9D5
330
1F
100
AcDbEntity
  8
TitleBlock&Notes
  6
Continuous
 62
     3
100
AcDbCircle
 10
28.81343381472871
 20
6.759187735287152
 30
0.0
 40
0.114048
  0
TEXT
  5
9D6
330
1F
100
AcDbEntity
  8
TitleBlock&Notes
  6
Continuous
 62
     3
100
AcDbText
 10
28.7604784898007
 20
6.689807825655153
 30
0.0
 40
0.139392
  1
R
 41
1.165501169999998
100
AcDbText
  0
LINE
  5
9DB
330
1F
100
AcDbEntity
  8
6083FlameCut
100
AcDbLine
 10
26.04017167275538
 20
19.53563194408548
 30
0.0
 11
20.04017167275538
 21
19.53563194408548
 31
0.0
  0
LINE
  5
A52
330
1F
100
AcDbEntity
  8
5034MountPlate
100
AcDbLine
 10
9.893754193291584
 20
34.53563194408548
 30
0.0
 11
14.39375419329159
 21
34.53563194408548
 31
0.0
  0
LINE
  5
A53
330
1F
100
AcDbEntity
  8
5034MountPlate
100
AcDbLine
 10
10.01875419329157
 20
33.53563194408548
 30
0.0
 11
14.64375419329158
 21
33.53563194408548
 31
0.0
  0
LINE
  5
A57
330
1F
100
AcDbEntity
  8
5034MountPlate
  6
HIDDEN
100
AcDbLine
 10
10.66735419329158
 20
34.53563194408548
 30
0.0
 11
10.66735419329159
 21
33.53563194408548
 31
0.0
  0
LINE
  5
A58
330
1F
100
AcDbEntity
  8
5034MountPlate
  6
HIDDEN
100
AcDbLine
 10
10.72985419329158
 20
34.53563194408548
 30
0.0
 11
10.72985419329159
 21
33.53563194408548
 31
0.0
  0
LINE
  5
A5A
330
1F
100
AcDbEntity
  8
5034MountPlate
  6
HIDDEN
100
AcDbLine
 10
13.55765419329158
 20
34.53563194408548
 30
0.0
 11
13.55765419329159
 21
33.53563194408548
 31
0.0
  0
LINE
  5
A5B
330
1F
100
AcDbEntity
  8
5034MountPlate
  6
HIDDEN
100
AcDbLine
 10
13.62015419329158
 20
34.53563194408548
 30
0.0
 11
13.62015419329159
 21
33.53563194408548
 31
0.0
  0
LINE
  5
ABA
330
1F
100
AcDbEntity
  8
5034MountPlate
100
AcDbLine
 10
20.04017167275538
 20
33.53563194408548
 30
0.0
 11
23.54017167275538
 21
33.53563194408548
 31
0.0
  0
LINE
  5
ABB
330
1F
100
AcDbEntity
  8
5034MountPlate
100
AcDbLine
 10
20.04017167275538
 20
34.53563194408548
 30
0.0
 11
23.54017167275537
 21
34.53563194408548
 31
0.0
  0
LINE
  5
ADA
330
1F
100
AcDbEntity
  8
5034MountPlate
100
AcDbLine
 10
23.54017167275537
 20
34.53563194408548
 30
0.0
 11
23.54017167275538
 21
33.53563194408548
 31
0.0
  0
LINE
  5
ADB
330
1F
100
AcDbEntity
  8
5034MountPlate
100
AcDbLine
 10
20.04017167275538
 20
34.53563194408548
 30
0.0
 11
20.04017167275538
 21
33.53563194408548
 31
0.0
  0
LINE
  5
ADD
330
1F
100
AcDbEntity
  8
0
100
AcDbLine
 10
23.54017167275538
 20
33.53563194408548
 30
0.0
 11
20.04017167275538
 21
33.53563194408548
 31
0.0
  0
LINE
  5
BE3
330
1F
100
AcDbEntity
  8
4529BasePlate
100
AcDbLine
 10
27.04017167275537
 20
18.78563194408548
 30
0.0
 11
19.54017167275538
 21
18.78563194408548
 31
0.0
  0
LINE
  5
BE4
330
1F
100
AcDbEntity
  8
4529BasePlate
100
AcDbLine
 10
27.04017167275537
 20
19.53563194408548
 30
0.0
 11
19.54017167275538
 21
19.53563194408548
 31
0.0
  0
LINE
  5
BE5
330
1F
100
AcDbEntity
  8
center
100
AcDbLine
 10
21.79017167275536
 20
35.09737830702148
 30
0.0
 11
21.79017167275536
 21
18.22685753572782
 31
0.0
  0
LINE
  5
BE6
330
1F
100
AcDbEntity
  8
4529BasePlate
  6
HIDDEN2
100
AcDbLine
 10
21.54017167275537
 20
19.53563194408548
 30
0.0
 11
21.54017167275537
 21
18.78563194408548
 31
0.0
  0
LINE
  5
BE7
330
1F
100
AcDbEntity
  8
center
 48
0.5
100
AcDbLine
 10
20.04017167275538
 20
19.6919597671752
 30
0.0
 11
20.04017167275538
 21
18.53563194408548
 31
0.0
  0
LINE
  5
BE8
330
1F
100
AcDbEntity
  8
4529BasePlate
100
AcDbLine
 10
19.54017167275538
 20
19.53563194408548
 30
0.0
 11
19.54017167275538
 21
18.78563194408548
 31
0.0
  0
LINE
  5
BE9
330
1F
100
AcDbEntity
  8
4529BasePlate
  6
HIDDEN2
100
AcDbLine
 10
19.83717167275537
 20
19.53563194408548
 30
0.0
 11
19.83717167275537
 21
18.78563194408548
 31
0.0
  0
LINE
  5
BEA
330
1F
100
AcDbEntity
  8
4529BasePlate
  6
HIDDEN2
100
AcDbLine
 10
20.24317167275536
 20
19.53563194408548
 30
0.0
 11
20.24317167275536
 21
18.78563194408548
 31
0.0
  0
LINE
  5
BED
330
1F
100
AcDbEntity
  8
center
 48
0.5
100
AcDbLine
 10
26.54017167275538
 20
19.6919597671752
 30
0.0
 11
26.54017167275538
 21
18.53563194408548
 31
0.0
  0
LINE
  5
BEE
330
1F
100
AcDbEntity
  8
4529BasePlate
  6
HIDDEN2
100
AcDbLine
 10
26.33717167275538
 20
19.53563194408548
 30
0.0
 11
26.33717167275538
 21
18.78563194408548
 31
0.0
  0
LINE
  5
BEF
330
1F
100
AcDbEntity
  8
center
 48
0.5
100
AcDbLine
 10
25.29017167275538
 20
19.6919597671752
 30
0.0
 11
25.29017167275538
 21
18.53563194408548
 31
0.0
  0
LINE
  5
BF0
330
1F
100
AcDbEntity
  8
center
 48
0.5
100
AcDbLine
 10
24.54017167275538
 20
19.6919597671752
 30
0.0
 11
24.54017167275538
 21
18.53563194408548
 31
0.0
  0
LINE
  5
BF1
330
1F
100
AcDbEntity
  8
4529BasePlate
  6
HIDDEN2
100
AcDbLine
 10
24.35267167275538
 20
19.53563194408548
 30
0.0
 11
24.35267167275538
 21
18.78563194408548
 31
0.0
  0
LINE
  5
BF2
330
1F
100
AcDbEntity
  8
4529BasePlate
  6
HIDDEN2
100
AcDbLine
 10
24.38417167275538
 20
19.53563194408548
 30
0.0
 11
24.38417167275538
 21
18.78563194408548
 31
0.0
  0
LINE
  5
BF3
330
1F
100
AcDbEntity
  8
4529BasePlate
  6
HIDDEN2
100
AcDbLine
 10
24.69617167275538
 20
19.53563194408548
 30
0.0
 11
24.69617167275538
 21
18.78563194408548
 31
0.0
  0
LINE
  5
BF4
330
1F
100
AcDbEntity
  8
4529BasePlate
  6
HIDDEN2
100
AcDbLine
 10
24.72767167275538
 20
19.53563194408548
 30
0.0
 11
24.72767167275538
 21
18.78563194408548
 31
0.0
  0
LINE
  5
BF5
330
1F
100
AcDbEntity
  8
4529BasePlate
  6
HIDDEN2
100
AcDbLine
 10
25.13417167275537
 20
19.53563194408548
 30
0.0
 11
25.13417167275537
 21
18.78563194408548
 31
0.0
  0
LINE
  5
BF6
330
1F
100
AcDbEntity
  8
4529BasePlate
  6
HIDDEN2
100
AcDbLine
 10
25.10267167275538
 20
19.53563194408548
 30
0.0
 11
25.10267167275538
 21
18.78563194408548
 31
0.0
  0
LINE
  5
BF7
330
1F
100
AcDbEntity
  8
4529BasePlate
  6
HIDDEN2
100
AcDbLine
 10
25.44617167275537
 20
19.53563194408548
 30
0.0
 11
25.44617167275537
 21
18.78563194408548
 31
0.0
  0
LINE
  5
BF8
330
1F
100
AcDbEntity
  8
4529BasePlate
  6
HIDDEN2
100
AcDbLine
 10
25.47767167275538
 20
19.53563194408548
 30
0.0
 11
25.47767167275538
 21
18.78563194408548
 31
0.0
  0
LINE
  5
BF9
330
1F
100
AcDbEntity
  8
4529BasePlate
  6
HIDDEN2
100
AcDbLine
 10
22.04017167275537
 20
19.53563194408548
 30
0.0
 11
22.04017167275537
 21
18.78563194408548
 31
0.0
  0
LINE
  5
BFB
330
1F
100
AcDbEntity
  8
4529BasePlate
  6
HIDDEN2
100
AcDbLine
 10
26.74317167275537
 20
19.53563194408548
 30
0.0
 11
26.74317167275537
 21
18.78563194408548
 31
0.0
  0
LINE
  5
BFC
330
1F
100
AcDbEntity
  8
4529BasePlate
100
AcDbLine
 10
27.04017167275538
 20
19.53563194408548
 30
0.0
 11
27.04017167275538
 21
18.78563194408548
 31
0.0
  0
LINE
  5
D46
330
1F
100
AcDbEntity
  8
6083FlameCut
100
AcDbLine
 10
14.01875419329158
 20
33.53563194408548
 30
0.0
 11
14.01875419329158
 21
19.53563194408548
 31
0.0
  0
LINE
  5
D47
330
1F
100
AcDbEntity
  8
0
100
AcDbLine
 10
14.51875419329158
 20
33.53563194408548
 30
0.0
 11
14.01875419329159
 21
33.53563194408548
 31
0.0
  0
LINE
  5
D48
330
1F
100
AcDbEntity
  8
6083FlameCut
100
AcDbLine
 10
14.64375419329158
 20
25.83438959582757
 30
0.0
 11
14.01875419329158
 21
25.83438959582756
 31
0.0
  0
LINE
  5
D49
330
1F
100
AcDbEntity
  8
6083FlameCut
100
AcDbLine
 10
14.64375419329158
 20
24.4868742923434
 30
0.0
 11
14.01875419329158
 21
24.48687429234339
 31
0.0
  0
LINE
  5
D4A
330
1F
100
AcDbEntity
  8
6083FlameCut
100
AcDbLine
 10
14.64375419329158
 20
22.32482980272446
 30
0.0
 11
14.01875419329158
 21
22.32482980272448
 31
0.0
  0
LINE
  5
D4B
330
1F
100
AcDbEntity
  8
6083FlameCut
100
AcDbLine
 10
14.64375419329158
 20
20.74643408544648
 30
0.0
 11
14.01875419329158
 21
20.74643408544648
 31
0.0
  0
LINE
  5
D4C
330
1F
100
AcDbEntity
  8
0
100
AcDbLine
 10
14.51875419329158
 20
19.53563194408548
 30
0.0
 11
14.01875419329158
 21
19.53563194408548
 31
0.0
  0
LINE
  5
D4F
330
1F
100
AcDbEntity
  8
0
100
AcDbLine
 10
10.26875419329158
 20
19.53563194408548
 30
0.0
 11
9.768754193291584
 21
19.53563194408548
 31
0.0
  0
LINE
  5
D50
330
1F
100
AcDbEntity
  8
6083FlameCut
100
AcDbLine
 10
10.26875419329158
 20
20.74643408544648
 30
0.0
 11
9.643754193291584
 21
20.74643408544648
 31
0.0
  0
LINE
  5
D51
330
1F
100
AcDbEntity
  8
6083FlameCut
100
AcDbLine
 10
10.26875419329158
 20
22.32482980272448
 30
0.0
 11
9.643754193291584
 21
22.32482980272448
 31
0.0
  0
LINE
  5
D52
330
1F
100
AcDbEntity
  8
6083FlameCut
100
AcDbLine
 10
10.26875419329158
 20
24.48687429234339
 30
0.0
 11
9.643754193291584
 21
24.4868742923434
 31
0.0
  0
LINE
  5
D53
330
1F
100
AcDbEntity
  8
6083FlameCut
100
AcDbLine
 10
10.26875419329158
 20
25.83438959582757
 30
0.0
 11
9.643754193291584
 21
25.83438959582757
 31
0.0
  0
LINE
  5
D54
330
1F
100
AcDbEntity
  8
0
100
AcDbLine
 10
10.26875419329158
 20
33.53563194408548
 30
0.0
 11
9.643754193291584
 21
33.53563194408549
 31
0.0
  0
LINE
  5
D56
330
1F
100
AcDbEntity
  8
6083FlameCut
100
AcDbLine
 10
10.26875419329158
 20
33.53563194408548
 30
0.0
 11
10.26875419329158
 21
19.53563194408548
 31
0.0
  0
LINE
  5
D57
330
1F
100
AcDbEntity
  8
4529BasePlate
100
AcDbLine
 10
14.64375419329158
 20
19.53563194408548
 30
0.0
 11
9.643754193291584
 21
19.53563194408548
 31
0.0
  0
LINE
  5
D58
330
1F
100
AcDbEntity
  8
4529BasePlate
100
AcDbLine
 10
14.64375419329158
 20
18.78563194408548
 30
0.0
 11
9.643754193291584
 21
18.78563194408548
 31
0.0
  0
LINE
  5
D59
330
1F
100
AcDbEntity
  8
4529BasePlate
100
AcDbLine
 10
14.64375419329158
 20
19.53563194408548
 30
0.0
 11
14.64375419329158
 21
18.78563194408548
 31
0.0
  0
LINE
  5
D5A
330
1F
100
AcDbEntity
  8
4529BasePlate
100
AcDbLine
 10
9.643754193291584
 20
19.53563194408548
 30
0.0
 11
9.643754193291584
 21
18.78563194408548
 31
0.0
  0
LINE
  5
D5B
330
1F
100
AcDbEntity
  8
4529BasePlate
  6
HIDDEN2
100
AcDbLine
 10
11.94075419329158
 20
19.53563194408548
 30
0.0
 11
11.94075419329158
 21
18.78563194408548
 31
0.0
  0
LINE
  5
D5C
330
1F
100
AcDbEntity
  8
4529BasePlate
  6
HIDDEN2
100
AcDbLine
 10
12.34675419329158
 20
19.53563194408548
 30
0.0
 11
12.34675419329158
 21
18.78563194408548
 31
0.0
  0
LINE
  5
D5E
330
1F
100
AcDbEntity
  8
4529BasePlate
  6
HIDDEN2
100
AcDbLine
 10
11.89375419329158
 20
19.53563194408548
 30
0.0
 11
11.89375419329158
 21
18.78563194408548
 31
0.0
  0
LINE
  5
D5F
330
1F
100
AcDbEntity
  8
4529BasePlate
  6
HIDDEN2
100
AcDbLine
 10
12.39375419329158
 20
19.53563194408548
 30
0.0
 11
12.39375419329158
 21
18.78563194408548
 31
0.0
  0
LINE
  5
D6B
330
1F
100
AcDbEntity
  8
center
100
AcDbLine
 10
12.14375419329158
 20
35.09737830702148
 30
0.0
 11
12.14375419329158
 21
18.22685753572782
 31
0.0
  0
DIMENSION
  5
D8C
330
1F
100
AcDbEntity
  8
Dimensions
100
AcDbDimension
  2
*D1
 10
18.96438337447805
 20
19.53563194408548
 30
0.0
 11
19.61438337447805
 21
20.13563194408548
 31
0.0
 70
   160
 71
     5
 42
0.75
  3
Standard
100
AcDbAlignedDimension
 13
19.54017167275538
 23
18.78563194408548
 33
0.0
 14
19.54017167275538
 24
19.53563194408548
 34
0.0
 50
90.0
100
AcDbRotatedDimension
1001
ACAD
1000
DSTYLE
1002
{
1070
    41
1040
0.3
1070
    42
1040
0.1
1070
    44
1040
0.3
1070
   140
1040
0.3
1070
   141
1040
0.18
1070
   147
1040
0.25
1070
   277
1070
     5
1070
   288
1070
     1
1002
}
  0
DIMENSION
  5
DB7
330
1F
100
AcDbEntity
  8
Dimensions
100
AcDbDimension
  2
*D2
 10
27.04017167275538
 20
17.68469089136039
 30
0.0
 11
23.15367586692692
 21
17.68469089136039
 31
0.0
 70
   160
 71
     5
 42
7.5
  3
Standard
100
AcDbAlignedDimension
 13
19.54017167275538
 23
18.78563194408548
 33
0.0
 14
27.04017167275538
 24
18.78563194408548
 34
0.0
100
AcDbRotatedDimension
1001
ACAD
1000
DSTYLE
1002
{
1070
    41
1040
0.3
1070
    42
1040
0.1
1070
    44
1040
0.3
1070
   140
1040
0.3
1070
   141
1040
0.18
1070
   147
1040
0.25
1070
   277
1070
     5
1070
   288
1070
     1
1002
}
  0
SOLID
  5
DE4
330
1F
100
AcDbEntity
  8
Dimensions
100
AcDbTrace
 10
21.94348146091978
 20
34.79830304804057
 30
0.0
 11
21.85000381703355
 21
34.83382670344767
 31
0.0
 12
21.79017167275538
 22
34.53563194408548
 32
0.0
 13
21.79017167275538
 23
34.53563194408548
 33
0.0
  0
LINE
  5
DE5
330
1F
100
AcDbEntity
  8
Dimensions
100
AcDbLine
 10
21.89674263897667
 20
34.81606487574412
 30
0.0
 11
22.7064515854006
 21
36.94674888553704
 31
0.0
  0
LINE
  5
DE6
330
1F
100
AcDbEntity
  8
Dimensions
100
AcDbLine
 10
22.7064515854006
 20
36.94674888553704
 30
0.0
 11
23.0064515854006
 21
36.94674888553704
 31
0.0
  0
MTEXT
  5
DE7
330
1F
100
AcDbEntity
  8
Dimensions
100
AcDbMText
 10
23.2564515854006
 20
37.09674888553704
 30
0.0
 40
0.3
 41
0.0
 71
     1
 72
     1
  1
75mm-1.5mm PITCH
 73
     1
 44
1.0
  0
DIMENSION
  5
DF6
330
1F
100
AcDbEntity
  8
Dimensions
100
AcDbDimension
  2
*D3
 10
9.643754193291584
 20
17.71907750996418
 30
0.0
 11
12.15646633655887
 21
17.71907750996418
 31
0.0
 70
   160
 71
     5
 42
5.0
  3
Standard
100
AcDbAlignedDimension
 13
14.64375419329158
 23
18.78563194408548
 33
0.0
 14
9.643754193291584
 24
18.78563194408548
 34
0.0
100
AcDbRotatedDimension
1001
ACAD
1000
DSTYLE
1002
{
1070
    41
1040
0.3
1070
    42
1040
0.1
1070
    44
1040
0.3
1070
   140
1040
0.3
1070
   141
1040
0.18
1070
   147
1040
0.25
1070
   277
1070
     5
1070
   288
1070
     1
1002
}
  0
CIRCLE
  5
F19
330
1F
100
AcDbEntity
  8
4529BasePlate
100
AcDbCircle
 10
10.86123130102588
 20
12.68708889561419
 30
0.0
 40
0.25
  0
LINE
  5
F1A
330
1F
100
AcDbEntity
  8
center
  6
CENTER
100
AcDbLine
 10
8.217485611533161
 20
12.68708889561419
 30
0.0
 11
16.51895698974846
 21
12.68708889561419
 31
0.0
  0
LINE
  5
F1B
330
1F
100
AcDbEntity
  8
4529BasePlate
100
AcDbLine
 10
8.611231301025879
 20
15.18708889561419
 30
0.0
 11
16.11123130102589
 21
15.18708889561419
 31
0.0
  0
LINE
  5
F1C
330
1F
100
AcDbEntity
  8
4529BasePlate
100
AcDbLine
 10
8.611231301025879
 20
10.18708889561418
 30
0.0
 11
16.11123130102589
 21
10.18708889561418
 31
0.0
  0
LINE
  5
F1F
330
1F
100
AcDbEntity
  8
4529BasePlate
100
AcDbLine
 10
8.611231301025879
 20
15.18708889561419
 30
0.0
 11
8.611231301025879
 21
10.18708889561418
 31
0.0
  0
CIRCLE
  5
F20
330
1F
100
AcDbEntity
  8
4529BasePlate
100
AcDbCircle
 10
9.111231301025879
 20
12.68708889561419
 30
0.0
 40
0.203125
  0
LINE
  5
F21
330
1F
100
AcDbEntity
  8
center
  6
CENTER2
 48
0.5
100
AcDbLine
 10
9.111231301025886
 20
13.0928265887151
 30
0.0
 11
9.111231301025879
 21
12.28954790335091
 31
0.0
  0
LINE
  5
F22
330
1F
100
AcDbEntity
  8
center
  6
CENTER2
 48
0.5
100
AcDbLine
 10
10.86123130102588
 20
13.0928265887151
 30
0.0
 11
10.86123130102588
 21
12.28954790335091
 31
0.0
  0
LINE
  5
F25
330
1F
100
AcDbEntity
  8
4529BasePlate
100
AcDbLine
 10
16.11123130102589
 20
15.18708889561419
 30
0.0
 11
16.11123130102589
 21
10.18708889561418
 31
0.0
  0
CIRCLE
  5
F28
330
1F
100
AcDbEntity
  8
4529BasePlate
100
AcDbCircle
 10
15.61123130102588
 20
12.68708889561419
 30
0.0
 40
0.203125
  0
LINE
  5
F29
330
1F
100
AcDbEntity
  8
center
  6
CENTER2
 48
0.5
100
AcDbLine
 10
15.61123130102588
 20
13.09308889561419
 30
0.0
 11
15.61123130102588
 21
12.28108889561418
 31
0.0
  0
LINE
  5
F2A
330
1F
100
AcDbEntity
  8
center
  6
CENTER2
 48
0.5
100
AcDbLine
 10
13.61123130102589
 20
13.0928265887151
 30
0.0
 11
13.61123130102589
 21
12.28108889561418
 31
0.0
  0
LINE
  5
F2B
330
1F
100
AcDbEntity
  8
center
  6
CENTER2
 48
0.5
100
AcDbLine
 10
14.36123130102588
 20
13.09308889561419
 30
0.0
 11
14.36123130102588
 21
12.28108889561418
 31
0.0
  0
CIRCLE
  5
F2C
330
1F
100
AcDbEntity
  8
4529BasePlate
  6
HIDDEN2
100
AcDbCircle
 10
14.36123130102588
 20
12.68708889561419
 30
0.0
 40
0.15625
  0
CIRCLE
  5
F2D
330
1F
100
AcDbEntity
  8
4529BasePlate
100
AcDbCircle
 10
14.36123130102588
 20
12.68708889561419
 30
0.0
 40
0.1875
  0
CIRCLE
  5
F2E
330
1F
100
AcDbEntity
  8
4529BasePlate
  6
HIDDEN2
100
AcDbCircle
 10
13.61123130102589
 20
12.68708889561419
 30
0.0
 40
0.15625
  0
CIRCLE
  5
F2F
330
1F
100
AcDbEntity
  8
4529BasePlate
100
AcDbCircle
 10
13.61123130102589
 20
12.68708889561419
 30
0.0
 40
0.1875
  0
DIMENSION
  5
110D
330
1F
100
AcDbEntity
  8
Dimensions
100
AcDbDimension
  2
*D4
 10
9.111231301025883
 20
9.561982788802168
 30
0.0
 11
8.861231301025885
 21
9.561982788802168
 31
0.0
 70
   160
 71
     5
 42
0.5
  3
Standard
100
AcDbAlignedDimension
 13
8.611231301025885
 23
10.18708889561418
 33
0.0
 14
9.111231301025883
 24
12.28954790335091
 34
0.0
100
AcDbRotatedDimension
1001
ACAD
1000
DSTYLE
1002
{
1070
    41
1040
0.3
1070
    42
1040
0.1
1070
    44
1040
0.3
1070
   140
1040
0.3
1070
   141
1040
0.18
1070
   147
1040
0.25
1070
   271
1070
     5
1070
   272
1070
     5
1070
   277
1070
     5
1070
   288
1070
     1
1002
}
  0
DIMENSION
  5
114B
330
1F
100
AcDbEntity
  8
Dimensions
100
AcDbDimension
  2
*D5
 10
10.86123130102588
 20
8.835476365968787
 30
0.0
 11
9.906022112881712
 21
8.835476365968787
 31
0.0
 70
   160
 71
     5
 42
2.25
  3
Standard
100
AcDbAlignedDimension
 13
8.611231301025885
 23
10.18708889561418
 33
0.0
 14
10.86123130102588
 24
12.28954790335091
 34
0.0
100
AcDbRotatedDimension
1001
ACAD
1000
DSTYLE
1002
{
1070
    41
1040
0.3
1070
    42
1040
0.1
1070
    44
1040
0.3
1070
   140
1040
0.3
1070
   141
1040
0.18
1070
   147
1040
0.25
1070
   271
1070
     5
1070
   272
1070
     5
1070
   277
1070
     5
1070
   288
1070
     1
1002
}
  0
DIMENSION
  5
1159
330
1F
100
AcDbEntity
  8
Dimensions
100
AcDbDimension
  2
*D6
 10
13.61123130102589
 20
8.835476365968787
 30
0.0
 11
12.37389084502831
 21
8.835476365968787
 31
0.0
 70
   160
 71
     5
 42
2.750000000000003
  3
Standard
100
AcDbAlignedDimension
 13
10.86123130102588
 23
12.18954790335091
 33
0.0
 14
13.61123130102589
 24
12.28108889561418
 34
0.0
100
AcDbRotatedDimension
1001
ACAD
1000
DSTYLE
1002
{
1070
    41
1040
0.3
1070
    42
1040
0.1
1070
    44
1040
0.3
1070
   140
1040
0.3
1070
   141
1040
0.18
1070
   147
1040
0.25
1070
   271
1070
     5
1070
   272
1070
     5
1070
   277
1070
     5
1070
   288
1070
     1
1002
}
  0
DIMENSION
  5
1167
330
1F
100
AcDbEntity
  8
Dimensions
100
AcDbDimension
  2
*D7
 10
14.36123130102588
 20
8.835476365968787
 30
0.0
 11
13.98623130102588
 21
8.835476365968787
 31
0.0
 70
   160
 71
     5
 42
0.75
  3
Standard
100
AcDbAlignedDimension
 13
13.61123130102589
 23
12.18108889561419
 33
0.0
 14
14.36123130102588
 24
12.28108889561418
 34
0.0
100
AcDbRotatedDimension
1001
ACAD
1000
DSTYLE
1002
{
1070
    41
1040
0.3
1070
    42
1040
0.1
1070
    44
1040
0.3
1070
   140
1040
0.3
1070
   141
1040
0.18
1070
   147
1040
0.25
1070
   271
1070
     5
1070
   272
1070
     5
1070
   277
1070
     5
1070
   288
1070
     1
1002
}
  0
DIMENSION
  5
1175
330
1F
100
AcDbEntity
  8
Dimensions
100
AcDbDimension
  2
*D8
 10
15.61123130102588
 20
8.835476365968787
 30
0.0
 11
15.86123130102588
 21
8.835476365968787
 31
0.0
 70
   160
 71
     5
 42
0.5
  3
Standard
100
AcDbAlignedDimension
 13
16.11123130102589
 23
10.18708889561418
 33
0.0
 14
15.61123130102588
 24
12.28108889561418
 34
0.0
100
AcDbRotatedDimension
1001
ACAD
1000
DSTYLE
1002
{
1070
    41
1040
0.3
1070
    42
1040
0.1
1070
    44
1040
0.3
1070
   140
1040
0.3
1070
   141
1040
0.18
1070
   147
1040
0.25
1070
   271
1070
     5
1070
   272
1070
     5
1070
   277
1070
     5
1070
   288
1070
     1
1002
}
  0
DIMENSION
  5
11C3
330
1F
100
AcDbEntity
  8
Dimensions
100
AcDbDimension
  2
*D9
 10
15.42497488258107
 20
12.60604377106555
 30
0.0
 11
19.68470039739285
 21
13.29124875107892
 31
0.0
 70
   163
  1
\A1;{\H0.7x;\S13/32;} DRILL, 2 PLCS
 71
     5
 42
0.4062499999999895
  3
Standard
100
AcDbDiametricDimension
 15
15.79748771947071
 25
12.76813402016284
 35
0.0
 40
0.0
1001
ACAD
1000
DSTYLE
1002
{
1070
    41
1040
0.3
1070
    42
1040
0.1
1070
    44
1040
0.3
1070
   140
1040
0.3
1070
   141
1040
0.0
1070
   147
1040
0.25
1070
   271
1070
     5
1070
   272
1070
     5
1070
   277
1070
     5
1070
   288
1070
     1
1002
}
  0
SOLID
  5
11CD
330
1F
100
AcDbEntity
  8
Dimensions
100
AcDbTrace
 10
14.64821681126252
 20
12.97528307078938
 30
0.0
 11
14.60004651065237
 21
13.06291652409991
 31
0.0
 12
14.36123130102588
 22
12.87458889561419
 32
0.0
 13
14.36123130102588
 23
12.87458889561419
 33
0.0
  0
LINE
  5
11CE
330
1F
100
AcDbEntity
  8
Dimensions
100
AcDbLine
 10
14.62413166095744
 20
13.01909979744465
 30
0.0
 11
16.63036454365917
 21
14.12188460624673
 31
0.0
  0
LINE
  5
11CF
330
1F
100
AcDbEntity
  8
Dimensions
100
AcDbLine
 10
16.63036454365917
 20
14.12188460624673
 30
0.0
 11
16.93036454365915
 21
14.12188460624673
 31
0.0
  0
MTEXT
  5
11D0
330
1F
100
AcDbEntity
  8
Dimensions
100
AcDbMText
 10
17.18036454365917
 20
14.27188460624673
 30
0.0
 40
0.3
 41
0.0
 71
     1
 72
     1
  1
\A1;{\H0.7x;\S3/8;}-16 TPI, 2 PLCS
 73
     1
 44
1.0
  0
SOLID
  5
11D7
330
1F
100
AcDbEntity
  8
Dimensions
100
AcDbTrace
 10
10.37674661404318
 20
12.88078177511839
 30
0.0
 11
10.32660214971657
 21
12.79426280206972
 31
0.0
 12
10.61123130102588
 22
12.68708889561419
 32
0.0
 13
10.61123130102588
 23
12.68708889561419
 33
0.0
  0
LINE
  5
11D8
330
1F
100
AcDbEntity
  8
Dimensions
100
AcDbLine
 10
10.35167438187988
 20
12.83752228859406
 30
0.0
 11
8.135642956717759
 21
14.12188460624673
 31
0.0
  0
LINE
  5
11D9
330
1F
100
AcDbEntity
  8
Dimensions
100
AcDbLine
 10
8.135642956717759
 20
14.12188460624673
 30
0.0
 11
7.835642956717762
 21
14.12188460624673
 31
0.0
  0
MTEXT
  5
11DA
330
1F
100
AcDbEntity
  8
Dimensions
100
AcDbMText
 10
7.585642956717759
 20
14.27188460624673
 30
0.0
 40
0.3
 41
0.0
 71
     3
 72
     1
  1
\A1;{\H0.7x;\S1/2;} REAM
 73
     1
 44
1.0
  0
DIMENSION
  5
1245
330
1F
100
AcDbEntity
  8
Dimensions
100
AcDbDimension
  2
*D10
 10
5.473960840689501
 20
15.18708889561419
 30
0.0
 11
5.4739608406895
 21
12.46509695430868
 31
0.0
 70
   160
 71
     5
 42
5.0
  3
Standard
100
AcDbAlignedDimension
 13
8.611231301025885
 23
10.18708889561418
 33
0.0
 14
8.611231301025885
 24
15.18708889561419
 34
0.0
 50
90.0
100
AcDbRotatedDimension
1001
ACAD
1000
DSTYLE
1002
{
1070
    41
1040
0.3
1070
    42
1040
0.1
1070
    44
1040
0.3
1070
   140
1040
0.3
1070
   141
1040
0.0
1070
   147
1040
0.25
1070
   271
1070
     5
1070
   272
1070
     5
1070
   277
1070
     5
1070
   288
1070
     1
1002
}
  0
DIMENSION
  5
1253
330
1F
100
AcDbEntity
  8
Dimensions
100
AcDbDimension
  2
*D11
 10
16.11123130102589
 20
15.97374386720226
 30
0.0
 11
12.2769302586945
 21
15.97374386720226
 31
0.0
 70
   160
 71
     5
 42
7.500000000000002
  3
Standard
100
AcDbAlignedDimension
 13
8.611231301025885
 23
15.18708889561419
 33
0.0
 14
16.11123130102589
 24
15.18708889561419
 34
0.0
100
AcDbRotatedDimension
1001
ACAD
1000
DSTYLE
1002
{
1070
    41
1040
0.3
1070
    42
1040
0.1
1070
    44
1040
0.3
1070
   140
1040
0.3
1070
   141
1040
0.0
1070
   147
1040
0.25
1070
   271
1070
     5
1070
   272
1070
     5
1070
   277
1070
     5
1070
   288
1070
     1
1002
}
  0
LINE
  5
1387
330
1F
100
AcDbEntity
  8
0
100
AcDbLine
 10
12.60020745461591
 20
37.89834624927721
 30
0.0
 11
21.25024053954614
 21
37.89834624927721
 31
0.0
  0
TEXT
  5
1388
330
1F
100
AcDbEntity
  8
0
100
AcDbText
 10
12.72550509507796
 20
38.14882368629179
 30
0.0
 40
0.5
  1
CAX4 C-FRAME CAGE
100
AcDbText
  0
LINE
  5
13A5
330
1F
100
AcDbEntity
  8
0
100
AcDbLine
 10
9.643754193291584
 20
33.53563194408549
 30
0.0
 11
9.893754193291584
 21
33.78563194408549
 31
0.0
  0
LINE
  5
13A6
330
1F
100
AcDbEntity
  8
0
100
AcDbLine
 10
14.39375419329159
 20
33.78563194408546
 30
0.0
 11
14.64375419329158
 21
33.53563194408548
 31
0.0
  0
LINE
  5
13A8
330
1F
100
AcDbEntity
  8
6083FlameCut
100
AcDbLine
 10
13.76875419329158
 20
19.53563194408548
 30
0.0
 11
14.01875419329158
 21
19.78563194408548
 31
0.0
  0
LINE
  5
13A9
330
1F
100
AcDbEntity
  8
6083FlameCut
100
AcDbLine
 10
10.26875419329158
 20
19.78563194408548
 30
0.0
 11
10.51875419329157
 21
19.53563194408548
 31
0.0
  0
LINE
  5
13B0
330
1F
100
AcDbEntity
  8
6083FlameCut
100
AcDbLine
 10
14.64375419329158
 20
33.53563194408549
 30
0.0
 11
14.64375419329158
 21
19.53563194408548
 31
0.0
  0
LINE
  5
13B1
330
1F
100
AcDbEntity
  8
6083FlameCut
100
AcDbLine
 10
9.643754193291579
 20
33.53563194408549
 30
0.0
 11
9.643754193291584
 21
19.53563194408548
 31
0.0
  0
LINE
  5
13B5
330
1F
100
AcDbEntity
  8
5034MountPlate
100
AcDbLine
 10
9.893754193291584
 20
34.53563194408548
 30
0.0
 11
9.893754193291584
 21
33.53563194408549
 31
0.0
  0
LINE
  5
13B6
330
1F
100
AcDbEntity
  8
5034MountPlate
100
AcDbLine
 10
14.39375419329159
 20
34.53563194408548
 30
0.0
 11
14.39375419329159
 21
33.53563194408548
 31
0.0
  0
LINE
  5
13E7
330
1F
100
AcDbEntity
  8
6083FlameCut
100
AcDbLine
 10
20.04017167275538
 20
19.53563194408548
 30
0.0
 11
26.54017167275537
 21
19.53563194408548
 31
0.0
  0
LINE
  5
13E9
330
1F
100
AcDbEntity
  8
6083FlameCut
100
AcDbLine
 10
20.04017167275538
 20
25.51610132068917
 30
0.0
 11
20.04017167275538
 21
33.53563194408548
 31
0.0
  0
ARC
  5
13EB
330
1F
100
AcDbEntity
  8
6083FlameCut
100
AcDbCircle
 10
22.41517167275536
 20
22.01610132068921
 30
0.0
 40
0.5
100
AcDbArc
 50
289.17900802581
 51
359.9999999999987
  0
LINE
  5
13EC
330
1F
100
AcDbEntity
  8
6083FlameCut
100
AcDbLine
 10
20.3759113602847
 20
20.77741096583482
 30
0.0
 11
22.57943198522598
 21
21.54385292233612
 31
0.0
  0
ARC
  5
13ED
330
1F
100
AcDbEntity
  8
6083FlameCut
100
AcDbCircle
 10
20.54017167275532
 20
20.30516256748173
 30
0.0
 40
0.5
100
AcDbArc
 50
109.1790080258099
 51
180.0000000000022
  0
LINE
  5
13EE
330
1F
100
AcDbEntity
  8
6083FlameCut
100
AcDbLine
 10
20.04017167275538
 20
19.53563194408548
 30
0.0
 11
20.04017167275532
 21
20.30516256748172
 31
0.0
  0
LINE
  5
13F0
330
1F
100
AcDbEntity
  8
6083FlameCut
100
AcDbLine
 10
20.37591136028474
 20
25.0438529223361
 30
0.0
 11
22.57943198522603
 21
24.2774109658348
 31
0.0
  0
ARC
  5
13F1
330
1F
100
AcDbEntity
  8
6083FlameCut
100
AcDbCircle
 10
20.54017167275536
 20
25.51610132068917
 30
0.0
 40
0.5
100
AcDbArc
 50
180.0000000000002
 51
250.8209919741898
  0
LINE
  5
13F2
330
1F
100
AcDbEntity
  8
6083FlameCut
100
AcDbLine
 10
22.91517167275535
 20
22.01610132068919
 30
0.0
 11
22.91517167275539
 21
23.80516256748169
 31
0.0
  0
ARC
  5
13F3
330
1F
100
AcDbEntity
  8
6083FlameCut
100
AcDbCircle
 10
22.4151716727554
 20
23.80516256748171
 30
0.0
 40
0.5
100
AcDbArc
 50
359.9999999999988
 51
70.82099197418989
  0
LINE
  5
13F4
330
1F
100
AcDbEntity
  8
OBJECT
100
AcDbLine
 10
23.54017167275538
 20
33.53563194408545
 30
0.0
 11
20.04017167275538
 21
33.53563194408548
 31
0.0
  0
LINE
  5
13F5
330
1F
100
AcDbEntity
  8
6083FlameCut
100
AcDbLine
 10
26.54017167275537
 20
19.53563194408546
 30
0.0
 11
26.54017167275537
 21
28.40720356131154
 31
0.0
  0
ARC
  5
13F6
330
1F
100
AcDbEntity
  8
6083FlameCut
100
AcDbCircle
 10
26.04017167275538
 20
28.40720356131154
 30
0.0
 40
0.5
100
AcDbArc
 50
0.0
 51
28.8107937429733
  0
LINE
  5
1421
330
1F
100
AcDbEntity
  8
6083FlameCut
100
AcDbLine
 10
26.47827962709369
 20
28.64816293619762
 30
0.0
 11
23.54017167275538
 21
33.53563194408545
 31
0.0
  0
DIMENSION
  5
1426
330
1F
100
AcDbEntity
  8
Dimensions
100
AcDbDimension
  2
*D12
 10
22.91517167275538
 20
22.90410714719008
 30
0.0
 11
23.80695248014501
 21
22.90410714719008
 31
0.0
 70
   160
 71
     5
 42
1.125000000000007
  3
Standard
100
AcDbAlignedDimension
 13
21.79017167275536
 23
26.66211792137465
 33
0.0
 14
22.91517167275538
 24
22.91063194408545
 34
0.0
100
AcDbRotatedDimension
1001
ACAD
1000
DSTYLE
1002
{
1070
    75
1070
     1
1070
    76
1070
     1
1070
    41
1040
0.3
1070
    42
1040
0.1
1070
    44
1040
0.3
1070
   140
1040
0.3
1070
   141
1040
0.0
1070
   147
1040
0.25
1070
   271
1070
     5
1070
   272
1070
     5
1070
   277
1070
     5
1070
   288
1070
     1
1002
}
  0
DIMENSION
  5
1464
330
1F
100
AcDbEntity
  8
Dimensions
100
AcDbDimension
  2
*D13
 10
17.74372213492085
 20
34.53563194408548
 30
0.0
 11
17.74372213492085
 21
26.37225314134648
 31
0.0
 70
   160
 71
     5
 42
15.75
  3
Standard
100
AcDbAlignedDimension
 13
19.44017167275537
 23
18.78563194408548
 33
0.0
 14
20.04017167275538
 24
34.53563194408548
 34
0.0
 50
90.0
100
AcDbRotatedDimension
1001
ACAD
1000
DSTYLE
1002
{
1070
    41
1040
0.3
1070
    42
1040
0.1
1070
    44
1040
0.3
1070
   140
1040
0.3
1070
   141
1040
0.0
1070
   147
1040
0.25
1070
   271
1070
     5
1070
   272
1070
     5
1070
   277
1070
     5
1070
   288
1070
     1
1002
}
  0
DIMENSION
  5
14F7
330
1F
100
AcDbEntity
  8
Dimensions
100
AcDbDimension
  2
*D14
 10
10.26875419329158
 20
26.50070966286877
 30
0.0
 11
7.998990997680094
 21
26.50070966286877
 31
0.0
 70
   160
 71
     5
 42
3.749999999999996
  3
Standard
100
AcDbAlignedDimension
 13
14.01875419329158
 23
26.53563194408548
 33
0.0
 14
10.26875419329158
 24
26.53563194408548
 34
0.0
100
AcDbRotatedDimension
1001
ACAD
1000
DSTYLE
1002
{
1070
    76
1070
     1
1070
    75
1070
     1
1070
    41
1040
0.3
1070
    42
1040
0.1
1070
    44
1040
0.3
1070
   140
1040
0.3
1070
   141
1040
0.0
1070
   147
1040
0.25
1070
   271
1070
     5
1070
   272
1070
     5
1070
   277
1070
     5
1070
   288
1070
     1
1002
}
  0
LINE
  5
153A
330
1F
100
AcDbEntity
  8
5034MountPlate
  6
HIDDEN
100
AcDbLine
 10
23.20407167275538
 20
34.53563194408548
 30
0.0
 11
23.20407167275539
 21
33.53563194408548
 31
0.0
  0
LINE
  5
153B
330
1F
100
AcDbEntity
  8
5034MountPlate
  6
HIDDEN
100
AcDbLine
 10
23.26657167275538
 20
34.53563194408548
 30
0.0
 11
23.26657167275539
 21
33.53563194408548
 31
0.0
  0
LINE
  5
153C
330
1F
100
AcDbEntity
  8
5034MountPlate
  6
HIDDEN
100
AcDbLine
 10
20.31377167275537
 20
34.53563194408548
 30
0.0
 11
20.31377167275539
 21
33.53563194408548
 31
0.0
  0
LINE
  5
153D
330
1F
100
AcDbEntity
  8
5034MountPlate
  6
HIDDEN
100
AcDbLine
 10
20.37627167275537
 20
34.53563194408548
 30
0.0
 11
20.37627167275539
 21
33.53563194408548
 31
0.0
  0
LINE
  5
153E
330
1F
100
AcDbEntity
  8
TitleBlock&Notes
100
AcDbLine
 10
30.52905939343288
 20
4.39932863919989
 30
0.0
 11
3.329059393432896
 21
4.39932863919989
 31
0.0
  0
ENDSEC
  0
SECTION
  2
OBJECTS
  0
DICTIONARY
  5
C
330
0
100
AcDbDictionary
281
     1
  3
ACAD_GROUP
350
D
  3
ACAD_LAYOUT
350
1A
  3
ACAD_MLINESTYLE
350
17
  3
ACAD_PLOTSETTINGS
350
19
  3
ACAD_PLOTSTYLENAME
350
E
  0
DICTIONARY
  5
D
102
{ACAD_REACTORS
330
C
102
}
330
C
100
AcDbDictionary
281
     1
  0
DICTIONARY
  5
1A
102
{ACAD_REACTORS
330
C
102
}
330
C
100
AcDbDictionary
281
     1
  3
Layout1
350
1E
  3
Layout2
350
26
  3
Model
350
22
  0
DICTIONARY
  5
17
102
{ACAD_REACTORS
330
C
102
}
330
C
100
AcDbDictionary
281
     1
  3
Standard
350
18
  0
DICTIONARY
  5
19
102
{ACAD_REACTORS
330
C
102
}
330
C
100
AcDbDictionary
281
     1
  0
ACDBDICTIONARYWDFLT
  5
E
102
{ACAD_REACTORS
330
C
102
}
330
C
100
AcDbDictionary
281
     1
  3
Normal
350
F
100
AcDbDictionaryWithDefault
340
F
  0
LAYOUT
  5
1E
102
{ACAD_REACTORS
330
1A
102
}
330
1A
100
AcDbPlotSettings
  1

  2
HP LaserJet III
  4

  6

 40
0.0
 41
0.0
 42
0.0
 43
0.0
 44
0.0
 45
0.0
 46
0.0
 47
0.0
 48
0.0
 49
0.0
140
0.0
141
0.0
142
1.0
143
1.0
 70
   688
 72
     0
 73
     0
 74
     5
  7

 75
    16
147
1.0
148
0.0
149
0.0
100
AcDbLayout
  1
Layout1
 70
     1
 71
     1
 10
0.0
 20
0.0
 11
12.0
 21
9.0
 12
0.0
 22
0.0
 32
0.0
 14
1.000000000000000E+20
 24
1.000000000000000E+20
 34
1.000000000000000E+20
 15
-1.000000000000000E+20
 25
-1.000000000000000E+20
 35
-1.000000000000000E+20
146
0.0
 13
0.0
 23
0.0
 33
0.0
 16
1.0
 26
0.0
 36
0.0
 17
0.0
 27
1.0
 37
0.0
 76
     0
330
1B
  0
LAYOUT
  5
26
102
{ACAD_REACTORS
330
1A
102
}
330
1A
100
AcDbPlotSettings
  1

  2
HP LaserJet III
  4

  6

 40
0.0
 41
0.0
 42
0.0
 43
0.0
 44
0.0
 45
0.0
 46
0.0
 47
0.0
 48
0.0
 49
0.0
140
0.0
141
0.0
142
1.0
143
1.0
 70
   688
 72
     0
 73
     0
 74
     5
  7

 75
    16
147
1.0
148
0.0
149
0.0
100
AcDbLayout
  1
Layout2
 70
     1
 71
     2
 10
0.0
 20
0.0
 11
12.0
 21
9.0
 12
0.0
 22
0.0
 32
0.0
 14
0.0
 24
0.0
 34
0.0
 15
0.0
 25
0.0
 35
0.0
146
0.0
 13
0.0
 23
0.0
 33
0.0
 16
1.0
 26
0.0
 36
0.0
 17
0.0
 27
1.0
 37
0.0
 76
     0
330
23
  0
LAYOUT
  5
22
102
{ACAD_REACTORS
330
1A
102
}
330
1A
100
AcDbPlotSettings
  1

  2
HP LaserJet III
  4
Letter
  6

 40
7.143749713897705
 41
7.143741130828857
 42
7.14373779296875
 43
5.365753173828125
 44
215.8999938964842
 45
279.3999938964843
 46
0.0
 47
0.0
 48
3.329059393432896
 49
4.399328639199886
140
30.52905939343288
141
39.59932863919989
142
1.0
143
3.426771544940116
 70
 11952
 72
     0
 73
     0
 74
     4
  7

 75
     0
147
0.2918198621896971
148
-84.55810859319553
149
-111.742947435677
100
AcDbLayout
  1
Model
 70
     1
 71
     0
 10
0.0
 20
0.0
 11
12.0
 21
9.0
 12
0.0
 22
0.0
 32
0.0
 14
0.0
 24
0.0
 34
0.0
 15
0.0
 25
0.0
 35
0.0
146
0.0
 13
0.0
 23
0.0
 33
0.0
 16
1.0
 26
0.0
 36
0.0
 17
0.0
 27
1.0
 37
0.0
 76
     0
330
1F
  0
MLINESTYLE
  5
18
102
{ACAD_REACTORS
330
17
102
}
330
17
100
AcDbMlineStyle
  2
STANDARD
 70
     0
  3

 62
   256
 51
90.0
 52
90.0
 71
     2
 49
0.5
 62
   256
  6
BYLAYER
 49
-0.5
 62
   256
  6
BYLAYER
  0
ACDBPLACEHOLDER
  5
F
102
{ACAD_REACTORS
330
E
102
}
330
E
  0
ENDSEC
  0
EOF
