  0
SECTION
  2
HEADER
  9
$ACADVER
  1
AC1015
  9
$ACADMAINTVER
 70
     6
  9
$DWGCODEPAGE
  3
ANSI_1252
  9
$INSBASE
 10
0.0
 20
0.0
 30
0.0
  9
$EXTMIN
 10
8.799999999999997
 20
-0.0026115024976107
 30
0.0
  9
$EXTMAX
 10
44.00000000000001
 20
27.2
 30
0.0
  9
$LIMMIN
 10
0.0
 20
0.0
  9
$LIMMAX
 10
12.0
 20
9.0
  9
$ORTHOMODE
 70
     0
  9
$REGENMODE
 70
     1
  9
$FILLMODE
 70
     1
  9
$QTEXTMODE
 70
     0
  9
$MIRRTEXT
 70
     1
  9
$LTSCALE
 40
1.0
  9
$ATTMODE
 70
     1
  9
$TEXTSIZE
 40
0.2
  9
$TRACEWID
 40
0.05
  9
$TEXTSTYLE
  7
Standard
  9
$CLAYER
  8
Dimensions
  9
$CELTYPE
  6
ByLayer
  9
$CECOLOR
 62
   256
  9
$CELTSCALE
 40
1.0
  9
$DISPSILH
 70
     0
  9
$DIMSCALE
 40
1.0
  9
$DIMASZ
 40
0.3
  9
$DIMEXO
 40
0.0625
  9
$DIMDLI
 40
0.38
  9
$DIMRND
 40
0.0
  9
$DIMDLE
 40
0.0
  9
$DIMEXE
 40
0.18
  9
$DIMTP
 40
0.0
  9
$DIMTM
 40
0.0
  9
$DIMTXT
 40
0.3
  9
$DIMCEN
 40
0.09
  9
$DIMTSZ
 40
0.0
  9
$DIMTOL
 70
     0
  9
$DIMLIM
 70
     0
  9
$DIMTIH
 70
     1
  9
$DIMTOH
 70
     1
  9
$DIMSE1
 70
     0
  9
$DIMSE2
 70
     0
  9
$DIMTAD
 70
     0
  9
$DIMZIN
 70
     0
  9
$DIMBLK
  1

  9
$DIMASO
 70
     1
  9
$DIMSHO
 70
     1
  9
$DIMPOST
  1

  9
$DIMAPOST
  1

  9
$DIMALT
 70
     0
  9
$DIMALTD
 70
     2
  9
$DIMALTF
 40
25.4
  9
$DIMLFAC
 40
1.0
  9
$DIMTOFL
 70
     0
  9
$DIMTVP
 40
0.0
  9
$DIMTIX
 70
     0
  9
$DIMSOXD
 70
     0
  9
$DIMSAH
 70
     0
  9
$DIMBLK1
  1

  9
$DIMBLK2
  1

  9
$DIMSTYLE
  2
Standard
  9
$DIMCLRD
 70
     0
  9
$DIMCLRE
 70
     0
  9
$DIMCLRT
 70
     0
  9
$DIMTFAC
 40
1.0
  9
$DIMGAP
 40
0.09
  9
$DIMJUST
 70
     0
  9
$DIMSD1
 70
     0
  9
$DIMSD2
 70
     0
  9
$DIMTOLJ
 70
     1
  9
$DIMTZIN
 70
     0
  9
$DIMALTZ
 70
     0
  9
$DIMALTTZ
 70
     0
  9
$DIMUPT
 70
     0
  9
$DIMDEC
 70
     4
  9
$DIMTDEC
 70
     4
  9
$DIMALTU
 70
     2
  9
$DIMALTTD
 70
     2
  9
$DIMTXSTY
  7
Standard
  9
$DIMAUNIT
 70
     0
  9
$DIMADEC
 70
     0
  9
$DIMALTRND
 40
0.0
  9
$DIMAZIN
 70
     0
  9
$DIMDSEP
 70
    46
  9
$DIMATFIT
 70
     3
  9
$DIMFRAC
 70
     0
  9
$DIMLDRBLK
  1

  9
$DIMLUNIT
 70
     5
  9
$DIMLWD
 70
    -2
  9
$DIMLWE
 70
    -2
  9
$DIMTMOVE
 70
     0
  9
$LUNITS
 70
     2
  9
$LUPREC
 70
     4
  9
$SKETCHINC
 40
0.1
  9
$FILLETRAD
 40
0.5
  9
$AUNITS
 70
     0
  9
$AUPREC
 70
     0
  9
$MENU
  1
.
  9
$ELEVATION
 40
0.0
  9
$PELEVATION
 40
0.0
  9
$THICKNESS
 40
0.0
  9
$LIMCHECK
 70
     0
  9
$CHAMFERA
 40
0.5
  9
$CHAMFERB
 40
0.5
  9
$CHAMFERC
 40
1.0
  9
$CHAMFERD
 40
0.0
  9
$SKPOLY
 70
     0
  9
$TDCREATE
 40
2451708.384681597
  9
$TDUCREATE
 40
2451708.593014930
  9
$TDUPDATE
 40
2452345.659696411
  9
$TDUUPDATE
 40
2452345.868029745
  9
$TDINDWG
 40
0.0506052083
  9
$TDUSRTIMER
 40
0.0506052083
  9
$USRTIMER
 70
     1
  9
$ANGBASE
 50
0.0
  9
$ANGDIR
 70
     0
  9
$PDMODE
 70
     0
  9
$PDSIZE
 40
0.0
  9
$PLINEWID
 40
0.0
  9
$SPLFRAME
 70
     0
  9
$SPLINETYPE
 70
     6
  9
$SPLINESEGS
 70
     8
  9
$HANDSEED
  5
EA9
  9
$SURFTAB1
 70
     6
  9
$SURFTAB2
 70
     6
  9
$SURFTYPE
 70
     6
  9
$SURFU
 70
     6
  9
$SURFV
 70
     6
  9
$UCSBASE
  2

  9
$UCSNAME
  2

  9
$UCSORG
 10
0.0
 20
0.0
 30
0.0
  9
$UCSXDIR
 10
1.0
 20
0.0
 30
0.0
  9
$UCSYDIR
 10
0.0
 20
1.0
 30
0.0
  9
$UCSORTHOREF
  2

  9
$UCSORTHOVIEW
 70
     0
  9
$UCSORGTOP
 10
0.0
 20
0.0
 30
0.0
  9
$UCSORGBOTTOM
 10
0.0
 20
0.0
 30
0.0
  9
$UCSORGLEFT
 10
0.0
 20
0.0
 30
0.0
  9
$UCSORGRIGHT
 10
0.0
 20
0.0
 30
0.0
  9
$UCSORGFRONT
 10
0.0
 20
0.0
 30
0.0
  9
$UCSORGBACK
 10
0.0
 20
0.0
 30
0.0
  9
$PUCSBASE
  2

  9
$PUCSNAME
  2

  9
$PUCSORG
 10
0.0
 20
0.0
 30
0.0
  9
$PUCSXDIR
 10
1.0
 20
0.0
 30
0.0
  9
$PUCSYDIR
 10
0.0
 20
1.0
 30
0.0
  9
$PUCSORTHOREF
  2

  9
$PUCSORTHOVIEW
 70
     0
  9
$PUCSORGTOP
 10
0.0
 20
0.0
 30
0.0
  9
$PUCSORGBOTTOM
 10
0.0
 20
0.0
 30
0.0
  9
$PUCSORGLEFT
 10
0.0
 20
0.0
 30
0.0
  9
$PUCSORGRIGHT
 10
0.0
 20
0.0
 30
0.0
  9
$PUCSORGFRONT
 10
0.0
 20
0.0
 30
0.0
  9
$PUCSORGBACK
 10
0.0
 20
0.0
 30
0.0
  9
$USERI1
 70
     0
  9
$USERI2
 70
     0
  9
$USERI3
 70
     0
  9
$USERI4
 70
     0
  9
$USERI5
 70
     0
  9
$USERR1
 40
0.0
  9
$USERR2
 40
0.0
  9
$USERR3
 40
0.0
  9
$USERR4
 40
0.0
  9
$USERR5
 40
0.0
  9
$WORLDVIEW
 70
     1
  9
$SHADEDGE
 70
     3
  9
$SHADEDIF
 70
    70
  9
$TILEMODE
 70
     1
  9
$MAXACTVP
 70
    64
  9
$PINSBASE
 10
0.0
 20
0.0
 30
0.0
  9
$PLIMCHECK
 70
     0
  9
$PEXTMIN
 10
1.000000000000000E+20
 20
1.000000000000000E+20
 30
1.000000000000000E+20
  9
$PEXTMAX
 10
-1.000000000000000E+20
 20
-1.000000000000000E+20
 30
-1.000000000000000E+20
  9
$PLIMMIN
 10
0.0
 20
0.0
  9
$PLIMMAX
 10
12.0
 20
9.0
  9
$UNITMODE
 70
     0
  9
$VISRETAIN
 70
     1
  9
$PLINEGEN
 70
     0
  9
$PSLTSCALE
 70
     1
  9
$TREEDEPTH
 70
  3020
  9
$CMLSTYLE
  2
Standard
  9
$CMLJUST
 70
     0
  9
$CMLSCALE
 40
1.0
  9
$PROXYGRAPHICS
 70
     1
  9
$MEASUREMENT
 70
     0
  9
$CELWEIGHT
370
    -1
  9
$ENDCAPS
280
     0
  9
$JOINSTYLE
280
     0
  9
$LWDISPLAY
290
     0
  9
$INSUNITS
 70
     1
  9
$HYPERLINKBASE
  1

  9
$STYLESHEET
  1

  9
$XEDIT
290
     1
  9
$CEPSNTYPE
380
     0
  9
$PSTYLEMODE
290
     1
  9
$FINGERPRINTGUID
  2
{7516F52A-0BD7-11D4-8360-004F4908EF25}
  9
$VERSIONGUID
  2
{43F50C3B-4C04-11D4-8360-004F4908EF25}
  9
$EXTNAMES
290
     1
  9
$PSVPSCALE
 40
0.0
  9
$OLESTARTUP
290
     0
  0
ENDSEC
  0
SECTION
  2
CLASSES
  0
CLASS
  1
ACDBDICTIONARYWDFLT
  2
AcDbDictionaryWithDefault
  3
AutoCAD 2000
 90
        0
280
     0
281
     0
  0
CLASS
  1
ACDBPLACEHOLDER
  2
AcDbPlaceHolder
  3
AutoCAD 2000
 90
        0
280
     0
281
     0
  0
CLASS
  1
LAYOUT
  2
AcDbLayout
  3
AutoCAD 2000
 90
        0
280
     0
281
     0
  0
ENDSEC
  0
SECTION
  2
TABLES
  0
TABLE
  2
VPORT
  5
8
330
0
100
AcDbSymbolTable
 70
     2
  0
VPORT
  5
EA8
330
8
100
AcDbSymbolTableRecord
100
AcDbViewportTableRecord
  2
*Active
 70
     0
 10
0.0
 20
0.0
 11
1.0
 21
1.0
 12
26.01117457640164
 22
14.50862301403824
 13
0.0
 23
0.0
 14
0.5
 24
0.5
 15
0.5
 25
0.5
 16
0.0
 26
0.0
 36
1.0
 17
0.0
 27
0.0
 37
0.0
 40
32.16974925076198
 41
1.378947368421052
 42
50.0
 43
0.0
 44
0.0
 50
0.0
 51
0.0
 71
     0
 72
   100
 73
     1
 74
     3
 75
     0
 76
     0
 77
     0
 78
     0
281
     0
 65
     1
110
0.0
120
0.0
130
0.0
111
1.0
121
0.0
131
0.0
112
0.0
122
1.0
132
0.0
 79
     0
146
0.0
  0
ENDTAB
  0
TABLE
  2
LTYPE
  5
5
330
0
100
AcDbSymbolTable
 70
     6
  0
LTYPE
  5
14
330
5
100
AcDbSymbolTableRecord
100
AcDbLinetypeTableRecord
  2
ByBlock
 70
     0
  3

 72
    65
 73
     0
 40
0.0
  0
LTYPE
  5
15
330
5
100
AcDbSymbolTableRecord
100
AcDbLinetypeTableRecord
  2
ByLayer
 70
     0
  3

 72
    65
 73
     0
 40
0.0
  0
LTYPE
  5
16
330
5
100
AcDbSymbolTableRecord
100
AcDbLinetypeTableRecord
  2
Continuous
 70
     0
  3
Solid line
 72
    65
 73
     0
 40
0.0
  0
LTYPE
  5
ACC
330
5
100
AcDbSymbolTableRecord
100
AcDbLinetypeTableRecord
  2
HIDDEN
 70
     0
  3
_____________________                     _____________________
 72
    65
 73
     2
 40
0.2
 49
0.133333
 74
     0
 49
-0.066667
 74
     0
  0
LTYPE
  5
ACD
330
5
100
AcDbSymbolTableRecord
100
AcDbLinetypeTableRecord
  2
CENTER
 70
     0
  3
___________________________  _____  ___________________________
 72
    65
 73
     4
 40
1.25
 49
1.071429
 74
     0
 49
-0.039683
 74
     0
 49
0.099206
 74
     0
 49
-0.039683
 74
     0
  0
LTYPE
  5
ACE
330
5
100
AcDbSymbolTableRecord
100
AcDbLinetypeTableRecord
  2
HIDDEN2
 70
     0
  3
Hidden (.5x) _ _ _ _ _ _ _ _ _ _ _ _ _ _ _ _ _
 72
    65
 73
     2
 40
0.1875
 49
0.125
 74
     0
 49
-0.0625
 74
     0
  0
LTYPE
  5
ACF
330
5
100
AcDbSymbolTableRecord
100
AcDbLinetypeTableRecord
  2
CENTERX2
 70
     0
  3
Center (2x) ________  __  ________  __  _____
 72
    65
 73
     4
 40
4.0
 49
2.5
 74
     0
 49
-0.5
 74
     0
 49
0.5
 74
     0
 49
-0.5
 74
     0
  0
LTYPE
  5
DD7
330
5
100
AcDbSymbolTableRecord
100
AcDbLinetypeTableRecord
  2
CENTER2
 70
     0
  3
Center (.5x) ___ _ ___ _ ___ _ ___ _ ___ _ ___
 72
    65
 73
     4
 40
1.125
 49
0.75
 74
     0
 49
-0.125
 74
     0
 49
0.125
 74
     0
 49
-0.125
 74
     0
  0
ENDTAB
  0
TABLE
  2
LAYER
  5
2
330
0
100
AcDbSymbolTable
 70
    10
  0
LAYER
  5
10
330
2
100
AcDbSymbolTableRecord
100
AcDbLayerTableRecord
  2
0
 70
     0
 62
     7
  6
Continuous
370
    -3
390
F
  0
LAYER
  5
2B
330
2
100
AcDbSymbolTableRecord
100
AcDbLayerTableRecord
  2
TitleBlock&Notes
 70
     0
 62
     3
  6
Continuous
370
    -3
390
F
  0
LAYER
  5
2C
330
2
100
AcDbSymbolTableRecord
100
AcDbLayerTableRecord
  2
B.O.M
 70
     0
 62
     3
  6
Continuous
370
    -3
390
F
  0
LAYER
  5
AD0
330
2
100
AcDbSymbolTableRecord
100
AcDbLayerTableRecord
  2
N0
 70
     0
 62
   255
  6
Continuous
370
    -3
390
F
  0
LAYER
  5
AD1
330
2
100
AcDbSymbolTableRecord
100
AcDbLayerTableRecord
  2
Defpoints
 70
     0
 62
     7
  6
Continuous
290
     0
370
    -3
390
F
  0
LAYER
  5
AD2
330
2
100
AcDbSymbolTableRecord
100
AcDbLayerTableRecord
  2
Dimensions
 70
     0
 62
     1
  6
Continuous
370
    -3
390
F
  0
LAYER
  5
DD2
330
2
100
AcDbSymbolTableRecord
100
AcDbLayerTableRecord
  2
5097ABasePlate
 70
     0
 62
     7
  6
Continuous
370
    -3
390
F
  0
LAYER
  5
DD3
330
2
100
AcDbSymbolTableRecord
100
AcDbLayerTableRecord
  2
5034MountPlate
 70
     0
 62
     7
  6
Continuous
370
    -3
390
F
  0
LAYER
  5
DD4
330
2
100
AcDbSymbolTableRecord
100
AcDbLayerTableRecord
  2
CenterLine
 70
     0
 62
     2
  6
CENTERX2
370
    -3
390
F
  0
LAYER
  5
DD8
330
2
100
AcDbSymbolTableRecord
100
AcDbLayerTableRecord
  2
6082FlameCut
 70
     0
 62
     7
  6
Continuous
370
    -3
390
F
  0
ENDTAB
  0
TABLE
  2
STYLE
  5
3
330
0
100
AcDbSymbolTable
 70
     2
  0
STYLE
  5
11
330
3
100
AcDbSymbolTableRecord
100
AcDbTextStyleTableRecord
  2
Standard
 70
     0
 40
0.0
 41
1.0
 50
0.0
 71
     0
 42
0.2
  3
txt
  4

  0
STYLE
  5
DD6
330
3
100
AcDbSymbolTableRecord
100
AcDbTextStyleTableRecord
  2

 70
     1
 40
0.0
 41
1.0
 50
0.0
 71
     0
 42
0.2
  3
ltypeshp.shx
  4

  0
ENDTAB
  0
TABLE
  2
VIEW
  5
6
330
0
100
AcDbSymbolTable
 70
     0
  0
ENDTAB
  0
TABLE
  2
UCS
  5
7
330
0
100
AcDbSymbolTable
 70
     0
  0
ENDTAB
  0
TABLE
  2
APPID
  5
9
330
0
100
AcDbSymbolTable
 70
     1
  0
APPID
  5
12
330
9
100
AcDbSymbolTableRecord
100
AcDbRegAppTableRecord
  2
ACAD
 70
     0
  0
ENDTAB
  0
TABLE
  2
DIMSTYLE
  5
A
330
0
100
AcDbSymbolTable
 70
     1
100
AcDbDimStyleTable
 71
     1
340
27
  0
DIMSTYLE
105
27
102
{ACAD_REACTORS
330
B62
330
B63
330
B6B
330
B6C
330
B70
330
B88
330
B89
330
BA5
330
BA6
330
BA7
330
BA8
330
BB1
330
BB4
330
BBB
330
E94
102
}
330
A
100
AcDbSymbolTableRecord
100
AcDbDimStyleTableRecord
  2
Standard
 70
     0
340
11
  0
ENDTAB
  0
TABLE
  2
BLOCK_RECORD
  5
1
330
0
100
AcDbSymbolTable
 70
    17
  0
BLOCK_RECORD
  5
1F
330
1
100
AcDbSymbolTableRecord
100
AcDbBlockTableRecord
  2
*Model_Space
340
22
  0
BLOCK_RECORD
  5
1B
330
1
100
AcDbSymbolTableRecord
100
AcDbBlockTableRecord
  2
*Paper_Space
340
1E
  0
BLOCK_RECORD
  5
23
330
1
100
AcDbSymbolTableRecord
100
AcDbBlockTableRecord
  2
*Paper_Space0
340
26
  0
BLOCK_RECORD
  5
BE5
330
1
100
AcDbSymbolTableRecord
100
AcDbBlockTableRecord
  2
*D1
340
0
  0
BLOCK_RECORD
  5
BF2
330
1
100
AcDbSymbolTableRecord
100
AcDbBlockTableRecord
  2
*D2
340
0
  0
BLOCK_RECORD
  5
BFF
330
1
100
AcDbSymbolTableRecord
100
AcDbBlockTableRecord
  2
*D3
340
0
  0
BLOCK_RECORD
  5
C0C
330
1
100
AcDbSymbolTableRecord
100
AcDbBlockTableRecord
  2
*D4
340
0
  0
BLOCK_RECORD
  5
C19
330
1
100
AcDbSymbolTableRecord
100
AcDbBlockTableRecord
  2
*D5
340
0
  0
BLOCK_RECORD
  5
C26
330
1
100
AcDbSymbolTableRecord
100
AcDbBlockTableRecord
  2
*D6
340
0
  0
BLOCK_RECORD
  5
C33
330
1
100
AcDbSymbolTableRecord
100
AcDbBlockTableRecord
  2
*D7
340
0
  0
BLOCK_RECORD
  5
C40
330
1
100
AcDbSymbolTableRecord
100
AcDbBlockTableRecord
  2
*D8
340
0
  0
BLOCK_RECORD
  5
C4D
330
1
100
AcDbSymbolTableRecord
100
AcDbBlockTableRecord
  2
*D9
340
0
  0
BLOCK_RECORD
  5
C5A
330
1
100
AcDbSymbolTableRecord
100
AcDbBlockTableRecord
  2
*D10
340
0
  0
BLOCK_RECORD
  5
C67
330
1
100
AcDbSymbolTableRecord
100
AcDbBlockTableRecord
  2
*D11
340
0
  0
BLOCK_RECORD
  5
C74
330
1
100
AcDbSymbolTableRecord
100
AcDbBlockTableRecord
  2
*D12
340
0
  0
BLOCK_RECORD
  5
C81
330
1
100
AcDbSymbolTableRecord
100
AcDbBlockTableRecord
  2
*D13
340
0
  0
BLOCK_RECORD
  5
C8D
330
1
100
AcDbSymbolTableRecord
100
AcDbBlockTableRecord
  2
*D14
340
0
  0
BLOCK_RECORD
  5
E95
330
1
100
AcDbSymbolTableRecord
100
AcDbBlockTableRecord
  2
*D16
340
0
  0
ENDTAB
  0
ENDSEC
  0
SECTION
  2
BLOCKS
  0
BLOCK
  5
20
330
1F
100
AcDbEntity
  8
0
100
AcDbBlockBegin
  2
*Model_Space
 70
     0
 10
0.0
 20
0.0
 30
0.0
  3
*Model_Space
  1

  0
ENDBLK
  5
21
330
1F
100
AcDbEntity
  8
0
100
AcDbBlockEnd
  0
BLOCK
  5
1C
330
1B
100
AcDbEntity
 67
     1
  8
0
100
AcDbBlockBegin
  2
*Paper_Space
 70
     0
 10
0.0
 20
0.0
 30
0.0
  3
*Paper_Space
  1

  0
ENDBLK
  5
1D
330
1B
100
AcDbEntity
 67
     1
  8
0
100
AcDbBlockEnd
  0
BLOCK
  5
24
330
23
100
AcDbEntity
  8
0
100
AcDbBlockBegin
  2
*Paper_Space0
 70
     0
 10
0.0
 20
0.0
 30
0.0
  3
*Paper_Space0
  1

  0
ENDBLK
  5
25
330
23
100
AcDbEntity
  8
0
100
AcDbBlockEnd
  0
BLOCK
  5
BF0
330
BE5
100
AcDbEntity
  8
0
100
AcDbBlockBegin
  2
*D1
 70
     1
 10
0.0
 20
0.0
 30
0.0
  3
*D1
  1

  0
LINE
  5
DFF
330
BE5
100
AcDbEntity
  8
Dimensions
 62
     0
370
    -2
100
AcDbLine
 10
23.00251386282564
 20
8.734710366679038
 30
0.0
 11
21.23786570303301
 21
8.734710366679038
 31
0.0
  0
LINE
  5
E00
330
BE5
100
AcDbEntity
  8
Dimensions
 62
     0
370
    -2
100
AcDbLine
 10
24.17438886282564
 20
22.32576736667903
 30
0.0
 11
21.23786570303301
 21
22.32576736667904
 31
0.0
  0
LINE
  5
E01
330
BE5
100
AcDbEntity
  8
Dimensions
 62
     0
370
    -2
100
AcDbLine
 10
21.45106570303301
 20
9.046710366679038
 30
0.0
 11
21.45106570303301
 21
14.52471809624622
 31
0.0
  0
LINE
  5
E02
330
BE5
100
AcDbEntity
  8
Dimensions
 62
     0
370
    -2
100
AcDbLine
 10
21.45106570303301
 20
22.01376736667904
 30
0.0
 11
21.45106570303301
 21
15.21431809624622
 31
0.0
  0
SOLID
  5
E03
330
BE5
100
AcDbEntity
  8
Dimensions
 62
     0
100
AcDbTrace
 10
21.39906570303301
 20
9.046710366679038
 30
0.0
 11
21.50306570303301
 21
9.046710366679038
 31
0.0
 12
21.45106570303301
 22
8.734710366679038
 32
0.0
 13
21.45106570303301
 23
8.734710366679038
 33
0.0
  0
SOLID
  5
E04
330
BE5
100
AcDbEntity
  8
Dimensions
 62
     0
100
AcDbTrace
 10
21.39906570303301
 20
22.01376736667904
 30
0.0
 11
21.50306570303301
 21
22.01376736667904
 31
0.0
 12
21.45106570303301
 22
22.32576736667904
 32
0.0
 13
21.45106570303301
 23
22.32576736667904
 33
0.0
  0
MTEXT
  5
E05
330
BE5
100
AcDbEntity
  8
Dimensions
 62
     0
100
AcDbMText
 10
21.45106570303301
 20
14.86951809624622
 30
0.0
 40
0.312
 41
0.0
 71
     5
 72
     1
  1
\A1;\A1;13{\H0.7x;\S1/2;} 
 73
     1
 44
1.0
  0
POINT
  5
E06
330
BE5
100
AcDbEntity
  8
Defpoints
 62
     0
100
AcDbPoint
 10
23.10251386282564
 20
8.734710366679038
 30
0.0
  0
POINT
  5
E07
330
BE5
100
AcDbEntity
  8
Defpoints
 62
     0
100
AcDbPoint
 10
24.27438886282564
 20
22.32576736667903
 30
0.0
  0
POINT
  5
E08
330
BE5
100
AcDbEntity
  8
Defpoints
 62
     0
100
AcDbPoint
 10
21.45106570303301
 20
22.32576736667904
 30
0.0
  0
ENDBLK
  5
BF1
330
BE5
100
AcDbEntity
  8
0
100
AcDbBlockEnd
  0
BLOCK
  5
BFD
330
BF2
100
AcDbEntity
  8
0
100
AcDbBlockBegin
  2
*D2
 70
     1
 10
0.0
 20
0.0
 30
0.0
  3
*D2
  1

  0
LINE
  5
E09
330
BF2
100
AcDbEntity
  8
Dimensions
 62
     0
370
    -2
100
AcDbLine
 10
23.00251386282564
 20
9.734710366679038
 30
0.0
 11
22.55359297129648
 21
9.734710366679038
 31
0.0
  0
LINE
  5
E0A
330
BF2
100
AcDbEntity
  8
Dimensions
 62
     0
370
    -2
100
AcDbLine
 10
24.17438886282564
 20
21.35971036667903
 30
0.0
 11
22.55359297129648
 21
21.35971036667904
 31
0.0
  0
LINE
  5
E0B
330
BF2
100
AcDbEntity
  8
Dimensions
 62
     0
370
    -2
100
AcDbLine
 10
22.76679297129648
 20
10.04671036667903
 30
0.0
 11
22.76679297129648
 21
14.09917413780926
 31
0.0
  0
LINE
  5
E0C
330
BF2
100
AcDbEntity
  8
Dimensions
 62
     0
370
    -2
100
AcDbLine
 10
22.76679297129648
 20
21.04771036667904
 30
0.0
 11
22.76679297129648
 21
14.78877413780925
 31
0.0
  0
SOLID
  5
E0D
330
BF2
100
AcDbEntity
  8
Dimensions
 62
     0
100
AcDbTrace
 10
22.71479297129648
 20
10.04671036667903
 30
0.0
 11
22.81879297129648
 21
10.04671036667903
 31
0.0
 12
22.76679297129648
 22
9.734710366679038
 32
0.0
 13
22.76679297129648
 23
9.734710366679038
 33
0.0
  0
SOLID
  5
E0E
330
BF2
100
AcDbEntity
  8
Dimensions
 62
     0
100
AcDbTrace
 10
22.71479297129648
 20
21.04771036667904
 30
0.0
 11
22.81879297129648
 21
21.04771036667904
 31
0.0
 12
22.76679297129648
 22
21.35971036667904
 32
0.0
 13
22.76679297129648
 23
21.35971036667904
 33
0.0
  0
MTEXT
  5
E0F
330
BF2
100
AcDbEntity
  8
Dimensions
 62
     0
100
AcDbMText
 10
22.76679297129648
 20
14.44397413780926
 30
0.0
 40
0.312
 41
0.0
 71
     5
 72
     1
  1
\A1;\A1;11{\H0.7x;\S3/4;} 
 73
     1
 44
1.0
  0
POINT
  5
E10
330
BF2
100
AcDbEntity
  8
Defpoints
 62
     0
100
AcDbPoint
 10
23.10251386282564
 20
9.734710366679038
 30
0.0
  0
POINT
  5
E11
330
BF2
100
AcDbEntity
  8
Defpoints
 62
     0
100
AcDbPoint
 10
24.27438886282564
 20
21.35971036667903
 30
0.0
  0
POINT
  5
E12
330
BF2
100
AcDbEntity
  8
Defpoints
 62
     0
100
AcDbPoint
 10
22.76679297129648
 20
21.35971036667904
 30
0.0
  0
ENDBLK
  5
BFE
330
BF2
100
AcDbEntity
  8
0
100
AcDbBlockEnd
  0
BLOCK
  5
C0A
330
BFF
100
AcDbEntity
  8
0
100
AcDbBlockBegin
  2
*D3
 70
     1
 10
0.0
 20
0.0
 30
0.0
  3
*D3
  1

  0
LINE
  5
DEB
330
BFF
100
AcDbEntity
  8
Dimensions
 62
     0
370
    -2
100
AcDbLine
 10
23.10251386282564
 20
8.672210366679038
 30
0.0
 11
23.10251386282564
 21
6.565774776328829
 31
0.0
  0
LINE
  5
DEC
330
BFF
100
AcDbEntity
  8
Dimensions
 62
     0
370
    -2
100
AcDbLine
 10
36.02438886282564
 20
9.934599366679039
 30
0.0
 11
36.02438886282564
 21
6.565774776328829
 31
0.0
  0
LINE
  5
DED
330
BFF
100
AcDbEntity
  8
Dimensions
 62
     0
370
    -2
100
AcDbLine
 10
23.40251386282564
 20
6.745774776328829
 30
0.0
 11
29.27345136282564
 21
6.745774776328829
 31
0.0
  0
LINE
  5
DEE
330
BFF
100
AcDbEntity
  8
Dimensions
 62
     0
370
    -2
100
AcDbLine
 10
35.72438886282565
 20
6.745774776328829
 30
0.0
 11
29.85345136282564
 21
6.745774776328829
 31
0.0
  0
SOLID
  5
DEF
330
BFF
100
AcDbEntity
  8
Dimensions
 62
     0
100
AcDbTrace
 10
23.40251386282564
 20
6.795774776328829
 30
0.0
 11
23.40251386282564
 21
6.695774776328829
 31
0.0
 12
23.10251386282564
 22
6.745774776328829
 32
0.0
 13
23.10251386282564
 23
6.745774776328829
 33
0.0
  0
SOLID
  5
DF0
330
BFF
100
AcDbEntity
  8
Dimensions
 62
     0
100
AcDbTrace
 10
35.72438886282565
 20
6.795774776328829
 30
0.0
 11
35.72438886282565
 21
6.695774776328829
 31
0.0
 12
36.02438886282564
 22
6.745774776328829
 32
0.0
 13
36.02438886282564
 23
6.745774776328829
 33
0.0
  0
MTEXT
  5
DF1
330
BFF
100
AcDbEntity
  8
Dimensions
 62
     0
100
AcDbMText
 10
29.56345136282564
 20
6.745774776328829
 30
0.0
 40
0.3
 41
0.0
 71
     5
 72
     1
  1
\A1;13
 73
     1
 44
1.0
  0
POINT
  5
DF2
330
BFF
100
AcDbEntity
  8
Defpoints
 62
     0
100
AcDbPoint
 10
23.10251386282564
 20
8.734710366679038
 30
0.0
  0
POINT
  5
DF3
330
BFF
100
AcDbEntity
  8
Defpoints
 62
     0
100
AcDbPoint
 10
36.02438886282564
 20
9.997099366679039
 30
0.0
  0
POINT
  5
DF4
330
BFF
100
AcDbEntity
  8
Defpoints
 62
     0
100
AcDbPoint
 10
36.02438886282564
 20
6.745774776328829
 30
0.0
  0
ENDBLK
  5
C0B
330
BFF
100
AcDbEntity
  8
0
100
AcDbBlockEnd
  0
BLOCK
  5
C17
330
C0C
100
AcDbEntity
  8
0
100
AcDbBlockBegin
  2
*D4
 70
     1
 10
0.0
 20
0.0
 30
0.0
  3
*D4
  1

  0
LINE
  5
E31
330
C0C
100
AcDbEntity
  8
Dimensions
 62
     0
370
    -2
100
AcDbLine
 10
26.02438886282564
 20
8.188519391314613
 30
0.0
 11
26.02438886282564
 21
7.672377973019912
 31
0.0
  0
LINE
  5
E32
330
C0C
100
AcDbEntity
  8
Dimensions
 62
     0
370
    -2
100
AcDbLine
 10
27.52438886282564
 20
8.251019391314613
 30
0.0
 11
27.52438886282564
 21
7.672377973019912
 31
0.0
  0
LINE
  5
E33
330
C0C
100
AcDbEntity
  8
Dimensions
 62
     0
370
    -2
100
AcDbLine
 10
26.26438886282564
 20
7.852377973019912
 30
0.0
 11
26.48438886282564
 21
7.852377973019912
 31
0.0
  0
LINE
  5
E34
330
C0C
100
AcDbEntity
  8
Dimensions
 62
     0
370
    -2
100
AcDbLine
 10
27.28438886282564
 20
7.852377973019912
 30
0.0
 11
27.06438886282564
 21
7.852377973019912
 31
0.0
  0
SOLID
  5
E35
330
C0C
100
AcDbEntity
  8
Dimensions
 62
     0
100
AcDbTrace
 10
26.26438886282564
 20
7.892377973019912
 30
0.0
 11
26.26438886282564
 21
7.812377973019912
 31
0.0
 12
26.02438886282564
 22
7.852377973019912
 32
0.0
 13
26.02438886282564
 23
7.852377973019912
 33
0.0
  0
SOLID
  5
E36
330
C0C
100
AcDbEntity
  8
Dimensions
 62
     0
100
AcDbTrace
 10
27.28438886282564
 20
7.892377973019912
 30
0.0
 11
27.28438886282564
 21
7.812377973019912
 31
0.0
 12
27.52438886282564
 22
7.852377973019912
 32
0.0
 13
27.52438886282564
 23
7.852377973019912
 33
0.0
  0
MTEXT
  5
E37
330
C0C
100
AcDbEntity
  8
Dimensions
 62
     0
100
AcDbMText
 10
26.77438886282564
 20
7.852377973019912
 30
0.0
 40
0.3
 41
0.0
 71
     5
 72
     1
  1
\A1;1{\H1.000000x;\S1/2;}
 73
     1
 44
1.0
  0
POINT
  5
E38
330
C0C
100
AcDbEntity
  8
Defpoints
 62
     0
100
AcDbPoint
 10
26.02438886282564
 20
8.251019391314613
 30
0.0
  0
POINT
  5
E39
330
C0C
100
AcDbEntity
  8
Defpoints
 62
     0
100
AcDbPoint
 10
27.52438886282564
 20
8.313519391314613
 30
0.0
  0
POINT
  5
E3A
330
C0C
100
AcDbEntity
  8
Defpoints
 62
     0
100
AcDbPoint
 10
27.52438886282564
 20
7.852377973019912
 30
0.0
  0
ENDBLK
  5
C18
330
C0C
100
AcDbEntity
  8
0
100
AcDbBlockEnd
  0
BLOCK
  5
C24
330
C19
100
AcDbEntity
  8
0
100
AcDbBlockBegin
  2
*D5
 70
     1
 10
0.0
 20
0.0
 30
0.0
  3
*D5
  1

  0
LINE
  5
E13
330
C19
100
AcDbEntity
  8
Dimensions
 62
     0
370
    -2
100
AcDbLine
 10
17.91990223723196
 20
8.934599366679039
 30
0.0
 11
17.91990223723196
 21
7.995541601396077
 31
0.0
  0
LINE
  5
E14
330
C19
100
AcDbEntity
  8
Dimensions
 62
     0
370
    -2
100
AcDbLine
 10
13.41990223723196
 20
8.934599366679039
 30
0.0
 11
13.41990223723196
 21
7.995541601396077
 31
0.0
  0
LINE
  5
E15
330
C19
100
AcDbEntity
  8
Dimensions
 62
     0
370
    -2
100
AcDbLine
 10
17.61990223723196
 20
8.175541601396076
 30
0.0
 11
13.71990223723196
 21
8.175541601396076
 31
0.0
  0
LINE
  5
E16
330
C19
100
AcDbEntity
  8
Dimensions
 62
     0
370
    -2
100
AcDbLine
 10
13.41990223723196
 20
8.175541601396076
 30
0.0
 11
12.75177542793656
 21
8.175541601396076
 31
0.0
  0
SOLID
  5
E17
330
C19
100
AcDbEntity
  8
Dimensions
 62
     0
100
AcDbTrace
 10
17.61990223723196
 20
8.225541601396077
 30
0.0
 11
17.61990223723196
 21
8.125541601396076
 31
0.0
 12
17.91990223723196
 22
8.175541601396076
 32
0.0
 13
17.91990223723196
 23
8.175541601396076
 33
0.0
  0
SOLID
  5
E18
330
C19
100
AcDbEntity
  8
Dimensions
 62
     0
100
AcDbTrace
 10
13.71990223723196
 20
8.225541601396077
 30
0.0
 11
13.71990223723196
 21
8.125541601396076
 31
0.0
 12
13.41990223723196
 22
8.175541601396076
 32
0.0
 13
13.41990223723196
 23
8.175541601396076
 33
0.0
  0
MTEXT
  5
E19
330
C19
100
AcDbEntity
  8
Dimensions
 62
     0
100
AcDbMText
 10
12.40677542793656
 20
8.175541601396076
 30
0.0
 40
0.3
 41
0.0
 71
     5
 72
     1
  1
\A1;\A1;4{\H0.7x;\S1/2;} 
 73
     1
 44
1.0
  0
POINT
  5
E1A
330
C19
100
AcDbEntity
  8
Defpoints
 62
     0
100
AcDbPoint
 10
17.91990223723196
 20
8.997099366679039
 30
0.0
  0
POINT
  5
E1B
330
C19
100
AcDbEntity
  8
Defpoints
 62
     0
100
AcDbPoint
 10
13.41990223723196
 20
8.997099366679039
 30
0.0
  0
POINT
  5
E1C
330
C19
100
AcDbEntity
  8
Defpoints
 62
     0
100
AcDbPoint
 10
13.41990223723196
 20
8.175541601396076
 30
0.0
  0
ENDBLK
  5
C25
330
C19
100
AcDbEntity
  8
0
100
AcDbBlockEnd
  0
BLOCK
  5
C31
330
C26
100
AcDbEntity
  8
0
100
AcDbBlockBegin
  2
*D6
 70
     1
 10
0.0
 20
0.0
 30
0.0
  3
*D6
  1

  0
LINE
  5
E1D
330
C26
100
AcDbEntity
  8
Dimensions
  6
Continuous
 62
     0
370
    -2
100
AcDbLine
 10
23.10251386282564
 20
8.672210366679038
 30
0.0
 11
23.10251386282564
 21
8.047577567907289
 31
0.0
  0
LINE
  5
E1E
330
C26
100
AcDbEntity
  8
Dimensions
  6
Continuous
 62
     0
370
    -2
100
AcDbLine
 10
23.60251386282564
 20
8.251019391314613
 30
0.0
 11
23.60251386282564
 21
8.047577567907289
 31
0.0
  0
LINE
  5
E1F
330
C26
100
AcDbEntity
  8
Dimensions
  6
Continuous
 62
     0
370
    -2
100
AcDbLine
 10
22.86251386282564
 20
8.227577567907289
 30
0.0
 11
22.62251386282564
 21
8.227577567907289
 31
0.0
  0
LINE
  5
E20
330
C26
100
AcDbEntity
  8
Dimensions
  6
Continuous
 62
     0
370
    -2
100
AcDbLine
 10
23.84251386282564
 20
8.227577567907289
 30
0.0
 11
24.08251386282564
 21
8.227577567907289
 31
0.0
  0
SOLID
  5
E21
330
C26
100
AcDbEntity
  8
Dimensions
  6
Continuous
 62
     0
100
AcDbTrace
 10
22.86251386282564
 20
8.267577567907288
 30
0.0
 11
22.86251386282564
 21
8.18757756790729
 31
0.0
 12
23.10251386282564
 22
8.227577567907289
 32
0.0
 13
23.10251386282564
 23
8.227577567907289
 33
0.0
  0
SOLID
  5
E22
330
C26
100
AcDbEntity
  8
Dimensions
  6
Continuous
 62
     0
100
AcDbTrace
 10
23.84251386282564
 20
8.267577567907288
 30
0.0
 11
23.84251386282564
 21
8.18757756790729
 31
0.0
 12
23.60251386282564
 22
8.227577567907289
 32
0.0
 13
23.60251386282564
 23
8.227577567907289
 33
0.0
  0
MTEXT
  5
E23
330
C26
100
AcDbEntity
  8
Dimensions
  6
Continuous
 62
     0
100
AcDbMText
 10
23.35251386282564
 20
8.227577567907289
 30
0.0
 40
0.312
 41
0.0
 71
     5
 72
     1
  1
\A1;\A1;{\H0.7x;\S1/2;}
 73
     1
 44
1.0
  0
POINT
  5
E24
330
C26
100
AcDbEntity
  8
Defpoints
  6
Continuous
 62
     0
100
AcDbPoint
 10
23.10251386282564
 20
8.734710366679038
 30
0.0
  0
POINT
  5
E25
330
C26
100
AcDbEntity
  8
Defpoints
  6
Continuous
 62
     0
100
AcDbPoint
 10
23.60251386282564
 20
8.313519391314613
 30
0.0
  0
POINT
  5
E26
330
C26
100
AcDbEntity
  8
Defpoints
  6
Continuous
 62
     0
100
AcDbPoint
 10
23.60251386282564
 20
8.227577567907289
 30
0.0
  0
ENDBLK
  5
C32
330
C26
100
AcDbEntity
  8
0
100
AcDbBlockEnd
  0
BLOCK
  5
C3E
330
C33
100
AcDbEntity
  8
0
100
AcDbBlockBegin
  2
*D7
 70
     1
 10
0.0
 20
0.0
 30
0.0
  3
*D7
  1

  0
LINE
  5
E27
330
C33
100
AcDbEntity
  8
Dimensions
  6
Continuous
 62
     0
370
    -2
100
AcDbLine
 10
23.10251386282564
 20
8.672210366679038
 30
0.0
 11
23.10251386282564
 21
7.639354011116658
 31
0.0
  0
LINE
  5
E28
330
C33
100
AcDbEntity
  8
Dimensions
  6
Continuous
 62
     0
370
    -2
100
AcDbLine
 10
26.02438886282564
 20
8.251019391314613
 30
0.0
 11
26.02438886282564
 21
7.639354011116658
 31
0.0
  0
LINE
  5
E29
330
C33
100
AcDbEntity
  8
Dimensions
  6
Continuous
 62
     0
370
    -2
100
AcDbLine
 10
23.34251386282564
 20
7.819354011116658
 30
0.0
 11
24.20825136282564
 21
7.819354011116658
 31
0.0
  0
LINE
  5
E2A
330
C33
100
AcDbEntity
  8
Dimensions
  6
Continuous
 62
     0
370
    -2
100
AcDbLine
 10
25.78438886282564
 20
7.819354011116658
 30
0.0
 11
24.91865136282564
 21
7.819354011116658
 31
0.0
  0
SOLID
  5
E2B
330
C33
100
AcDbEntity
  8
Dimensions
  6
Continuous
 62
     0
100
AcDbTrace
 10
23.34251386282564
 20
7.859354011116658
 30
0.0
 11
23.34251386282564
 21
7.779354011116658
 31
0.0
 12
23.10251386282564
 22
7.819354011116658
 32
0.0
 13
23.10251386282564
 23
7.819354011116658
 33
0.0
  0
SOLID
  5
E2C
330
C33
100
AcDbEntity
  8
Dimensions
  6
Continuous
 62
     0
100
AcDbTrace
 10
25.78438886282564
 20
7.859354011116658
 30
0.0
 11
25.78438886282564
 21
7.779354011116658
 31
0.0
 12
26.02438886282564
 22
7.819354011116658
 32
0.0
 13
26.02438886282564
 23
7.819354011116658
 33
0.0
  0
MTEXT
  5
E2D
330
C33
100
AcDbEntity
  8
Dimensions
  6
Continuous
 62
     0
100
AcDbMText
 10
24.56345136282564
 20
7.819354011116658
 30
0.0
 40
0.312
 41
0.0
 71
     5
 72
     1
  1
\A1;\A1;2{\H0.7x;\S7/8;} 
 73
     1
 44
1.0
  0
POINT
  5
E2E
330
C33
100
AcDbEntity
  8
Defpoints
  6
Continuous
 62
     0
100
AcDbPoint
 10
23.10251386282564
 20
8.734710366679038
 30
0.0
  0
POINT
  5
E2F
330
C33
100
AcDbEntity
  8
Defpoints
  6
Continuous
 62
     0
100
AcDbPoint
 10
26.02438886282564
 20
8.313519391314613
 30
0.0
  0
POINT
  5
E30
330
C33
100
AcDbEntity
  8
Defpoints
  6
Continuous
 62
     0
100
AcDbPoint
 10
26.02438886282564
 20
7.819354011116658
 30
0.0
  0
ENDBLK
  5
C3F
330
C33
100
AcDbEntity
  8
0
100
AcDbBlockEnd
  0
BLOCK
  5
C4B
330
C40
100
AcDbEntity
  8
0
100
AcDbBlockBegin
  2
*D8
 70
     1
 10
0.0
 20
0.0
 30
0.0
  3
*D8
  1

  0
LINE
  5
E61
330
C40
100
AcDbEntity
  8
Dimensions
 62
     0
370
    -2
100
AcDbLine
 10
29.52438886282564
 20
8.25101939131461
 30
0.0
 11
29.52438886282564
 21
7.672377973019912
 31
0.0
  0
LINE
  5
E62
330
C40
100
AcDbEntity
  8
Dimensions
 62
     0
370
    -2
100
AcDbLine
 10
30.52438886282564
 20
8.251019391314606
 30
0.0
 11
30.52438886282564
 21
7.672377973019912
 31
0.0
  0
LINE
  5
E63
330
C40
100
AcDbEntity
  8
Dimensions
 62
     0
370
    -2
100
AcDbLine
 10
29.76438886282564
 20
7.852377973019912
 30
0.0
 11
29.88438886282564
 21
7.852377973019912
 31
0.0
  0
LINE
  5
E64
330
C40
100
AcDbEntity
  8
Dimensions
 62
     0
370
    -2
100
AcDbLine
 10
30.28438886282565
 20
7.852377973019912
 30
0.0
 11
30.16438886282564
 21
7.852377973019912
 31
0.0
  0
SOLID
  5
E65
330
C40
100
AcDbEntity
  8
Dimensions
 62
     0
100
AcDbTrace
 10
29.76438886282564
 20
7.892377973019912
 30
0.0
 11
29.76438886282564
 21
7.812377973019912
 31
0.0
 12
29.52438886282564
 22
7.852377973019912
 32
0.0
 13
29.52438886282564
 23
7.852377973019912
 33
0.0
  0
SOLID
  5
E66
330
C40
100
AcDbEntity
  8
Dimensions
 62
     0
100
AcDbTrace
 10
30.28438886282565
 20
7.892377973019912
 30
0.0
 11
30.28438886282565
 21
7.812377973019912
 31
0.0
 12
30.52438886282564
 22
7.852377973019912
 32
0.0
 13
30.52438886282564
 23
7.852377973019912
 33
0.0
  0
MTEXT
  5
E67
330
C40
100
AcDbEntity
  8
Dimensions
 62
     0
100
AcDbMText
 10
30.02438886282564
 20
7.852377973019912
 30
0.0
 40
0.3
 41
0.0
 71
     5
 72
     1
  1
\A1;1
 73
     1
 44
1.0
  0
POINT
  5
E68
330
C40
100
AcDbEntity
  8
Defpoints
 62
     0
100
AcDbPoint
 10
29.52438886282564
 20
8.31351939131461
 30
0.0
  0
POINT
  5
E69
330
C40
100
AcDbEntity
  8
Defpoints
 62
     0
100
AcDbPoint
 10
30.52438886282564
 20
8.313519391314606
 30
0.0
  0
POINT
  5
E6A
330
C40
100
AcDbEntity
  8
Defpoints
 62
     0
100
AcDbPoint
 10
30.52438886282564
 20
7.852377973019912
 30
0.0
  0
ENDBLK
  5
C4C
330
C40
100
AcDbEntity
  8
0
100
AcDbBlockEnd
  0
BLOCK
  5
C58
330
C4D
100
AcDbEntity
  8
0
100
AcDbBlockBegin
  2
*D9
 70
     1
 10
0.0
 20
0.0
 30
0.0
  3
*D9
  1

  0
LINE
  5
DF5
330
C4D
100
AcDbEntity
  8
Dimensions
 62
     0
370
    -2
100
AcDbLine
 10
28.52438886282564
 20
8.251019391314613
 30
0.0
 11
28.52438886282564
 21
7.672377973019912
 31
0.0
  0
LINE
  5
DF6
330
C4D
100
AcDbEntity
  8
Dimensions
 62
     0
370
    -2
100
AcDbLine
 10
29.52438886282564
 20
8.25101939131461
 30
0.0
 11
29.52438886282564
 21
7.672377973019912
 31
0.0
  0
LINE
  5
DF7
330
C4D
100
AcDbEntity
  8
Dimensions
 62
     0
370
    -2
100
AcDbLine
 10
28.76438886282564
 20
7.852377973019912
 30
0.0
 11
28.88438886282564
 21
7.852377973019912
 31
0.0
  0
LINE
  5
DF8
330
C4D
100
AcDbEntity
  8
Dimensions
 62
     0
370
    -2
100
AcDbLine
 10
29.28438886282565
 20
7.852377973019912
 30
0.0
 11
29.16438886282564
 21
7.852377973019912
 31
0.0
  0
SOLID
  5
DF9
330
C4D
100
AcDbEntity
  8
Dimensions
 62
     0
100
AcDbTrace
 10
28.76438886282564
 20
7.892377973019912
 30
0.0
 11
28.76438886282564
 21
7.812377973019912
 31
0.0
 12
28.52438886282564
 22
7.852377973019912
 32
0.0
 13
28.52438886282564
 23
7.852377973019912
 33
0.0
  0
SOLID
  5
DFA
330
C4D
100
AcDbEntity
  8
Dimensions
 62
     0
100
AcDbTrace
 10
29.28438886282565
 20
7.892377973019912
 30
0.0
 11
29.28438886282565
 21
7.812377973019912
 31
0.0
 12
29.52438886282564
 22
7.852377973019912
 32
0.0
 13
29.52438886282564
 23
7.852377973019912
 33
0.0
  0
MTEXT
  5
DFB
330
C4D
100
AcDbEntity
  8
Dimensions
 62
     0
100
AcDbMText
 10
29.02438886282564
 20
7.852377973019912
 30
0.0
 40
0.3
 41
0.0
 71
     5
 72
     1
  1
\A1;1
 73
     1
 44
1.0
  0
POINT
  5
DFC
330
C4D
100
AcDbEntity
  8
Defpoints
 62
     0
100
AcDbPoint
 10
28.52438886282564
 20
8.313519391314613
 30
0.0
  0
POINT
  5
DFD
330
C4D
100
AcDbEntity
  8
Defpoints
 62
     0
100
AcDbPoint
 10
29.52438886282564
 20
8.31351939131461
 30
0.0
  0
POINT
  5
DFE
330
C4D
100
AcDbEntity
  8
Defpoints
 62
     0
100
AcDbPoint
 10
29.52438886282564
 20
7.852377973019912
 30
0.0
  0
ENDBLK
  5
C59
330
C4D
100
AcDbEntity
  8
0
100
AcDbBlockEnd
  0
BLOCK
  5
C65
330
C5A
100
AcDbEntity
  8
0
100
AcDbBlockBegin
  2
*D10
 70
     1
 10
0.0
 20
0.0
 30
0.0
  3
*D10
  1

  0
LINE
  5
E3B
330
C5A
100
AcDbEntity
  8
Dimensions
 62
     0
370
    -2
100
AcDbLine
 10
27.52438886282564
 20
8.251019391314613
 30
0.0
 11
27.52438886282564
 21
7.672377973019912
 31
0.0
  0
LINE
  5
E3C
330
C5A
100
AcDbEntity
  8
Dimensions
 62
     0
370
    -2
100
AcDbLine
 10
28.52438886282564
 20
8.251019391314613
 30
0.0
 11
28.52438886282564
 21
7.672377973019912
 31
0.0
  0
LINE
  5
E3D
330
C5A
100
AcDbEntity
  8
Dimensions
 62
     0
370
    -2
100
AcDbLine
 10
27.76438886282564
 20
7.852377973019912
 30
0.0
 11
27.88438886282564
 21
7.852377973019912
 31
0.0
  0
LINE
  5
E3E
330
C5A
100
AcDbEntity
  8
Dimensions
 62
     0
370
    -2
100
AcDbLine
 10
28.28438886282564
 20
7.852377973019912
 30
0.0
 11
28.16438886282564
 21
7.852377973019912
 31
0.0
  0
SOLID
  5
E3F
330
C5A
100
AcDbEntity
  8
Dimensions
 62
     0
100
AcDbTrace
 10
27.76438886282564
 20
7.892377973019912
 30
0.0
 11
27.76438886282564
 21
7.812377973019912
 31
0.0
 12
27.52438886282564
 22
7.852377973019912
 32
0.0
 13
27.52438886282564
 23
7.852377973019912
 33
0.0
  0
SOLID
  5
E40
330
C5A
100
AcDbEntity
  8
Dimensions
 62
     0
100
AcDbTrace
 10
28.28438886282564
 20
7.892377973019912
 30
0.0
 11
28.28438886282564
 21
7.812377973019912
 31
0.0
 12
28.52438886282564
 22
7.852377973019912
 32
0.0
 13
28.52438886282564
 23
7.852377973019912
 33
0.0
  0
MTEXT
  5
E41
330
C5A
100
AcDbEntity
  8
Dimensions
 62
     0
100
AcDbMText
 10
28.02438886282564
 20
7.852377973019912
 30
0.0
 40
0.3
 41
0.0
 71
     5
 72
     1
  1
\A1;1
 73
     1
 44
1.0
  0
POINT
  5
E42
330
C5A
100
AcDbEntity
  8
Defpoints
 62
     0
100
AcDbPoint
 10
27.52438886282564
 20
8.313519391314613
 30
0.0
  0
POINT
  5
E43
330
C5A
100
AcDbEntity
  8
Defpoints
 62
     0
100
AcDbPoint
 10
28.52438886282564
 20
8.313519391314613
 30
0.0
  0
POINT
  5
E44
330
C5A
100
AcDbEntity
  8
Defpoints
 62
     0
100
AcDbPoint
 10
28.52438886282564
 20
7.852377973019912
 30
0.0
  0
ENDBLK
  5
C66
330
C5A
100
AcDbEntity
  8
0
100
AcDbBlockEnd
  0
BLOCK
  5
C72
330
C67
100
AcDbEntity
  8
0
100
AcDbBlockBegin
  2
*D11
 70
     1
 10
0.0
 20
0.0
 30
0.0
  3
*D11
  1

  0
LINE
  5
E57
330
C67
100
AcDbEntity
  8
Dimensions
 62
     0
370
    -2
100
AcDbLine
 10
30.52438886282564
 20
8.251019391314606
 30
0.0
 11
30.52438886282564
 21
7.672377973019912
 31
0.0
  0
LINE
  5
E58
330
C67
100
AcDbEntity
  8
Dimensions
 62
     0
370
    -2
100
AcDbLine
 10
32.52438886282564
 20
8.251019391314599
 30
0.0
 11
32.52438886282564
 21
7.672377973019912
 31
0.0
  0
LINE
  5
E59
330
C67
100
AcDbEntity
  8
Dimensions
 62
     0
370
    -2
100
AcDbLine
 10
30.76438886282564
 20
7.852377973019912
 30
0.0
 11
31.33438886282564
 21
7.852377973019912
 31
0.0
  0
LINE
  5
E5A
330
C67
100
AcDbEntity
  8
Dimensions
 62
     0
370
    -2
100
AcDbLine
 10
32.28438886282564
 20
7.852377973019912
 30
0.0
 11
31.71438886282564
 21
7.852377973019912
 31
0.0
  0
SOLID
  5
E5B
330
C67
100
AcDbEntity
  8
Dimensions
 62
     0
100
AcDbTrace
 10
30.76438886282564
 20
7.892377973019912
 30
0.0
 11
30.76438886282564
 21
7.812377973019912
 31
0.0
 12
30.52438886282564
 22
7.852377973019912
 32
0.0
 13
30.52438886282564
 23
7.852377973019912
 33
0.0
  0
SOLID
  5
E5C
330
C67
100
AcDbEntity
  8
Dimensions
 62
     0
100
AcDbTrace
 10
32.28438886282564
 20
7.892377973019912
 30
0.0
 11
32.28438886282564
 21
7.812377973019912
 31
0.0
 12
32.52438886282564
 22
7.852377973019912
 32
0.0
 13
32.52438886282564
 23
7.852377973019912
 33
0.0
  0
MTEXT
  5
E5D
330
C67
100
AcDbEntity
  8
Dimensions
 62
     0
100
AcDbMText
 10
31.52438886282564
 20
7.852377973019912
 30
0.0
 40
0.3
 41
0.0
 71
     5
 72
     1
  1
\A1;2
 73
     1
 44
1.0
  0
POINT
  5
E5E
330
C67
100
AcDbEntity
  8
Defpoints
 62
     0
100
AcDbPoint
 10
30.52438886282564
 20
8.313519391314606
 30
0.0
  0
POINT
  5
E5F
330
C67
100
AcDbEntity
  8
Defpoints
 62
     0
100
AcDbPoint
 10
32.52438886282564
 20
8.313519391314599
 30
0.0
  0
POINT
  5
E60
330
C67
100
AcDbEntity
  8
Defpoints
 62
     0
100
AcDbPoint
 10
32.52438886282564
 20
7.852377973019912
 30
0.0
  0
ENDBLK
  5
C73
330
C67
100
AcDbEntity
  8
0
100
AcDbBlockEnd
  0
BLOCK
  5
C7F
330
C74
100
AcDbEntity
  8
0
100
AcDbBlockBegin
  2
*D12
 70
     1
 10
0.0
 20
0.0
 30
0.0
  3
*D12
  1

  0
LINE
  5
E4D
330
C74
100
AcDbEntity
  8
Dimensions
 62
     0
370
    -2
100
AcDbLine
 10
35.10251386282564
 20
8.672210366679038
 30
0.0
 11
35.10251386282564
 21
7.672377973019912
 31
0.0
  0
LINE
  5
E4E
330
C74
100
AcDbEntity
  8
Dimensions
 62
     0
370
    -2
100
AcDbLine
 10
34.60251386282564
 20
8.251019391314613
 30
0.0
 11
34.60251386282564
 21
7.672377973019912
 31
0.0
  0
LINE
  5
E4F
330
C74
100
AcDbEntity
  8
Dimensions
 62
     0
370
    -2
100
AcDbLine
 10
35.34251386282564
 20
7.852377973019912
 30
0.0
 11
35.58251386282564
 21
7.852377973019912
 31
0.0
  0
LINE
  5
E50
330
C74
100
AcDbEntity
  8
Dimensions
 62
     0
370
    -2
100
AcDbLine
 10
34.36251386282564
 20
7.852377973019912
 30
0.0
 11
34.12251386282564
 21
7.852377973019912
 31
0.0
  0
SOLID
  5
E51
330
C74
100
AcDbEntity
  8
Dimensions
 62
     0
100
AcDbTrace
 10
35.34251386282564
 20
7.892377973019912
 30
0.0
 11
35.34251386282564
 21
7.812377973019912
 31
0.0
 12
35.10251386282564
 22
7.852377973019912
 32
0.0
 13
35.10251386282564
 23
7.852377973019912
 33
0.0
  0
SOLID
  5
E52
330
C74
100
AcDbEntity
  8
Dimensions
 62
     0
100
AcDbTrace
 10
34.36251386282564
 20
7.892377973019912
 30
0.0
 11
34.36251386282564
 21
7.812377973019912
 31
0.0
 12
34.60251386282564
 22
7.852377973019912
 32
0.0
 13
34.60251386282564
 23
7.852377973019912
 33
0.0
  0
MTEXT
  5
E53
330
C74
100
AcDbEntity
  8
Dimensions
 62
     0
100
AcDbMText
 10
34.85251386282564
 20
7.852377973019912
 30
0.0
 40
0.3
 41
0.0
 71
     5
 72
     1
  1
\A1;\A1;{\H0.7x;\S1/2;}
 73
     1
 44
1.0
  0
POINT
  5
E54
330
C74
100
AcDbEntity
  8
Defpoints
 62
     0
100
AcDbPoint
 10
35.10251386282564
 20
8.734710366679038
 30
0.0
  0
POINT
  5
E55
330
C74
100
AcDbEntity
  8
Defpoints
 62
     0
100
AcDbPoint
 10
34.60251386282564
 20
8.313519391314613
 30
0.0
  0
POINT
  5
E56
330
C74
100
AcDbEntity
  8
Defpoints
 62
     0
100
AcDbPoint
 10
34.60251386282564
 20
7.852377973019912
 30
0.0
  0
ENDBLK
  5
C80
330
C74
100
AcDbEntity
  8
0
100
AcDbBlockEnd
  0
BLOCK
  5
C8B
330
C81
100
AcDbEntity
  8
0
100
AcDbBlockBegin
  2
*D13
 70
     1
 10
0.0
 20
0.0
 30
0.0
  3
*D13
  1

  0
LINE
  5
DE3
330
C81
100
AcDbEntity
  8
Dimensions
 62
     0
370
    -2
100
AcDbLine
 10
29.96238886282564
 20
14.40528836146187
 30
0.0
 11
28.38490214533759
 21
14.40528836146187
 31
0.0
  0
LINE
  5
DE4
330
C81
100
AcDbEntity
  8
Dimensions
 62
     0
370
    -2
100
AcDbLine
 10
26.33638886282565
 20
14.40528836146187
 30
0.0
 11
27.67450214533759
 21
14.40528836146187
 31
0.0
  0
SOLID
  5
DE5
330
C81
100
AcDbEntity
  8
Dimensions
 62
     0
100
AcDbTrace
 10
29.96238886282564
 20
14.45728836146187
 30
0.0
 11
29.96238886282564
 21
14.35328836146187
 31
0.0
 12
30.27438886282564
 22
14.40528836146187
 32
0.0
 13
30.27438886282564
 23
14.40528836146187
 33
0.0
  0
SOLID
  5
DE6
330
C81
100
AcDbEntity
  8
Dimensions
 62
     0
100
AcDbTrace
 10
26.33638886282565
 20
14.45728836146187
 30
0.0
 11
26.33638886282565
 21
14.35328836146187
 31
0.0
 12
26.02438886282564
 22
14.40528836146187
 32
0.0
 13
26.02438886282564
 23
14.40528836146187
 33
0.0
  0
MTEXT
  5
DE7
330
C81
100
AcDbEntity
  8
Dimensions
 62
     0
100
AcDbMText
 10
28.02970214533759
 20
14.40528836146187
 30
0.0
 40
0.312
 41
0.0
 71
     5
 72
     1
  1
\A1;\A1;4{\H0.7x;\S1/4;} 
 73
     1
 44
1.0
  0
POINT
  5
DE8
330
C81
100
AcDbEntity
  8
Defpoints
 62
     0
100
AcDbPoint
 10
30.27438886282564
 20
14.52428112687897
 30
0.0
  0
POINT
  5
DE9
330
C81
100
AcDbEntity
  8
Defpoints
 62
     0
100
AcDbPoint
 10
26.02438886282564
 20
15.28145907299668
 30
0.0
  0
POINT
  5
DEA
330
C81
100
AcDbEntity
  8
Defpoints
 62
     0
100
AcDbPoint
 10
26.02438886282564
 20
14.40528836146187
 30
0.0
  0
ENDBLK
  5
C8C
330
C81
100
AcDbEntity
  8
0
100
AcDbBlockEnd
  0
BLOCK
  5
C98
330
C8D
100
AcDbEntity
  8
0
100
AcDbBlockBegin
  2
*D14
 70
     1
 10
0.0
 20
0.0
 30
0.0
  3
*D14
  1

  0
LINE
  5
E45
330
C8D
100
AcDbEntity
  8
Dimensions
 62
     0
370
    -2
100
AcDbLine
 10
16.86990223723196
 20
14.8155606929703
 30
0.0
 11
14.46990223723196
 21
14.8155606929703
 31
0.0
  0
LINE
  5
E46
330
C8D
100
AcDbEntity
  8
Dimensions
 62
     0
370
    -2
100
AcDbLine
 10
14.16990223723196
 20
14.8155606929703
 30
0.0
 11
12.39339142484425
 21
14.8155606929703
 31
0.0
  0
SOLID
  5
E47
330
C8D
100
AcDbEntity
  8
Dimensions
 62
     0
100
AcDbTrace
 10
16.86990223723196
 20
14.8655606929703
 30
0.0
 11
16.86990223723196
 21
14.7655606929703
 31
0.0
 12
17.16990223723196
 22
14.8155606929703
 32
0.0
 13
17.16990223723196
 23
14.8155606929703
 33
0.0
  0
SOLID
  5
E48
330
C8D
100
AcDbEntity
  8
Dimensions
 62
     0
100
AcDbTrace
 10
14.46990223723196
 20
14.8655606929703
 30
0.0
 11
14.46990223723196
 21
14.7655606929703
 31
0.0
 12
14.16990223723196
 22
14.8155606929703
 32
0.0
 13
14.16990223723196
 23
14.8155606929703
 33
0.0
  0
MTEXT
  5
E49
330
C8D
100
AcDbEntity
  8
Dimensions
 62
     0
100
AcDbMText
 10
12.20339142484425
 20
14.8155606929703
 30
0.0
 40
0.3
 41
0.0
 71
     5
 72
     1
  1
\A1;3
 73
     1
 44
1.0
  0
POINT
  5
E4A
330
C8D
100
AcDbEntity
  8
Defpoints
 62
     0
100
AcDbPoint
 10
17.16990223723196
 20
15.7615725815753
 30
0.0
  0
POINT
  5
E4B
330
C8D
100
AcDbEntity
  8
Defpoints
 62
     0
100
AcDbPoint
 10
14.16990223723196
 20
15.7615725815753
 30
0.0
  0
POINT
  5
E4C
330
C8D
100
AcDbEntity
  8
Defpoints
 62
     0
100
AcDbPoint
 10
14.16990223723196
 20
14.8155606929703
 30
0.0
  0
ENDBLK
  5
C99
330
C8D
100
AcDbEntity
  8
0
100
AcDbBlockEnd
  0
BLOCK
  5
EA1
330
E95
100
AcDbEntity
  8
0
100
AcDbBlockBegin
  2
*D16
 70
     1
 10
0.0
 20
0.0
 30
0.0
  3
*D16
  1

  0
LINE
  5
E96
330
E95
100
AcDbEntity
  8
Dimensions
 62
     0
370
    -2
100
AcDbLine
 10
23.04001386282564
 20
9.734710366679038
 30
0.0
 11
22.02129532218783
 21
9.734710366679038
 31
0.0
  0
LINE
  5
E97
330
E95
100
AcDbEntity
  8
Dimensions
 62
     0
370
    -2
100
AcDbLine
 10
23.04001386282564
 20
8.734710366679038
 30
0.0
 11
22.02129532218783
 21
8.734710366679038
 31
0.0
  0
LINE
  5
E98
330
E95
100
AcDbEntity
  8
Dimensions
 62
     0
370
    -2
100
AcDbLine
 10
22.20129532218783
 20
9.434710366679038
 30
0.0
 11
22.20129532218783
 21
9.034710366679039
 31
0.0
  0
LINE
  5
E99
330
E95
100
AcDbEntity
  8
Dimensions
 62
     0
370
    -2
100
AcDbLine
 10
22.20129532218783
 20
8.734710366679038
 30
0.0
 11
22.20129532218783
 21
8.434710366679038
 31
0.0
  0
LINE
  5
E9A
330
E95
100
AcDbEntity
  8
Dimensions
 62
     0
370
    -2
100
AcDbLine
 10
22.20129532218783
 20
8.434710366679038
 30
0.0
 11
21.90129532218783
 21
8.434710366679038
 31
0.0
  0
SOLID
  5
E9B
330
E95
100
AcDbEntity
  8
Dimensions
 62
     0
100
AcDbTrace
 10
22.15129532218783
 20
9.434710366679038
 30
0.0
 11
22.25129532218783
 21
9.434710366679038
 31
0.0
 12
22.20129532218783
 22
9.734710366679038
 32
0.0
 13
22.20129532218783
 23
9.734710366679038
 33
0.0
  0
SOLID
  5
E9C
330
E95
100
AcDbEntity
  8
Dimensions
 62
     0
100
AcDbTrace
 10
22.15129532218783
 20
9.034710366679039
 30
0.0
 11
22.25129532218783
 21
9.034710366679039
 31
0.0
 12
22.20129532218783
 22
8.734710366679038
 32
0.0
 13
22.20129532218783
 23
8.734710366679038
 33
0.0
  0
MTEXT
  5
E9D
330
E95
100
AcDbEntity
  8
Dimensions
 62
     0
100
AcDbMText
 10
21.76129532218782
 20
8.434710366679041
 30
0.0
 40
0.3
 41
0.0
 71
     5
 72
     1
  1
\A1;1
 73
     1
 44
1.0
  0
POINT
  5
E9E
330
E95
100
AcDbEntity
  8
Defpoints
 62
     0
100
AcDbPoint
 10
23.10251386282564
 20
9.734710366679038
 30
0.0
  0
POINT
  5
E9F
330
E95
100
AcDbEntity
  8
Defpoints
 62
     0
100
AcDbPoint
 10
23.10251386282564
 20
8.734710366679038
 30
0.0
  0
POINT
  5
EA0
330
E95
100
AcDbEntity
  8
Defpoints
 62
     0
100
AcDbPoint
 10
22.20129532218783
 20
8.734710366679038
 30
0.0
  0
ENDBLK
  5
EA2
330
E95
100
AcDbEntity
  8
0
100
AcDbBlockEnd
  0
ENDSEC
  0
SECTION
  2
ENTITIES
  0
LWPOLYLINE
  5
520
330
1F
100
AcDbEntity
  8
TitleBlock&Notes
100
AcDbPolyline
 90
        4
 70
     1
 43
0.0
 10
8.799999999999997
 20
-0.0000000000000014
 10
44.0
 20
-0.0000000000000071
 10
44.00000000000001
 20
27.19999999999999
 10
8.800000000000002
 20
27.2
  0
LINE
  5
521
330
1F
100
AcDbEntity
  8
TitleBlock&Notes
 62
     3
100
AcDbLine
 10
44.0
 20
5.860799999999987
 30
0.0
 11
44.0
 21
-0.0000000000000071
 31
0.0
  0
TEXT
  5
53E
330
1F
100
AcDbEntity
  8
TitleBlock&Notes
  6
Continuous
 62
     3
100
AcDbText
 10
38.91368052389975
 20
2.156781016295314
 30
0.0
 40
0.2534400000000001
  1
640 Hardwick Road, Unit 5
 41
0.7000000000000001
100
AcDbText
  0
TEXT
  5
53F
330
1F
100
AcDbEntity
  8
TitleBlock&Notes
  6
Continuous
 62
     3
100
AcDbText
 10
38.50101239940548
 20
2.636539739459473
 30
0.0
 40
0.4752000000000001
  1
MULTICYL  Inc.
 41
0.85470085
100
AcDbText
  0
TEXT
  5
540
330
1F
100
AcDbEntity
  8
TitleBlock&Notes
  6
Continuous
 62
     3
100
AcDbText
 10
39.40288534417976
 20
0.9155149461696247
 30
0.0
 40
0.202752
  1
(905) 951-0670 
 41
1.282051279999999
100
AcDbText
  0
TEXT
  5
541
330
1F
100
AcDbEntity
  8
TitleBlock&Notes
  6
Continuous
 62
     3
100
AcDbText
 10
38.84920329950472
 20
0.5591998775774294
 30
0.0
 40
0.202752
  1
FAX (905) 951-0672
 41
1.282051279999999
100
AcDbText
  0
TEXT
  5
542
330
1F
100
AcDbEntity
  8
TitleBlock&Notes
  6
Continuous
 62
     3
100
AcDbText
 10
38.0265063641859
 20
1.340576200358014
 30
0.0
 40
0.2534400000000001
  1
          Canada L7E 5R1
 41
0.7000000000000001
100
AcDbText
  0
LINE
  5
543
330
1F
100
AcDbEntity
  8
TitleBlock&Notes
 62
     3
100
AcDbLine
 10
28.95199999999999
 20
-0.0000000000000156
 30
0.0
 11
44.0
 21
-0.0000000000000071
 31
0.0
  0
LINE
  5
544
330
1F
100
AcDbEntity
  8
TitleBlock&Notes
  6
Continuous
 62
     3
100
AcDbLine
 10
28.95199999999999
 20
3.563999999999991
 30
0.0
 11
44.0
 21
3.563999999999991
 31
0.0
  0
LINE
  5
547
330
1F
100
AcDbEntity
  8
TitleBlock&Notes
 62
     3
100
AcDbLine
 10
33.96799999999999
 20
-0.0000000000000128
 30
0.0
 11
26.52908716588649
 21
-0.0026115024976107
 31
0.0
  0
LINE
  5
553
330
1F
100
AcDbEntity
  8
TitleBlock&Notes
  6
Continuous
 62
     3
100
AcDbLine
 10
32.56495434367995
 20
2.592147412799984
 30
0.0
 11
33.54703434367996
 21
2.592147412799984
 31
0.0
  0
LINE
  5
554
330
1F
100
AcDbEntity
  8
TitleBlock&Notes
  6
Continuous
 62
     3
100
AcDbLine
 10
32.54911434367997
 20
2.60798741279999
 30
0.0
 11
33.56287434367994
 21
2.60798741279999
 31
0.0
  0
LINE
  5
555
330
1F
100
AcDbEntity
  8
TitleBlock&Notes
  6
Continuous
 62
     3
100
AcDbLine
 10
32.58079434367999
 20
2.576307412799987
 30
0.0
 11
33.53119434367997
 21
2.576307412799987
 31
0.0
  0
LINE
  5
556
330
1F
100
AcDbEntity
  8
TitleBlock&Notes
  6
Continuous
 62
     3
100
AcDbLine
 10
32.93719434367997
 20
1.182387412799978
 30
0.0
 11
33.17479434367999
 21
1.182387412799978
 31
0.0
  0
LINE
  5
557
330
1F
100
AcDbEntity
  8
TitleBlock&Notes
  6
Continuous
 62
     3
100
AcDbLine
 10
32.92135434367998
 20
1.166547412799981
 30
0.0
 11
33.19063434367997
 21
1.166547412799981
 31
0.0
  0
LINE
  5
558
330
1F
100
AcDbEntity
  8
TitleBlock&Notes
  6
Continuous
 62
     3
100
AcDbLine
 10
32.90551434367995
 20
1.150707412799984
 30
0.0
 11
33.20647434367995
 21
1.150707412799984
 31
0.0
  0
TEXT
  5
559
330
1F
100
AcDbEntity
  8
TitleBlock&Notes
  6
Continuous
 62
     3
100
AcDbText
 10
31.94456677279999
 20
0.4126115347199951
 30
0.0
 40
0.22176
  1
 with the
 41
0.8
 51
11.0
100
AcDbText
  0
LINE
  5
55A
330
1F
100
AcDbEntity
  8
TitleBlock&Notes
  6
Continuous
 62
     3
100
AcDbLine
 10
32.77533739039995
 20
0.9447874127999952
 30
0.0
 11
37.68270865567997
 21
1.030445887679992
 31
0.0
  0
LINE
  5
55B
330
1F
100
AcDbEntity
  8
TitleBlock&Notes
  6
Continuous
 62
     3
100
AcDbLine
 10
32.04924842239998
 20
0.9447874127999952
 30
0.0
 11
37.68270865567997
 21
1.043119820159988
 31
0.0
  0
LINE
  5
55C
330
1F
100
AcDbEntity
  8
TitleBlock&Notes
  6
Continuous
 62
     3
100
AcDbLine
 10
31.32315942271997
 20
0.9447874127999952
 30
0.0
 11
37.68270865567997
 21
1.055793752639992
 31
0.0
  0
LINE
  5
55D
330
1F
100
AcDbEntity
  8
TitleBlock&Notes
  6
Continuous
 62
     3
100
AcDbLine
 10
30.59707045471995
 20
0.9447874127999952
 30
0.0
 11
37.68270865567997
 21
1.068467685119988
 31
0.0
  0
LINE
  5
55E
330
1F
100
AcDbEntity
  8
TitleBlock&Notes
  6
Continuous
 62
     3
100
AcDbLine
 10
29.87098148671995
 20
0.9447874127999952
 30
0.0
 11
37.68270865567997
 21
1.081141617599983
 31
0.0
  0
LINE
  5
55F
330
1F
100
AcDbEntity
  8
TitleBlock&Notes
  6
Continuous
 62
     3
100
AcDbLine
 10
29.14489248703999
 20
0.9447874127999952
 30
0.0
 11
37.68270865567997
 21
1.093815550079987
 31
0.0
  0
LINE
  5
560
330
1F
100
AcDbEntity
  8
TitleBlock&Notes
  6
Continuous
 62
     3
100
AcDbLine
 10
28.95199999999999
 20
0.9540943948799949
 30
0.0
 11
37.68270865567997
 21
1.106489482559983
 31
0.0
  0
LINE
  5
561
330
1F
100
AcDbEntity
  8
TitleBlock&Notes
  6
Continuous
 62
     3
100
AcDbLine
 10
28.95199999999999
 20
0.9667682956799879
 30
0.0
 11
37.68270865567997
 21
1.119163383359985
 31
0.0
  0
LINE
  5
562
330
1F
100
AcDbEntity
  8
TitleBlock&Notes
  6
Continuous
 62
     3
100
AcDbLine
 10
28.95199999999999
 20
0.9794422281599921
 30
0.0
 11
37.68270865567997
 21
1.13183731583998
 31
0.0
  0
LINE
  5
563
330
1F
100
AcDbEntity
  8
TitleBlock&Notes
  6
Continuous
 62
     3
100
AcDbLine
 10
28.95199999999999
 20
0.9921161606399877
 30
0.0
 11
37.68270865567997
 21
1.144511248319993
 31
0.0
  0
LINE
  5
564
330
1F
100
AcDbEntity
  8
TitleBlock&Notes
  6
Continuous
 62
     3
100
AcDbLine
 10
28.95199999999999
 20
1.004790093119992
 30
0.0
 11
37.31159649535996
 21
1.150707412799984
 31
0.0
  0
LINE
  5
565
330
1F
100
AcDbEntity
  8
TitleBlock&Notes
  6
Continuous
 62
     3
100
AcDbLine
 10
28.95199999999999
 20
1.017464025599987
 30
0.0
 11
36.58550749567996
 21
1.150707412799984
 31
0.0
  0
LINE
  5
566
330
1F
100
AcDbEntity
  8
TitleBlock&Notes
  6
Continuous
 62
     3
100
AcDbLine
 10
28.95199999999999
 20
0.9447874127999952
 30
0.0
 11
37.68270865567997
 21
0.9447874127999952
 31
0.0
  0
LINE
  5
567
330
1F
100
AcDbEntity
  8
TitleBlock&Notes
  6
Continuous
 62
     3
100
AcDbLine
 10
37.68270865567997
 20
2.690929137599987
 30
0.0
 11
28.95199999999999
 21
2.690929137599987
 31
0.0
  0
LINE
  5
568
330
1F
100
AcDbEntity
  8
TitleBlock&Notes
  6
Continuous
 62
     3
100
AcDbLine
 10
37.68270865567997
 20
3.002740171199986
 30
0.0
 11
28.95199999999999
 21
3.002740171199986
 31
0.0
  0
LINE
  5
569
330
1F
100
AcDbEntity
  8
TitleBlock&Notes
  6
Continuous
 62
     3
100
AcDbLine
 10
28.95199999999999
 20
1.030137958079983
 30
0.0
 11
35.85941852767994
 21
1.150707412799984
 31
0.0
  0
LINE
  5
56A
330
1F
100
AcDbEntity
  8
TitleBlock&Notes
  6
Continuous
 62
     3
100
AcDbLine
 10
28.95199999999999
 20
1.042811890559987
 30
0.0
 11
35.63791434367995
 21
1.159514959679988
 31
0.0
  0
LINE
  5
56B
330
1F
100
AcDbEntity
  8
TitleBlock&Notes
  6
Continuous
 62
     3
100
AcDbLine
 10
28.95199999999999
 20
1.055485823039983
 30
0.0
 11
34.64887459615997
 21
1.154925129599986
 31
0.0
  0
LINE
  5
56C
330
1F
100
AcDbEntity
  8
TitleBlock&Notes
  6
Continuous
 62
     3
100
AcDbLine
 10
28.95199999999999
 20
1.068159755519987
 30
0.0
 11
33.68115159199996
 21
1.150707412799984
 31
0.0
  0
LINE
  5
56D
330
1F
100
AcDbEntity
  8
TitleBlock&Notes
  6
Continuous
 62
     3
100
AcDbLine
 10
28.95199999999999
 20
-0.0000000000000156
 30
0.0
 11
28.95199999999999
 21
3.563999999999991
 31
0.0
  0
LINE
  5
574
330
1F
100
AcDbEntity
  8
TitleBlock&Notes
  6
Continuous
 62
     3
100
AcDbLine
 10
29.71056524479997
 20
2.592147412799984
 30
0.0
 11
29.31775434367998
 21
2.592147412799984
 31
0.0
  0
LINE
  5
575
330
1F
100
AcDbEntity
  8
TitleBlock&Notes
  6
Continuous
 62
     3
100
AcDbLine
 10
29.33359434367996
 20
2.576307412799987
 30
0.0
 11
29.69791434367994
 21
2.576307412799987
 31
0.0
  0
LINE
  5
576
330
1F
100
AcDbEntity
  8
TitleBlock&Notes
  6
Continuous
 62
     3
100
AcDbLine
 10
29.30191434367995
 20
2.60798741279999
 30
0.0
 11
29.72321614591995
 21
2.60798741279999
 31
0.0
  0
LINE
  5
577
330
1F
100
AcDbEntity
  8
TitleBlock&Notes
  6
Continuous
 62
     3
100
AcDbLine
 10
29.60287434367995
 20
1.34567335583999
 30
0.0
 11
29.71758344191999
 21
1.347675595199986
 31
0.0
  0
LINE
  5
578
330
1F
100
AcDbEntity
  8
TitleBlock&Notes
  6
Continuous
 62
     3
100
AcDbLine
 10
29.60287434367995
 20
1.358347288319986
 30
0.0
 11
29.71318907743997
 21
1.360272830399988
 31
0.0
  0
LINE
  5
579
330
1F
100
AcDbEntity
  8
TitleBlock&Notes
  6
Continuous
 62
     3
100
AcDbLine
 10
29.60287434367995
 20
1.371021189119987
 30
0.0
 11
29.70879468128
 21
1.37287006559999
 31
0.0
  0
LINE
  5
57A
330
1F
100
AcDbEntity
  8
TitleBlock&Notes
  6
Continuous
 62
     3
100
AcDbLine
 10
29.60287434367995
 20
1.383695121599983
 30
0.0
 11
29.70440031679996
 21
1.38546726911998
 31
0.0
  0
LINE
  5
57B
330
1F
100
AcDbEntity
  8
TitleBlock&Notes
  6
Continuous
 62
     3
100
AcDbLine
 10
29.60287434367995
 20
1.396369054079978
 30
0.0
 11
29.70000592063999
 21
1.398064504319982
 31
0.0
  0
LINE
  5
57C
330
1F
100
AcDbEntity
  8
TitleBlock&Notes
  6
Continuous
 62
     3
100
AcDbLine
 10
29.60287434367995
 20
1.409042986559991
 30
0.0
 11
29.69561155615997
 21
1.410661739519993
 31
0.0
  0
LINE
  5
57D
330
1F
100
AcDbEntity
  8
TitleBlock&Notes
  6
Continuous
 62
     3
100
AcDbLine
 10
29.60287434367995
 20
1.421716919039995
 30
0.0
 11
29.69121716
 21
1.423258943039984
 31
0.0
  0
LINE
  5
57E
330
1F
100
AcDbEntity
  8
TitleBlock&Notes
  6
Continuous
 62
     3
100
AcDbLine
 10
29.60287434367995
 20
1.434390851519991
 30
0.0
 11
29.68682279551996
 21
1.435856178239994
 31
0.0
  0
LINE
  5
57F
330
1F
100
AcDbEntity
  8
TitleBlock&Notes
  6
Continuous
 62
     3
100
AcDbLine
 10
29.60287434367995
 20
1.447064783999987
 30
0.0
 11
29.68242839935999
 21
1.448453413439987
 31
0.0
  0
LINE
  5
580
330
1F
100
AcDbEntity
  8
TitleBlock&Notes
  6
Continuous
 62
     3
100
AcDbLine
 10
29.60287434367995
 20
1.459738716479991
 30
0.0
 11
29.67803403487996
 21
1.461050648639989
 31
0.0
  0
LINE
  5
581
330
1F
100
AcDbEntity
  8
TitleBlock&Notes
  6
Continuous
 62
     3
100
AcDbLine
 10
29.60287434367995
 20
1.155564400319981
 30
0.0
 11
29.78349916255996
 21
1.158717193919984
 31
0.0
  0
LINE
  5
582
330
1F
100
AcDbEntity
  8
TitleBlock&Notes
  6
Continuous
 62
     3
100
AcDbLine
 10
29.60287434367995
 20
1.168238332799977
 30
0.0
 11
29.77910479807997
 21
1.171314429119986
 31
0.0
  0
LINE
  5
583
330
1F
100
AcDbEntity
  8
TitleBlock&Notes
  6
Continuous
 62
     3
100
AcDbLine
 10
29.60287434367995
 20
1.18091226527999
 30
0.0
 11
29.77471040191995
 21
1.183911664319988
 31
0.0
  0
LINE
  5
584
330
1F
100
AcDbEntity
  8
TitleBlock&Notes
  6
Continuous
 62
     3
100
AcDbLine
 10
29.60287434367995
 20
1.193586166079991
 30
0.0
 11
29.77031603743997
 21
1.19650889951999
 31
0.0
  0
LINE
  5
585
330
1F
100
AcDbEntity
  8
TitleBlock&Notes
  6
Continuous
 62
     3
100
AcDbLine
 10
29.60287434367995
 20
1.206260098559987
 30
0.0
 11
29.76592164127996
 21
1.20910610303999
 31
0.0
  0
LINE
  5
586
330
1F
100
AcDbEntity
  8
TitleBlock&Notes
  6
Continuous
 62
     3
100
AcDbLine
 10
29.60287434367995
 20
1.218934031039982
 30
0.0
 11
29.76152727679997
 21
1.221703338239983
 31
0.0
  0
LINE
  5
587
330
1F
100
AcDbEntity
  8
TitleBlock&Notes
  6
Continuous
 62
     3
100
AcDbLine
 10
29.60287434367995
 20
1.231607963519987
 30
0.0
 11
29.75713288063997
 21
1.234300573439985
 31
0.0
  0
LINE
  5
588
330
1F
100
AcDbEntity
  8
TitleBlock&Notes
  6
Continuous
 62
     3
100
AcDbLine
 10
29.60287434367995
 20
1.244281895999982
 30
0.0
 11
29.75273848448
 21
1.246897776959993
 31
0.0
  0
LINE
  5
589
330
1F
100
AcDbEntity
  8
TitleBlock&Notes
  6
Continuous
 62
     3
100
AcDbLine
 10
29.60287434367995
 20
1.256955828479986
 30
0.0
 11
29.74834411999996
 21
1.259495012159986
 31
0.0
  0
LINE
  5
58A
330
1F
100
AcDbEntity
  8
TitleBlock&Notes
  6
Continuous
 62
     3
100
AcDbLine
 10
29.60287434367995
 20
1.269629760959982
 30
0.0
 11
29.74394972383999
 21
1.272092247359997
 31
0.0
  0
LINE
  5
58B
330
1F
100
AcDbEntity
  8
TitleBlock&Notes
  6
Continuous
 62
     3
100
AcDbLine
 10
29.60287434367995
 20
1.282303693439978
 30
0.0
 11
29.73955535935997
 21
1.28468948255999
 31
0.0
  0
LINE
  5
58C
330
1F
100
AcDbEntity
  8
TitleBlock&Notes
  6
Continuous
 62
     3
100
AcDbLine
 10
29.60287434367995
 20
1.29497762591999
 30
0.0
 11
29.7351609632
 21
1.297286686079989
 31
0.0
  0
LINE
  5
58D
330
1F
100
AcDbEntity
  8
TitleBlock&Notes
  6
Continuous
 62
     3
100
AcDbLine
 10
29.60287434367995
 20
1.307651558399995
 30
0.0
 11
29.73076659871995
 21
1.309883921279983
 31
0.0
  0
LINE
  5
58E
330
1F
100
AcDbEntity
  8
TitleBlock&Notes
  6
Continuous
 62
     3
100
AcDbLine
 10
29.60287434367995
 20
1.32032549087999
 30
0.0
 11
29.72637220256
 21
1.322481156479985
 31
0.0
  0
LINE
  5
58F
330
1F
100
AcDbEntity
  8
TitleBlock&Notes
  6
Continuous
 62
     3
100
AcDbLine
 10
29.60287434367995
 20
1.332999423359986
 30
0.0
 11
29.72197783807996
 21
1.335078359999984
 31
0.0
  0
LINE
  5
590
330
1F
100
AcDbEntity
  8
TitleBlock&Notes
  6
Continuous
 62
     3
100
AcDbLine
 10
29.58703434367995
 20
1.770007916159984
 30
0.0
 11
29.79754379359997
 21
1.166547412799981
 31
0.0
  0
LINE
  5
591
330
1F
100
AcDbEntity
  8
TitleBlock&Notes
  6
Continuous
 62
     3
100
AcDbLine
 10
29.78629327519996
 20
1.150707412799984
 30
0.0
 11
29.60287434367995
 21
1.676508419519983
 31
0.0
  0
LINE
  5
592
330
1F
100
AcDbEntity
  8
TitleBlock&Notes
  6
Continuous
 62
     3
100
AcDbLine
 10
29.57119434367997
 20
1.863507412799994
 30
0.0
 11
29.80879434367998
 21
1.182387412799978
 31
0.0
  0
LINE
  5
593
330
1F
100
AcDbEntity
  8
TitleBlock&Notes
  6
Continuous
 62
     3
100
AcDbLine
 10
28.95199999999999
 20
1.118855485439986
 30
0.0
 11
31.08666172831999
 21
1.15611613919999
 31
0.0
  0
LINE
  5
594
330
1F
100
AcDbEntity
  8
TitleBlock&Notes
  6
Continuous
 62
     3
100
AcDbLine
 10
28.95199999999999
 20
1.131529417919991
 30
0.0
 11
30.05070668863998
 21
1.150707412799984
 31
0.0
  0
LINE
  5
595
330
1F
100
AcDbEntity
  8
TitleBlock&Notes
  6
Continuous
 62
     3
100
AcDbLine
 10
28.95199999999999
 20
1.080833687999982
 30
0.0
 11
32.95506259231996
 21
1.150707412799984
 31
0.0
  0
LINE
  5
596
330
1F
100
AcDbEntity
  8
TitleBlock&Notes
  6
Continuous
 62
     3
100
AcDbLine
 10
28.95199999999999
 20
1.093507620479978
 30
0.0
 11
32.22897362431999
 21
1.150707412799984
 31
0.0
  0
LINE
  5
597
330
1F
100
AcDbEntity
  8
TitleBlock&Notes
  6
Continuous
 62
     3
100
AcDbLine
 10
28.95199999999999
 20
1.106181552959991
 30
0.0
 11
31.86799434367995
 21
1.157080415039983
 31
0.0
  0
TEXT
  5
598
330
1F
100
AcDbEntity
  8
TitleBlock&Notes
  6
Continuous
 62
     3
100
AcDbText
 10
28.98640600063996
 20
0.4126115347199957
 30
0.0
 40
0.22176
  1
The
 41
0.8
 51
11.0
100
AcDbText
  0
LINE
  5
599
330
1F
100
AcDbEntity
  8
TitleBlock&Notes
  6
Continuous
 62
     3
100
AcDbLine
 10
29.31775434367998
 20
1.166547412799981
 30
0.0
 11
29.31775434367998
 21
2.592147412799984
 31
0.0
  0
LINE
  5
59A
330
1F
100
AcDbEntity
  8
TitleBlock&Notes
  6
Continuous
 62
     3
100
AcDbLine
 10
29.33359434367996
 20
1.182387412799978
 30
0.0
 11
29.33359434367996
 21
2.576307412799987
 31
0.0
  0
LINE
  5
59B
330
1F
100
AcDbEntity
  8
TitleBlock&Notes
  6
Continuous
 62
     3
100
AcDbLine
 10
29.30191434367995
 20
1.150707412799984
 30
0.0
 11
29.30191434367995
 21
2.60798741279999
 31
0.0
  0
LINE
  5
59C
330
1F
100
AcDbEntity
  8
TitleBlock&Notes
  6
Continuous
 62
     3
100
AcDbLine
 10
29.58703434367995
 20
1.770007916159984
 30
0.0
 11
29.58703434367995
 21
1.166547412799981
 31
0.0
  0
LINE
  5
59D
330
1F
100
AcDbEntity
  8
TitleBlock&Notes
  6
Continuous
 62
     3
100
AcDbLine
 10
29.60287434367995
 20
1.150707412799984
 30
0.0
 11
29.60287434367995
 21
1.676508419519983
 31
0.0
  0
LINE
  5
59E
330
1F
100
AcDbEntity
  8
TitleBlock&Notes
  6
Continuous
 62
     3
100
AcDbLine
 10
29.57119434367997
 20
1.182387412799978
 30
0.0
 11
29.57119434367997
 21
1.863507412799994
 31
0.0
  0
LINE
  5
59F
330
1F
100
AcDbEntity
  8
TitleBlock&Notes
  6
Continuous
 62
     3
100
AcDbLine
 10
28.95199999999999
 20
2.191532587199988
 30
0.0
 11
29.30191434367995
 21
2.191532587199988
 31
0.0
  0
LINE
  5
5A0
330
1F
100
AcDbEntity
  8
TitleBlock&Notes
  6
Continuous
 62
     3
100
AcDbLine
 10
28.95199999999999
 20
2.176690380479995
 30
0.0
 11
29.30191434367995
 21
2.176690380479995
 31
0.0
  0
LINE
  5
5A1
330
1F
100
AcDbEntity
  8
TitleBlock&Notes
  6
Continuous
 62
     3
100
AcDbLine
 10
28.95199999999999
 20
2.160850380479981
 30
0.0
 11
29.30191434367995
 21
2.160850380479981
 31
0.0
  0
LINE
  5
5A2
330
1F
100
AcDbEntity
  8
TitleBlock&Notes
  6
Continuous
 62
     3
100
AcDbLine
 10
28.95199999999999
 20
2.207372587199994
 30
0.0
 11
29.30191434367995
 21
2.207372587199994
 31
0.0
  0
LINE
  5
5A3
330
1F
100
AcDbEntity
  8
TitleBlock&Notes
  6
Continuous
 62
     3
100
AcDbLine
 10
28.95199999999999
 20
2.426139207359993
 30
0.0
 11
29.30191434367995
 21
2.426139207359993
 31
0.0
  0
LINE
  5
5A4
330
1F
100
AcDbEntity
  8
TitleBlock&Notes
  6
Continuous
 62
     3
100
AcDbLine
 10
28.95199999999999
 20
2.441979207359982
 30
0.0
 11
29.30191434367995
 21
2.441979207359982
 31
0.0
  0
LINE
  5
5A5
330
1F
100
AcDbEntity
  8
TitleBlock&Notes
  6
Continuous
 62
     3
100
AcDbLine
 10
28.95199999999999
 20
2.457819207359996
 30
0.0
 11
29.30191434367995
 21
2.457819207359996
 31
0.0
  0
LINE
  5
5A6
330
1F
100
AcDbEntity
  8
TitleBlock&Notes
  6
Continuous
 62
     3
100
AcDbLine
 10
28.95199999999999
 20
2.410299207359996
 30
0.0
 11
29.30191434367995
 21
2.410299207359996
 31
0.0
  0
LINE
  5
5A7
330
1F
100
AcDbEntity
  8
TitleBlock&Notes
  6
Continuous
 62
     3
100
AcDbLine
 10
28.95199999999999
 20
2.223212587199983
 30
0.0
 11
29.30191434367995
 21
2.223212587199983
 31
0.0
  0
LINE
  5
5A8
330
1F
100
AcDbEntity
  8
TitleBlock&Notes
  6
Continuous
 62
     3
100
AcDbLine
 10
29.60287434367995
 20
1.586478009599987
 30
0.0
 11
29.63409019999998
 21
1.587022905599984
 31
0.0
  0
LINE
  5
5A9
330
1F
100
AcDbEntity
  8
TitleBlock&Notes
  6
Continuous
 62
     3
100
AcDbLine
 10
29.60287434367995
 20
1.599151942079991
 30
0.0
 11
29.62969583551998
 21
1.599620109119991
 31
0.0
  0
LINE
  5
5AA
330
1F
100
AcDbEntity
  8
TitleBlock&Notes
  6
Continuous
 62
     3
100
AcDbLine
 10
29.60287434367995
 20
1.611825874559987
 30
0.0
 11
29.62530143935998
 21
1.612217344319985
 31
0.0
  0
LINE
  5
5AB
330
1F
100
AcDbEntity
  8
TitleBlock&Notes
  6
Continuous
 62
     3
100
AcDbLine
 10
29.60287434367995
 20
1.624499807039983
 30
0.0
 11
29.62090707488
 21
1.624814579519987
 31
0.0
  0
LINE
  5
5AC
330
1F
100
AcDbEntity
  8
TitleBlock&Notes
  6
Continuous
 62
     3
100
AcDbLine
 10
29.60287434367995
 20
1.637173739519987
 30
0.0
 11
29.61651267871999
 21
1.637411783039986
 31
0.0
  0
LINE
  5
5AD
330
1F
100
AcDbEntity
  8
TitleBlock&Notes
  6
Continuous
 62
     3
100
AcDbLine
 10
29.60287434367995
 20
1.649847671999983
 30
0.0
 11
29.61211831423998
 21
1.650009018239988
 31
0.0
  0
LINE
  5
5AE
330
1F
100
AcDbEntity
  8
TitleBlock&Notes
  6
Continuous
 62
     3
100
AcDbLine
 10
29.60287434367995
 20
1.662521604479995
 30
0.0
 11
29.60772391807998
 21
1.662606253439982
 31
0.0
  0
LINE
  5
5AF
330
1F
100
AcDbEntity
  8
TitleBlock&Notes
  6
Continuous
 62
     3
100
AcDbLine
 10
29.60287434367995
 20
1.675195536959991
 30
0.0
 11
29.60332955359999
 21
1.675203488639992
 31
0.0
  0
LINE
  5
5B0
330
1F
100
AcDbEntity
  8
TitleBlock&Notes
  6
Continuous
 62
     3
100
AcDbLine
 10
29.18286635263998
 20
1.630771655039986
 30
0.0
 11
29.30191434367995
 21
1.63284964127999
 31
0.0
  0
LINE
  5
5B1
330
1F
100
AcDbEntity
  8
TitleBlock&Notes
  6
Continuous
 62
     3
100
AcDbLine
 10
28.95199999999999
 20
1.639415796479984
 30
0.0
 11
29.30191434367995
 21
1.645523573759994
 31
0.0
  0
LINE
  5
5B2
330
1F
100
AcDbEntity
  8
TitleBlock&Notes
  6
Continuous
 62
     3
100
AcDbLine
 10
28.95199999999999
 20
1.630771655039986
 30
0.0
 11
29.30191434367995
 21
1.630771655039986
 31
0.0
  0
LINE
  5
5B3
330
1F
100
AcDbEntity
  8
TitleBlock&Notes
  6
Continuous
 62
     3
100
AcDbLine
 10
28.95199999999999
 20
1.946401015679991
 30
0.0
 11
29.30191434367995
 21
1.952508792959993
 31
0.0
  0
LINE
  5
5B4
330
1F
100
AcDbEntity
  8
TitleBlock&Notes
  6
Continuous
 62
     3
100
AcDbLine
 10
28.95199999999999
 20
1.959074948159987
 30
0.0
 11
29.30191434367995
 21
1.965182725439989
 31
0.0
  0
LINE
  5
5B5
330
1F
100
AcDbEntity
  8
TitleBlock&Notes
  6
Continuous
 62
     3
100
AcDbLine
 10
28.95199999999999
 20
1.971748880639991
 30
0.0
 11
29.30191434367995
 21
1.977856657919984
 31
0.0
  0
LINE
  5
5B6
330
1F
100
AcDbEntity
  8
TitleBlock&Notes
  6
Continuous
 62
     3
100
AcDbLine
 10
28.95199999999999
 20
1.984422813119987
 30
0.0
 11
29.30191434367995
 21
1.990530590399989
 31
0.0
  0
LINE
  5
5B7
330
1F
100
AcDbEntity
  8
TitleBlock&Notes
  6
Continuous
 62
     3
100
AcDbLine
 10
28.95199999999999
 20
1.997096745599982
 30
0.0
 11
29.30191434367995
 21
2.003204522879993
 31
0.0
  0
LINE
  5
5B8
330
1F
100
AcDbEntity
  8
TitleBlock&Notes
  6
Continuous
 62
     3
100
AcDbLine
 10
28.95199999999999
 20
2.009770678079986
 30
0.0
 11
29.30191434367995
 21
2.015878455359988
 31
0.0
  0
LINE
  5
5B9
330
1F
100
AcDbEntity
  8
TitleBlock&Notes
  6
Continuous
 62
     3
100
AcDbLine
 10
28.95199999999999
 20
2.022444610559982
 30
0.0
 11
29.30191434367995
 21
2.028552387839984
 31
0.0
  0
LINE
  5
5BA
330
1F
100
AcDbEntity
  8
TitleBlock&Notes
  6
Continuous
 62
     3
100
AcDbLine
 10
28.95199999999999
 20
2.035118543039995
 30
0.0
 11
29.30191434367995
 21
2.041226320319988
 31
0.0
  0
LINE
  5
5BB
330
1F
100
AcDbEntity
  8
TitleBlock&Notes
  6
Continuous
 62
     3
100
AcDbLine
 10
28.95199999999999
 20
2.04779247551999
 30
0.0
 11
29.30191434367995
 21
2.053900252799984
 31
0.0
  0
LINE
  5
5BC
330
1F
100
AcDbEntity
  8
TitleBlock&Notes
  6
Continuous
 62
     3
100
AcDbLine
 10
28.95199999999999
 20
2.060466407999986
 30
0.0
 11
29.30191434367995
 21
2.066574185279996
 31
0.0
  0
LINE
  5
5BD
330
1F
100
AcDbEntity
  8
TitleBlock&Notes
  6
Continuous
 62
     3
100
AcDbLine
 10
28.95199999999999
 20
2.07314034047999
 30
0.0
 11
29.30191434367995
 21
2.079248117759984
 31
0.0
  0
LINE
  5
5BE
330
1F
100
AcDbEntity
  8
TitleBlock&Notes
  6
Continuous
 62
     3
100
AcDbLine
 10
28.95199999999999
 20
2.085814272959986
 30
0.0
 11
29.30191434367995
 21
2.091922050239979
 31
0.0
  0
LINE
  5
5BF
330
1F
100
AcDbEntity
  8
TitleBlock&Notes
  6
Continuous
 62
     3
100
AcDbLine
 10
28.95199999999999
 20
1.652089728959988
 30
0.0
 11
29.30191434367995
 21
1.65819750623999
 31
0.0
  0
LINE
  5
5C0
330
1F
100
AcDbEntity
  8
TitleBlock&Notes
  6
Continuous
 62
     3
100
AcDbLine
 10
28.95199999999999
 20
1.664763661439984
 30
0.0
 11
29.30191434367995
 21
1.670871438719986
 31
0.0
  0
LINE
  5
5C1
330
1F
100
AcDbEntity
  8
TitleBlock&Notes
  6
Continuous
 62
     3
100
AcDbLine
 10
28.95199999999999
 20
1.677437593919988
 30
0.0
 11
29.30191434367995
 21
1.68354537119999
 31
0.0
  0
LINE
  5
5C2
330
1F
100
AcDbEntity
  8
TitleBlock&Notes
  6
Continuous
 62
     3
100
AcDbLine
 10
28.95199999999999
 20
1.690111526399983
 30
0.0
 11
29.30191434367995
 21
1.696219303679986
 31
0.0
  0
LINE
  5
5C3
330
1F
100
AcDbEntity
  8
TitleBlock&Notes
  6
Continuous
 62
     3
100
AcDbLine
 10
28.95199999999999
 20
1.702785458879979
 30
0.0
 11
29.30191434367995
 21
1.70889323615999
 31
0.0
  0
LINE
  5
5C4
330
1F
100
AcDbEntity
  8
TitleBlock&Notes
  6
Continuous
 62
     3
100
AcDbLine
 10
28.95199999999999
 20
1.715459391359992
 30
0.0
 11
29.30191434367995
 21
1.721567168639985
 31
0.0
  0
LINE
  5
5C5
330
1F
100
AcDbEntity
  8
TitleBlock&Notes
  6
Continuous
 62
     3
100
AcDbLine
 10
28.95199999999999
 20
1.728133323839988
 30
0.0
 11
29.30191434367995
 21
1.734241101119981
 31
0.0
  0
LINE
  5
5C6
330
1F
100
AcDbEntity
  8
TitleBlock&Notes
  6
Continuous
 62
     3
100
AcDbLine
 10
28.95199999999999
 20
1.740807224639989
 30
0.0
 11
29.30191434367995
 21
1.746915001919982
 31
0.0
  0
LINE
  5
5C7
330
1F
100
AcDbEntity
  8
TitleBlock&Notes
  6
Continuous
 62
     3
100
AcDbLine
 10
28.95199999999999
 20
1.753481157119985
 30
0.0
 11
29.30191434367995
 21
1.759588934399995
 31
0.0
  0
LINE
  5
5C8
330
1F
100
AcDbEntity
  8
TitleBlock&Notes
  6
Continuous
 62
     3
100
AcDbLine
 10
28.95199999999999
 20
1.766155089599989
 30
0.0
 11
29.30191434367995
 21
1.772262866879991
 31
0.0
  0
LINE
  5
5C9
330
1F
100
AcDbEntity
  8
TitleBlock&Notes
  6
Continuous
 62
     3
100
AcDbLine
 10
28.95199999999999
 20
1.778829022079984
 30
0.0
 11
29.30191434367995
 21
1.784936799359987
 31
0.0
  0
LINE
  5
5CA
330
1F
100
AcDbEntity
  8
TitleBlock&Notes
  6
Continuous
 62
     3
100
AcDbLine
 10
28.95199999999999
 20
1.791502954559989
 30
0.0
 11
29.30191434367995
 21
1.79761073183999
 31
0.0
  0
LINE
  5
5CB
330
1F
100
AcDbEntity
  8
TitleBlock&Notes
  6
Continuous
 62
     3
100
AcDbLine
 10
28.95199999999999
 20
1.804176887039984
 30
0.0
 11
29.30191434367995
 21
1.810284664319986
 31
0.0
  0
LINE
  5
5CC
330
1F
100
AcDbEntity
  8
TitleBlock&Notes
  6
Continuous
 62
     3
100
AcDbLine
 10
28.95199999999999
 20
1.81685081951998
 30
0.0
 11
29.30191434367995
 21
1.82295859679999
 31
0.0
  0
LINE
  5
5CD
330
1F
100
AcDbEntity
  8
TitleBlock&Notes
  6
Continuous
 62
     3
100
AcDbLine
 10
28.95199999999999
 20
1.829524751999984
 30
0.0
 11
29.30191434367995
 21
1.835632529279986
 31
0.0
  0
LINE
  5
5CE
330
1F
100
AcDbEntity
  8
TitleBlock&Notes
  6
Continuous
 62
     3
100
AcDbLine
 10
28.95199999999999
 20
1.84219868447998
 30
0.0
 11
29.30191434367995
 21
1.848306461759982
 31
0.0
  0
LINE
  5
5CF
330
1F
100
AcDbEntity
  8
TitleBlock&Notes
  6
Continuous
 62
     3
100
AcDbLine
 10
28.95199999999999
 20
1.854872616959993
 30
0.0
 11
29.30191434367995
 21
1.860980394239986
 31
0.0
  0
LINE
  5
5D0
330
1F
100
AcDbEntity
  8
TitleBlock&Notes
  6
Continuous
 62
     3
100
AcDbLine
 10
28.95199999999999
 20
1.867546549439989
 30
0.0
 11
29.30191434367995
 21
1.873654326719982
 31
0.0
  0
LINE
  5
5D1
330
1F
100
AcDbEntity
  8
TitleBlock&Notes
  6
Continuous
 62
     3
100
AcDbLine
 10
28.95199999999999
 20
2.098488173759987
 30
0.0
 11
29.30191434367995
 21
2.098488173759987
 31
0.0
  0
LINE
  5
5D2
330
1F
100
AcDbEntity
  8
TitleBlock&Notes
  6
Continuous
 62
     3
100
AcDbLine
 10
28.95199999999999
 20
1.942582688639986
 30
0.0
 11
29.30191434367995
 21
1.942582688639986
 31
0.0
  0
LINE
  5
5D3
330
1F
100
AcDbEntity
  8
TitleBlock&Notes
  6
Continuous
 62
     3
100
AcDbLine
 10
28.95199999999999
 20
1.880220481919984
 30
0.0
 11
29.30191434367995
 21
1.880220481919984
 31
0.0
  0
LINE
  5
5D4
330
1F
100
AcDbEntity
  8
TitleBlock&Notes
  6
Continuous
 62
     3
100
AcDbLine
 10
29.60287434367995
 20
1.472412648959986
 30
0.0
 11
29.67363963871999
 21
1.47364785215998
 31
0.0
  0
LINE
  5
5D5
330
1F
100
AcDbEntity
  8
TitleBlock&Notes
  6
Continuous
 62
     3
100
AcDbLine
 10
29.60287434367995
 20
1.485086581439991
 30
0.0
 11
29.66924524255998
 21
1.486245087359991
 31
0.0
  0
LINE
  5
5D6
330
1F
100
AcDbEntity
  8
TitleBlock&Notes
  6
Continuous
 62
     3
100
AcDbLine
 10
29.60287434367995
 20
1.497760513919986
 30
0.0
 11
29.66485087807999
 21
1.498842322559984
 31
0.0
  0
LINE
  5
5D7
330
1F
100
AcDbEntity
  8
TitleBlock&Notes
  6
Continuous
 62
     3
100
AcDbLine
 10
29.60287434367995
 20
1.510434446399982
 30
0.0
 11
29.66045648191999
 21
1.511439526079992
 31
0.0
  0
LINE
  5
5D8
330
1F
100
AcDbEntity
  8
TitleBlock&Notes
  6
Continuous
 62
     3
100
AcDbLine
 10
29.60287434367995
 20
1.523108378879986
 30
0.0
 11
29.65606211743999
 21
1.524036761279985
 31
0.0
  0
LINE
  5
5D9
330
1F
100
AcDbEntity
  8
TitleBlock&Notes
  6
Continuous
 62
     3
100
AcDbLine
 10
29.60287434367995
 20
1.535782311359982
 30
0.0
 11
29.65166772127998
 21
1.536633996479987
 31
0.0
  0
LINE
  5
5DA
330
1F
100
AcDbEntity
  8
TitleBlock&Notes
  6
Continuous
 62
     3
100
AcDbLine
 10
29.60287434367995
 20
1.548456243839994
 30
0.0
 11
29.64727335679999
 21
1.549231231679981
 31
0.0
  0
LINE
  5
5DB
330
1F
100
AcDbEntity
  8
TitleBlock&Notes
  6
Continuous
 62
     3
100
AcDbLine
 10
29.60287434367995
 20
1.561130144639987
 30
0.0
 11
29.64287896063999
 21
1.561828435199989
 31
0.0
  0
LINE
  5
5DC
330
1F
100
AcDbEntity
  8
TitleBlock&Notes
  6
Continuous
 62
     3
100
AcDbLine
 10
29.60287434367995
 20
1.573804077119992
 30
0.0
 11
29.63848459616
 21
1.574425670399991
 31
0.0
  0
LINE
  5
5DD
330
1F
100
AcDbEntity
  8
TitleBlock&Notes
  6
Continuous
 62
     3
100
AcDbLine
 10
29.31775434367998
 20
1.166547412799981
 30
0.0
 11
29.58703434367995
 21
1.166547412799981
 31
0.0
  0
LINE
  5
5DE
330
1F
100
AcDbEntity
  8
TitleBlock&Notes
  6
Continuous
 62
     3
100
AcDbLine
 10
29.33359434367996
 20
1.182387412799978
 30
0.0
 11
29.57119434367997
 21
1.182387412799978
 31
0.0
  0
LINE
  5
5DF
330
1F
100
AcDbEntity
  8
TitleBlock&Notes
  6
Continuous
 62
     3
100
AcDbLine
 10
29.30191434367995
 20
1.150707412799984
 30
0.0
 11
29.60287434367995
 21
1.150707412799984
 31
0.0
  0
LINE
  5
5E0
330
1F
100
AcDbEntity
  8
TitleBlock&Notes
  6
Continuous
 62
     3
100
AcDbLine
 10
28.95199999999999
 20
1.156877251199988
 30
0.0
 11
29.30191434367995
 21
1.16298502847999
 31
0.0
  0
LINE
  5
5E1
330
1F
100
AcDbEntity
  8
TitleBlock&Notes
  6
Continuous
 62
     3
100
AcDbLine
 10
28.95199999999999
 20
1.169551183679983
 30
0.0
 11
29.30191434367995
 21
1.175658960959985
 31
0.0
  0
LINE
  5
5E2
330
1F
100
AcDbEntity
  8
TitleBlock&Notes
  6
Continuous
 62
     3
100
AcDbLine
 10
28.95199999999999
 20
1.182225116159988
 30
0.0
 11
29.30191434367995
 21
1.188332893439989
 31
0.0
  0
LINE
  5
5E3
330
1F
100
AcDbEntity
  8
TitleBlock&Notes
  6
Continuous
 62
     3
100
AcDbLine
 10
28.95199999999999
 20
1.194899048639983
 30
0.0
 11
29.30191434367995
 21
1.201006825919985
 31
0.0
  0
LINE
  5
5E4
330
1F
100
AcDbEntity
  8
TitleBlock&Notes
  6
Continuous
 62
     3
100
AcDbLine
 10
28.95199999999999
 20
1.207572981119979
 30
0.0
 11
29.30191434367995
 21
1.213680758399989
 31
0.0
  0
LINE
  5
5E5
330
1F
100
AcDbEntity
  8
TitleBlock&Notes
  6
Continuous
 62
     3
100
AcDbLine
 10
28.95199999999999
 20
1.220246913599992
 30
0.0
 11
29.30191434367995
 21
1.226354690879985
 31
0.0
  0
LINE
  5
5E6
330
1F
100
AcDbEntity
  8
TitleBlock&Notes
  6
Continuous
 62
     3
100
AcDbLine
 10
28.95199999999999
 20
1.232920846079987
 30
0.0
 11
29.30191434367995
 21
1.23902862335998
 31
0.0
  0
LINE
  5
5E7
330
1F
100
AcDbEntity
  8
TitleBlock&Notes
  6
Continuous
 62
     3
100
AcDbLine
 10
28.95199999999999
 20
1.245594778559991
 30
0.0
 11
29.30191434367995
 21
1.251702555839993
 31
0.0
  0
LINE
  5
5E8
330
1F
100
AcDbEntity
  8
TitleBlock&Notes
  6
Continuous
 62
     3
100
AcDbLine
 10
28.95199999999999
 20
1.258268711039987
 30
0.0
 11
29.30191434367995
 21
1.26437648831998
 31
0.0
  0
LINE
  5
5E9
330
1F
100
AcDbEntity
  8
TitleBlock&Notes
  6
Continuous
 62
     3
100
AcDbLine
 10
28.95199999999999
 20
1.270942643519983
 30
0.0
 11
29.30191434367995
 21
1.277050420799993
 31
0.0
  0
LINE
  5
5EA
330
1F
100
AcDbEntity
  8
TitleBlock&Notes
  6
Continuous
 62
     3
100
AcDbLine
 10
28.95199999999999
 20
1.283616575999987
 30
0.0
 11
29.30191434367995
 21
1.289724353279989
 31
0.0
  0
LINE
  5
5EB
330
1F
100
AcDbEntity
  8
TitleBlock&Notes
  6
Continuous
 62
     3
100
AcDbLine
 10
28.95199999999999
 20
1.296290508479991
 30
0.0
 11
29.30191434367995
 21
1.302398285759984
 31
0.0
  0
LINE
  5
5EC
330
1F
100
AcDbEntity
  8
TitleBlock&Notes
  6
Continuous
 62
     3
100
AcDbLine
 10
28.95199999999999
 20
1.308964440959987
 30
0.0
 11
29.30191434367995
 21
1.315072218239988
 31
0.0
  0
LINE
  5
5ED
330
1F
100
AcDbEntity
  8
TitleBlock&Notes
  6
Continuous
 62
     3
100
AcDbLine
 10
28.95199999999999
 20
1.321638373439982
 30
0.0
 11
29.30191434367995
 21
1.327746150719984
 31
0.0
  0
LINE
  5
5EE
330
1F
100
AcDbEntity
  8
TitleBlock&Notes
  6
Continuous
 62
     3
100
AcDbLine
 10
28.95199999999999
 20
1.334312274239992
 30
0.0
 11
29.30191434367995
 21
1.340420051519986
 31
0.0
  0
LINE
  5
5EF
330
1F
100
AcDbEntity
  8
TitleBlock&Notes
  6
Continuous
 62
     3
100
AcDbLine
 10
28.95199999999999
 20
1.34698620671998
 30
0.0
 11
29.30191434367995
 21
1.353093983999981
 31
0.0
  0
LINE
  5
5F0
330
1F
100
AcDbEntity
  8
TitleBlock&Notes
  6
Continuous
 62
     3
100
AcDbLine
 10
28.95199999999999
 20
1.359660139199992
 30
0.0
 11
29.30191434367995
 21
1.365767916479986
 31
0.0
  0
LINE
  5
5F1
330
1F
100
AcDbEntity
  8
TitleBlock&Notes
  6
Continuous
 62
     3
100
AcDbLine
 10
28.95199999999999
 20
1.372334071679988
 30
0.0
 11
29.30191434367995
 21
1.378441848959981
 31
0.0
  0
LINE
  5
5F2
330
1F
100
AcDbEntity
  8
TitleBlock&Notes
  6
Continuous
 62
     3
100
AcDbLine
 10
28.95199999999999
 20
1.385008004159983
 30
0.0
 11
29.30191434367995
 21
1.391115781439994
 31
0.0
  0
LINE
  5
5F3
330
1F
100
AcDbEntity
  8
TitleBlock&Notes
  6
Continuous
 62
     3
100
AcDbLine
 10
28.95199999999999
 20
1.397681936639988
 30
0.0
 11
29.30191434367995
 21
1.403789713919989
 31
0.0
  0
LINE
  5
5F4
330
1F
100
AcDbEntity
  8
TitleBlock&Notes
  6
Continuous
 62
     3
100
AcDbLine
 10
28.95199999999999
 20
1.410355869119992
 30
0.0
 11
29.30191434367995
 21
1.416463646399985
 31
0.0
  0
LINE
  5
5F5
330
1F
100
AcDbEntity
  8
TitleBlock&Notes
  6
Continuous
 62
     3
100
AcDbLine
 10
28.95199999999999
 20
1.423029801599987
 30
0.0
 11
29.30191434367995
 21
1.429137578879989
 31
0.0
  0
LINE
  5
5F6
330
1F
100
AcDbEntity
  8
TitleBlock&Notes
  6
Continuous
 62
     3
100
AcDbLine
 10
28.95199999999999
 20
1.435703734079983
 30
0.0
 11
29.30191434367995
 21
1.441811511359985
 31
0.0
  0
LINE
  5
5F7
330
1F
100
AcDbEntity
  8
TitleBlock&Notes
  6
Continuous
 62
     3
100
AcDbLine
 10
28.95199999999999
 20
1.448377666559987
 30
0.0
 11
29.30191434367995
 21
1.454485443839989
 31
0.0
  0
LINE
  5
5F8
330
1F
100
AcDbEntity
  8
TitleBlock&Notes
  6
Continuous
 62
     3
100
AcDbLine
 10
28.95199999999999
 20
1.461051599039983
 30
0.0
 11
29.30191434367995
 21
1.467159376319985
 31
0.0
  0
LINE
  5
5F9
330
1F
100
AcDbEntity
  8
TitleBlock&Notes
  6
Continuous
 62
     3
100
AcDbLine
 10
28.95199999999999
 20
1.473725531519995
 30
0.0
 11
29.30191434367995
 21
1.47983330879998
 31
0.0
  0
LINE
  5
5FA
330
1F
100
AcDbEntity
  8
TitleBlock&Notes
  6
Continuous
 62
     3
100
AcDbLine
 10
28.95199999999999
 20
1.486399463999991
 30
0.0
 11
29.30191434367995
 21
1.492507241279985
 31
0.0
  0
LINE
  5
5FB
330
1F
100
AcDbEntity
  8
TitleBlock&Notes
  6
Continuous
 62
     3
100
AcDbLine
 10
28.95199999999999
 20
1.499073396479987
 30
0.0
 11
29.30191434367995
 21
1.505181173759997
 31
0.0
  0
LINE
  5
5FC
330
1F
100
AcDbEntity
  8
TitleBlock&Notes
  6
Continuous
 62
     3
100
AcDbLine
 10
28.95199999999999
 20
1.511747328959991
 30
0.0
 11
29.30191434367995
 21
1.517855106239993
 31
0.0
  0
LINE
  5
5FD
330
1F
100
AcDbEntity
  8
TitleBlock&Notes
  6
Continuous
 62
     3
100
AcDbLine
 10
28.95199999999999
 20
1.524421229759993
 30
0.0
 11
29.30191434367995
 21
1.530529007039986
 31
0.0
  0
LINE
  5
5FE
330
1F
100
AcDbEntity
  8
TitleBlock&Notes
  6
Continuous
 62
     3
100
AcDbLine
 10
28.95199999999999
 20
1.537095162239988
 30
0.0
 11
29.30191434367995
 21
1.54320293951999
 31
0.0
  0
LINE
  5
5FF
330
1F
100
AcDbEntity
  8
TitleBlock&Notes
  6
Continuous
 62
     3
100
AcDbLine
 10
28.95199999999999
 20
1.549769094719984
 30
0.0
 11
29.30191434367995
 21
1.555876871999986
 31
0.0
  0
LINE
  5
600
330
1F
100
AcDbEntity
  8
TitleBlock&Notes
  6
Continuous
 62
     3
100
AcDbLine
 10
28.95199999999999
 20
1.562443027199988
 30
0.0
 11
29.29381560511998
 21
1.568409448319992
 31
0.0
  0
LINE
  5
601
330
1F
100
AcDbEntity
  8
TitleBlock&Notes
  6
Continuous
 62
     3
100
AcDbLine
 10
28.95199999999999
 20
1.568409448319992
 30
0.0
 11
29.30191434367995
 21
1.568409448319992
 31
0.0
  0
LINE
  5
602
330
1F
100
AcDbEntity
  8
TitleBlock&Notes
  6
Continuous
 62
     3
100
AcDbLine
 10
28.95199999999999
 20
1.144203350399986
 30
0.0
 11
29.32461772063996
 21
1.150707412799984
 31
0.0
  0
TEXT
  5
603
330
1F
100
AcDbEntity
  8
TitleBlock&Notes
  6
Continuous
 62
     3
100
AcDbText
 10
31.10073464959997
 20
0.4126115347199951
 30
0.0
 40
0.22176
  1
 AIR
 41
1.098901099999999
 51
11.0
100
AcDbText
  0
TEXT
  5
604
330
1F
100
AcDbEntity
  8
TitleBlock&Notes
  6
Continuous
 62
     3
100
AcDbText
 10
30.52875899743997
 20
0.4126115347199951
 30
0.0
 40
0.22176
  1
 of
 41
1.098901099999999
 51
11.0
100
AcDbText
  0
TEXT
  5
605
330
1F
100
AcDbEntity
  8
TitleBlock&Notes
  6
Continuous
 62
     3
100
AcDbText
 10
29.57170854175995
 20
0.4126115347199866
 30
0.0
 40
0.22176
  1
 SPEED
 41
0.8
 51
11.0
100
AcDbText
  0
ARC
  5
606
330
1F
100
AcDbEntity
  8
TitleBlock&Notes
  6
Continuous
 62
     3
100
AcDbCircle
 10
31.31359434367997
 20
1.578387412799984
 30
0.0
 40
0.14256
100
AcDbArc
 50
270.0000000000008
 51
359.9999953200008
  0
LINE
  5
607
330
1F
100
AcDbEntity
  8
TitleBlock&Notes
  6
Continuous
 62
     3
100
AcDbLine
 10
31.36113328831996
 20
1.630771655039986
 30
0.0
 11
31.44031434367998
 21
1.632153758399992
 31
0.0
  0
ARC
  5
608
330
1F
100
AcDbEntity
  8
TitleBlock&Notes
  6
Continuous
 62
     3
100
AcDbCircle
 10
31.31359434367997
 20
1.578387412799984
 30
0.0
 40
0.12672
100
AcDbArc
 50
270.0000000000008
 51
0.0000000000008015
  0
ARC
  5
609
330
1F
100
AcDbEntity
  8
TitleBlock&Notes
  6
Continuous
 62
     3
100
AcDbCircle
 10
31.31359434367997
 20
1.578387412799984
 30
0.0
 40
0.1584
100
AcDbArc
 50
270.0000000000008
 51
359.9999953200008
  0
LINE
  5
60A
330
1F
100
AcDbEntity
  8
TitleBlock&Notes
  6
Continuous
 62
     3
100
AcDbLine
 10
31.44031434367998
 20
2.175692587199991
 30
0.0
 11
31.02847434367995
 21
2.175692587199991
 31
0.0
  0
LINE
  5
60B
330
1F
100
AcDbEntity
  8
TitleBlock&Notes
  6
Continuous
 62
     3
100
AcDbLine
 10
31.44031434367998
 20
2.191532587199988
 30
0.0
 11
31.02847434367995
 21
2.191532587199988
 31
0.0
  0
LINE
  5
60C
330
1F
100
AcDbEntity
  8
TitleBlock&Notes
  6
Continuous
 62
     3
100
AcDbLine
 10
31.44031434367998
 20
2.207372587199994
 30
0.0
 11
31.02847434367995
 21
2.207372587199994
 31
0.0
  0
LINE
  5
60D
330
1F
100
AcDbEntity
  8
TitleBlock&Notes
  6
Continuous
 62
     3
100
AcDbLine
 10
31.44031434367998
 20
2.426139207359985
 30
0.0
 11
31.02847434367995
 21
2.426139207359985
 31
0.0
  0
LINE
  5
60E
330
1F
100
AcDbEntity
  8
TitleBlock&Notes
  6
Continuous
 62
     3
100
AcDbLine
 10
31.44031434367998
 20
2.441979207359982
 30
0.0
 11
31.02847434367995
 21
2.441979207359982
 31
0.0
  0
LINE
  5
60F
330
1F
100
AcDbEntity
  8
TitleBlock&Notes
  6
Continuous
 62
     3
100
AcDbLine
 10
31.09272943039994
 20
1.468132712639986
 30
0.0
 11
31.38429219199995
 21
1.473221977919983
 31
0.0
  0
LINE
  5
610
330
1F
100
AcDbEntity
  8
TitleBlock&Notes
  6
Continuous
 62
     3
100
AcDbLine
 10
31.07472980479995
 20
1.480492474559993
 30
0.0
 11
31.40051723071996
 21
1.486179097919988
 31
0.0
  0
LINE
  5
611
330
1F
100
AcDbEntity
  8
TitleBlock&Notes
  6
Continuous
 62
     3
100
AcDbLine
 10
31.06161932191997
 20
1.49293755071999
 30
0.0
 11
31.41241351424
 21
1.499060692799993
 31
0.0
  0
LINE
  5
612
330
1F
100
AcDbEntity
  8
TitleBlock&Notes
  6
Continuous
 62
     3
100
AcDbLine
 10
31.05157926463999
 20
1.505436229439981
 30
0.0
 11
31.42146648607999
 21
1.511892645119984
 31
0.0
  0
LINE
  5
613
330
1F
100
AcDbEntity
  8
TitleBlock&Notes
  6
Continuous
 62
     3
100
AcDbLine
 10
31.04380210976
 20
1.517974413119991
 30
0.0
 11
31.42837342303997
 21
1.524687119999994
 31
0.0
  0
LINE
  5
614
330
1F
100
AcDbEntity
  8
TitleBlock&Notes
  6
Continuous
 62
     3
100
AcDbLine
 10
31.03785289087997
 20
1.53054449855998
 30
0.0
 11
31.43351996575996
 21
1.537450896959988
 31
0.0
  0
LINE
  5
615
330
1F
100
AcDbEntity
  8
TitleBlock&Notes
  6
Continuous
 62
     3
100
AcDbLine
 10
31.03347449311996
 20
1.543141987199986
 30
0.0
 11
31.43713683967999
 21
1.550187935999987
 31
0.0
  0
LINE
  5
616
330
1F
100
AcDbEntity
  8
TitleBlock&Notes
  6
Continuous
 62
     3
100
AcDbLine
 10
31.03051013215996
 20
1.55576418623999
 30
0.0
 11
31.43936445056
 21
1.562900771519996
 31
0.0
  0
LINE
  5
617
330
1F
100
AcDbEntity
  8
TitleBlock&Notes
  6
Continuous
 62
     3
100
AcDbLine
 10
31.02847434367995
 20
1.944624242879978
 30
0.0
 11
31.44031434367998
 21
1.951812910079995
 31
0.0
  0
LINE
  5
618
330
1F
100
AcDbEntity
  8
TitleBlock&Notes
  6
Continuous
 62
     3
100
AcDbLine
 10
31.02847434367995
 20
1.957298143679988
 30
0.0
 11
31.44031434367998
 21
1.96448684255999
 31
0.0
  0
LINE
  5
619
330
1F
100
AcDbEntity
  8
TitleBlock&Notes
  6
Continuous
 62
     3
100
AcDbLine
 10
31.02847434367995
 20
1.969972076159992
 30
0.0
 11
31.44031434367998
 21
1.977160775039986
 31
0.0
  0
LINE
  5
61A
330
1F
100
AcDbEntity
  8
TitleBlock&Notes
  6
Continuous
 62
     3
100
AcDbLine
 10
31.02847434367995
 20
1.982646008639987
 30
0.0
 11
31.44031434367998
 21
1.98983470751999
 31
0.0
  0
LINE
  5
61B
330
1F
100
AcDbEntity
  8
TitleBlock&Notes
  6
Continuous
 62
     3
100
AcDbLine
 10
31.02847434367995
 20
1.995319941119983
 30
0.0
 11
31.44031434367998
 21
2.002508639999986
 31
0.0
  0
LINE
  5
61C
330
1F
100
AcDbEntity
  8
TitleBlock&Notes
  6
Continuous
 62
     3
100
AcDbLine
 10
31.02847434367995
 20
2.007993873599987
 30
0.0
 11
31.44031434367998
 21
2.01518257247999
 31
0.0
  0
LINE
  5
61D
330
1F
100
AcDbEntity
  8
TitleBlock&Notes
  6
Continuous
 62
     3
100
AcDbLine
 10
31.02847434367995
 20
2.020667806079983
 30
0.0
 11
31.44031434367998
 21
2.027856504959986
 31
0.0
  0
LINE
  5
61E
330
1F
100
AcDbEntity
  8
TitleBlock&Notes
  6
Continuous
 62
     3
100
AcDbLine
 10
31.02847434367995
 20
2.033341738559987
 30
0.0
 11
31.44031434367998
 21
2.040530437439981
 31
0.0
  0
LINE
  5
61F
330
1F
100
AcDbEntity
  8
TitleBlock&Notes
  6
Continuous
 62
     3
100
AcDbLine
 10
31.02847434367995
 20
2.046015671039983
 30
0.0
 11
31.44031434367998
 21
2.053204369919986
 31
0.0
  0
LINE
  5
620
330
1F
100
AcDbEntity
  8
TitleBlock&Notes
  6
Continuous
 62
     3
100
AcDbLine
 10
31.02847434367995
 20
2.058689603519978
 30
0.0
 11
31.44031434367998
 21
2.065878302399982
 31
0.0
  0
LINE
  5
621
330
1F
100
AcDbEntity
  8
TitleBlock&Notes
  6
Continuous
 62
     3
100
AcDbLine
 10
31.02847434367995
 20
2.071363535999991
 30
0.0
 11
31.44031434367998
 21
2.078552234879994
 31
0.0
  0
LINE
  5
622
330
1F
100
AcDbEntity
  8
TitleBlock&Notes
  6
Continuous
 62
     3
100
AcDbLine
 10
31.02847434367995
 20
2.084037468479995
 30
0.0
 11
31.44031434367998
 21
2.09122616735999
 31
0.0
  0
LINE
  5
623
330
1F
100
AcDbEntity
  8
TitleBlock&Notes
  6
Continuous
 62
     3
100
AcDbLine
 10
31.02847434367995
 20
1.637638991999985
 30
0.0
 11
31.44031434367998
 21
1.644827690879988
 31
0.0
  0
LINE
  5
624
330
1F
100
AcDbEntity
  8
TitleBlock&Notes
  6
Continuous
 62
     3
100
AcDbLine
 10
31.02847434367995
 20
1.650312924479989
 30
0.0
 11
31.44031434367998
 21
1.657501623359992
 31
0.0
  0
LINE
  5
625
330
1F
100
AcDbEntity
  8
TitleBlock&Notes
  6
Continuous
 62
     3
100
AcDbLine
 10
31.02847434367995
 20
1.662986856959984
 30
0.0
 11
31.44031434367998
 21
1.670175555839988
 31
0.0
  0
LINE
  5
626
330
1F
100
AcDbEntity
  8
TitleBlock&Notes
  6
Continuous
 62
     3
100
AcDbLine
 10
31.02847434367995
 20
1.675660789439989
 30
0.0
 11
31.44031434367998
 21
1.682849488319983
 31
0.0
  0
LINE
  5
627
330
1F
100
AcDbEntity
  8
TitleBlock&Notes
  6
Continuous
 62
     3
100
AcDbLine
 10
31.02847434367995
 20
1.688334721919984
 30
0.0
 11
31.44031434367998
 21
1.695523420799988
 31
0.0
  0
LINE
  5
628
330
1F
100
AcDbEntity
  8
TitleBlock&Notes
  6
Continuous
 62
     3
100
AcDbLine
 10
31.02847434367995
 20
1.70100865439998
 30
0.0
 11
31.44031434367998
 21
1.708197353279983
 31
0.0
  0
LINE
  5
629
330
1F
100
AcDbEntity
  8
TitleBlock&Notes
  6
Continuous
 62
     3
100
AcDbLine
 10
31.02847434367995
 20
1.713682586879984
 30
0.0
 11
31.44031434367998
 21
1.720871285759987
 31
0.0
  0
LINE
  5
62A
330
1F
100
AcDbEntity
  8
TitleBlock&Notes
  6
Continuous
 62
     3
100
AcDbLine
 10
31.02847434367995
 20
1.726356519359997
 30
0.0
 11
31.44031434367998
 21
1.733545218239983
 31
0.0
  0
LINE
  5
62B
330
1F
100
AcDbEntity
  8
TitleBlock&Notes
  6
Continuous
 62
     3
100
AcDbLine
 10
31.02847434367995
 20
1.739030451839993
 30
0.0
 11
31.44031434367998
 21
1.746219150719979
 31
0.0
  0
LINE
  5
62C
330
1F
100
AcDbEntity
  8
TitleBlock&Notes
  6
Continuous
 62
     3
100
AcDbLine
 10
31.02847434367995
 20
1.751704384319988
 30
0.0
 11
31.44031434367998
 21
1.758893051519989
 31
0.0
  0
LINE
  5
62D
330
1F
100
AcDbEntity
  8
TitleBlock&Notes
  6
Continuous
 62
     3
100
AcDbLine
 10
31.02847434367995
 20
1.764378316799992
 30
0.0
 11
31.44031434367998
 21
1.771566983999993
 31
0.0
  0
LINE
  5
62E
330
1F
100
AcDbEntity
  8
TitleBlock&Notes
  6
Continuous
 62
     3
100
AcDbLine
 10
31.02847434367995
 20
1.777052217599985
 30
0.0
 11
31.44031434367998
 21
1.784240916479989
 31
0.0
  0
LINE
  5
62F
330
1F
100
AcDbEntity
  8
TitleBlock&Notes
  6
Continuous
 62
     3
100
AcDbLine
 10
31.02847434367995
 20
1.78972615007999
 30
0.0
 11
31.44031434367998
 21
1.796914848959984
 31
0.0
  0
LINE
  5
630
330
1F
100
AcDbEntity
  8
TitleBlock&Notes
  6
Continuous
 62
     3
100
AcDbLine
 10
31.02847434367995
 20
1.802400082559985
 30
0.0
 11
31.44031434367998
 21
1.809588781439988
 31
0.0
  0
LINE
  5
631
330
1F
100
AcDbEntity
  8
TitleBlock&Notes
  6
Continuous
 62
     3
100
AcDbLine
 10
31.02847434367995
 20
1.815074015039981
 30
0.0
 11
31.44031434367998
 21
1.822262713919984
 31
0.0
  0
LINE
  5
632
330
1F
100
AcDbEntity
  8
TitleBlock&Notes
  6
Continuous
 62
     3
100
AcDbLine
 10
31.02847434367995
 20
1.827747947519985
 30
0.0
 11
31.44031434367998
 21
1.834936646399988
 31
0.0
  0
LINE
  5
633
330
1F
100
AcDbEntity
  8
TitleBlock&Notes
  6
Continuous
 62
     3
100
AcDbLine
 10
31.02847434367995
 20
1.840421879999998
 30
0.0
 11
31.44031434367998
 21
1.847610578879984
 31
0.0
  0
LINE
  5
634
330
1F
100
AcDbEntity
  8
TitleBlock&Notes
  6
Continuous
 62
     3
100
AcDbLine
 10
31.02847434367995
 20
1.853095812479993
 30
0.0
 11
31.44031434367998
 21
1.86028451135998
 31
0.0
  0
LINE
  5
635
330
1F
100
AcDbEntity
  8
TitleBlock&Notes
  6
Continuous
 62
     3
100
AcDbLine
 10
31.02847434367995
 20
1.865769744959989
 30
0.0
 11
31.44031434367998
 21
1.872958443839983
 31
0.0
  0
LINE
  5
636
330
1F
100
AcDbEntity
  8
TitleBlock&Notes
  6
Continuous
 62
     3
100
AcDbLine
 10
31.44031434367998
 20
2.457819207359996
 30
0.0
 11
31.02847434367995
 21
2.457819207359996
 31
0.0
  0
LINE
  5
637
330
1F
100
AcDbEntity
  8
TitleBlock&Notes
  6
Continuous
 62
     3
100
AcDbLine
 10
31.44031434367998
 20
2.410299207359988
 30
0.0
 11
31.02847434367995
 21
2.410299207359988
 31
0.0
  0
LINE
  5
638
330
1F
100
AcDbEntity
  8
TitleBlock&Notes
  6
Continuous
 62
     3
100
AcDbLine
 10
31.44031434367998
 20
2.098488173759987
 30
0.0
 11
31.02847434367995
 21
2.098488173759987
 31
0.0
  0
LINE
  5
639
330
1F
100
AcDbEntity
  8
TitleBlock&Notes
  6
Continuous
 62
     3
100
AcDbLine
 10
31.44031434367998
 20
2.223212587199983
 30
0.0
 11
31.02847434367995
 21
2.223212587199983
 31
0.0
  0
LINE
  5
63A
330
1F
100
AcDbEntity
  8
TitleBlock&Notes
  6
Continuous
 62
     3
100
AcDbLine
 10
31.44031434367998
 20
2.160850380479981
 30
0.0
 11
31.02847434367995
 21
2.160850380479981
 31
0.0
  0
LINE
  5
63B
330
1F
100
AcDbEntity
  8
TitleBlock&Notes
  6
Continuous
 62
     3
100
AcDbLine
 10
31.44031434367998
 20
1.942582688639986
 30
0.0
 11
31.02847434367995
 21
1.942582688639986
 31
0.0
  0
LINE
  5
63C
330
1F
100
AcDbEntity
  8
TitleBlock&Notes
  6
Continuous
 62
     3
100
AcDbLine
 10
31.44031434367998
 20
1.880220481919984
 30
0.0
 11
31.02847434367995
 21
1.880220481919984
 31
0.0
  0
LINE
  5
63D
330
1F
100
AcDbEntity
  8
TitleBlock&Notes
  6
Continuous
 62
     3
100
AcDbLine
 10
31.44031434367998
 20
1.630771655039986
 30
0.0
 11
31.02847434367995
 21
1.630771655039986
 31
0.0
  0
LINE
  5
63E
330
1F
100
AcDbEntity
  8
TitleBlock&Notes
  6
Continuous
 62
     3
100
AcDbLine
 10
31.43992087807998
 20
1.568409448319992
 30
0.0
 11
31.02886777759999
 21
1.568409448319992
 31
0.0
  0
ARC
  5
63F
330
1F
100
AcDbEntity
  8
TitleBlock&Notes
  6
Continuous
 62
     3
100
AcDbCircle
 10
31.31359434367997
 20
1.578387412799984
 30
0.0
 40
0.4118400000000001
100
AcDbArc
 50
270.0000000000008
 51
0.0000000000008015
  0
ARC
  5
640
330
1F
100
AcDbEntity
  8
TitleBlock&Notes
  6
Continuous
 62
     3
100
AcDbCircle
 10
31.31359434367997
 20
1.578387412799984
 30
0.0
 40
0.4276800000000001
100
AcDbArc
 50
270.0000000000008
 51
0.0000000000008015
  0
ARC
  5
641
330
1F
100
AcDbEntity
  8
TitleBlock&Notes
  6
Continuous
 62
     3
100
AcDbCircle
 10
31.31359434367997
 20
1.578387412799984
 30
0.0
 40
0.396
100
AcDbArc
 50
270.0000000000008
 51
0.0000000000008015
  0
LINE
  5
642
330
1F
100
AcDbEntity
  8
TitleBlock&Notes
  6
Continuous
 62
     3
100
AcDbLine
 10
31.01263434367997
 20
1.57838738111999
 30
0.0
 11
31.01263434367997
 21
2.592147412799984
 31
0.0
  0
LINE
  5
643
330
1F
100
AcDbEntity
  8
TitleBlock&Notes
  6
Continuous
 62
     3
100
AcDbLine
 10
30.74335434367998
 20
1.578387412799985
 30
0.0
 11
30.74335434367998
 21
2.592147412799984
 31
0.0
  0
LINE
  5
644
330
1F
100
AcDbEntity
  8
TitleBlock&Notes
  6
Continuous
 62
     3
100
AcDbLine
 10
31.02847434367995
 20
1.57838738111999
 30
0.0
 11
31.02847434367995
 21
2.60798741279999
 31
0.0
  0
LINE
  5
645
330
1F
100
AcDbEntity
  8
TitleBlock&Notes
  6
Continuous
 62
     3
100
AcDbLine
 10
30.72751434367996
 20
2.60798741279999
 30
0.0
 11
30.72751434367996
 21
1.578387412799985
 31
0.0
  0
LINE
  5
646
330
1F
100
AcDbEntity
  8
TitleBlock&Notes
  6
Continuous
 62
     3
100
AcDbLine
 10
30.99679434367999
 20
2.576307412799987
 30
0.0
 11
30.99679434367999
 21
1.57838738111999
 31
0.0
  0
LINE
  5
647
330
1F
100
AcDbEntity
  8
TitleBlock&Notes
  6
Continuous
 62
     3
100
AcDbLine
 10
30.75919434367998
 20
2.576307412799987
 30
0.0
 11
30.75919434367998
 21
1.578387412799985
 31
0.0
  0
LINE
  5
648
330
1F
100
AcDbEntity
  8
TitleBlock&Notes
  6
Continuous
 62
     3
100
AcDbLine
 10
29.92759434367997
 20
1.56319986239999
 30
0.0
 11
29.69791434367994
 21
2.576307412799987
 31
0.0
  0
LINE
  5
649
330
1F
100
AcDbEntity
  8
TitleBlock&Notes
  6
Continuous
 62
     3
100
AcDbLine
 10
29.92759434367997
 20
1.56319986239999
 30
0.0
 11
30.15727434367999
 21
2.576307412799987
 31
0.0
  0
LINE
  5
64A
330
1F
100
AcDbEntity
  8
TitleBlock&Notes
  6
Continuous
 62
     3
100
AcDbLine
 10
30.53743434367999
 20
2.592147412799984
 30
0.0
 11
30.53743434367999
 21
1.166547412799981
 31
0.0
  0
LINE
  5
64B
330
1F
100
AcDbEntity
  8
TitleBlock&Notes
  6
Continuous
 62
     3
100
AcDbLine
 10
30.55327434367999
 20
1.150707412799984
 30
0.0
 11
30.55327434367999
 21
2.60798741279999
 31
0.0
  0
LINE
  5
64C
330
1F
100
AcDbEntity
  8
TitleBlock&Notes
  6
Continuous
 62
     3
100
AcDbLine
 10
30.52159434367997
 20
1.182387412799978
 30
0.0
 11
30.52159434367997
 21
2.576307412799987
 31
0.0
  0
LINE
  5
64D
330
1F
100
AcDbEntity
  8
TitleBlock&Notes
  6
Continuous
 62
     3
100
AcDbLine
 10
30.26815434367997
 20
1.770007916159984
 30
0.0
 11
30.26815434367997
 21
1.166547412799981
 31
0.0
  0
LINE
  5
64E
330
1F
100
AcDbEntity
  8
TitleBlock&Notes
  6
Continuous
 62
     3
100
AcDbLine
 10
30.26815434367997
 20
1.770007916159984
 30
0.0
 11
30.05764486207999
 21
1.166547412799981
 31
0.0
  0
LINE
  5
64F
330
1F
100
AcDbEntity
  8
TitleBlock&Notes
  6
Continuous
 62
     3
100
AcDbLine
 10
30.25231434367999
 20
1.676508419519983
 30
0.0
 11
30.25231434367999
 21
1.150707412799984
 31
0.0
  0
LINE
  5
650
330
1F
100
AcDbEntity
  8
TitleBlock&Notes
  6
Continuous
 62
     3
100
AcDbLine
 10
30.06889538047999
 20
1.150707412799984
 30
0.0
 11
30.25231434367999
 21
1.676508419519983
 31
0.0
  0
LINE
  5
651
330
1F
100
AcDbEntity
  8
TitleBlock&Notes
  6
Continuous
 62
     3
100
AcDbLine
 10
30.28399434367997
 20
1.182387412799978
 30
0.0
 11
30.28399434367997
 21
1.863507412799994
 31
0.0
  0
LINE
  5
652
330
1F
100
AcDbEntity
  8
TitleBlock&Notes
  6
Continuous
 62
     3
100
AcDbLine
 10
30.04639434367999
 20
1.182387412799978
 30
0.0
 11
30.28399434367997
 21
1.863507412799994
 31
0.0
  0
LINE
  5
653
330
1F
100
AcDbEntity
  8
TitleBlock&Notes
  6
Continuous
 62
     3
100
AcDbLine
 10
30.14462344255997
 20
2.592147412799984
 30
0.0
 11
30.53743434367999
 21
2.592147412799984
 31
0.0
  0
LINE
  5
654
330
1F
100
AcDbEntity
  8
TitleBlock&Notes
  6
Continuous
 62
     3
100
AcDbLine
 10
30.55327434367999
 20
2.60798741279999
 30
0.0
 11
30.13197254143997
 21
2.60798741279999
 31
0.0
  0
LINE
  5
655
330
1F
100
AcDbEntity
  8
TitleBlock&Notes
  6
Continuous
 62
     3
100
AcDbLine
 10
30.52159434367997
 20
2.576307412799987
 30
0.0
 11
30.15727434367999
 21
2.576307412799987
 31
0.0
  0
LINE
  5
656
330
1F
100
AcDbEntity
  8
TitleBlock&Notes
  6
Continuous
 62
     3
100
AcDbLine
 10
29.92759434367997
 20
1.634842376639993
 30
0.0
 11
29.71056524479997
 21
2.592147412799984
 31
0.0
  0
LINE
  5
657
330
1F
100
AcDbEntity
  8
TitleBlock&Notes
  6
Continuous
 62
     3
100
AcDbLine
 10
29.92759434367997
 20
1.706484890879987
 30
0.0
 11
29.72321614591995
 21
2.60798741279999
 31
0.0
  0
LINE
  5
658
330
1F
100
AcDbEntity
  8
TitleBlock&Notes
  6
Continuous
 62
     3
100
AcDbLine
 10
30.14462344255997
 20
2.592147412799984
 30
0.0
 11
29.92759434367997
 21
1.634842376639993
 31
0.0
  0
LINE
  5
659
330
1F
100
AcDbEntity
  8
TitleBlock&Notes
  6
Continuous
 62
     3
100
AcDbLine
 10
30.13197254143997
 20
2.60798741279999
 30
0.0
 11
29.92759434367997
 21
1.706484890879987
 31
0.0
  0
LINE
  5
65A
330
1F
100
AcDbEntity
  8
TitleBlock&Notes
  6
Continuous
 62
     3
100
AcDbLine
 10
29.81740373215995
 20
2.192530380479992
 30
0.0
 11
30.03778492351995
 21
2.192530380479992
 31
0.0
  0
LINE
  5
65B
330
1F
100
AcDbEntity
  8
TitleBlock&Notes
  6
Continuous
 62
     3
100
AcDbLine
 10
29.81403887263994
 20
2.207372587199994
 30
0.0
 11
30.04114978303995
 21
2.207372587199994
 31
0.0
  0
LINE
  5
65C
330
1F
100
AcDbEntity
  8
TitleBlock&Notes
  6
Continuous
 62
     3
100
AcDbLine
 10
30.09433708159998
 20
2.441979207359982
 30
0.0
 11
29.76085157407997
 21
2.441979207359982
 31
0.0
  0
LINE
  5
65D
330
1F
100
AcDbEntity
  8
TitleBlock&Notes
  6
Continuous
 62
     3
100
AcDbLine
 10
30.09074602687996
 20
2.426139207359993
 30
0.0
 11
29.76444266047998
 21
2.426139207359993
 31
0.0
  0
LINE
  5
65E
330
1F
100
AcDbEntity
  8
TitleBlock&Notes
  6
Continuous
 62
     3
100
AcDbLine
 10
29.75726051935998
 20
2.457819207359996
 30
0.0
 11
30.09792813631998
 21
2.457819207359996
 31
0.0
  0
LINE
  5
65F
330
1F
100
AcDbEntity
  8
TitleBlock&Notes
  6
Continuous
 62
     3
100
AcDbLine
 10
29.76803371519997
 20
2.410299207359996
 30
0.0
 11
30.08715494047998
 21
2.410299207359996
 31
0.0
  0
LINE
  5
660
330
1F
100
AcDbEntity
  8
TitleBlock&Notes
  6
Continuous
 62
     3
100
AcDbLine
 10
29.81044781791996
 20
2.223212587199983
 30
0.0
 11
30.04474083775994
 21
2.223212587199983
 31
0.0
  0
LINE
  5
661
330
1F
100
AcDbEntity
  8
TitleBlock&Notes
  6
Continuous
 62
     3
100
AcDbLine
 10
30.03419386879995
 20
2.176690380479995
 30
0.0
 11
29.82099478687994
 21
2.176690380479995
 31
0.0
  0
LINE
  5
662
330
1F
100
AcDbEntity
  8
TitleBlock&Notes
  6
Continuous
 62
     3
100
AcDbLine
 10
29.82458584159999
 20
2.160850380479981
 30
0.0
 11
30.03060281407996
 21
2.160850380479981
 31
0.0
  0
LINE
  5
663
330
1F
100
AcDbEntity
  8
TitleBlock&Notes
  6
Continuous
 62
     3
100
AcDbLine
 10
30.22024642207995
 20
1.58458034591999
 30
0.0
 11
30.25231434367999
 21
1.585140099839979
 31
0.0
  0
LINE
  5
664
330
1F
100
AcDbEntity
  8
TitleBlock&Notes
  6
Continuous
 62
     3
100
AcDbLine
 10
30.22469464255999
 20
1.597331926079981
 30
0.0
 11
30.25231434367999
 21
1.597814032319983
 31
0.0
  0
LINE
  5
665
330
1F
100
AcDbEntity
  8
TitleBlock&Notes
  6
Continuous
 62
     3
100
AcDbLine
 10
30.22914286303997
 20
1.610083506239989
 30
0.0
 11
30.25231434367999
 21
1.610487964799996
 31
0.0
  0
LINE
  5
666
330
1F
100
AcDbEntity
  8
TitleBlock&Notes
  6
Continuous
 62
     3
100
AcDbLine
 10
30.23359108351995
 20
1.62283508639998
 30
0.0
 11
30.25231434367999
 21
1.623161897279992
 31
0.0
  0
LINE
  5
667
330
1F
100
AcDbEntity
  8
TitleBlock&Notes
  6
Continuous
 62
     3
100
AcDbLine
 10
30.23803930399999
 20
1.635586666559989
 30
0.0
 11
30.25231434367999
 21
1.635835829759987
 31
0.0
  0
LINE
  5
668
330
1F
100
AcDbEntity
  8
TitleBlock&Notes
  6
Continuous
 62
     3
100
AcDbLine
 10
30.24248752447997
 20
1.648338215039986
 30
0.0
 11
30.25231434367999
 21
1.648509762239991
 31
0.0
  0
LINE
  5
669
330
1F
100
AcDbEntity
  8
TitleBlock&Notes
  6
Continuous
 62
     3
100
AcDbLine
 10
30.24693574495996
 20
1.661089795199994
 30
0.0
 11
30.25231434367999
 21
1.661183694719987
 31
0.0
  0
LINE
  5
66A
330
1F
100
AcDbEntity
  8
TitleBlock&Notes
  6
Continuous
 62
     3
100
AcDbLine
 10
30.25138396543999
 20
1.673841375359985
 30
0.0
 11
30.25231434367999
 21
1.673857627199991
 31
0.0
  0
LINE
  5
66B
330
1F
100
AcDbEntity
  8
TitleBlock&Notes
  6
Continuous
 62
     3
100
AcDbLine
 10
29.86957229696
 20
1.962417314879987
 30
0.0
 11
29.98607739776
 21
1.964450917439986
 31
0.0
  0
LINE
  5
66C
330
1F
100
AcDbEntity
  8
TitleBlock&Notes
  6
Continuous
 62
     3
100
AcDbLine
 10
29.86671032575995
 20
1.975041287999992
 30
0.0
 11
29.98896208351995
 21
1.977175189439985
 31
0.0
  0
LINE
  5
66D
330
1F
100
AcDbEntity
  8
TitleBlock&Notes
  6
Continuous
 62
     3
100
AcDbLine
 10
29.86384838623994
 20
1.987665261119981
 30
0.0
 11
29.99184680095998
 21
1.989899493119979
 31
0.0
  0
LINE
  5
66E
330
1F
100
AcDbEntity
  8
TitleBlock&Notes
  6
Continuous
 62
     3
100
AcDbLine
 10
29.86098641503994
 20
2.000289234239987
 30
0.0
 11
29.99473148671995
 21
2.002623765119988
 31
0.0
  0
LINE
  5
66F
330
1F
100
AcDbEntity
  8
TitleBlock&Notes
  6
Continuous
 62
     3
100
AcDbLine
 10
29.85812444383995
 20
2.012913207359993
 30
0.0
 11
29.99761620415998
 21
2.015348037119987
 31
0.0
  0
LINE
  5
670
330
1F
100
AcDbEntity
  8
TitleBlock&Notes
  6
Continuous
 62
     3
100
AcDbLine
 10
29.85526250431998
 20
2.025537180479982
 30
0.0
 11
30.00050092159997
 21
2.028072340799981
 31
0.0
  0
LINE
  5
671
330
1F
100
AcDbEntity
  8
TitleBlock&Notes
  6
Continuous
 62
     3
100
AcDbLine
 10
29.85240053311997
 20
2.038161153599988
 30
0.0
 11
30.00338560735997
 21
2.04079661279999
 31
0.0
  0
LINE
  5
672
330
1F
100
AcDbEntity
  8
TitleBlock&Notes
  6
Continuous
 62
     3
100
AcDbLine
 10
29.84953856191999
 20
2.050785126719993
 30
0.0
 11
30.00627032479997
 21
2.053520884799989
 31
0.0
  0
LINE
  5
673
330
1F
100
AcDbEntity
  8
TitleBlock&Notes
  6
Continuous
 62
     3
100
AcDbLine
 10
29.84667662239997
 20
2.063409099839991
 30
0.0
 11
30.00915501055997
 21
2.066245188479983
 31
0.0
  0
LINE
  5
674
330
1F
100
AcDbEntity
  8
TitleBlock&Notes
  6
Continuous
 62
     3
100
AcDbLine
 10
29.84381465119998
 20
2.076033072959988
 30
0.0
 11
30.01203972799999
 21
2.078969460479983
 31
0.0
  0
LINE
  5
675
330
1F
100
AcDbEntity
  8
TitleBlock&Notes
  6
Continuous
 62
     3
100
AcDbLine
 10
29.84095267999999
 20
2.088657046079986
 30
0.0
 11
30.01492441375996
 21
2.091693732479992
 31
0.0
  0
LINE
  5
676
330
1F
100
AcDbEntity
  8
TitleBlock&Notes
  6
Continuous
 62
     3
100
AcDbLine
 10
29.83872389695995
 20
2.098488173759987
 30
0.0
 11
30.01646475871996
 21
2.098488173759987
 31
0.0
  0
LINE
  5
677
330
1F
100
AcDbEntity
  8
TitleBlock&Notes
  6
Continuous
 62
     3
100
AcDbLine
 10
29.87243426815999
 20
1.949793341759981
 30
0.0
 11
29.98319268031995
 21
1.951726645439994
 31
0.0
  0
LINE
  5
678
330
1F
100
AcDbEntity
  8
TitleBlock&Notes
  6
Continuous
 62
     3
100
AcDbLine
 10
29.92744627135996
 20
1.707138005759985
 30
0.0
 11
29.92774355647997
 21
1.707143169599986
 31
0.0
  0
LINE
  5
679
330
1F
100
AcDbEntity
  8
TitleBlock&Notes
  6
Continuous
 62
     3
100
AcDbLine
 10
29.92458430015995
 20
1.719761978879991
 30
0.0
 11
29.93062827391995
 21
1.719867473279988
 31
0.0
  0
LINE
  5
67A
330
1F
100
AcDbEntity
  8
TitleBlock&Notes
  6
Continuous
 62
     3
100
AcDbLine
 10
29.92172232895998
 20
1.73238595199998
 30
0.0
 11
29.93351295967997
 21
1.732591745279997
 31
0.0
  0
LINE
  5
67B
330
1F
100
AcDbEntity
  8
TitleBlock&Notes
  6
Continuous
 62
     3
100
AcDbLine
 10
29.91886038943996
 20
1.745009925119985
 30
0.0
 11
29.93639767711996
 21
1.745316048959991
 31
0.0
  0
LINE
  5
67C
330
1F
100
AcDbEntity
  8
TitleBlock&Notes
  6
Continuous
 62
     3
100
AcDbLine
 10
29.91599841823995
 20
1.757633898239991
 30
0.0
 11
29.93928239455998
 21
1.75804032095999
 31
0.0
  0
LINE
  5
67D
330
1F
100
AcDbEntity
  8
TitleBlock&Notes
  6
Continuous
 62
     3
100
AcDbLine
 10
29.91313644703996
 20
1.770257871359997
 30
0.0
 11
29.94216708031999
 21
1.770764592959982
 31
0.0
  0
LINE
  5
67E
330
1F
100
AcDbEntity
  8
TitleBlock&Notes
  6
Continuous
 62
     3
100
AcDbLine
 10
29.91027450751995
 20
1.782881844479986
 30
0.0
 11
29.94505179775998
 21
1.783488896639984
 31
0.0
  0
LINE
  5
67F
330
1F
100
AcDbEntity
  8
TitleBlock&Notes
  6
Continuous
 62
     3
100
AcDbLine
 10
29.90741253631995
 20
1.795505817599992
 30
0.0
 11
29.94793648351993
 21
1.796213168639992
 31
0.0
  0
LINE
  5
680
330
1F
100
AcDbEntity
  8
TitleBlock&Notes
  6
Continuous
 62
     3
100
AcDbLine
 10
29.90455056511995
 20
1.808129790719981
 30
0.0
 11
29.95082120095998
 21
1.808937440639984
 31
0.0
  0
LINE
  5
681
330
1F
100
AcDbEntity
  8
TitleBlock&Notes
  6
Continuous
 62
     3
100
AcDbLine
 10
29.90168862559998
 20
1.820753763839987
 30
0.0
 11
29.95370588671998
 21
1.821661744319986
 31
0.0
  0
LINE
  5
682
330
1F
100
AcDbEntity
  8
TitleBlock&Notes
  6
Continuous
 62
     3
100
AcDbLine
 10
29.8988266544
 20
1.833377736959984
 30
0.0
 11
29.95659060415997
 21
1.834386016319994
 31
0.0
  0
LINE
  5
683
330
1F
100
AcDbEntity
  8
TitleBlock&Notes
  6
Continuous
 62
     3
100
AcDbLine
 10
29.89596468319999
 20
1.84600171007999
 30
0.0
 11
29.95947528991998
 21
1.847110288319986
 31
0.0
  0
LINE
  5
684
330
1F
100
AcDbEntity
  8
TitleBlock&Notes
  6
Continuous
 62
     3
100
AcDbLine
 10
29.89310274367998
 20
1.858625683199987
 30
0.0
 11
29.96236000735995
 21
1.859834591999988
 31
0.0
  0
LINE
  5
685
330
1F
100
AcDbEntity
  8
TitleBlock&Notes
  6
Continuous
 62
     3
100
AcDbLine
 10
29.89024077247998
 20
1.871249656319985
 30
0.0
 11
29.96524469311996
 21
1.87255886399998
 31
0.0
  0
LINE
  5
686
330
1F
100
AcDbEntity
  8
TitleBlock&Notes
  6
Continuous
 62
     3
100
AcDbLine
 10
29.88820701151997
 20
1.880220481919984
 30
0.0
 11
29.96698164415999
 21
1.880220481919984
 31
0.0
  0
LINE
  5
687
330
1F
100
AcDbEntity
  8
TitleBlock&Notes
  6
Continuous
 62
     3
100
AcDbLine
 10
29.87406898783995
 20
1.942582688639986
 30
0.0
 11
29.98111966783997
 21
1.942582688639986
 31
0.0
  0
LINE
  5
688
330
1F
100
AcDbEntity
  8
TitleBlock&Notes
  6
Continuous
 62
     3
100
AcDbLine
 10
30.74335434367998
 20
2.592147412799984
 30
0.0
 11
31.01263434367997
 21
2.592147412799984
 31
0.0
  0
LINE
  5
689
330
1F
100
AcDbEntity
  8
TitleBlock&Notes
  6
Continuous
 62
     3
100
AcDbLine
 10
30.72751434367996
 20
2.60798741279999
 30
0.0
 11
31.02847434367995
 21
2.60798741279999
 31
0.0
  0
LINE
  5
68A
330
1F
100
AcDbEntity
  8
TitleBlock&Notes
  6
Continuous
 62
     3
100
AcDbLine
 10
30.75919434367998
 20
2.576307412799987
 30
0.0
 11
30.99679434367999
 21
2.576307412799987
 31
0.0
  0
LINE
  5
68B
330
1F
100
AcDbEntity
  8
TitleBlock&Notes
  6
Continuous
 62
     3
100
AcDbLine
 10
30.72751434367996
 20
2.192530380479992
 30
0.0
 11
30.55327434367999
 21
2.192530380479992
 31
0.0
  0
LINE
  5
68C
330
1F
100
AcDbEntity
  8
TitleBlock&Notes
  6
Continuous
 62
     3
100
AcDbLine
 10
30.72751434367996
 20
2.207372587199994
 30
0.0
 11
30.55327434367999
 21
2.207372587199994
 31
0.0
  0
LINE
  5
68D
330
1F
100
AcDbEntity
  8
TitleBlock&Notes
  6
Continuous
 62
     3
100
AcDbLine
 10
30.72751434367996
 20
2.441979207359982
 30
0.0
 11
30.55327434367999
 21
2.441979207359982
 31
0.0
  0
LINE
  5
68E
330
1F
100
AcDbEntity
  8
TitleBlock&Notes
  6
Continuous
 62
     3
100
AcDbLine
 10
30.72751434367996
 20
2.426139207359985
 30
0.0
 11
30.55327434367999
 21
2.426139207359985
 31
0.0
  0
LINE
  5
68F
330
1F
100
AcDbEntity
  8
TitleBlock&Notes
  6
Continuous
 62
     3
100
AcDbLine
 10
30.72751434367996
 20
2.457819207359996
 30
0.0
 11
30.55327434367999
 21
2.457819207359996
 31
0.0
  0
LINE
  5
690
330
1F
100
AcDbEntity
  8
TitleBlock&Notes
  6
Continuous
 62
     3
100
AcDbLine
 10
30.72751434367996
 20
2.410299207359988
 30
0.0
 11
30.55327434367999
 21
2.410299207359988
 31
0.0
  0
LINE
  5
691
330
1F
100
AcDbEntity
  8
TitleBlock&Notes
  6
Continuous
 62
     3
100
AcDbLine
 10
30.72751434367996
 20
2.223212587199983
 30
0.0
 11
30.55327434367999
 21
2.223212587199983
 31
0.0
  0
LINE
  5
692
330
1F
100
AcDbEntity
  8
TitleBlock&Notes
  6
Continuous
 62
     3
100
AcDbLine
 10
30.72751434367996
 20
2.176690380479995
 30
0.0
 11
30.55327434367999
 21
2.176690380479995
 31
0.0
  0
LINE
  5
693
330
1F
100
AcDbEntity
  8
TitleBlock&Notes
  6
Continuous
 62
     3
100
AcDbLine
 10
30.72751434367996
 20
2.160850380479981
 30
0.0
 11
30.55327434367999
 21
2.160850380479981
 31
0.0
  0
LINE
  5
694
330
1F
100
AcDbEntity
  8
TitleBlock&Notes
  6
Continuous
 62
     3
100
AcDbLine
 10
31.02847434367995
 20
2.096711400959991
 30
0.0
 11
31.13026693567997
 21
2.098488173759987
 31
0.0
  0
LINE
  5
695
330
1F
100
AcDbEntity
  8
TitleBlock&Notes
  6
Continuous
 62
     3
100
AcDbLine
 10
31.02847434367995
 20
1.878443677439976
 30
0.0
 11
31.13026693567997
 21
1.880220481919984
 31
0.0
  0
LINE
  5
696
330
1F
100
AcDbEntity
  8
TitleBlock&Notes
  6
Continuous
 62
     3
100
AcDbLine
 10
30.63504432031994
 20
1.630771655039986
 30
0.0
 11
30.72751434367996
 21
1.632385719359992
 31
0.0
  0
LINE
  5
697
330
1F
100
AcDbEntity
  8
TitleBlock&Notes
  6
Continuous
 62
     3
100
AcDbLine
 10
30.55327434367999
 20
1.642018276799986
 30
0.0
 11
30.72751434367996
 21
1.645059651839987
 31
0.0
  0
LINE
  5
698
330
1F
100
AcDbEntity
  8
TitleBlock&Notes
  6
Continuous
 62
     3
100
AcDbLine
 10
30.72751434367996
 20
1.630771655039986
 30
0.0
 11
30.55327434367999
 21
1.630771655039986
 31
0.0
  0
LINE
  5
699
330
1F
100
AcDbEntity
  8
TitleBlock&Notes
  6
Continuous
 62
     3
100
AcDbLine
 10
30.55327434367999
 20
1.949003527679978
 30
0.0
 11
30.72751434367996
 21
1.952044871039986
 31
0.0
  0
LINE
  5
69A
330
1F
100
AcDbEntity
  8
TitleBlock&Notes
  6
Continuous
 62
     3
100
AcDbLine
 10
30.55327434367999
 20
1.961677428479988
 30
0.0
 11
30.72751434367996
 21
1.96471880351999
 31
0.0
  0
LINE
  5
69B
330
1F
100
AcDbEntity
  8
TitleBlock&Notes
  6
Continuous
 62
     3
100
AcDbLine
 10
30.55327434367999
 20
1.974351360959992
 30
0.0
 11
30.72751434367996
 21
1.977392735999986
 31
0.0
  0
LINE
  5
69C
330
1F
100
AcDbEntity
  8
TitleBlock&Notes
  6
Continuous
 62
     3
100
AcDbLine
 10
30.55327434367999
 20
1.987025293439988
 30
0.0
 11
30.72751434367996
 21
1.99006666847999
 31
0.0
  0
LINE
  5
69D
330
1F
100
AcDbEntity
  8
TitleBlock&Notes
  6
Continuous
 62
     3
100
AcDbLine
 10
30.55327434367999
 20
1.999699225919984
 30
0.0
 11
30.72751434367996
 21
2.002740600959985
 31
0.0
  0
LINE
  5
69E
330
1F
100
AcDbEntity
  8
TitleBlock&Notes
  6
Continuous
 62
     3
100
AcDbLine
 10
30.55327434367999
 20
2.012373158399988
 30
0.0
 11
30.72751434367996
 21
2.015414533439981
 31
0.0
  0
LINE
  5
69F
330
1F
100
AcDbEntity
  8
TitleBlock&Notes
  6
Continuous
 62
     3
100
AcDbLine
 10
30.55327434367999
 20
2.025047090879984
 30
0.0
 11
30.72751434367996
 21
2.028088465919994
 31
0.0
  0
LINE
  5
6A0
330
1F
100
AcDbEntity
  8
TitleBlock&Notes
  6
Continuous
 62
     3
100
AcDbLine
 10
30.55327434367999
 20
2.037721023359988
 30
0.0
 11
30.72751434367996
 21
2.040762398399981
 31
0.0
  0
LINE
  5
6A1
330
1F
100
AcDbEntity
  8
TitleBlock&Notes
  6
Continuous
 62
     3
100
AcDbLine
 10
30.55327434367999
 20
2.050394955839983
 30
0.0
 11
30.72751434367996
 21
2.053436330879994
 31
0.0
  0
LINE
  5
6A2
330
1F
100
AcDbEntity
  8
TitleBlock&Notes
  6
Continuous
 62
     3
100
AcDbLine
 10
30.55327434367999
 20
2.063068888319979
 30
0.0
 11
30.72751434367996
 21
2.066110263359989
 31
0.0
  0
LINE
  5
6A3
330
1F
100
AcDbEntity
  8
TitleBlock&Notes
  6
Continuous
 62
     3
100
AcDbLine
 10
30.55327434367999
 20
2.075742820799992
 30
0.0
 11
30.72751434367996
 21
2.078784195839985
 31
0.0
  0
LINE
  5
6A4
330
1F
100
AcDbEntity
  8
TitleBlock&Notes
  6
Continuous
 62
     3
100
AcDbLine
 10
30.55327434367999
 20
2.088416753279996
 30
0.0
 11
30.72751434367996
 21
2.091458128319989
 31
0.0
  0
LINE
  5
6A5
330
1F
100
AcDbEntity
  8
TitleBlock&Notes
  6
Continuous
 62
     3
100
AcDbLine
 10
30.55327434367999
 20
1.65469220927999
 30
0.0
 11
30.72751434367996
 21
1.657733584319983
 31
0.0
  0
LINE
  5
6A6
330
1F
100
AcDbEntity
  8
TitleBlock&Notes
  6
Continuous
 62
     3
100
AcDbLine
 10
30.55327434367999
 20
1.667366141759986
 30
0.0
 11
30.72751434367996
 21
1.670407516799987
 31
0.0
  0
LINE
  5
6A7
330
1F
100
AcDbEntity
  8
TitleBlock&Notes
  6
Continuous
 62
     3
100
AcDbLine
 10
30.55327434367999
 20
1.68004007423999
 30
0.0
 11
30.72751434367996
 21
1.683081449279983
 31
0.0
  0
LINE
  5
6A8
330
1F
100
AcDbEntity
  8
TitleBlock&Notes
  6
Continuous
 62
     3
100
AcDbLine
 10
30.55327434367999
 20
1.692714006719985
 30
0.0
 11
30.72751434367996
 21
1.695755381759996
 31
0.0
  0
LINE
  5
6A9
330
1F
100
AcDbEntity
  8
TitleBlock&Notes
  6
Continuous
 62
     3
100
AcDbLine
 10
30.55327434367999
 20
1.705387939199981
 30
0.0
 11
30.72751434367996
 21
1.708429314239983
 31
0.0
  0
LINE
  5
6AA
330
1F
100
AcDbEntity
  8
TitleBlock&Notes
  6
Continuous
 62
     3
100
AcDbLine
 10
30.55327434367999
 20
1.718061871679985
 30
0.0
 11
30.72751434367996
 21
1.721103246719978
 31
0.0
  0
LINE
  5
6AB
330
1F
100
AcDbEntity
  8
TitleBlock&Notes
  6
Continuous
 62
     3
100
AcDbLine
 10
30.55327434367999
 20
1.730735804159998
 30
0.0
 11
30.72751434367996
 21
1.733777179199991
 31
0.0
  0
LINE
  5
6AC
330
1F
100
AcDbEntity
  8
TitleBlock&Notes
  6
Continuous
 62
     3
100
AcDbLine
 10
30.55327434367999
 20
1.743409736639994
 30
0.0
 11
30.72751434367996
 21
1.746451111679987
 31
0.0
  0
LINE
  5
6AD
330
1F
100
AcDbEntity
  8
TitleBlock&Notes
  6
Continuous
 62
     3
100
AcDbLine
 10
30.55327434367999
 20
1.756083669119989
 30
0.0
 11
30.72751434367996
 21
1.759125012479988
 31
0.0
  0
LINE
  5
6AE
330
1F
100
AcDbEntity
  8
TitleBlock&Notes
  6
Continuous
 62
     3
100
AcDbLine
 10
30.55327434367999
 20
1.768757601599976
 30
0.0
 11
30.72751434367996
 21
1.771798944959984
 31
0.0
  0
LINE
  5
6AF
330
1F
100
AcDbEntity
  8
TitleBlock&Notes
  6
Continuous
 62
     3
100
AcDbLine
 10
30.55327434367999
 20
1.781431502399986
 30
0.0
 11
30.72751434367996
 21
1.784472877439988
 31
0.0
  0
LINE
  5
6B0
330
1F
100
AcDbEntity
  8
TitleBlock&Notes
  6
Continuous
 62
     3
100
AcDbLine
 10
30.55327434367999
 20
1.79410543487999
 30
0.0
 11
30.72751434367996
 21
1.797146809919984
 31
0.0
  0
LINE
  5
6B1
330
1F
100
AcDbEntity
  8
TitleBlock&Notes
  6
Continuous
 62
     3
100
AcDbLine
 10
30.55327434367999
 20
1.806779367359986
 30
0.0
 11
30.72751434367996
 21
1.809820742399988
 31
0.0
  0
LINE
  5
6B2
330
1F
100
AcDbEntity
  8
TitleBlock&Notes
  6
Continuous
 62
     3
100
AcDbLine
 10
30.55327434367999
 20
1.819453299839982
 30
0.0
 11
30.72751434367996
 21
1.822494674879983
 31
0.0
  0
LINE
  5
6B3
330
1F
100
AcDbEntity
  8
TitleBlock&Notes
  6
Continuous
 62
     3
100
AcDbLine
 10
30.55327434367999
 20
1.832127232319986
 30
0.0
 11
30.72751434367996
 21
1.835168607359979
 31
0.0
  0
LINE
  5
6B4
330
1F
100
AcDbEntity
  8
TitleBlock&Notes
  6
Continuous
 62
     3
100
AcDbLine
 10
30.55327434367999
 20
1.844801164799999
 30
0.0
 11
30.72751434367996
 21
1.847842539839992
 31
0.0
  0
LINE
  5
6B5
330
1F
100
AcDbEntity
  8
TitleBlock&Notes
  6
Continuous
 62
     3
100
AcDbLine
 10
30.55327434367999
 20
1.857475097279986
 30
0.0
 11
30.72751434367996
 21
1.860516472319987
 31
0.0
  0
LINE
  5
6B6
330
1F
100
AcDbEntity
  8
TitleBlock&Notes
  6
Continuous
 62
     3
100
AcDbLine
 10
30.55327434367999
 20
1.870149029759982
 30
0.0
 11
30.72751434367996
 21
1.873190404799991
 31
0.0
  0
LINE
  5
6B7
330
1F
100
AcDbEntity
  8
TitleBlock&Notes
  6
Continuous
 62
     3
100
AcDbLine
 10
30.72751434367996
 20
2.098488173759987
 30
0.0
 11
30.55327434367999
 21
2.098488173759987
 31
0.0
  0
LINE
  5
6B8
330
1F
100
AcDbEntity
  8
TitleBlock&Notes
  6
Continuous
 62
     3
100
AcDbLine
 10
30.72751434367996
 20
1.942582688639986
 30
0.0
 11
30.55327434367999
 21
1.942582688639986
 31
0.0
  0
LINE
  5
6B9
330
1F
100
AcDbEntity
  8
TitleBlock&Notes
  6
Continuous
 62
     3
100
AcDbLine
 10
30.72751434367996
 20
1.880220481919984
 30
0.0
 11
30.55327434367999
 21
1.880220481919984
 31
0.0
  0
LINE
  5
6BA
330
1F
100
AcDbEntity
  8
TitleBlock&Notes
  6
Continuous
 62
     3
100
AcDbLine
 10
30.26815434367997
 20
1.166547412799981
 30
0.0
 11
30.53743434367999
 21
1.166547412799981
 31
0.0
  0
LINE
  5
6BB
330
1F
100
AcDbEntity
  8
TitleBlock&Notes
  6
Continuous
 62
     3
100
AcDbLine
 10
30.25231434367999
 20
1.150707412799984
 30
0.0
 11
30.55327434367999
 21
1.150707412799984
 31
0.0
  0
LINE
  5
6BC
330
1F
100
AcDbEntity
  8
TitleBlock&Notes
  6
Continuous
 62
     3
100
AcDbLine
 10
30.52159434367997
 20
1.182387412799978
 30
0.0
 11
30.28399434367997
 21
1.182387412799978
 31
0.0
  0
LINE
  5
6BD
330
1F
100
AcDbEntity
  8
TitleBlock&Notes
  6
Continuous
 62
     3
100
AcDbLine
 10
30.14017839007996
 20
1.355052029759987
 30
0.0
 11
30.25231434367999
 21
1.357009346879992
 31
0.0
  0
LINE
  5
6BE
330
1F
100
AcDbEntity
  8
TitleBlock&Notes
  6
Continuous
 62
     3
100
AcDbLine
 10
30.14462661055998
 20
1.367803609919995
 30
0.0
 11
30.25231434367999
 21
1.369683279359988
 31
0.0
  0
LINE
  5
6BF
330
1F
100
AcDbEntity
  8
TitleBlock&Notes
  6
Continuous
 62
     3
100
AcDbLine
 10
30.14907483103997
 20
1.380555158399992
 30
0.0
 11
30.25231434367999
 21
1.382357211839992
 31
0.0
  0
LINE
  5
6C0
330
1F
100
AcDbEntity
  8
TitleBlock&Notes
  6
Continuous
 62
     3
100
AcDbLine
 10
30.15352305151997
 20
1.393306738559984
 30
0.0
 11
30.25231434367999
 21
1.395031144319988
 31
0.0
  0
LINE
  5
6C1
330
1F
100
AcDbEntity
  8
TitleBlock&Notes
  6
Continuous
 62
     3
100
AcDbLine
 10
30.15797127199996
 20
1.406058318719983
 30
0.0
 11
30.25231434367999
 21
1.407705076799983
 31
0.0
  0
LINE
  5
6C2
330
1F
100
AcDbEntity
  8
TitleBlock&Notes
  6
Continuous
 62
     3
100
AcDbLine
 10
30.16241949247998
 20
1.418809898879983
 30
0.0
 11
30.25231434367999
 21
1.420379009279987
 31
0.0
  0
LINE
  5
6C3
330
1F
100
AcDbEntity
  8
TitleBlock&Notes
  6
Continuous
 62
     3
100
AcDbLine
 10
30.16686771295997
 20
1.431561479039991
 30
0.0
 11
30.25231434367999
 21
1.433052941759991
 31
0.0
  0
LINE
  5
6C4
330
1F
100
AcDbEntity
  8
TitleBlock&Notes
  6
Continuous
 62
     3
100
AcDbLine
 10
30.17131593343995
 20
1.444313027519989
 30
0.0
 11
30.25231434367999
 21
1.445726874239987
 31
0.0
  0
LINE
  5
6C5
330
1F
100
AcDbEntity
  8
TitleBlock&Notes
  6
Continuous
 62
     3
100
AcDbLine
 10
30.17576418559997
 20
1.457064607679988
 30
0.0
 11
30.25231434367999
 21
1.458400806719983
 31
0.0
  0
LINE
  5
6C6
330
1F
100
AcDbEntity
  8
TitleBlock&Notes
  6
Continuous
 62
     3
100
AcDbLine
 10
30.18021240607996
 20
1.469816187839988
 30
0.0
 11
30.25231434367999
 21
1.471074739199979
 31
0.0
  0
LINE
  5
6C7
330
1F
100
AcDbEntity
  8
TitleBlock&Notes
  6
Continuous
 62
     3
100
AcDbLine
 10
30.18466062655995
 20
1.48256776799998
 30
0.0
 11
30.25231434367999
 21
1.483748671679983
 31
0.0
  0
LINE
  5
6C8
330
1F
100
AcDbEntity
  8
TitleBlock&Notes
  6
Continuous
 62
     3
100
AcDbLine
 10
30.18910884703998
 20
1.495319348159988
 30
0.0
 11
30.25231434367999
 21
1.496422604159995
 31
0.0
  0
LINE
  5
6C9
330
1F
100
AcDbEntity
  8
TitleBlock&Notes
  6
Continuous
 62
     3
100
AcDbLine
 10
30.19355706751997
 20
1.508070928319996
 30
0.0
 11
30.25231434367999
 21
1.509096536639991
 31
0.0
  0
LINE
  5
6CA
330
1F
100
AcDbEntity
  8
TitleBlock&Notes
  6
Continuous
 62
     3
100
AcDbLine
 10
30.19800528799994
 20
1.520822476799993
 30
0.0
 11
30.25231434367999
 21
1.521770469119987
 31
0.0
  0
LINE
  5
6CB
330
1F
100
AcDbEntity
  8
TitleBlock&Notes
  6
Continuous
 62
     3
100
AcDbLine
 10
30.20245350847998
 20
1.533574056959984
 30
0.0
 11
30.25231434367999
 21
1.534444369919988
 31
0.0
  0
LINE
  5
6CC
330
1F
100
AcDbEntity
  8
TitleBlock&Notes
  6
Continuous
 62
     3
100
AcDbLine
 10
30.20690172895996
 20
1.546325637119984
 30
0.0
 11
30.25231434367999
 21
1.547118302399992
 31
0.0
  0
LINE
  5
6CD
330
1F
100
AcDbEntity
  8
TitleBlock&Notes
  6
Continuous
 62
     3
100
AcDbLine
 10
30.21134994943995
 20
1.559077217279984
 30
0.0
 11
30.25231434367999
 21
1.559792234879988
 31
0.0
  0
LINE
  5
6CE
330
1F
100
AcDbEntity
  8
TitleBlock&Notes
  6
Continuous
 62
     3
100
AcDbLine
 10
30.21579816991998
 20
1.571828797439992
 30
0.0
 11
30.25231434367999
 21
1.572466167359984
 31
0.0
  0
LINE
  5
6CF
330
1F
100
AcDbEntity
  8
TitleBlock&Notes
  6
Continuous
 62
     3
100
AcDbLine
 10
30.12683369695998
 20
1.316797289279988
 30
0.0
 11
30.25231434367999
 21
1.318987581119991
 31
0.0
  0
LINE
  5
6D0
330
1F
100
AcDbEntity
  8
TitleBlock&Notes
  6
Continuous
 62
     3
100
AcDbLine
 10
30.13128194911999
 20
1.329548869439987
 30
0.0
 11
30.25231434367999
 21
1.331661513599986
 31
0.0
  0
LINE
  5
6D1
330
1F
100
AcDbEntity
  8
TitleBlock&Notes
  6
Continuous
 62
     3
100
AcDbLine
 10
29.79754379359997
 20
1.166547412799981
 30
0.0
 11
30.05764486207999
 21
1.166547412799981
 31
0.0
  0
LINE
  5
6D2
330
1F
100
AcDbEntity
  8
TitleBlock&Notes
  6
Continuous
 62
     3
100
AcDbLine
 10
29.78629327519996
 20
1.150707412799984
 30
0.0
 11
30.06889538047999
 21
1.150707412799984
 31
0.0
  0
LINE
  5
6D3
330
1F
100
AcDbEntity
  8
TitleBlock&Notes
  6
Continuous
 62
     3
100
AcDbLine
 10
29.80879434367998
 20
1.182387412799978
 30
0.0
 11
30.04639434367999
 21
1.182387412799978
 31
0.0
  0
LINE
  5
6D4
330
1F
100
AcDbEntity
  8
TitleBlock&Notes
  6
Continuous
 62
     3
100
AcDbLine
 10
30.06900679903995
 20
1.15102684223999
 30
0.0
 11
30.25231434367999
 21
1.15422649055999
 31
0.0
  0
LINE
  5
6D5
330
1F
100
AcDbEntity
  8
TitleBlock&Notes
  6
Continuous
 62
     3
100
AcDbLine
 10
30.07345501951997
 20
1.163778390719996
 30
0.0
 11
30.25231434367999
 21
1.166900391359983
 31
0.0
  0
LINE
  5
6D6
330
1F
100
AcDbEntity
  8
TitleBlock&Notes
  6
Continuous
 62
     3
100
AcDbLine
 10
30.07790323999996
 20
1.176529970879987
 30
0.0
 11
30.25231434367999
 21
1.179574323839988
 31
0.0
  0
LINE
  5
6D7
330
1F
100
AcDbEntity
  8
TitleBlock&Notes
  6
Continuous
 62
     3
100
AcDbLine
 10
30.08235146047996
 20
1.189281551039987
 30
0.0
 11
30.25231434367999
 21
1.192248256319983
 31
0.0
  0
LINE
  5
6D8
330
1F
100
AcDbEntity
  8
TitleBlock&Notes
  6
Continuous
 62
     3
100
AcDbLine
 10
30.08679971263996
 20
1.202033131199987
 30
0.0
 11
30.25231434367999
 21
1.204922188799987
 31
0.0
  0
LINE
  5
6D9
330
1F
100
AcDbEntity
  8
TitleBlock&Notes
  6
Continuous
 62
     3
100
AcDbLine
 10
30.09124793311996
 20
1.214784711359986
 30
0.0
 11
30.25231434367999
 21
1.217596121279983
 31
0.0
  0
LINE
  5
6DA
330
1F
100
AcDbEntity
  8
TitleBlock&Notes
  6
Continuous
 62
     3
100
AcDbLine
 10
30.09569615359998
 20
1.227536291519994
 30
0.0
 11
30.25231434367999
 21
1.230270053759979
 31
0.0
  0
LINE
  5
6DB
330
1F
100
AcDbEntity
  8
TitleBlock&Notes
  6
Continuous
 62
     3
100
AcDbLine
 10
30.10014437407997
 20
1.240287839999992
 30
0.0
 11
30.25231434367999
 21
1.242943986239991
 31
0.0
  0
LINE
  5
6DC
330
1F
100
AcDbEntity
  8
TitleBlock&Notes
  6
Continuous
 62
     3
100
AcDbLine
 10
30.10459259455995
 20
1.253039420159991
 30
0.0
 11
30.25231434367999
 21
1.255617918719987
 31
0.0
  0
LINE
  5
6DD
330
1F
100
AcDbEntity
  8
TitleBlock&Notes
  6
Continuous
 62
     3
100
AcDbLine
 10
30.10904081504
 20
1.265791000319983
 30
0.0
 11
30.25231434367999
 21
1.268291851199991
 31
0.0
  0
LINE
  5
6DE
330
1F
100
AcDbEntity
  8
TitleBlock&Notes
  6
Continuous
 62
     3
100
AcDbLine
 10
30.11348903551997
 20
1.278542580479983
 30
0.0
 11
30.25231434367999
 21
1.280965783679987
 31
0.0
  0
LINE
  5
6DF
330
1F
100
AcDbEntity
  8
TitleBlock&Notes
  6
Continuous
 62
     3
100
AcDbLine
 10
30.11793725599996
 20
1.291294160639991
 30
0.0
 11
30.25231434367999
 21
1.293639716159982
 31
0.0
  0
LINE
  5
6E0
330
1F
100
AcDbEntity
  8
TitleBlock&Notes
  6
Continuous
 62
     3
100
AcDbLine
 10
30.12238547647999
 20
1.304045709119988
 30
0.0
 11
30.25231434367999
 21
1.306313648639987
 31
0.0
  0
LINE
  5
6E1
330
1F
100
AcDbEntity
  8
TitleBlock&Notes
  6
Continuous
 62
     3
100
AcDbLine
 10
30.13573016959997
 20
1.342300449599987
 30
0.0
 11
30.25231434367999
 21
1.344335446079982
 31
0.0
  0
ARC
  5
6E2
330
1F
100
AcDbEntity
  8
TitleBlock&Notes
  6
Continuous
 62
     3
100
AcDbCircle
 10
31.15519434367998
 20
1.578387412799984
 30
0.0
 40
0.14256
100
AcDbArc
 50
180.0000046800004
 51
269.9999931700005
  0
ARC
  5
6E3
330
1F
100
AcDbEntity
  8
TitleBlock&Notes
  6
Continuous
 62
     3
100
AcDbCircle
 10
31.15519434367998
 20
1.578387412799984
 30
0.0
 40
0.12672
100
AcDbArc
 50
180.0000052300005
 51
269.9999947700005
  0
ARC
  5
6E4
330
1F
100
AcDbEntity
  8
TitleBlock&Notes
  6
Continuous
 62
     3
100
AcDbCircle
 10
31.15519434367998
 20
1.578387412799984
 30
0.0
 40
0.1584
100
AcDbArc
 50
180.0000046800004
 51
269.9999931700005
  0
LINE
  5
6E5
330
1F
100
AcDbEntity
  8
TitleBlock&Notes
  6
Continuous
 62
     3
100
AcDbLine
 10
30.55327434367999
 20
1.349588718719984
 30
0.0
 11
30.79112908255998
 21
1.353740477759994
 31
0.0
  0
LINE
  5
6E6
330
1F
100
AcDbEntity
  8
TitleBlock&Notes
  6
Continuous
 62
     3
100
AcDbLine
 10
30.55327434367999
 20
1.362262651199996
 30
0.0
 11
30.78368111455995
 21
1.366284395519984
 31
0.0
  0
LINE
  5
6E7
330
1F
100
AcDbEntity
  8
TitleBlock&Notes
  6
Continuous
 62
     3
100
AcDbLine
 10
30.55327434367999
 20
1.374936551999981
 30
0.0
 11
30.77679004927999
 21
1.378838039039995
 31
0.0
  0
LINE
  5
6E8
330
1F
100
AcDbEntity
  8
TitleBlock&Notes
  6
Continuous
 62
     3
100
AcDbLine
 10
30.55327434367999
 20
1.387610484479977
 30
0.0
 11
30.77042712127994
 21
1.391400901439992
 31
0.0
  0
LINE
  5
6E9
330
1F
100
AcDbEntity
  8
TitleBlock&Notes
  6
Continuous
 62
     3
100
AcDbLine
 10
30.55327434367999
 20
1.400284416959989
 30
0.0
 11
30.76456765183994
 21
1.403972570879993
 31
0.0
  0
LINE
  5
6EA
330
1F
100
AcDbEntity
  8
TitleBlock&Notes
  6
Continuous
 62
     3
100
AcDbLine
 10
30.55327434367999
 20
1.412958349439993
 30
0.0
 11
30.75919022527995
 21
1.416552635519981
 31
0.0
  0
LINE
  5
6EB
330
1F
100
AcDbEntity
  8
TitleBlock&Notes
  6
Continuous
 62
     3
100
AcDbLine
 10
30.55327434367999
 20
1.425632281919989
 30
0.0
 11
30.75427640383995
 21
1.429140778559998
 31
0.0
  0
LINE
  5
6EC
330
1F
100
AcDbEntity
  8
TitleBlock&Notes
  6
Continuous
 62
     3
100
AcDbLine
 10
30.55327434367999
 20
1.438306214399985
 30
0.0
 11
30.74981012575995
 21
1.441736778239992
 31
0.0
  0
LINE
  5
6ED
330
1F
100
AcDbEntity
  8
TitleBlock&Notes
  6
Continuous
 62
     3
100
AcDbLine
 10
30.55327434367999
 20
1.450980146879989
 30
0.0
 11
30.74577761023997
 21
1.454340317759995
 31
0.0
  0
LINE
  5
6EE
330
1F
100
AcDbEntity
  8
TitleBlock&Notes
  6
Continuous
 62
     3
100
AcDbLine
 10
30.55327434367999
 20
1.463654079359985
 30
0.0
 11
30.74216681887994
 21
1.466951207039984
 31
0.0
  0
LINE
  5
6EF
330
1F
100
AcDbEntity
  8
TitleBlock&Notes
  6
Continuous
 62
     3
100
AcDbLine
 10
30.55327434367999
 20
1.476328011839989
 30
0.0
 11
30.73896755071998
 21
1.479569287679989
 31
0.0
  0
LINE
  5
6F0
330
1F
100
AcDbEntity
  8
TitleBlock&Notes
  6
Continuous
 62
     3
100
AcDbLine
 10
30.55327434367999
 20
1.489001944319984
 30
0.0
 11
30.73617106207997
 21
1.492194401279987
 31
0.0
  0
LINE
  5
6F1
330
1F
100
AcDbEntity
  8
TitleBlock&Notes
  6
Continuous
 62
     3
100
AcDbLine
 10
30.55327434367999
 20
1.50167587679998
 30
0.0
 11
30.73376993983995
 21
1.504826421119993
 31
0.0
  0
LINE
  5
6F2
330
1F
100
AcDbEntity
  8
TitleBlock&Notes
  6
Continuous
 62
     3
100
AcDbLine
 10
30.55327434367999
 20
1.514349809279993
 30
0.0
 11
30.73175810143996
 21
1.517465252159992
 31
0.0
  0
LINE
  5
6F3
330
1F
100
AcDbEntity
  8
TitleBlock&Notes
  6
Continuous
 62
     3
100
AcDbLine
 10
30.55327434367999
 20
1.527023741759988
 30
0.0
 11
30.73013066815997
 21
1.53011076767999
 31
0.0
  0
LINE
  5
6F4
330
1F
100
AcDbEntity
  8
TitleBlock&Notes
  6
Continuous
 62
     3
100
AcDbLine
 10
30.55327434367999
 20
1.539697674239993
 30
0.0
 11
30.72888383839998
 21
1.542762935999992
 31
0.0
  0
LINE
  5
6F5
330
1F
100
AcDbEntity
  8
TitleBlock&Notes
  6
Continuous
 62
     3
100
AcDbLine
 10
30.55327434367999
 20
1.552371606719988
 30
0.0
 11
30.72801482431996
 21
1.555421693759994
 31
0.0
  0
LINE
  5
6F6
330
1F
100
AcDbEntity
  8
TitleBlock&Notes
  6
Continuous
 62
     3
100
AcDbLine
 10
30.55327434367999
 20
1.56504550751999
 30
0.0
 11
30.72752197855999
 21
1.568087040959987
 31
0.0
  0
LINE
  5
6F7
330
1F
100
AcDbEntity
  8
TitleBlock&Notes
  6
Continuous
 62
     3
100
AcDbLine
 10
30.72751434367996
 20
1.568409448319992
 30
0.0
 11
30.55327434367999
 21
1.568409448319992
 31
0.0
  0
LINE
  5
6F8
330
1F
100
AcDbEntity
  8
TitleBlock&Notes
  6
Continuous
 62
     3
100
AcDbLine
 10
31.12242711775996
 20
1.455977159999993
 30
0.0
 11
31.35906829087997
 21
1.460107756799992
 31
0.0
  0
LINE
  5
6F9
330
1F
100
AcDbEntity
  8
TitleBlock&Notes
  6
Continuous
 62
     3
100
AcDbLine
 10
31.15519428031998
 20
1.435827412799985
 30
0.0
 11
31.31359434367997
 21
1.435827412799985
 31
0.0
  0
LINE
  5
6FA
330
1F
100
AcDbEntity
  8
TitleBlock&Notes
  6
Continuous
 62
     3
100
AcDbLine
 10
31.31359434367997
 20
1.451667412799982
 30
0.0
 11
31.15519431199994
 21
1.451667412799982
 31
0.0
  0
LINE
  5
6FB
330
1F
100
AcDbEntity
  8
TitleBlock&Notes
  6
Continuous
 62
     3
100
AcDbLine
 10
31.15519428031998
 20
1.419987412799987
 30
0.0
 11
31.31359434367997
 21
1.419987412799987
 31
0.0
  0
LINE
  5
6FC
330
1F
100
AcDbEntity
  8
TitleBlock&Notes
  6
Continuous
 62
     3
100
AcDbLine
 10
30.55327434367999
 20
1.159479763199992
 30
0.0
 11
31.03478991007998
 21
1.167884625599991
 31
0.0
  0
LINE
  5
6FD
330
1F
100
AcDbEntity
  8
TitleBlock&Notes
  6
Continuous
 62
     3
100
AcDbLine
 10
30.55327434367999
 20
1.172153695679988
 30
0.0
 11
30.99946699519998
 21
1.179942001919987
 31
0.0
  0
LINE
  5
6FE
330
1F
100
AcDbEntity
  8
TitleBlock&Notes
  6
Continuous
 62
     3
100
AcDbLine
 10
30.55327434367999
 20
1.184827628159992
 30
0.0
 11
30.97131725599995
 21
1.192124577599982
 31
0.0
  0
LINE
  5
6FF
330
1F
100
AcDbEntity
  8
TitleBlock&Notes
  6
Continuous
 62
     3
100
AcDbLine
 10
30.55327434367999
 20
1.197501528959985
 30
0.0
 11
30.94751553343996
 21
1.20438305855999
 31
0.0
  0
LINE
  5
700
330
1F
100
AcDbEntity
  8
TitleBlock&Notes
  6
Continuous
 62
     3
100
AcDbLine
 10
30.55327434367999
 20
1.21017546143998
 30
0.0
 11
30.92674748767995
 21
1.216694476799979
 31
0.0
  0
LINE
  5
701
330
1F
100
AcDbEntity
  8
TitleBlock&Notes
  6
Continuous
 62
     3
100
AcDbLine
 10
30.55327434367999
 20
1.222849393919985
 30
0.0
 11
30.90827272543995
 21
1.22904593855999
 31
0.0
  0
LINE
  5
702
330
1F
100
AcDbEntity
  8
TitleBlock&Notes
  6
Continuous
 62
     3
100
AcDbLine
 10
30.55327434367999
 20
1.235523326399997
 30
0.0
 11
30.89162469535997
 21
1.241429270399986
 31
0.0
  0
LINE
  5
703
330
1F
100
AcDbEntity
  8
TitleBlock&Notes
  6
Continuous
 62
     3
100
AcDbLine
 10
30.55327434367999
 20
1.248197258879993
 30
0.0
 11
30.87648650239998
 21
1.253838959999988
 31
0.0
  0
LINE
  5
704
330
1F
100
AcDbEntity
  8
TitleBlock&Notes
  6
Continuous
 62
     3
100
AcDbLine
 10
30.55327434367999
 20
1.260871191359989
 30
0.0
 11
30.86263131775996
 21
1.266271047359994
 31
0.0
  0
LINE
  5
705
330
1F
100
AcDbEntity
  8
TitleBlock&Notes
  6
Continuous
 62
     3
100
AcDbLine
 10
30.55327434367999
 20
1.273545123839984
 30
0.0
 11
30.84989000191995
 21
1.278722586239989
 31
0.0
  0
LINE
  5
706
330
1F
100
AcDbEntity
  8
TitleBlock&Notes
  6
Continuous
 62
     3
100
AcDbLine
 10
30.55327434367999
 20
1.286219056319988
 30
0.0
 11
30.83813263519997
 21
1.291191263999986
 31
0.0
  0
LINE
  5
707
330
1F
100
AcDbEntity
  8
TitleBlock&Notes
  6
Continuous
 62
     3
100
AcDbLine
 10
30.55327434367999
 20
1.298892988799993
 30
0.0
 11
30.82725676447995
 21
1.30367536991999
 31
0.0
  0
LINE
  5
708
330
1F
100
AcDbEntity
  8
TitleBlock&Notes
  6
Continuous
 62
     3
100
AcDbLine
 10
30.55327434367999
 20
1.311566921279988
 30
0.0
 11
30.81718018015999
 21
1.316173415039996
 31
0.0
  0
LINE
  5
709
330
1F
100
AcDbEntity
  8
TitleBlock&Notes
  6
Continuous
 62
     3
100
AcDbLine
 10
30.55327434367999
 20
1.324240853759984
 30
0.0
 11
30.80783562559997
 21
1.328684227199984
 31
0.0
  0
LINE
  5
70A
330
1F
100
AcDbEntity
  8
TitleBlock&Notes
  6
Continuous
 62
     3
100
AcDbLine
 10
30.55327434367999
 20
1.336914786239988
 30
0.0
 11
30.79916747071997
 21
1.341206855999986
 31
0.0
  0
LINE
  5
70B
330
1F
100
AcDbEntity
  8
TitleBlock&Notes
  6
Continuous
 62
     3
100
AcDbLine
 10
31.15519428031998
 20
1.166547412799981
 30
0.0
 11
31.31359434367997
 21
1.166547412799981
 31
0.0
  0
LINE
  5
70C
330
1F
100
AcDbEntity
  8
TitleBlock&Notes
  6
Continuous
 62
     3
100
AcDbLine
 10
31.15519428031998
 20
1.150707412799984
 30
0.0
 11
31.31359434367997
 21
1.150707412799984
 31
0.0
  0
LINE
  5
70D
330
1F
100
AcDbEntity
  8
TitleBlock&Notes
  6
Continuous
 62
     3
100
AcDbLine
 10
31.15519428031998
 20
1.182387412799978
 30
0.0
 11
31.31359434367997
 21
1.182387412799978
 31
0.0
  0
ARC
  5
70E
330
1F
100
AcDbEntity
  8
TitleBlock&Notes
  6
Continuous
 62
     3
100
AcDbCircle
 10
31.15519434367998
 20
1.578387412799984
 30
0.0
 40
0.4118400000000001
100
AcDbArc
 50
180.0000000000004
 51
269.9999934300003
  0
ARC
  5
70F
330
1F
100
AcDbEntity
  8
TitleBlock&Notes
  6
Continuous
 62
     3
100
AcDbCircle
 10
31.15519434367998
 20
1.578387412799984
 30
0.0
 40
0.4276800000000001
100
AcDbArc
 50
180.0000000000004
 51
269.9999934300003
  0
ARC
  5
710
330
1F
100
AcDbEntity
  8
TitleBlock&Notes
  6
Continuous
 62
     3
100
AcDbCircle
 10
31.15519434367998
 20
1.578387412799984
 30
0.0
 40
0.396
100
AcDbArc
 50
180.0000000000004
 51
269.9999931700005
  0
LINE
  5
711
330
1F
100
AcDbEntity
  8
TitleBlock&Notes
  6
Continuous
 62
     3
100
AcDbLine
 10
31.72543434368
 20
1.578387412799985
 30
0.0
 11
31.72543434368
 21
2.592147412799984
 31
0.0
  0
LINE
  5
712
330
1F
100
AcDbEntity
  8
TitleBlock&Notes
  6
Continuous
 62
     3
100
AcDbLine
 10
32.15311434367998
 20
1.435827412799985
 30
0.0
 11
32.15311434367998
 21
2.592147412799984
 31
0.0
  0
LINE
  5
713
330
1F
100
AcDbEntity
  8
TitleBlock&Notes
  6
Continuous
 62
     3
100
AcDbLine
 10
32.16895434367995
 20
1.451667412799982
 30
0.0
 11
32.16895434367995
 21
2.60798741279999
 31
0.0
  0
LINE
  5
714
330
1F
100
AcDbEntity
  8
TitleBlock&Notes
  6
Continuous
 62
     3
100
AcDbLine
 10
31.74127434367997
 20
1.578387412799985
 30
0.0
 11
31.74127434367997
 21
2.60798741279999
 31
0.0
  0
LINE
  5
715
330
1F
100
AcDbEntity
  8
TitleBlock&Notes
  6
Continuous
 62
     3
100
AcDbLine
 10
32.13727434367998
 20
2.576307412799987
 30
0.0
 11
32.13727434367998
 21
1.419987412799987
 31
0.0
  0
LINE
  5
716
330
1F
100
AcDbEntity
  8
TitleBlock&Notes
  6
Continuous
 62
     3
100
AcDbLine
 10
31.70959434367997
 20
2.576307412799987
 30
0.0
 11
31.70959434367997
 21
1.578387412799985
 31
0.0
  0
LINE
  5
717
330
1F
100
AcDbEntity
  8
TitleBlock&Notes
  6
Continuous
 62
     3
100
AcDbLine
 10
31.45615434367997
 20
1.57838738111999
 30
0.0
 11
31.45615434367997
 21
2.592147412799984
 31
0.0
  0
LINE
  5
718
330
1F
100
AcDbEntity
  8
TitleBlock&Notes
  6
Continuous
 62
     3
100
AcDbLine
 10
31.44031434367998
 20
2.60798741279999
 30
0.0
 11
31.44031434367998
 21
1.578387412799985
 31
0.0
  0
LINE
  5
719
330
1F
100
AcDbEntity
  8
TitleBlock&Notes
  6
Continuous
 62
     3
100
AcDbLine
 10
31.47199434367996
 20
2.576307412799987
 30
0.0
 11
31.47199434367996
 21
1.57838738111999
 31
0.0
  0
LINE
  5
71A
330
1F
100
AcDbEntity
  8
TitleBlock&Notes
  6
Continuous
 62
     3
100
AcDbLine
 10
31.88383434367994
 20
1.166547412799981
 30
0.0
 11
31.88383434367994
 21
2.592147412799984
 31
0.0
  0
LINE
  5
71B
330
1F
100
AcDbEntity
  8
TitleBlock&Notes
  6
Continuous
 62
     3
100
AcDbLine
 10
31.86799434367995
 20
2.60798741279999
 30
0.0
 11
31.86799434367995
 21
1.150707412799984
 31
0.0
  0
LINE
  5
71C
330
1F
100
AcDbEntity
  8
TitleBlock&Notes
  6
Continuous
 62
     3
100
AcDbLine
 10
31.89967434367997
 20
1.182387412799978
 30
0.0
 11
31.89967434367997
 21
2.576307412799987
 31
0.0
  0
LINE
  5
71D
330
1F
100
AcDbEntity
  8
TitleBlock&Notes
  6
Continuous
 62
     3
100
AcDbLine
 10
32.92135434367998
 20
2.322867412799989
 30
0.0
 11
32.92135434367998
 21
1.166547412799981
 31
0.0
  0
LINE
  5
71E
330
1F
100
AcDbEntity
  8
TitleBlock&Notes
  6
Continuous
 62
     3
100
AcDbLine
 10
32.90551434367995
 20
2.307027412799992
 30
0.0
 11
32.90551434367995
 21
1.150707412799984
 31
0.0
  0
LINE
  5
71F
330
1F
100
AcDbEntity
  8
TitleBlock&Notes
  6
Continuous
 62
     3
100
AcDbLine
 10
32.93719434367997
 20
2.338707412799986
 30
0.0
 11
32.93719434367997
 21
1.182387412799978
 31
0.0
  0
LINE
  5
720
330
1F
100
AcDbEntity
  8
TitleBlock&Notes
  6
Continuous
 62
     3
100
AcDbLine
 10
32.16895434367995
 20
2.175692587199991
 30
0.0
 11
32.90551434367995
 21
2.175692587199991
 31
0.0
  0
LINE
  5
721
330
1F
100
AcDbEntity
  8
TitleBlock&Notes
  6
Continuous
 62
     3
100
AcDbLine
 10
32.16895434367995
 20
2.191532587199988
 30
0.0
 11
32.90551434367995
 21
2.191532587199988
 31
0.0
  0
LINE
  5
722
330
1F
100
AcDbEntity
  8
TitleBlock&Notes
  6
Continuous
 62
     3
100
AcDbLine
 10
32.16895434367995
 20
2.207372587199994
 30
0.0
 11
32.90551434367995
 21
2.207372587199994
 31
0.0
  0
LINE
  5
723
330
1F
100
AcDbEntity
  8
TitleBlock&Notes
  6
Continuous
 62
     3
100
AcDbLine
 10
32.16895434367995
 20
1.951857452159988
 30
0.0
 11
32.90551434367995
 21
1.964714146559988
 31
0.0
  0
LINE
  5
724
330
1F
100
AcDbEntity
  8
TitleBlock&Notes
  6
Continuous
 62
     3
100
AcDbLine
 10
32.16895434367995
 20
1.964531384639984
 30
0.0
 11
32.90551434367995
 21
1.977388079039993
 31
0.0
  0
LINE
  5
725
330
1F
100
AcDbEntity
  8
TitleBlock&Notes
  6
Continuous
 62
     3
100
AcDbLine
 10
32.16895434367995
 20
1.977205317119988
 30
0.0
 11
32.90551434367995
 21
1.990062011519988
 31
0.0
  0
LINE
  5
726
330
1F
100
AcDbEntity
  8
TitleBlock&Notes
  6
Continuous
 62
     3
100
AcDbLine
 10
32.16895434367995
 20
1.989879249599992
 30
0.0
 11
32.90551434367995
 21
2.002735943999984
 31
0.0
  0
LINE
  5
727
330
1F
100
AcDbEntity
  8
TitleBlock&Notes
  6
Continuous
 62
     3
100
AcDbLine
 10
32.16895434367995
 20
2.002553182079988
 30
0.0
 11
32.90551434367995
 21
2.01540987647998
 31
0.0
  0
LINE
  5
728
330
1F
100
AcDbEntity
  8
TitleBlock&Notes
  6
Continuous
 62
     3
100
AcDbLine
 10
32.16895434367995
 20
2.015227114559984
 30
0.0
 11
32.90551434367995
 21
2.028083808959983
 31
0.0
  0
LINE
  5
729
330
1F
100
AcDbEntity
  8
TitleBlock&Notes
  6
Continuous
 62
     3
100
AcDbLine
 10
32.16895434367995
 20
2.027901047039979
 30
0.0
 11
32.90551434367995
 21
2.040757741439996
 31
0.0
  0
LINE
  5
72A
330
1F
100
AcDbEntity
  8
TitleBlock&Notes
  6
Continuous
 62
     3
100
AcDbLine
 10
32.16895434367995
 20
2.040574947839981
 30
0.0
 11
32.90551434367995
 21
2.053431673919992
 31
0.0
  0
LINE
  5
72B
330
1F
100
AcDbEntity
  8
TitleBlock&Notes
  6
Continuous
 62
     3
100
AcDbLine
 10
32.16895434367995
 20
2.053248880319994
 30
0.0
 11
32.90551434367995
 21
2.066105606399988
 31
0.0
  0
LINE
  5
72C
330
1F
100
AcDbEntity
  8
TitleBlock&Notes
  6
Continuous
 62
     3
100
AcDbLine
 10
32.16895434367995
 20
2.065922812799989
 30
0.0
 11
32.90551434367995
 21
2.078779538879992
 31
0.0
  0
LINE
  5
72D
330
1F
100
AcDbEntity
  8
TitleBlock&Notes
  6
Continuous
 62
     3
100
AcDbLine
 10
32.16895434367995
 20
2.078596745279985
 30
0.0
 11
32.90551434367995
 21
2.091453471359987
 31
0.0
  0
LINE
  5
72E
330
1F
100
AcDbEntity
  8
TitleBlock&Notes
  6
Continuous
 62
     3
100
AcDbLine
 10
32.16895434367995
 20
1.632198300479986
 30
0.0
 11
32.90551434367995
 21
1.645054994879986
 31
0.0
  0
LINE
  5
72F
330
1F
100
AcDbEntity
  8
TitleBlock&Notes
  6
Continuous
 62
     3
100
AcDbLine
 10
32.16895434367995
 20
1.64487223295999
 30
0.0
 11
32.90551434367995
 21
1.657728927359981
 31
0.0
  0
LINE
  5
730
330
1F
100
AcDbEntity
  8
TitleBlock&Notes
  6
Continuous
 62
     3
100
AcDbLine
 10
32.16895434367995
 20
1.657546165439986
 30
0.0
 11
32.90551434367995
 21
1.670402859839986
 31
0.0
  0
LINE
  5
731
330
1F
100
AcDbEntity
  8
TitleBlock&Notes
  6
Continuous
 62
     3
100
AcDbLine
 10
32.16895434367995
 20
1.670220097919981
 30
0.0
 11
32.90551434367995
 21
1.683076792319989
 31
0.0
  0
LINE
  5
732
330
1F
100
AcDbEntity
  8
TitleBlock&Notes
  6
Continuous
 62
     3
100
AcDbLine
 10
32.16895434367995
 20
1.682893998719983
 30
0.0
 11
32.90551434367995
 21
1.695750724799985
 31
0.0
  0
LINE
  5
733
330
1F
100
AcDbEntity
  8
TitleBlock&Notes
  6
Continuous
 62
     3
100
AcDbLine
 10
32.16895434367995
 20
1.695567931199987
 30
0.0
 11
32.90551434367995
 21
1.708424657279981
 31
0.0
  0
LINE
  5
734
330
1F
100
AcDbEntity
  8
TitleBlock&Notes
  6
Continuous
 62
     3
100
AcDbLine
 10
32.16895434367995
 20
1.708241863679982
 30
0.0
 11
32.90551434367995
 21
1.721098589759994
 31
0.0
  0
LINE
  5
735
330
1F
100
AcDbEntity
  8
TitleBlock&Notes
  6
Continuous
 62
     3
100
AcDbLine
 10
32.16895434367995
 20
1.720915796159978
 30
0.0
 11
32.90551434367995
 21
1.733772522239989
 31
0.0
  0
LINE
  5
736
330
1F
100
AcDbEntity
  8
TitleBlock&Notes
  6
Continuous
 62
     3
100
AcDbLine
 10
32.16895434367995
 20
1.733589728639991
 30
0.0
 11
32.90551434367995
 21
1.746446423039991
 31
0.0
  0
LINE
  5
737
330
1F
100
AcDbEntity
  8
TitleBlock&Notes
  6
Continuous
 62
     3
100
AcDbLine
 10
32.16895434367995
 20
1.746263661119987
 30
0.0
 11
32.90551434367995
 21
1.759120355519987
 31
0.0
  0
LINE
  5
738
330
1F
100
AcDbEntity
  8
TitleBlock&Notes
  6
Continuous
 62
     3
100
AcDbLine
 10
32.16895434367995
 20
1.75893759359999
 30
0.0
 11
32.90551434367995
 21
1.771794287999982
 31
0.0
  0
LINE
  5
739
330
1F
100
AcDbEntity
  8
TitleBlock&Notes
  6
Continuous
 62
     3
100
AcDbLine
 10
32.16895434367995
 20
1.771611526079986
 30
0.0
 11
32.90551434367995
 21
1.784468220479986
 31
0.0
  0
LINE
  5
73A
330
1F
100
AcDbEntity
  8
TitleBlock&Notes
  6
Continuous
 62
     3
100
AcDbLine
 10
32.16895434367995
 20
1.784285458559982
 30
0.0
 11
32.90551434367995
 21
1.79714215295999
 31
0.0
  0
LINE
  5
73B
330
1F
100
AcDbEntity
  8
TitleBlock&Notes
  6
Continuous
 62
     3
100
AcDbLine
 10
32.16895434367995
 20
1.796959391039986
 30
0.0
 11
32.90551434367995
 21
1.809816085439986
 31
0.0
  0
LINE
  5
73C
330
1F
100
AcDbEntity
  8
TitleBlock&Notes
  6
Continuous
 62
     3
100
AcDbLine
 10
32.16895434367995
 20
1.80963332351999
 30
0.0
 11
32.90551434367995
 21
1.822490017919982
 31
0.0
  0
LINE
  5
73D
330
1F
100
AcDbEntity
  8
TitleBlock&Notes
  6
Continuous
 62
     3
100
AcDbLine
 10
32.16895434367995
 20
1.822307255999986
 30
0.0
 11
32.90551434367995
 21
1.835163950399994
 31
0.0
  0
LINE
  5
73E
330
1F
100
AcDbEntity
  8
TitleBlock&Notes
  6
Continuous
 62
     3
100
AcDbLine
 10
32.16895434367995
 20
1.834981188479982
 30
0.0
 11
32.90551434367995
 21
1.84783788287999
 31
0.0
  0
LINE
  5
73F
330
1F
100
AcDbEntity
  8
TitleBlock&Notes
  6
Continuous
 62
     3
100
AcDbLine
 10
32.16895434367995
 20
1.847655120959995
 30
0.0
 11
32.90551434367995
 21
1.860511815359994
 31
0.0
  0
LINE
  5
740
330
1F
100
AcDbEntity
  8
TitleBlock&Notes
  6
Continuous
 62
     3
100
AcDbLine
 10
32.16895434367995
 20
1.860329021759987
 30
0.0
 11
32.90551434367995
 21
1.87318574783999
 31
0.0
  0
LINE
  5
741
330
1F
100
AcDbEntity
  8
TitleBlock&Notes
  6
Continuous
 62
     3
100
AcDbLine
 10
32.16895434367995
 20
2.223212587199983
 30
0.0
 11
32.90551434367995
 21
2.223212587199983
 31
0.0
  0
LINE
  5
742
330
1F
100
AcDbEntity
  8
TitleBlock&Notes
  6
Continuous
 62
     3
100
AcDbLine
 10
32.16895434367995
 20
2.160850380479981
 30
0.0
 11
32.90551434367995
 21
2.160850380479981
 31
0.0
  0
LINE
  5
743
330
1F
100
AcDbEntity
  8
TitleBlock&Notes
  6
Continuous
 62
     3
100
AcDbLine
 10
32.16895434367995
 20
2.098488173759987
 30
0.0
 11
32.90551434367995
 21
2.098488173759987
 31
0.0
  0
LINE
  5
744
330
1F
100
AcDbEntity
  8
TitleBlock&Notes
  6
Continuous
 62
     3
100
AcDbLine
 10
32.16895434367995
 20
1.942582688639986
 30
0.0
 11
32.90551434367995
 21
1.942582688639986
 31
0.0
  0
LINE
  5
745
330
1F
100
AcDbEntity
  8
TitleBlock&Notes
  6
Continuous
 62
     3
100
AcDbLine
 10
32.16895434367995
 20
1.880220481919984
 30
0.0
 11
32.90551434367995
 21
1.880220481919984
 31
0.0
  0
LINE
  5
746
330
1F
100
AcDbEntity
  8
TitleBlock&Notes
  6
Continuous
 62
     3
100
AcDbLine
 10
32.16895434367995
 20
1.630771655039986
 30
0.0
 11
32.90551434367995
 21
1.630771655039986
 31
0.0
  0
LINE
  5
747
330
1F
100
AcDbEntity
  8
TitleBlock&Notes
  6
Continuous
 62
     3
100
AcDbLine
 10
32.16895434367995
 20
2.091270677759989
 30
0.0
 11
32.58244490336
 21
2.098488173759987
 31
0.0
  0
LINE
  5
748
330
1F
100
AcDbEntity
  8
TitleBlock&Notes
  6
Continuous
 62
     3
100
AcDbLine
 10
32.16895434367995
 20
1.873002954239991
 30
0.0
 11
32.58244490336
 21
1.880220481919984
 31
0.0
  0
LINE
  5
749
330
1F
100
AcDbEntity
  8
TitleBlock&Notes
  6
Continuous
 62
     3
100
AcDbLine
 10
32.16895434367995
 20
2.426139207359985
 30
0.0
 11
32.54911434367997
 21
2.426139207359985
 31
0.0
  0
LINE
  5
74A
330
1F
100
AcDbEntity
  8
TitleBlock&Notes
  6
Continuous
 62
     3
100
AcDbLine
 10
32.16895434367995
 20
2.441979207359982
 30
0.0
 11
32.54911434367997
 21
2.441979207359982
 31
0.0
  0
LINE
  5
74B
330
1F
100
AcDbEntity
  8
TitleBlock&Notes
  6
Continuous
 62
     3
100
AcDbLine
 10
32.16895434367995
 20
2.457819207359996
 30
0.0
 11
32.54911434367997
 21
2.457819207359996
 31
0.0
  0
LINE
  5
74C
330
1F
100
AcDbEntity
  8
TitleBlock&Notes
  6
Continuous
 62
     3
100
AcDbLine
 10
32.16895434367995
 20
2.410299207359988
 30
0.0
 11
32.54911434367997
 21
2.410299207359988
 31
0.0
  0
LINE
  5
74D
330
1F
100
AcDbEntity
  8
TitleBlock&Notes
  6
Continuous
 62
     3
100
AcDbLine
 10
31.88383434367994
 20
2.592147412799984
 30
0.0
 11
32.15311434367998
 21
2.592147412799984
 31
0.0
  0
LINE
  5
74E
330
1F
100
AcDbEntity
  8
TitleBlock&Notes
  6
Continuous
 62
     3
100
AcDbLine
 10
31.86799434367995
 20
2.60798741279999
 30
0.0
 11
32.16895434367995
 21
2.60798741279999
 31
0.0
  0
LINE
  5
74F
330
1F
100
AcDbEntity
  8
TitleBlock&Notes
  6
Continuous
 62
     3
100
AcDbLine
 10
31.89967434367997
 20
2.576307412799987
 30
0.0
 11
32.13727434367998
 21
2.576307412799987
 31
0.0
  0
LINE
  5
750
330
1F
100
AcDbEntity
  8
TitleBlock&Notes
  6
Continuous
 62
     3
100
AcDbLine
 10
31.45615434367997
 20
2.592147412799984
 30
0.0
 11
31.72543434368
 21
2.592147412799984
 31
0.0
  0
LINE
  5
751
330
1F
100
AcDbEntity
  8
TitleBlock&Notes
  6
Continuous
 62
     3
100
AcDbLine
 10
31.74127434367997
 20
2.60798741279999
 30
0.0
 11
31.44031434367998
 21
2.60798741279999
 31
0.0
  0
LINE
  5
752
330
1F
100
AcDbEntity
  8
TitleBlock&Notes
  6
Continuous
 62
     3
100
AcDbLine
 10
31.70959434367997
 20
2.576307412799987
 30
0.0
 11
31.47199434367996
 21
2.576307412799987
 31
0.0
  0
LINE
  5
753
330
1F
100
AcDbEntity
  8
TitleBlock&Notes
  6
Continuous
 62
     3
100
AcDbLine
 10
31.86799434367995
 20
2.191532587199988
 30
0.0
 11
31.74127434367997
 21
2.191532587199988
 31
0.0
  0
LINE
  5
754
330
1F
100
AcDbEntity
  8
TitleBlock&Notes
  6
Continuous
 62
     3
100
AcDbLine
 10
31.86799434367995
 20
2.207372587199994
 30
0.0
 11
31.74127434367997
 21
2.207372587199994
 31
0.0
  0
LINE
  5
755
330
1F
100
AcDbEntity
  8
TitleBlock&Notes
  6
Continuous
 62
     3
100
AcDbLine
 10
31.86799434367995
 20
2.426139207359985
 30
0.0
 11
31.74127434367997
 21
2.426139207359985
 31
0.0
  0
LINE
  5
756
330
1F
100
AcDbEntity
  8
TitleBlock&Notes
  6
Continuous
 62
     3
100
AcDbLine
 10
31.86799434367995
 20
2.441979207359982
 30
0.0
 11
31.74127434367997
 21
2.441979207359982
 31
0.0
  0
LINE
  5
757
330
1F
100
AcDbEntity
  8
TitleBlock&Notes
  6
Continuous
 62
     3
100
AcDbLine
 10
31.86799434367995
 20
2.457819207359996
 30
0.0
 11
31.74127434367997
 21
2.457819207359996
 31
0.0
  0
LINE
  5
758
330
1F
100
AcDbEntity
  8
TitleBlock&Notes
  6
Continuous
 62
     3
100
AcDbLine
 10
31.86799434367995
 20
2.410299207359988
 30
0.0
 11
31.74127434367997
 21
2.410299207359988
 31
0.0
  0
LINE
  5
759
330
1F
100
AcDbEntity
  8
TitleBlock&Notes
  6
Continuous
 62
     3
100
AcDbLine
 10
31.86799434367995
 20
2.223212587199983
 30
0.0
 11
31.74127434367997
 21
2.223212587199983
 31
0.0
  0
LINE
  5
75A
330
1F
100
AcDbEntity
  8
TitleBlock&Notes
  6
Continuous
 62
     3
100
AcDbLine
 10
31.86799434367995
 20
2.175692587199991
 30
0.0
 11
31.74127434367997
 21
2.175692587199991
 31
0.0
  0
LINE
  5
75B
330
1F
100
AcDbEntity
  8
TitleBlock&Notes
  6
Continuous
 62
     3
100
AcDbLine
 10
31.86799434367995
 20
2.160850380479981
 30
0.0
 11
31.74127434367997
 21
2.160850380479981
 31
0.0
  0
LINE
  5
75C
330
1F
100
AcDbEntity
  8
TitleBlock&Notes
  6
Continuous
 62
     3
100
AcDbLine
 10
31.74127434367997
 20
1.637407031039994
 30
0.0
 11
31.86799434367995
 21
1.639618960319988
 31
0.0
  0
LINE
  5
75D
330
1F
100
AcDbEntity
  8
TitleBlock&Notes
  6
Continuous
 62
     3
100
AcDbLine
 10
31.86799434367995
 20
1.630771655039986
 30
0.0
 11
31.74127434367997
 21
1.630771655039986
 31
0.0
  0
LINE
  5
75E
330
1F
100
AcDbEntity
  8
TitleBlock&Notes
  6
Continuous
 62
     3
100
AcDbLine
 10
31.74127434367997
 20
1.944392281919986
 30
0.0
 11
31.86799434367995
 21
1.946604179519987
 31
0.0
  0
LINE
  5
75F
330
1F
100
AcDbEntity
  8
TitleBlock&Notes
  6
Continuous
 62
     3
100
AcDbLine
 10
31.74127434367997
 20
1.957066214399982
 30
0.0
 11
31.86799434367995
 21
1.959278111999991
 31
0.0
  0
LINE
  5
760
330
1F
100
AcDbEntity
  8
TitleBlock&Notes
  6
Continuous
 62
     3
100
AcDbLine
 10
31.74127434367997
 20
1.969740115199993
 30
0.0
 11
31.86799434367995
 21
1.971952044479987
 31
0.0
  0
LINE
  5
761
330
1F
100
AcDbEntity
  8
TitleBlock&Notes
  6
Continuous
 62
     3
100
AcDbLine
 10
31.74127434367997
 20
1.982414047679988
 30
0.0
 11
31.86799434367995
 21
1.984625976959982
 31
0.0
  0
LINE
  5
762
330
1F
100
AcDbEntity
  8
TitleBlock&Notes
  6
Continuous
 62
     3
100
AcDbLine
 10
31.74127434367997
 20
1.995087980159992
 30
0.0
 11
31.86799434367995
 21
1.997299909439986
 31
0.0
  0
LINE
  5
763
330
1F
100
AcDbEntity
  8
TitleBlock&Notes
  6
Continuous
 62
     3
100
AcDbLine
 10
31.74127434367997
 20
2.007761912639988
 30
0.0
 11
31.86799434367995
 21
2.009973810239996
 31
0.0
  0
LINE
  5
764
330
1F
100
AcDbEntity
  8
TitleBlock&Notes
  6
Continuous
 62
     3
100
AcDbLine
 10
31.74127434367997
 20
2.020435845119983
 30
0.0
 11
31.86799434367995
 21
2.022647742719992
 31
0.0
  0
LINE
  5
765
330
1F
100
AcDbEntity
  8
TitleBlock&Notes
  6
Continuous
 62
     3
100
AcDbLine
 10
31.74127434367997
 20
2.033109777599988
 30
0.0
 11
31.86799434367995
 21
2.035321675199988
 31
0.0
  0
LINE
  5
766
330
1F
100
AcDbEntity
  8
TitleBlock&Notes
  6
Continuous
 62
     3
100
AcDbLine
 10
31.74127434367997
 20
2.045783710079992
 30
0.0
 11
31.86799434367995
 21
2.047995607679992
 31
0.0
  0
LINE
  5
767
330
1F
100
AcDbEntity
  8
TitleBlock&Notes
  6
Continuous
 62
     3
100
AcDbLine
 10
31.74127434367997
 20
2.058457642559988
 30
0.0
 11
31.86799434367995
 21
2.060669540159988
 31
0.0
  0
LINE
  5
768
330
1F
100
AcDbEntity
  8
TitleBlock&Notes
  6
Continuous
 62
     3
100
AcDbLine
 10
31.74127434367997
 20
2.071131575039983
 30
0.0
 11
31.86799434367995
 21
2.073343472639992
 31
0.0
  0
LINE
  5
769
330
1F
100
AcDbEntity
  8
TitleBlock&Notes
  6
Continuous
 62
     3
100
AcDbLine
 10
31.74127434367997
 20
2.083805507519979
 30
0.0
 11
31.86799434367995
 21
2.086017405119987
 31
0.0
  0
LINE
  5
76A
330
1F
100
AcDbEntity
  8
TitleBlock&Notes
  6
Continuous
 62
     3
100
AcDbLine
 10
31.74127434367997
 20
2.096479439999983
 30
0.0
 11
31.85635593535997
 21
2.098488173759987
 31
0.0
  0
LINE
  5
76B
330
1F
100
AcDbEntity
  8
TitleBlock&Notes
  6
Continuous
 62
     3
100
AcDbLine
 10
31.74127434367997
 20
1.65008096351999
 30
0.0
 11
31.86799434367995
 21
1.65229286111999
 31
0.0
  0
LINE
  5
76C
330
1F
100
AcDbEntity
  8
TitleBlock&Notes
  6
Continuous
 62
     3
100
AcDbLine
 10
31.74127434367997
 20
1.662754895999985
 30
0.0
 11
31.86799434367995
 21
1.664966793599985
 31
0.0
  0
LINE
  5
76D
330
1F
100
AcDbEntity
  8
TitleBlock&Notes
  6
Continuous
 62
     3
100
AcDbLine
 10
31.74127434367997
 20
1.675428828479989
 30
0.0
 11
31.86799434367995
 21
1.677640726079981
 31
0.0
  0
LINE
  5
76E
330
1F
100
AcDbEntity
  8
TitleBlock&Notes
  6
Continuous
 62
     3
100
AcDbLine
 10
31.74127434367997
 20
1.688102760959994
 30
0.0
 11
31.86799434367995
 21
1.690314658559993
 31
0.0
  0
LINE
  5
76F
330
1F
100
AcDbEntity
  8
TitleBlock&Notes
  6
Continuous
 62
     3
100
AcDbLine
 10
31.74127434367997
 20
1.700776693439989
 30
0.0
 11
31.86799434367995
 21
1.702988591039989
 31
0.0
  0
LINE
  5
770
330
1F
100
AcDbEntity
  8
TitleBlock&Notes
  6
Continuous
 62
     3
100
AcDbLine
 10
31.74127434367997
 20
1.713450625919985
 30
0.0
 11
31.86799434367995
 21
1.715662523519994
 31
0.0
  0
LINE
  5
771
330
1F
100
AcDbEntity
  8
TitleBlock&Notes
  6
Continuous
 62
     3
100
AcDbLine
 10
31.74127434367997
 20
1.72612455839998
 30
0.0
 11
31.86799434367995
 21
1.728336455999989
 31
0.0
  0
LINE
  5
772
330
1F
100
AcDbEntity
  8
TitleBlock&Notes
  6
Continuous
 62
     3
100
AcDbLine
 10
31.74127434367997
 20
1.738798490879985
 30
0.0
 11
31.86799434367995
 21
1.741010388479985
 31
0.0
  0
LINE
  5
773
330
1F
100
AcDbEntity
  8
TitleBlock&Notes
  6
Continuous
 62
     3
100
AcDbLine
 10
31.74127434367997
 20
1.751472423359997
 30
0.0
 11
31.86799434367995
 21
1.753684320959989
 31
0.0
  0
LINE
  5
774
330
1F
100
AcDbEntity
  8
TitleBlock&Notes
  6
Continuous
 62
     3
100
AcDbLine
 10
31.74127434367997
 20
1.764146355839985
 30
0.0
 11
31.86799434367995
 21
1.766358253439984
 31
0.0
  0
LINE
  5
775
330
1F
100
AcDbEntity
  8
TitleBlock&Notes
  6
Continuous
 62
     3
100
AcDbLine
 10
31.74127434367997
 20
1.77682028831998
 30
0.0
 11
31.86799434367995
 21
1.779032185919989
 31
0.0
  0
LINE
  5
776
330
1F
100
AcDbEntity
  8
TitleBlock&Notes
  6
Continuous
 62
     3
100
AcDbLine
 10
31.74127434367997
 20
1.78949418911999
 30
0.0
 11
31.86799434367995
 21
1.791706118399984
 31
0.0
  0
LINE
  5
777
330
1F
100
AcDbEntity
  8
TitleBlock&Notes
  6
Continuous
 62
     3
100
AcDbLine
 10
31.74127434367997
 20
1.802168121599994
 30
0.0
 11
31.86799434367995
 21
1.80438005087998
 31
0.0
  0
LINE
  5
778
330
1F
100
AcDbEntity
  8
TitleBlock&Notes
  6
Continuous
 62
     3
100
AcDbLine
 10
31.74127434367997
 20
1.81484205407999
 30
0.0
 11
31.86799434367995
 21
1.817053983359984
 31
0.0
  0
LINE
  5
779
330
1F
100
AcDbEntity
  8
TitleBlock&Notes
  6
Continuous
 62
     3
100
AcDbLine
 10
31.74127434367997
 20
1.827515986559986
 30
0.0
 11
31.86799434367995
 21
1.829727915839997
 31
0.0
  0
LINE
  5
77A
330
1F
100
AcDbEntity
  8
TitleBlock&Notes
  6
Continuous
 62
     3
100
AcDbLine
 10
31.74127434367997
 20
1.840189919039982
 30
0.0
 11
31.86799434367995
 21
1.84240181663999
 31
0.0
  0
LINE
  5
77B
330
1F
100
AcDbEntity
  8
TitleBlock&Notes
  6
Continuous
 62
     3
100
AcDbLine
 10
31.74127434367997
 20
1.852863851519986
 30
0.0
 11
31.86799434367995
 21
1.855075749119986
 31
0.0
  0
LINE
  5
77C
330
1F
100
AcDbEntity
  8
TitleBlock&Notes
  6
Continuous
 62
     3
100
AcDbLine
 10
31.74127434367997
 20
1.86553778399999
 30
0.0
 11
31.86799434367995
 21
1.86774968159999
 31
0.0
  0
LINE
  5
77D
330
1F
100
AcDbEntity
  8
TitleBlock&Notes
  6
Continuous
 62
     3
100
AcDbLine
 10
31.74127434367997
 20
1.878211716479985
 30
0.0
 11
31.85635593535997
 21
1.880220481919984
 31
0.0
  0
LINE
  5
77E
330
1F
100
AcDbEntity
  8
TitleBlock&Notes
  6
Continuous
 62
     3
100
AcDbLine
 10
31.86799434367995
 20
2.098488173759987
 30
0.0
 11
31.74127434367997
 21
2.098488173759987
 31
0.0
  0
LINE
  5
77F
330
1F
100
AcDbEntity
  8
TitleBlock&Notes
  6
Continuous
 62
     3
100
AcDbLine
 10
31.86799434367995
 20
1.942582688639986
 30
0.0
 11
31.74127434367997
 21
1.942582688639986
 31
0.0
  0
LINE
  5
780
330
1F
100
AcDbEntity
  8
TitleBlock&Notes
  6
Continuous
 62
     3
100
AcDbLine
 10
31.86799434367995
 20
1.880220481919984
 30
0.0
 11
31.74127434367997
 21
1.880220481919984
 31
0.0
  0
LINE
  5
781
330
1F
100
AcDbEntity
  8
TitleBlock&Notes
  6
Continuous
 62
     3
100
AcDbLine
 10
32.56495434367995
 20
2.322867412799989
 30
0.0
 11
32.92135434367998
 21
2.322867412799989
 31
0.0
  0
LINE
  5
782
330
1F
100
AcDbEntity
  8
TitleBlock&Notes
  6
Continuous
 62
     3
100
AcDbLine
 10
32.54911434367997
 20
2.307027412799992
 30
0.0
 11
32.90551434367995
 21
2.307027412799992
 31
0.0
  0
LINE
  5
783
330
1F
100
AcDbEntity
  8
TitleBlock&Notes
  6
Continuous
 62
     3
100
AcDbLine
 10
32.56495434367995
 20
2.592147412799984
 30
0.0
 11
32.56495434367995
 21
2.322867412799989
 31
0.0
  0
LINE
  5
784
330
1F
100
AcDbEntity
  8
TitleBlock&Notes
  6
Continuous
 62
     3
100
AcDbLine
 10
32.54911434367997
 20
2.60798741279999
 30
0.0
 11
32.54911434367997
 21
2.307027412799992
 31
0.0
  0
LINE
  5
785
330
1F
100
AcDbEntity
  8
TitleBlock&Notes
  6
Continuous
 62
     3
100
AcDbLine
 10
32.58079434367999
 20
2.338707412799986
 30
0.0
 11
32.58079434367999
 21
2.576307412799987
 31
0.0
  0
LINE
  5
786
330
1F
100
AcDbEntity
  8
TitleBlock&Notes
  6
Continuous
 62
     3
100
AcDbLine
 10
32.58079434367999
 20
2.338707412799986
 30
0.0
 11
32.93719434367997
 21
2.338707412799986
 31
0.0
  0
LINE
  5
787
330
1F
100
AcDbEntity
  8
TitleBlock&Notes
  6
Continuous
 62
     3
100
AcDbLine
 10
32.81331125599998
 20
1.630771655039986
 30
0.0
 11
32.90551434367995
 21
1.63238106239999
 31
0.0
  0
LINE
  5
788
330
1F
100
AcDbEntity
  8
TitleBlock&Notes
  6
Continuous
 62
     3
100
AcDbLine
 10
32.36369187391995
 20
1.942582688639986
 30
0.0
 11
32.90551434367995
 21
1.952040214079984
 31
0.0
  0
LINE
  5
789
330
1F
100
AcDbEntity
  8
TitleBlock&Notes
  6
Continuous
 62
     3
100
AcDbLine
 10
32.16895434367995
 20
1.453834103039985
 30
0.0
 11
32.90551434367995
 21
1.466690797439984
 31
0.0
  0
LINE
  5
78A
330
1F
100
AcDbEntity
  8
TitleBlock&Notes
  6
Continuous
 62
     3
100
AcDbLine
 10
32.16895434367995
 20
1.466508003839995
 30
0.0
 11
32.90551434367995
 21
1.47936472991998
 31
0.0
  0
LINE
  5
78B
330
1F
100
AcDbEntity
  8
TitleBlock&Notes
  6
Continuous
 62
     3
100
AcDbLine
 10
32.16895434367995
 20
1.47918193631999
 30
0.0
 11
32.90551434367995
 21
1.492038662399993
 31
0.0
  0
LINE
  5
78C
330
1F
100
AcDbEntity
  8
TitleBlock&Notes
  6
Continuous
 62
     3
100
AcDbLine
 10
32.16895434367995
 20
1.491855868799994
 30
0.0
 11
32.90551434367995
 21
1.504712594879988
 31
0.0
  0
LINE
  5
78D
330
1F
100
AcDbEntity
  8
TitleBlock&Notes
  6
Continuous
 62
     3
100
AcDbLine
 10
32.16895434367995
 20
1.50452980127999
 30
0.0
 11
32.90551434367995
 21
1.517386527359984
 31
0.0
  0
LINE
  5
78E
330
1F
100
AcDbEntity
  8
TitleBlock&Notes
  6
Continuous
 62
     3
100
AcDbLine
 10
32.16895434367995
 20
1.517203733759986
 30
0.0
 11
32.90551434367995
 21
1.530060428159986
 31
0.0
  0
LINE
  5
78F
330
1F
100
AcDbEntity
  8
TitleBlock&Notes
  6
Continuous
 62
     3
100
AcDbLine
 10
32.16895434367995
 20
1.52987766623999
 30
0.0
 11
32.90551434367995
 21
1.54273436063999
 31
0.0
  0
LINE
  5
790
330
1F
100
AcDbEntity
  8
TitleBlock&Notes
  6
Continuous
 62
     3
100
AcDbLine
 10
32.16895434367995
 20
1.542551598719986
 30
0.0
 11
32.90551434367995
 21
1.555408293119985
 31
0.0
  0
LINE
  5
791
330
1F
100
AcDbEntity
  8
TitleBlock&Notes
  6
Continuous
 62
     3
100
AcDbLine
 10
32.16895434367995
 20
1.555225531199989
 30
0.0
 11
32.90551434367995
 21
1.568082225599981
 31
0.0
  0
LINE
  5
792
330
1F
100
AcDbEntity
  8
TitleBlock&Notes
  6
Continuous
 62
     3
100
AcDbLine
 10
32.16895434367995
 20
1.568409448319992
 30
0.0
 11
32.90551434367995
 21
1.568409448319992
 31
0.0
  0
LINE
  5
793
330
1F
100
AcDbEntity
  8
TitleBlock&Notes
  6
Continuous
 62
     3
100
AcDbLine
 10
32.77087434367995
 20
1.451667412799982
 30
0.0
 11
32.16895434367995
 21
1.451667412799982
 31
0.0
  0
LINE
  5
794
330
1F
100
AcDbEntity
  8
TitleBlock&Notes
  6
Continuous
 62
     3
100
AcDbLine
 10
32.75503434367996
 20
1.435827412799985
 30
0.0
 11
32.15311434367998
 21
1.435827412799985
 31
0.0
  0
LINE
  5
795
330
1F
100
AcDbEntity
  8
TitleBlock&Notes
  6
Continuous
 62
     3
100
AcDbLine
 10
32.13727434367998
 20
1.419987412799987
 30
0.0
 11
32.73919434367996
 21
1.419987412799987
 31
0.0
  0
LINE
  5
796
330
1F
100
AcDbEntity
  8
TitleBlock&Notes
  6
Continuous
 62
     3
100
AcDbLine
 10
31.86799434367995
 20
1.150707412799984
 30
0.0
 11
32.77087434367995
 21
1.150707412799984
 31
0.0
  0
LINE
  5
797
330
1F
100
AcDbEntity
  8
TitleBlock&Notes
  6
Continuous
 62
     3
100
AcDbLine
 10
32.75503434367996
 20
1.166547412799981
 30
0.0
 11
31.88383434367994
 21
1.166547412799981
 31
0.0
  0
LINE
  5
798
330
1F
100
AcDbEntity
  8
TitleBlock&Notes
  6
Continuous
 62
     3
100
AcDbLine
 10
31.89967434367997
 20
1.182387412799978
 30
0.0
 11
32.73919434367996
 21
1.182387412799978
 31
0.0
  0
LINE
  5
799
330
1F
100
AcDbEntity
  8
TitleBlock&Notes
  6
Continuous
 62
     3
100
AcDbLine
 10
32.16895434367995
 20
1.567899463679985
 30
0.0
 11
32.19817154047996
 21
1.568409448319992
 31
0.0
  0
LINE
  5
79A
330
1F
100
AcDbEntity
  8
TitleBlock&Notes
  6
Continuous
 62
     3
100
AcDbLine
 10
31.68672059167997
 20
1.369373100479988
 30
0.0
 11
31.86799434367995
 21
1.372537235519983
 31
0.0
  0
LINE
  5
79B
330
1F
100
AcDbEntity
  8
TitleBlock&Notes
  6
Continuous
 62
     3
100
AcDbLine
 10
31.69360459231999
 20
1.38216716351999
 30
0.0
 11
31.86799434367995
 21
1.385211167999988
 31
0.0
  0
LINE
  5
79C
330
1F
100
AcDbEntity
  8
TitleBlock&Notes
  6
Continuous
 62
     3
100
AcDbLine
 10
31.69993808959997
 20
1.394951659199985
 30
0.0
 11
31.86799434367995
 21
1.397885100479992
 31
0.0
  0
LINE
  5
79D
330
1F
100
AcDbEntity
  8
TitleBlock&Notes
  6
Continuous
 62
     3
100
AcDbLine
 10
31.70574889855995
 20
1.407727031039984
 30
0.0
 11
31.86799434367995
 21
1.410559032959987
 31
0.0
  0
LINE
  5
79E
330
1F
100
AcDbEntity
  8
TitleBlock&Notes
  6
Continuous
 62
     3
100
AcDbLine
 10
31.71106100095999
 20
1.420493659199983
 30
0.0
 11
31.86799434367995
 21
1.423232965439983
 31
0.0
  0
LINE
  5
79F
330
1F
100
AcDbEntity
  8
TitleBlock&Notes
  6
Continuous
 62
     3
100
AcDbLine
 10
31.71589508383998
 20
1.433251987199987
 30
0.0
 11
31.86799434367995
 21
1.435906866239984
 31
0.0
  0
LINE
  5
7A0
330
1F
100
AcDbEntity
  8
TitleBlock&Notes
  6
Continuous
 62
     3
100
AcDbLine
 10
31.72026907807997
 20
1.446002268479982
 30
0.0
 11
31.86799434367995
 21
1.448580798719997
 31
0.0
  0
LINE
  5
7A1
330
1F
100
AcDbEntity
  8
TitleBlock&Notes
  6
Continuous
 62
     3
100
AcDbLine
 10
31.72419853855996
 20
1.458744788159991
 30
0.0
 11
31.86799434367995
 21
1.461254731199993
 31
0.0
  0
LINE
  5
7A2
330
1F
100
AcDbEntity
  8
TitleBlock&Notes
  6
Continuous
 62
     3
100
AcDbLine
 10
31.72769689759997
 20
1.47147976799999
 30
0.0
 11
31.86799434367995
 21
1.473928663679989
 31
0.0
  0
LINE
  5
7A3
330
1F
100
AcDbEntity
  8
TitleBlock&Notes
  6
Continuous
 62
     3
100
AcDbLine
 10
31.73077571839999
 20
1.48420742975998
 30
0.0
 11
31.86799434367995
 21
1.486602596159984
 31
0.0
  0
LINE
  5
7A4
330
1F
100
AcDbEntity
  8
TitleBlock&Notes
  6
Continuous
 62
     3
100
AcDbLine
 10
31.73344494847996
 20
1.496927963519986
 30
0.0
 11
31.86799434367995
 21
1.499276528639988
 31
0.0
  0
LINE
  5
7A5
330
1F
100
AcDbEntity
  8
TitleBlock&Notes
  6
Continuous
 62
     3
100
AcDbLine
 10
31.73571301471995
 20
1.509641495999993
 30
0.0
 11
31.86799434367995
 21
1.511950461119992
 31
0.0
  0
LINE
  5
7A6
330
1F
100
AcDbEntity
  8
TitleBlock&Notes
  6
Continuous
 62
     3
100
AcDbLine
 10
31.73758701343996
 20
1.522348122239991
 30
0.0
 11
31.86799434367995
 21
1.524624393599988
 31
0.0
  0
LINE
  5
7A7
330
1F
100
AcDbEntity
  8
TitleBlock&Notes
  6
Continuous
 62
     3
100
AcDbLine
 10
31.73907274208
 20
1.535048000639993
 30
0.0
 11
31.86799434367995
 21
1.537298326079984
 31
0.0
  0
LINE
  5
7A8
330
1F
100
AcDbEntity
  8
TitleBlock&Notes
  6
Continuous
 62
     3
100
AcDbLine
 10
31.74017492095996
 20
1.547741162879985
 30
0.0
 11
31.86799434367995
 21
1.549972258559988
 31
0.0
  0
LINE
  5
7A9
330
1F
100
AcDbEntity
  8
TitleBlock&Notes
  6
Continuous
 62
     3
100
AcDbLine
 10
31.74089706655999
 20
1.560427703999984
 30
0.0
 11
31.86799434367995
 21
1.562646191039983
 31
0.0
  0
LINE
  5
7AA
330
1F
100
AcDbEntity
  8
TitleBlock&Notes
  6
Continuous
 62
     3
100
AcDbLine
 10
31.86799434367995
 20
1.568409448319992
 30
0.0
 11
31.74115791967997
 21
1.568409448319992
 31
0.0
  0
LINE
  5
7AB
330
1F
100
AcDbEntity
  8
TitleBlock&Notes
  6
Continuous
 62
     3
100
AcDbLine
 10
31.67925358399998
 20
1.356568804799992
 30
0.0
 11
31.86799434367995
 21
1.359863303039988
 31
0.0
  0
LINE
  5
7AC
330
1F
100
AcDbEntity
  8
TitleBlock&Notes
  6
Continuous
 62
     3
100
AcDbLine
 10
31.41021156415996
 20
1.161763732799987
 30
0.0
 11
31.86799434367995
 21
1.169754347519988
 31
0.0
  0
LINE
  5
7AD
330
1F
100
AcDbEntity
  8
TitleBlock&Notes
  6
Continuous
 62
     3
100
AcDbLine
 10
31.45637059135998
 20
1.175243351039993
 30
0.0
 11
31.86799434367995
 21
1.182428279999983
 31
0.0
  0
LINE
  5
7AE
330
1F
100
AcDbEntity
  8
TitleBlock&Notes
  6
Continuous
 62
     3
100
AcDbLine
 10
31.48935723295995
 20
1.188493067519984
 30
0.0
 11
31.86799434367995
 21
1.195102212479979
 31
0.0
  0
LINE
  5
7AF
330
1F
100
AcDbEntity
  8
TitleBlock&Notes
  6
Continuous
 62
     3
100
AcDbLine
 10
31.51599371359997
 20
1.201631935679994
 30
0.0
 11
31.86799434367995
 21
1.207776144959991
 31
0.0
  0
LINE
  5
7B0
330
1F
100
AcDbEntity
  8
TitleBlock&Notes
  6
Continuous
 62
     3
100
AcDbLine
 10
31.53863303359998
 20
1.214701044479987
 30
0.0
 11
31.86799434367995
 21
1.220450077439996
 31
0.0
  0
LINE
  5
7B1
330
1F
100
AcDbEntity
  8
TitleBlock&Notes
  6
Continuous
 62
     3
100
AcDbLine
 10
31.55842669759997
 20
1.227720479039989
 30
0.0
 11
31.86799434367995
 21
1.233124009919991
 31
0.0
  0
LINE
  5
7B2
330
1F
100
AcDbEntity
  8
TitleBlock&Notes
  6
Continuous
 62
     3
100
AcDbLine
 10
31.57604179135999
 20
1.240701865919989
 30
0.0
 11
31.86799434367995
 21
1.245797942399987
 31
0.0
  0
LINE
  5
7B3
330
1F
100
AcDbEntity
  8
TitleBlock&Notes
  6
Continuous
 62
     3
100
AcDbLine
 10
31.59190634335995
 20
1.253652713279986
 30
0.0
 11
31.86799434367995
 21
1.258471843199989
 31
0.0
  0
LINE
  5
7B4
330
1F
100
AcDbEntity
  8
TitleBlock&Notes
  6
Continuous
 62
     3
100
AcDbLine
 10
31.60631462911994
 20
1.266578153279986
 30
0.0
 11
31.86799434367995
 21
1.271145775679984
 31
0.0
  0
LINE
  5
7B5
330
1F
100
AcDbEntity
  8
TitleBlock&Notes
  6
Continuous
 62
     3
100
AcDbLine
 10
31.61947937983993
 20
1.279481860799988
 30
0.0
 11
31.86799434367995
 21
1.283819708159988
 31
0.0
  0
LINE
  5
7B6
330
1F
100
AcDbEntity
  8
TitleBlock&Notes
  6
Continuous
 62
     3
100
AcDbLine
 10
31.63156026271996
 20
1.292366687039988
 30
0.0
 11
31.86799434367995
 21
1.296493640639984
 31
0.0
  0
LINE
  5
7B7
330
1F
100
AcDbEntity
  8
TitleBlock&Notes
  6
Continuous
 62
     3
100
AcDbLine
 10
31.64268063967994
 20
1.30523472287998
 30
0.0
 11
31.86799434367995
 21
1.30916757311998
 31
0.0
  0
LINE
  5
7B8
330
1F
100
AcDbEntity
  8
TitleBlock&Notes
  6
Continuous
 62
     3
100
AcDbLine
 10
31.65293818015999
 20
1.318087679039986
 30
0.0
 11
31.86799434367995
 21
1.321841505599984
 31
0.0
  0
LINE
  5
7B9
330
1F
100
AcDbEntity
  8
TitleBlock&Notes
  6
Continuous
 62
     3
100
AcDbLine
 10
31.66241164063999
 20
1.330926981119988
 30
0.0
 11
31.86799434367995
 21
1.334515438079996
 31
0.0
  0
LINE
  5
7BA
330
1F
100
AcDbEntity
  8
TitleBlock&Notes
  6
Continuous
 62
     3
100
AcDbLine
 10
31.67116561663998
 20
1.343753706239989
 30
0.0
 11
31.86799434367995
 21
1.347189370559992
 31
0.0
  0
LINE
  5
7BB
330
1F
100
AcDbEntity
  8
TitleBlock&Notes
  6
Continuous
 62
     3
100
AcDbLine
 10
32.77087434367995
 20
1.350275255999984
 30
0.0
 11
32.90551434367995
 21
1.352625405119989
 31
0.0
  0
LINE
  5
7BC
330
1F
100
AcDbEntity
  8
TitleBlock&Notes
  6
Continuous
 62
     3
100
AcDbLine
 10
32.77087434367995
 20
1.36294918847998
 30
0.0
 11
32.90551434367995
 21
1.365299337599994
 31
0.0
  0
LINE
  5
7BD
330
1F
100
AcDbEntity
  8
TitleBlock&Notes
  6
Continuous
 62
     3
100
AcDbLine
 10
32.77087434367995
 20
1.375623120959984
 30
0.0
 11
32.90551434367995
 21
1.377973270079989
 31
0.0
  0
LINE
  5
7BE
330
1F
100
AcDbEntity
  8
TitleBlock&Notes
  6
Continuous
 62
     3
100
AcDbLine
 10
32.77087434367995
 20
1.388297053439997
 30
0.0
 11
32.90551434367995
 21
1.390647202559985
 31
0.0
  0
LINE
  5
7BF
330
1F
100
AcDbEntity
  8
TitleBlock&Notes
  6
Continuous
 62
     3
100
AcDbLine
 10
32.77087434367995
 20
1.400970985919992
 30
0.0
 11
32.90551434367995
 21
1.403321135039989
 31
0.0
  0
LINE
  5
7C0
330
1F
100
AcDbEntity
  8
TitleBlock&Notes
  6
Continuous
 62
     3
100
AcDbLine
 10
32.77087434367995
 20
1.413644918399988
 30
0.0
 11
32.90551434367995
 21
1.415995067519985
 31
0.0
  0
LINE
  5
7C1
330
1F
100
AcDbEntity
  8
TitleBlock&Notes
  6
Continuous
 62
     3
100
AcDbLine
 10
32.77087434367995
 20
1.426318850879984
 30
0.0
 11
32.90551434367995
 21
1.428668999999989
 31
0.0
  0
LINE
  5
7C2
330
1F
100
AcDbEntity
  8
TitleBlock&Notes
  6
Continuous
 62
     3
100
AcDbLine
 10
32.77087434367995
 20
1.438992783359988
 30
0.0
 11
32.90551434367995
 21
1.441342932479985
 31
0.0
  0
LINE
  5
7C3
330
1F
100
AcDbEntity
  8
TitleBlock&Notes
  6
Continuous
 62
     3
100
AcDbLine
 10
32.77087434367995
 20
1.451666715839992
 30
0.0
 11
32.90551434367995
 21
1.45401686495998
 31
0.0
  0
LINE
  5
7C4
330
1F
100
AcDbEntity
  8
TitleBlock&Notes
  6
Continuous
 62
     3
100
AcDbLine
 10
32.77087434367995
 20
1.160166300479993
 30
0.0
 11
32.90551434367995
 21
1.162516449599989
 31
0.0
  0
LINE
  5
7C5
330
1F
100
AcDbEntity
  8
TitleBlock&Notes
  6
Continuous
 62
     3
100
AcDbLine
 10
32.77087434367995
 20
1.172840232959988
 30
0.0
 11
32.90551434367995
 21
1.175190382079985
 31
0.0
  0
LINE
  5
7C6
330
1F
100
AcDbEntity
  8
TitleBlock&Notes
  6
Continuous
 62
     3
100
AcDbLine
 10
32.77087434367995
 20
1.185514165439984
 30
0.0
 11
32.90551434367995
 21
1.187864314559989
 31
0.0
  0
LINE
  5
7C7
330
1F
100
AcDbEntity
  8
TitleBlock&Notes
  6
Continuous
 62
     3
100
AcDbLine
 10
32.77087434367995
 20
1.198188097919988
 30
0.0
 11
32.90551434367995
 21
1.200538247039985
 31
0.0
  0
LINE
  5
7C8
330
1F
100
AcDbEntity
  8
TitleBlock&Notes
  6
Continuous
 62
     3
100
AcDbLine
 10
32.77087434367995
 20
1.210862030399984
 30
0.0
 11
32.90551434367995
 21
1.21321217951998
 31
0.0
  0
LINE
  5
7C9
330
1F
100
AcDbEntity
  8
TitleBlock&Notes
  6
Continuous
 62
     3
100
AcDbLine
 10
32.77087434367995
 20
1.223535962879988
 30
0.0
 11
32.90551434367995
 21
1.225886111999993
 31
0.0
  0
LINE
  5
7CA
330
1F
100
AcDbEntity
  8
TitleBlock&Notes
  6
Continuous
 62
     3
100
AcDbLine
 10
32.77087434367995
 20
1.236209895359984
 30
0.0
 11
32.90551434367995
 21
1.238560044479989
 31
0.0
  0
LINE
  5
7CB
330
1F
100
AcDbEntity
  8
TitleBlock&Notes
  6
Continuous
 62
     3
100
AcDbLine
 10
32.77087434367995
 20
1.248883827839979
 30
0.0
 11
32.90551434367995
 21
1.251233976959993
 31
0.0
  0
LINE
  5
7CC
330
1F
100
AcDbEntity
  8
TitleBlock&Notes
  6
Continuous
 62
     3
100
AcDbLine
 10
32.77087434367995
 20
1.261557760319992
 30
0.0
 11
32.90551434367995
 21
1.263907909439988
 31
0.0
  0
LINE
  5
7CD
330
1F
100
AcDbEntity
  8
TitleBlock&Notes
  6
Continuous
 62
     3
100
AcDbLine
 10
32.77087434367995
 20
1.274231692799996
 30
0.0
 11
32.90551434367995
 21
1.276581841919984
 31
0.0
  0
LINE
  5
7CE
330
1F
100
AcDbEntity
  8
TitleBlock&Notes
  6
Continuous
 62
     3
100
AcDbLine
 10
32.77087434367995
 20
1.286905625279992
 30
0.0
 11
32.90551434367995
 21
1.289255774399988
 31
0.0
  0
LINE
  5
7CF
330
1F
100
AcDbEntity
  8
TitleBlock&Notes
  6
Continuous
 62
     3
100
AcDbLine
 10
32.77087434367995
 20
1.299579557759988
 30
0.0
 11
32.90551434367995
 21
1.301929706879984
 31
0.0
  0
LINE
  5
7D0
330
1F
100
AcDbEntity
  8
TitleBlock&Notes
  6
Continuous
 62
     3
100
AcDbLine
 10
32.77087434367995
 20
1.312253490239983
 30
0.0
 11
32.90551434367995
 21
1.314603639359988
 31
0.0
  0
LINE
  5
7D1
330
1F
100
AcDbEntity
  8
TitleBlock&Notes
  6
Continuous
 62
     3
100
AcDbLine
 10
32.77087434367995
 20
1.324927422719987
 30
0.0
 11
32.90551434367995
 21
1.327277571839984
 31
0.0
  0
LINE
  5
7D2
330
1F
100
AcDbEntity
  8
TitleBlock&Notes
  6
Continuous
 62
     3
100
AcDbLine
 10
32.77087434367995
 20
1.337601323519989
 30
0.0
 11
32.90551434367995
 21
1.339951472639994
 31
0.0
  0
LINE
  5
7D3
330
1F
100
AcDbEntity
  8
TitleBlock&Notes
  6
Continuous
 62
     3
100
AcDbLine
 10
32.75503434367996
 20
1.435827412799985
 30
0.0
 11
32.75503434367996
 21
1.166547412799981
 31
0.0
  0
LINE
  5
7D4
330
1F
100
AcDbEntity
  8
TitleBlock&Notes
  6
Continuous
 62
     3
100
AcDbLine
 10
32.73919434367996
 20
1.182387412799978
 30
0.0
 11
32.73919434367996
 21
1.419987412799987
 31
0.0
  0
LINE
  5
7D5
330
1F
100
AcDbEntity
  8
TitleBlock&Notes
  6
Continuous
 62
     3
100
AcDbLine
 10
32.77087434367995
 20
1.150707412799984
 30
0.0
 11
32.77087434367995
 21
1.451667412799982
 31
0.0
  0
LINE
  5
7D6
330
1F
100
AcDbEntity
  8
TitleBlock&Notes
  6
Continuous
 62
     3
100
AcDbLine
 10
37.68270865567997
 20
3.563999999999991
 30
0.0
 11
37.68270865567997
 21
-0.0000000000000156
 31
0.0
  0
LINE
  5
7DE
330
1F
100
AcDbEntity
  8
TitleBlock&Notes
  6
Continuous
 62
     3
100
AcDbLine
 10
36.42991434367994
 20
2.191532587199988
 30
0.0
 11
36.17184073183997
 21
2.191532587199988
 31
0.0
  0
LINE
  5
7DF
330
1F
100
AcDbEntity
  8
TitleBlock&Notes
  6
Continuous
 62
     3
100
AcDbLine
 10
36.42991434367994
 20
2.207372587199994
 30
0.0
 11
36.17866834207999
 21
2.207372587199994
 31
0.0
  0
LINE
  5
7E0
330
1F
100
AcDbEntity
  8
TitleBlock&Notes
  6
Continuous
 62
     3
100
AcDbLine
 10
36.42991434367994
 20
2.223212587199983
 30
0.0
 11
36.18549592063998
 21
2.223212587199983
 31
0.0
  0
LINE
  5
7E1
330
1F
100
AcDbEntity
  8
TitleBlock&Notes
  6
Continuous
 62
     3
100
AcDbLine
 10
36.42991434367994
 20
2.426139207359985
 30
0.0
 11
36.27296427391994
 21
2.426139207359985
 31
0.0
  0
LINE
  5
7E2
330
1F
100
AcDbEntity
  8
TitleBlock&Notes
  6
Continuous
 62
     3
100
AcDbLine
 10
36.42991434367994
 20
2.441979207359982
 30
0.0
 11
36.27979188415997
 21
2.441979207359982
 31
0.0
  0
LINE
  5
7E3
330
1F
100
AcDbEntity
  8
TitleBlock&Notes
  6
Continuous
 62
     3
100
AcDbLine
 10
36.42991434367994
 20
2.457819207359996
 30
0.0
 11
36.28661946271998
 21
2.457819207359996
 31
0.0
  0
LINE
  5
7E4
330
1F
100
AcDbEntity
  8
TitleBlock&Notes
  6
Continuous
 62
     3
100
AcDbLine
 10
36.26613669535996
 20
2.410299207359988
 30
0.0
 11
36.42991434367994
 21
2.410299207359988
 31
0.0
  0
LINE
  5
7E5
330
1F
100
AcDbEntity
  8
TitleBlock&Notes
  6
Continuous
 62
     3
100
AcDbLine
 10
36.06506842399997
 20
1.94382080639999
 30
0.0
 11
36.42991434367994
 21
1.950189215039985
 31
0.0
  0
LINE
  5
7E6
330
1F
100
AcDbEntity
  8
TitleBlock&Notes
  6
Continuous
 62
     3
100
AcDbLine
 10
35.93887434367994
 20
1.63463284511999
 30
0.0
 11
36.42991434367994
 21
1.643203964159984
 31
0.0
  0
LINE
  5
7E7
330
1F
100
AcDbEntity
  8
TitleBlock&Notes
  6
Continuous
 62
     3
100
AcDbLine
 10
35.93887434367994
 20
1.647306777599986
 30
0.0
 11
36.42991434367994
 21
1.65587789663998
 31
0.0
  0
LINE
  5
7E8
330
1F
100
AcDbEntity
  8
TitleBlock&Notes
  6
Continuous
 62
     3
100
AcDbLine
 10
35.94275273599995
 20
1.66004841023999
 30
0.0
 11
36.42991434367994
 21
1.668551829119992
 31
0.0
  0
LINE
  5
7E9
330
1F
100
AcDbEntity
  8
TitleBlock&Notes
  6
Continuous
 62
     3
100
AcDbLine
 10
35.94825704095998
 20
1.672818396479995
 30
0.0
 11
36.42991434367994
 21
1.681225761599988
 31
0.0
  0
LINE
  5
7EA
330
1F
100
AcDbEntity
  8
TitleBlock&Notes
  6
Continuous
 62
     3
100
AcDbLine
 10
35.95376134591996
 20
1.685588414399994
 30
0.0
 11
36.42991434367994
 21
1.693899694079992
 31
0.0
  0
LINE
  5
7EB
330
1F
100
AcDbEntity
  8
TitleBlock&Notes
  6
Continuous
 62
     3
100
AcDbLine
 10
35.95926568255995
 20
1.698358432319993
 30
0.0
 11
36.42991434367994
 21
1.706573626559988
 31
0.0
  0
LINE
  5
7EC
330
1F
100
AcDbEntity
  8
TitleBlock&Notes
  6
Continuous
 62
     3
100
AcDbLine
 10
35.96476998751998
 20
1.711128418559989
 30
0.0
 11
36.42991434367994
 21
1.719247559039983
 31
0.0
  0
LINE
  5
7ED
330
1F
100
AcDbEntity
  8
TitleBlock&Notes
  6
Continuous
 62
     3
100
AcDbLine
 10
35.97027429247998
 20
1.723898436479989
 30
0.0
 11
36.42991434367994
 21
1.731921491519988
 31
0.0
  0
LINE
  5
7EE
330
1F
100
AcDbEntity
  8
TitleBlock&Notes
  6
Continuous
 62
     3
100
AcDbLine
 10
35.97577862911998
 20
1.736668454399988
 30
0.0
 11
36.42991434367994
 21
1.744595423999983
 31
0.0
  0
LINE
  5
7EF
330
1F
100
AcDbEntity
  8
TitleBlock&Notes
  6
Continuous
 62
     3
100
AcDbLine
 10
35.98128293407997
 20
1.749438440639984
 30
0.0
 11
36.42991434367994
 21
1.757269356479987
 31
0.0
  0
LINE
  5
7F0
330
1F
100
AcDbEntity
  8
TitleBlock&Notes
  6
Continuous
 62
     3
100
AcDbLine
 10
35.98678723903995
 20
1.762208458559983
 30
0.0
 11
36.42991434367994
 21
1.769943288959983
 31
0.0
  0
LINE
  5
7F1
330
1F
100
AcDbEntity
  8
TitleBlock&Notes
  6
Continuous
 62
     3
100
AcDbLine
 10
35.99229154399998
 20
1.774978476479982
 30
0.0
 11
36.42991434367994
 21
1.782617221439979
 31
0.0
  0
LINE
  5
7F2
330
1F
100
AcDbEntity
  8
TitleBlock&Notes
  6
Continuous
 62
     3
100
AcDbLine
 10
35.99779588063995
 20
1.787748494399981
 30
0.0
 11
36.42991434367994
 21
1.795291122239989
 31
0.0
  0
LINE
  5
7F3
330
1F
100
AcDbEntity
  8
TitleBlock&Notes
  6
Continuous
 62
     3
100
AcDbLine
 10
36.00330018559998
 20
1.800518480639978
 30
0.0
 11
36.42991434367994
 21
1.807965054719993
 31
0.0
  0
LINE
  5
7F4
330
1F
100
AcDbEntity
  8
TitleBlock&Notes
  6
Continuous
 62
     3
100
AcDbLine
 10
36.00880449055995
 20
1.813288498559994
 30
0.0
 11
36.42991434367994
 21
1.820638987199989
 31
0.0
  0
LINE
  5
7F5
330
1F
100
AcDbEntity
  8
TitleBlock&Notes
  6
Continuous
 62
     3
100
AcDbLine
 10
36.01430882719997
 20
1.826058516479993
 30
0.0
 11
36.42991434367994
 21
1.833312919679984
 31
0.0
  0
LINE
  5
7F6
330
1F
100
AcDbEntity
  8
TitleBlock&Notes
  6
Continuous
 62
     3
100
AcDbLine
 10
36.01981313216
 20
1.838828502719989
 30
0.0
 11
36.42991434367994
 21
1.845986852159988
 31
0.0
  0
LINE
  5
7F7
330
1F
100
AcDbEntity
  8
TitleBlock&Notes
  6
Continuous
 62
     3
100
AcDbLine
 10
36.02531743711998
 20
1.851598520639988
 30
0.0
 11
36.42991434367994
 21
1.858660784639984
 31
0.0
  0
LINE
  5
7F8
330
1F
100
AcDbEntity
  8
TitleBlock&Notes
  6
Continuous
 62
     3
100
AcDbLine
 10
36.03082174207997
 20
1.864368538559988
 30
0.0
 11
36.42991434367994
 21
1.871334717119988
 31
0.0
  0
LINE
  5
7F9
330
1F
100
AcDbEntity
  8
TitleBlock&Notes
  6
Continuous
 62
     3
100
AcDbLine
 10
35.93887434367994
 20
1.354877187839981
 30
0.0
 11
36.42991434367994
 21
1.363448338559986
 31
0.0
  0
LINE
  5
7FA
330
1F
100
AcDbEntity
  8
TitleBlock&Notes
  6
Continuous
 62
     3
100
AcDbLine
 10
35.93887434367994
 20
1.367551120319994
 30
0.0
 11
36.42991434367994
 21
1.37612227103999
 31
0.0
  0
LINE
  5
7FB
330
1F
100
AcDbEntity
  8
TitleBlock&Notes
  6
Continuous
 62
     3
100
AcDbLine
 10
35.93887434367994
 20
1.380225052799981
 30
0.0
 11
36.42991434367994
 21
1.388796203519986
 31
0.0
  0
LINE
  5
7FC
330
1F
100
AcDbEntity
  8
TitleBlock&Notes
  6
Continuous
 62
     3
100
AcDbLine
 10
35.93887434367994
 20
1.392898985279977
 30
0.0
 11
36.42991434367994
 21
1.401470104319979
 31
0.0
  0
LINE
  5
7FD
330
1F
100
AcDbEntity
  8
TitleBlock&Notes
  6
Continuous
 62
     3
100
AcDbLine
 10
35.93887434367994
 20
1.40557291775999
 30
0.0
 11
36.42991434367994
 21
1.414144036799991
 31
0.0
  0
LINE
  5
7FE
330
1F
100
AcDbEntity
  8
TitleBlock&Notes
  6
Continuous
 62
     3
100
AcDbLine
 10
35.93887434367994
 20
1.418246850239994
 30
0.0
 11
36.42991434367994
 21
1.426817969279996
 31
0.0
  0
LINE
  5
7FF
330
1F
100
AcDbEntity
  8
TitleBlock&Notes
  6
Continuous
 62
     3
100
AcDbLine
 10
35.93887434367994
 20
1.430920782719989
 30
0.0
 11
36.42991434367994
 21
1.439491901759991
 31
0.0
  0
LINE
  5
800
330
1F
100
AcDbEntity
  8
TitleBlock&Notes
  6
Continuous
 62
     3
100
AcDbLine
 10
35.93887434367994
 20
1.443594715199985
 30
0.0
 11
36.42991434367994
 21
1.452165834239987
 31
0.0
  0
LINE
  5
801
330
1F
100
AcDbEntity
  8
TitleBlock&Notes
  6
Continuous
 62
     3
100
AcDbLine
 10
35.93887434367994
 20
1.456268647679989
 30
0.0
 11
36.42991434367994
 21
1.464839766719983
 31
0.0
  0
LINE
  5
802
330
1F
100
AcDbEntity
  8
TitleBlock&Notes
  6
Continuous
 62
     3
100
AcDbLine
 10
35.93887434367994
 20
1.468942580159985
 30
0.0
 11
36.42991434367994
 21
1.477513699199987
 31
0.0
  0
LINE
  5
803
330
1F
100
AcDbEntity
  8
TitleBlock&Notes
  6
Continuous
 62
     3
100
AcDbLine
 10
35.93887434367994
 20
1.481616480959987
 30
0.0
 11
36.42991434367994
 21
1.490187631679991
 31
0.0
  0
LINE
  5
804
330
1F
100
AcDbEntity
  8
TitleBlock&Notes
  6
Continuous
 62
     3
100
AcDbLine
 10
35.93887434367994
 20
1.494290413439982
 30
0.0
 11
36.42991434367994
 21
1.502861564159987
 31
0.0
  0
LINE
  5
805
330
1F
100
AcDbEntity
  8
TitleBlock&Notes
  6
Continuous
 62
     3
100
AcDbLine
 10
35.93887434367994
 20
1.506964345919977
 30
0.0
 11
36.42991434367994
 21
1.515535496639982
 31
0.0
  0
LINE
  5
806
330
1F
100
AcDbEntity
  8
TitleBlock&Notes
  6
Continuous
 62
     3
100
AcDbLine
 10
35.93887434367994
 20
1.51963827839999
 30
0.0
 11
36.42991434367994
 21
1.528209429119987
 31
0.0
  0
LINE
  5
807
330
1F
100
AcDbEntity
  8
TitleBlock&Notes
  6
Continuous
 62
     3
100
AcDbLine
 10
35.93887434367994
 20
1.532312210879995
 30
0.0
 11
36.42991434367994
 21
1.540883361599982
 31
0.0
  0
LINE
  5
808
330
1F
100
AcDbEntity
  8
TitleBlock&Notes
  6
Continuous
 62
     3
100
AcDbLine
 10
35.93887434367994
 20
1.54498614335999
 30
0.0
 11
36.42991434367994
 21
1.553557294079995
 31
0.0
  0
LINE
  5
809
330
1F
100
AcDbEntity
  8
TitleBlock&Notes
  6
Continuous
 62
     3
100
AcDbLine
 10
35.93887434367994
 20
1.557660075839986
 30
0.0
 11
36.42991434367994
 21
1.56623122655999
 31
0.0
  0
LINE
  5
80A
330
1F
100
AcDbEntity
  8
TitleBlock&Notes
  6
Continuous
 62
     3
100
AcDbLine
 10
36.06453474271998
 20
1.942582688639986
 30
0.0
 11
36.42991434367994
 21
1.942582688639986
 31
0.0
  0
LINE
  5
80B
330
1F
100
AcDbEntity
  8
TitleBlock&Notes
  6
Continuous
 62
     3
100
AcDbLine
 10
36.03765448447996
 20
1.880220481919984
 30
0.0
 11
36.42991434367994
 21
1.880220481919984
 31
0.0
  0
LINE
  5
80C
330
1F
100
AcDbEntity
  8
TitleBlock&Notes
  6
Continuous
 62
     3
100
AcDbLine
 10
35.93887434367994
 20
1.630771655039986
 30
0.0
 11
36.42991434367994
 21
1.630771655039986
 31
0.0
  0
LINE
  5
80D
330
1F
100
AcDbEntity
  8
TitleBlock&Notes
  6
Continuous
 62
     3
100
AcDbLine
 10
35.93887434367994
 20
1.568409448319992
 30
0.0
 11
36.42991434367994
 21
1.568409448319992
 31
0.0
  0
LINE
  5
80E
330
1F
100
AcDbEntity
  8
TitleBlock&Notes
  6
Continuous
 62
     3
100
AcDbLine
 10
36.42991434367994
 20
2.176690380479995
 30
0.0
 11
36.16544324095997
 21
2.176690380479995
 31
0.0
  0
LINE
  5
80F
330
1F
100
AcDbEntity
  8
TitleBlock&Notes
  6
Continuous
 62
     3
100
AcDbLine
 10
36.07057272895994
 20
1.956590792639987
 30
0.0
 11
36.42991434367994
 21
1.962863147519981
 31
0.0
  0
LINE
  5
810
330
1F
100
AcDbEntity
  8
TitleBlock&Notes
  6
Continuous
 62
     3
100
AcDbLine
 10
36.07607703391997
 20
1.969360810559986
 30
0.0
 11
36.42991434367994
 21
1.975537048319982
 31
0.0
  0
LINE
  5
811
330
1F
100
AcDbEntity
  8
TitleBlock&Notes
  6
Continuous
 62
     3
100
AcDbLine
 10
36.08158137055998
 20
1.982130828479994
 30
0.0
 11
36.42991434367994
 21
1.988210980799995
 31
0.0
  0
LINE
  5
812
330
1F
100
AcDbEntity
  8
TitleBlock&Notes
  6
Continuous
 62
     3
100
AcDbLine
 10
36.08708567551996
 20
1.99490081471999
 30
0.0
 11
36.42991434367994
 21
2.000884913279991
 31
0.0
  0
LINE
  5
813
330
1F
100
AcDbEntity
  8
TitleBlock&Notes
  6
Continuous
 62
     3
100
AcDbLine
 10
36.09258998048
 20
2.007670832639989
 30
0.0
 11
36.42991434367994
 21
2.013558845759986
 31
0.0
  0
LINE
  5
814
330
1F
100
AcDbEntity
  8
TitleBlock&Notes
  6
Continuous
 62
     3
100
AcDbLine
 10
36.09809431711997
 20
2.020440850559988
 30
0.0
 11
36.42991434367994
 21
2.02623277823999
 31
0.0
  0
LINE
  5
815
330
1F
100
AcDbEntity
  8
TitleBlock&Notes
  6
Continuous
 62
     3
100
AcDbLine
 10
36.10359862207999
 20
2.033210836799985
 30
0.0
 11
36.42991434367994
 21
2.038906710719986
 31
0.0
  0
LINE
  5
816
330
1F
100
AcDbEntity
  8
TitleBlock&Notes
  6
Continuous
 62
     3
100
AcDbLine
 10
36.10910292703997
 20
2.045980854719984
 30
0.0
 11
36.42991434367994
 21
2.05158064319999
 31
0.0
  0
LINE
  5
817
330
1F
100
AcDbEntity
  8
TitleBlock&Notes
  6
Continuous
 62
     3
100
AcDbLine
 10
36.11460723199996
 20
2.058750872639983
 30
0.0
 11
36.42991434367994
 21
2.064254575679986
 31
0.0
  0
LINE
  5
818
330
1F
100
AcDbEntity
  8
TitleBlock&Notes
  6
Continuous
 62
     3
100
AcDbLine
 10
36.12011156863996
 20
2.071520890559982
 30
0.0
 11
36.42991434367994
 21
2.076928508159982
 31
0.0
  0
LINE
  5
819
330
1F
100
AcDbEntity
  8
TitleBlock&Notes
  6
Continuous
 62
     3
100
AcDbLine
 10
36.12561587359994
 20
2.084290876799979
 30
0.0
 11
36.42991434367994
 21
2.089602440639986
 31
0.0
  0
LINE
  5
81A
330
1F
100
AcDbEntity
  8
TitleBlock&Notes
  6
Continuous
 62
     3
100
AcDbLine
 10
36.15861566239999
 20
2.160850380479981
 30
0.0
 11
36.42991434367994
 21
2.160850380479981
 31
0.0
  0
LINE
  5
81B
330
1F
100
AcDbEntity
  8
TitleBlock&Notes
  6
Continuous
 62
     3
100
AcDbLine
 10
36.13173540415997
 20
2.098488173759987
 30
0.0
 11
36.42991434367994
 21
2.098488173759987
 31
0.0
  0
LINE
  5
81C
330
1F
100
AcDbEntity
  8
TitleBlock&Notes
  6
Continuous
 62
     3
100
AcDbLine
 10
35.93887434367994
 20
1.152094299839986
 30
0.0
 11
36.42991434367994
 21
1.160665450559982
 31
0.0
  0
LINE
  5
81D
330
1F
100
AcDbEntity
  8
TitleBlock&Notes
  6
Continuous
 62
     3
100
AcDbLine
 10
35.93887434367994
 20
1.16476823231999
 30
0.0
 11
36.42991434367994
 21
1.173339383039977
 31
0.0
  0
LINE
  5
81E
330
1F
100
AcDbEntity
  8
TitleBlock&Notes
  6
Continuous
 62
     3
100
AcDbLine
 10
35.93887434367994
 20
1.177442164799985
 30
0.0
 11
36.42991434367994
 21
1.18601331551999
 31
0.0
  0
LINE
  5
81F
330
1F
100
AcDbEntity
  8
TitleBlock&Notes
  6
Continuous
 62
     3
100
AcDbLine
 10
35.93887434367994
 20
1.19011609727999
 30
0.0
 11
36.42991434367994
 21
1.198687247999994
 31
0.0
  0
LINE
  5
820
330
1F
100
AcDbEntity
  8
TitleBlock&Notes
  6
Continuous
 62
     3
100
AcDbLine
 10
35.93887434367994
 20
1.202790029759985
 30
0.0
 11
36.42991434367994
 21
1.211361148799987
 31
0.0
  0
LINE
  5
821
330
1F
100
AcDbEntity
  8
TitleBlock&Notes
  6
Continuous
 62
     3
100
AcDbLine
 10
35.93887434367994
 20
1.215463962239981
 30
0.0
 11
36.42991434367994
 21
1.224035081279983
 31
0.0
  0
LINE
  5
822
330
1F
100
AcDbEntity
  8
TitleBlock&Notes
  6
Continuous
 62
     3
100
AcDbLine
 10
35.93887434367994
 20
1.228137894719985
 30
0.0
 11
36.42991434367994
 21
1.236709013759987
 31
0.0
  0
LINE
  5
823
330
1F
100
AcDbEntity
  8
TitleBlock&Notes
  6
Continuous
 62
     3
100
AcDbLine
 10
35.93887434367994
 20
1.240811827199981
 30
0.0
 11
36.42991434367994
 21
1.249382946239983
 31
0.0
  0
LINE
  5
824
330
1F
100
AcDbEntity
  8
TitleBlock&Notes
  6
Continuous
 62
     3
100
AcDbLine
 10
35.93887434367994
 20
1.253485759679993
 30
0.0
 11
36.42991434367994
 21
1.262056878719987
 31
0.0
  0
LINE
  5
825
330
1F
100
AcDbEntity
  8
TitleBlock&Notes
  6
Continuous
 62
     3
100
AcDbLine
 10
35.93887434367994
 20
1.266159692159989
 30
0.0
 11
36.42991434367994
 21
1.274730811199982
 31
0.0
  0
LINE
  5
826
330
1F
100
AcDbEntity
  8
TitleBlock&Notes
  6
Continuous
 62
     3
100
AcDbLine
 10
35.93887434367994
 20
1.278833624639985
 30
0.0
 11
36.42991434367994
 21
1.287404743679978
 31
0.0
  0
LINE
  5
827
330
1F
100
AcDbEntity
  8
TitleBlock&Notes
  6
Continuous
 62
     3
100
AcDbLine
 10
35.93887434367994
 20
1.291507525439986
 30
0.0
 11
36.42991434367994
 21
1.300078676159991
 31
0.0
  0
LINE
  5
828
330
1F
100
AcDbEntity
  8
TitleBlock&Notes
  6
Continuous
 62
     3
100
AcDbLine
 10
35.93887434367994
 20
1.30418145791999
 30
0.0
 11
36.42991434367994
 21
1.312752608639995
 31
0.0
  0
LINE
  5
829
330
1F
100
AcDbEntity
  8
TitleBlock&Notes
  6
Continuous
 62
     3
100
AcDbLine
 10
35.93887434367994
 20
1.316855390399986
 30
0.0
 11
36.42991434367994
 21
1.325426541119991
 31
0.0
  0
LINE
  5
82A
330
1F
100
AcDbEntity
  8
TitleBlock&Notes
  6
Continuous
 62
     3
100
AcDbLine
 10
35.93887434367994
 20
1.329529322879982
 30
0.0
 11
36.42991434367994
 21
1.338100473599986
 31
0.0
  0
LINE
  5
82B
330
1F
100
AcDbEntity
  8
TitleBlock&Notes
  6
Continuous
 62
     3
100
AcDbLine
 10
36.40578229375998
 20
0.9447874127999952
 30
0.0
 11
37.68270865567997
 21
0.9670762252799804
 31
0.0
  0
LINE
  5
82C
330
1F
100
AcDbEntity
  8
TitleBlock&Notes
  6
Continuous
 62
     3
100
AcDbLine
 10
35.67969332575995
 20
0.9447874127999952
 30
0.0
 11
37.68270865567997
 21
0.9797501577599845
 31
0.0
  0
LINE
  5
82D
330
1F
100
AcDbEntity
  8
TitleBlock&Notes
  6
Continuous
 62
     3
100
AcDbLine
 10
34.95360432607998
 20
0.9447874127999952
 30
0.0
 11
37.68270865567997
 21
0.9924240902399972
 31
0.0
  0
LINE
  5
82E
330
1F
100
AcDbEntity
  8
TitleBlock&Notes
  6
Continuous
 62
     3
100
AcDbLine
 10
34.22751535807995
 20
0.9447874127999952
 30
0.0
 11
37.68270865567997
 21
1.005098022719993
 31
0.0
  0
LINE
  5
82F
330
1F
100
AcDbEntity
  8
TitleBlock&Notes
  6
Continuous
 62
     3
100
AcDbLine
 10
33.50142639007999
 20
0.9447874127999952
 30
0.0
 11
37.68270865567997
 21
1.01777195519998
 31
0.0
  0
TEXT
  5
830
330
1F
100
AcDbEntity
  8
TitleBlock&Notes
  6
Continuous
 62
     3
100
AcDbText
 10
34.92304944127997
 20
0.4126115347199946
 30
0.0
 40
0.22176
  1
 HYDRAULICS
 41
0.8
 51
11.0
100
AcDbText
  0
LINE
  5
831
330
1F
100
AcDbEntity
  8
TitleBlock&Notes
  6
Continuous
 62
     3
100
AcDbLine
 10
35.93887434367994
 20
1.342203255359986
 30
0.0
 11
36.42991434367994
 21
1.35077440607999
 31
0.0
  0
TEXT
  5
832
330
1F
100
AcDbEntity
  8
TitleBlock&Notes
  6
Continuous
 62
     3
100
AcDbText
 10
33.47038436191999
 20
0.4126115347199946
 30
0.0
 40
0.22176
  1
 POWER
 41
0.8
 51
11.0
100
AcDbText
  0
TEXT
  5
833
330
1F
100
AcDbEntity
  8
TitleBlock&Notes
  6
Continuous
 62
     3
100
AcDbText
 10
34.42513956991998
 20
0.4126115347199946
 30
0.0
 40
0.22176
  1
 of
 41
0.8
 51
11.0
100
AcDbText
  0
LINE
  5
834
330
1F
100
AcDbEntity
  8
TitleBlock&Notes
  6
Continuous
 62
     3
100
AcDbLine
 10
34.65386296064
 20
1.459186534079988
 30
0.0
 11
34.79425177183995
 21
1.461637045439984
 31
0.0
  0
ARC
  5
835
330
1F
100
AcDbEntity
  8
TitleBlock&Notes
  6
Continuous
 62
     3
100
AcDbCircle
 10
34.71919434367999
 20
2.017819647359997
 30
0.0
 40
0.57433087008
100
AcDbArc
 50
5.15538982000007
 51
173.2499419800004
  0
ARC
  5
836
330
1F
100
AcDbEntity
  8
TitleBlock&Notes
  6
Continuous
 62
     3
100
AcDbCircle
 10
34.71919434367999
 20
2.017819647359997
 30
0.0
 40
0.3208877337600001
100
AcDbArc
 50
12.13355042000009
 51
170.8448616600005
  0
ARC
  5
837
330
1F
100
AcDbEntity
  8
TitleBlock&Notes
  6
Continuous
 62
     3
100
AcDbCircle
 10
34.71919434367999
 20
2.017819647359997
 30
0.0
 40
0.5901708700800001
100
AcDbArc
 50
3.474582379999952
 51
173.2499419800004
  0
ARC
  5
838
330
1F
100
AcDbEntity
  8
TitleBlock&Notes
  6
Continuous
 62
     3
100
AcDbCircle
 10
34.71919434367999
 20
2.017819647359997
 30
0.0
 40
0.55848773376
100
AcDbArc
 50
6.936458519999994
 51
173.0635414800004
  0
ARC
  5
839
330
1F
100
AcDbEntity
  8
TitleBlock&Notes
  6
Continuous
 62
     3
100
AcDbCircle
 10
34.71919434367999
 20
1.739014896959983
 30
0.0
 40
0.31902751584
100
AcDbArc
 50
186.7746279100004
 51
351.0289824700008
  0
ARC
  5
83A
330
1F
100
AcDbEntity
  8
TitleBlock&Notes
  6
Continuous
 62
     3
100
AcDbCircle
 10
34.71919434367999
 20
2.017819647359997
 30
0.0
 40
0.30617791776
100
AcDbArc
 50
9.703799320000049
 51
166.2342647900004
  0
ARC
  5
83B
330
1F
100
AcDbEntity
  8
TitleBlock&Notes
  6
Continuous
 62
     3
100
AcDbCircle
 10
34.71919434367999
 20
2.017819647359997
 30
0.0
 40
0.29033791776
100
AcDbArc
 50
7.076443859999911
 51
166.2342647900004
  0
LINE
  5
83C
330
1F
100
AcDbEntity
  8
TitleBlock&Notes
  6
Continuous
 62
     3
100
AcDbLine
 10
34.54195880959997
 20
1.942582688639986
 30
0.0
 11
35.50500819007996
 21
1.959392761919987
 31
0.0
  0
LINE
  5
83D
330
1F
100
AcDbEntity
  8
TitleBlock&Notes
  6
Continuous
 62
     3
100
AcDbLine
 10
34.43610965695995
 20
1.95340901183999
 30
0.0
 11
35.49958609471997
 21
1.971972066239989
 31
0.0
  0
LINE
  5
83E
330
1F
100
AcDbEntity
  8
TitleBlock&Notes
  6
Continuous
 62
     3
100
AcDbLine
 10
34.43621280703997
 20
1.966084718399987
 30
0.0
 11
35.49416396767998
 21
1.984551338879988
 31
0.0
  0
LINE
  5
83F
330
1F
100
AcDbEntity
  8
TitleBlock&Notes
  6
Continuous
 62
     3
100
AcDbLine
 10
34.43631592543997
 20
1.978760456639979
 30
0.0
 11
35.48874187231997
 21
1.997130643199982
 31
0.0
  0
LINE
  5
840
330
1F
100
AcDbEntity
  8
TitleBlock&Notes
  6
Continuous
 62
     3
100
AcDbLine
 10
34.43641907551995
 20
1.991436194879996
 30
0.0
 11
35.48331974528
 21
2.00970991583999
 31
0.0
  0
LINE
  5
841
330
1F
100
AcDbEntity
  8
TitleBlock&Notes
  6
Continuous
 62
     3
100
AcDbLine
 10
34.43652219391995
 20
2.004111933119988
 30
0.0
 11
35.47789764991995
 21
2.022289188479989
 31
0.0
  0
LINE
  5
842
330
1F
100
AcDbEntity
  8
TitleBlock&Notes
  6
Continuous
 62
     3
100
AcDbLine
 10
34.43662534399999
 20
2.016787671359988
 30
0.0
 11
35.47247555455999
 21
2.034868492799991
 31
0.0
  0
LINE
  5
843
330
1F
100
AcDbEntity
  8
TitleBlock&Notes
  6
Continuous
 62
     3
100
AcDbLine
 10
34.4367284624
 20
2.029463377919985
 30
0.0
 11
35.46705342751997
 21
2.047447765439982
 31
0.0
  0
LINE
  5
844
330
1F
100
AcDbEntity
  8
TitleBlock&Notes
  6
Continuous
 62
     3
100
AcDbLine
 10
34.43423036767998
 20
1.722434567039995
 30
0.0
 11
35.59838654239999
 21
1.742754974399987
 31
0.0
  0
LINE
  5
845
330
1F
100
AcDbEntity
  8
TitleBlock&Notes
  6
Continuous
 62
     3
100
AcDbLine
 10
34.43433351775996
 20
1.735110273599993
 30
0.0
 11
35.59296444703994
 21
1.755334247039995
 31
0.0
  0
LINE
  5
846
330
1F
100
AcDbEntity
  8
TitleBlock&Notes
  6
Continuous
 62
     3
100
AcDbLine
 10
34.43443663615996
 20
1.747786011839984
 30
0.0
 11
35.58754231999996
 21
1.767913551359988
 31
0.0
  0
LINE
  5
847
330
1F
100
AcDbEntity
  8
TitleBlock&Notes
  6
Continuous
 62
     3
100
AcDbLine
 10
34.43453978623998
 20
1.760461750079984
 30
0.0
 11
35.58212022463996
 21
1.780492823999987
 31
0.0
  0
LINE
  5
848
330
1F
100
AcDbEntity
  8
TitleBlock&Notes
  6
Continuous
 62
     3
100
AcDbLine
 10
34.43464290463998
 20
1.773137488319984
 30
0.0
 11
35.57669812927995
 21
1.79307212831999
 31
0.0
  0
LINE
  5
849
330
1F
100
AcDbEntity
  8
TitleBlock&Notes
  6
Continuous
 62
     3
100
AcDbLine
 10
34.43474605471996
 20
1.78581319487999
 30
0.0
 11
35.57127600223998
 21
1.80565140095998
 31
0.0
  0
LINE
  5
84A
330
1F
100
AcDbEntity
  8
TitleBlock&Notes
  6
Continuous
 62
     3
100
AcDbLine
 10
34.43484917311997
 20
1.79848893311999
 30
0.0
 11
35.56585390687998
 21
1.818230705279983
 31
0.0
  0
LINE
  5
84B
330
1F
100
AcDbEntity
  8
TitleBlock&Notes
  6
Continuous
 62
     3
100
AcDbLine
 10
34.4349523232
 20
1.811164671359991
 30
0.0
 11
35.56043181151997
 21
1.83080997791999
 31
0.0
  0
LINE
  5
84C
330
1F
100
AcDbEntity
  8
TitleBlock&Notes
  6
Continuous
 62
     3
100
AcDbLine
 10
34.43505544159995
 20
1.823840409599991
 30
0.0
 11
35.55500968447998
 21
1.843389282239992
 31
0.0
  0
LINE
  5
84D
330
1F
100
AcDbEntity
  8
TitleBlock&Notes
  6
Continuous
 62
     3
100
AcDbLine
 10
34.43515859167997
 20
1.83651611615998
 30
0.0
 11
35.54958758911993
 21
1.855968554879983
 31
0.0
  0
LINE
  5
84E
330
1F
100
AcDbEntity
  8
TitleBlock&Notes
  6
Continuous
 62
     3
100
AcDbLine
 10
34.43526171007997
 20
1.849191854399997
 30
0.0
 11
35.54416549376
 21
1.868547859199985
 31
0.0
  0
LINE
  5
84F
330
1F
100
AcDbEntity
  8
TitleBlock&Notes
  6
Continuous
 62
     3
100
AcDbLine
 10
34.43536486015995
 20
1.86186759263998
 30
0.0
 11
35.48680083871996
 21
1.880220481919984
 31
0.0
  0
LINE
  5
850
330
1F
100
AcDbEntity
  8
TitleBlock&Notes
  6
Continuous
 62
     3
100
AcDbLine
 10
34.43602158655997
 20
1.942582688639986
 30
0.0
 11
35.51225391296
 21
1.942582688639986
 31
0.0
  0
LINE
  5
851
330
1F
100
AcDbEntity
  8
TitleBlock&Notes
  6
Continuous
 62
     3
100
AcDbLine
 10
34.435514168
 20
1.880220481919984
 30
0.0
 11
35.53913417119997
 21
1.880220481919984
 31
0.0
  0
ARC
  5
852
330
1F
100
AcDbEntity
  8
TitleBlock&Notes
  6
Continuous
 62
     3
100
AcDbCircle
 10
34.71919434367999
 20
1.739014896959983
 30
0.0
 40
0.30319363008
100
AcDbArc
 50
187.1485089300005
 51
353.5789239900008
  0
LINE
  5
853
330
1F
100
AcDbEntity
  8
TitleBlock&Notes
  6
Continuous
 62
     3
100
AcDbLine
 10
34.44710157152
 20
1.646615646719989
 30
0.0
 11
34.99434604159997
 21
1.656167831999992
 31
0.0
  0
ARC
  5
854
330
1F
100
AcDbEntity
  8
TitleBlock&Notes
  6
Continuous
 62
     3
100
AcDbCircle
 10
34.71919434367999
 20
1.739014896959983
 30
0.0
 40
0.2873536300800001
100
AcDbArc
 50
187.1485089300005
 51
356.3951218200007
  0
LINE
  5
855
330
1F
100
AcDbEntity
  8
TitleBlock&Notes
  6
Continuous
 62
     3
100
AcDbLine
 10
34.45170860383996
 20
1.634022118079987
 30
0.0
 11
34.99018132543997
 21
1.643421193919984
 31
0.0
  0
LINE
  5
856
330
1F
100
AcDbEntity
  8
TitleBlock&Notes
  6
Continuous
 62
     3
100
AcDbLine
 10
34.61508619711997
 20
1.471183623359983
 30
0.0
 11
34.83258621919997
 21
1.474980091199988
 31
0.0
  0
LINE
  5
857
330
1F
100
AcDbEntity
  8
TitleBlock&Notes
  6
Continuous
 62
     3
100
AcDbLine
 10
34.58795069311995
 20
1.483383908159977
 30
0.0
 11
34.85927940703999
 21
1.488119941439985
 31
0.0
  0
LINE
  5
858
330
1F
100
AcDbEntity
  8
TitleBlock&Notes
  6
Continuous
 62
     3
100
AcDbLine
 10
34.56635247295994
 20
1.495680816959993
 30
0.0
 11
34.88043531103995
 21
1.501163167679995
 31
0.0
  0
LINE
  5
859
330
1F
100
AcDbEntity
  8
TitleBlock&Notes
  6
Continuous
 62
     3
100
AcDbLine
 10
34.54824950719995
 20
1.508038773119987
 30
0.0
 11
34.89809596063995
 21
1.514145378239994
 31
0.0
  0
LINE
  5
85A
330
1F
100
AcDbEntity
  8
TitleBlock&Notes
  6
Continuous
 62
     3
100
AcDbLine
 10
34.53265391839996
 20
1.520440479359995
 30
0.0
 11
34.91324923327999
 21
1.527083807039987
 31
0.0
  0
LINE
  5
85B
330
1F
100
AcDbEntity
  8
TitleBlock&Notes
  6
Continuous
 62
     3
100
AcDbLine
 10
34.51899727231998
 20
1.532876019839979
 30
0.0
 11
34.92646359487995
 21
1.539988369919983
 31
0.0
  0
LINE
  5
85C
330
1F
100
AcDbEntity
  8
TitleBlock&Notes
  6
Continuous
 62
     3
100
AcDbLine
 10
34.50691670623999
 20
1.54533909023999
 30
0.0
 11
34.93810181311997
 21
1.552865466239991
 31
0.0
  0
LINE
  5
85D
330
1F
100
AcDbEntity
  8
TitleBlock&Notes
  6
Continuous
 62
     3
100
AcDbLine
 10
34.49616419743995
 20
1.557825350399984
 30
0.0
 11
34.94841203743998
 21
1.565719341119988
 31
0.0
  0
LINE
  5
85E
330
1F
100
AcDbEntity
  8
TitleBlock&Notes
  6
Continuous
 62
     3
100
AcDbLine
 10
34.45300735711999
 20
1.630771655039986
 30
0.0
 11
34.98538129855998
 21
1.630771655039986
 31
0.0
  0
LINE
  5
85F
330
1F
100
AcDbEntity
  8
TitleBlock&Notes
  6
Continuous
 62
     3
100
AcDbLine
 10
34.48796744095998
 20
1.568409448319992
 30
0.0
 11
34.95042124639997
 21
1.568409448319992
 31
0.0
  0
LINE
  5
860
330
1F
100
AcDbEntity
  8
TitleBlock&Notes
  6
Continuous
 62
     3
100
AcDbLine
 10
34.47553012639998
 20
2.175692587199991
 30
0.0
 11
34.96285852928
 21
2.175692587199991
 31
0.0
  0
LINE
  5
861
330
1F
100
AcDbEntity
  8
TitleBlock&Notes
  6
Continuous
 62
     3
100
AcDbLine
 10
34.48655742751996
 20
2.191532587199988
 30
0.0
 11
34.95183122815996
 21
2.191532587199988
 31
0.0
  0
LINE
  5
862
330
1F
100
AcDbEntity
  8
TitleBlock&Notes
  6
Continuous
 62
     3
100
AcDbLine
 10
34.43683161247997
 20
2.042139116159985
 30
0.0
 11
35.09270338111996
 21
2.053587412799986
 31
0.0
  0
LINE
  5
863
330
1F
100
AcDbEntity
  8
TitleBlock&Notes
  6
Continuous
 62
     3
100
AcDbLine
 10
34.43693473087997
 20
2.054814854399994
 30
0.0
 11
35.00571539167995
 21
2.064742954559987
 31
0.0
  0
LINE
  5
864
330
1F
100
AcDbEntity
  8
TitleBlock&Notes
  6
Continuous
 62
     3
100
AcDbLine
 10
34.43703788095994
 20
2.067490592639977
 30
0.0
 11
35.00335833631996
 21
2.077375734719989
 31
0.0
  0
LINE
  5
865
330
1F
100
AcDbEntity
  8
TitleBlock&Notes
  6
Continuous
 62
     3
100
AcDbLine
 10
34.43714099935998
 20
2.080166299199983
 30
0.0
 11
35.00041729183996
 21
2.089998345599984
 31
0.0
  0
LINE
  5
866
330
1F
100
AcDbEntity
  8
TitleBlock&Notes
  6
Continuous
 62
     3
100
AcDbLine
 10
34.44314188831998
 20
1.659220453439987
 30
0.0
 11
34.99786337695997
 21
1.668903160319986
 31
0.0
  0
LINE
  5
867
330
1F
100
AcDbEntity
  8
TitleBlock&Notes
  6
Continuous
 62
     3
100
AcDbLine
 10
34.43980373503995
 20
1.671836126399979
 30
0.0
 11
35.00075924575998
 21
1.681627622399985
 31
0.0
  0
LINE
  5
868
330
1F
100
AcDbEntity
  8
TitleBlock&Notes
  6
Continuous
 62
     3
100
AcDbLine
 10
34.43706648799996
 20
1.684462253759984
 30
0.0
 11
35.00305414495995
 21
1.694341630079988
 31
0.0
  0
LINE
  5
869
330
1F
100
AcDbEntity
  8
TitleBlock&Notes
  6
Continuous
 62
     3
100
AcDbLine
 10
34.43491430719996
 20
1.697098645439995
 30
0.0
 11
35.00476404127997
 21
1.707045405119989
 31
0.0
  0
LINE
  5
86A
330
1F
100
AcDbEntity
  8
TitleBlock&Notes
  6
Continuous
 62
     3
100
AcDbLine
 10
34.43412724927998
 20
1.709758828799986
 30
0.0
 11
35.00590071967994
 21
1.719739169279979
 31
0.0
  0
LINE
  5
86B
330
1F
100
AcDbEntity
  8
TitleBlock&Notes
  6
Continuous
 62
     3
100
AcDbLine
 10
34.99810059679996
 20
2.098488173759987
 30
0.0
 11
34.44028805887995
 21
2.098488173759987
 31
0.0
  0
LINE
  5
86C
330
1F
100
AcDbEntity
  8
TitleBlock&Notes
  6
Continuous
 62
     3
100
AcDbLine
 10
34.46653186591996
 20
2.160850380479981
 30
0.0
 11
34.97185678975998
 21
2.160850380479981
 31
0.0
  0
LINE
  5
86D
330
1F
100
AcDbEntity
  8
TitleBlock&Notes
  6
Continuous
 62
     3
100
AcDbLine
 10
34.43872351039994
 20
2.092867856639996
 30
0.0
 11
34.76071183903996
 21
2.098488173759987
 31
0.0
  0
LINE
  5
86E
330
1F
100
AcDbEntity
  8
TitleBlock&Notes
  6
Continuous
 62
     3
100
AcDbLine
 10
34.43546797855995
 20
1.874543330879989
 30
0.0
 11
34.76071183903996
 21
1.880220481919984
 31
0.0
  0
LINE
  5
86F
330
1F
100
AcDbEntity
  8
TitleBlock&Notes
  6
Continuous
 62
     3
100
AcDbLine
 10
34.49927206879999
 20
2.207372587199994
 30
0.0
 11
34.93911658687997
 21
2.207372587199994
 31
0.0
  0
LINE
  5
870
330
1F
100
AcDbEntity
  8
TitleBlock&Notes
  6
Continuous
 62
     3
100
AcDbLine
 10
34.51398746047996
 20
2.223212587199983
 30
0.0
 11
34.92440119519995
 21
2.223212587199983
 31
0.0
  0
ARC
  5
871
330
1F
100
AcDbEntity
  8
TitleBlock&Notes
  6
Continuous
 62
     3
100
AcDbCircle
 10
34.71919434367999
 20
1.739014896959983
 30
0.0
 40
0.5724675158400001
100
AcDbArc
 50
184.9874829000004
 51
356.6043585300008
  0
ARC
  5
872
330
1F
100
AcDbEntity
  8
TitleBlock&Notes
  6
Continuous
 62
     3
100
AcDbCircle
 10
34.71919434367999
 20
1.739014896959983
 30
0.0
 40
0.58830751584
100
AcDbArc
 50
184.9874829000004
 51
358.2401137300008
  0
ARC
  5
873
330
1F
100
AcDbEntity
  8
TitleBlock&Notes
  6
Continuous
 62
     3
100
AcDbCircle
 10
34.71919434367999
 20
1.739014896959983
 30
0.0
 40
0.5566275158400002
100
AcDbArc
 50
185.1275404200005
 51
354.872459580001
  0
LINE
  5
874
330
1F
100
AcDbEntity
  8
TitleBlock&Notes
  6
Continuous
 62
     3
100
AcDbLine
 10
33.19063434367997
 20
2.322867412799989
 30
0.0
 11
33.19063434367997
 21
1.166547412799981
 31
0.0
  0
LINE
  5
875
330
1F
100
AcDbEntity
  8
TitleBlock&Notes
  6
Continuous
 62
     3
100
AcDbLine
 10
33.67375434367997
 20
2.592147412799984
 30
0.0
 11
33.67375434367997
 21
1.166547412799981
 31
0.0
  0
LINE
  5
876
330
1F
100
AcDbEntity
  8
TitleBlock&Notes
  6
Continuous
 62
     3
100
AcDbLine
 10
33.94303434367996
 20
2.592147412799984
 30
0.0
 11
33.94303434367996
 21
1.166547412799981
 31
0.0
  0
LINE
  5
877
330
1F
100
AcDbEntity
  8
TitleBlock&Notes
  6
Continuous
 62
     3
100
AcDbLine
 10
33.95887434367995
 20
1.150707412799984
 30
0.0
 11
33.95887434367995
 21
2.60798741279999
 31
0.0
  0
LINE
  5
878
330
1F
100
AcDbEntity
  8
TitleBlock&Notes
  6
Continuous
 62
     3
100
AcDbLine
 10
33.65791434367995
 20
2.60798741279999
 30
0.0
 11
33.65791434367995
 21
1.150707412799984
 31
0.0
  0
LINE
  5
879
330
1F
100
AcDbEntity
  8
TitleBlock&Notes
  6
Continuous
 62
     3
100
AcDbLine
 10
33.20647434367995
 20
1.150707412799984
 30
0.0
 11
33.20647434367995
 21
2.307027412799992
 31
0.0
  0
LINE
  5
87A
330
1F
100
AcDbEntity
  8
TitleBlock&Notes
  6
Continuous
 62
     3
100
AcDbLine
 10
33.92719434367996
 20
2.576307412799987
 30
0.0
 11
33.92719434367996
 21
1.182387412799978
 31
0.0
  0
LINE
  5
87B
330
1F
100
AcDbEntity
  8
TitleBlock&Notes
  6
Continuous
 62
     3
100
AcDbLine
 10
33.68959434367996
 20
2.576307412799987
 30
0.0
 11
33.68959434367996
 21
1.182387412799978
 31
0.0
  0
LINE
  5
87C
330
1F
100
AcDbEntity
  8
TitleBlock&Notes
  6
Continuous
 62
     3
100
AcDbLine
 10
33.17479434367999
 20
2.338707412799986
 30
0.0
 11
33.17479434367999
 21
1.182387412799978
 31
0.0
  0
LINE
  5
87D
330
1F
100
AcDbEntity
  8
TitleBlock&Notes
  6
Continuous
 62
     3
100
AcDbLine
 10
33.67375434367997
 20
2.592147412799984
 30
0.0
 11
33.94303434367996
 21
2.592147412799984
 31
0.0
  0
LINE
  5
87E
330
1F
100
AcDbEntity
  8
TitleBlock&Notes
  6
Continuous
 62
     3
100
AcDbLine
 10
33.65791434367995
 20
2.60798741279999
 30
0.0
 11
33.95887434367995
 21
2.60798741279999
 31
0.0
  0
LINE
  5
87F
330
1F
100
AcDbEntity
  8
TitleBlock&Notes
  6
Continuous
 62
     3
100
AcDbLine
 10
33.68959434367996
 20
2.576307412799987
 30
0.0
 11
33.92719434367996
 21
2.576307412799987
 31
0.0
  0
LINE
  5
880
330
1F
100
AcDbEntity
  8
TitleBlock&Notes
  6
Continuous
 62
     3
100
AcDbLine
 10
33.56287434367994
 20
2.441979207359982
 30
0.0
 11
33.65791434367995
 21
2.441979207359982
 31
0.0
  0
LINE
  5
881
330
1F
100
AcDbEntity
  8
TitleBlock&Notes
  6
Continuous
 62
     3
100
AcDbLine
 10
33.56287434367994
 20
2.426139207359985
 30
0.0
 11
33.65791434367995
 21
2.426139207359985
 31
0.0
  0
LINE
  5
882
330
1F
100
AcDbEntity
  8
TitleBlock&Notes
  6
Continuous
 62
     3
100
AcDbLine
 10
33.56287434367994
 20
2.457819207359996
 30
0.0
 11
33.65791434367995
 21
2.457819207359996
 31
0.0
  0
LINE
  5
883
330
1F
100
AcDbEntity
  8
TitleBlock&Notes
  6
Continuous
 62
     3
100
AcDbLine
 10
33.56287434367994
 20
2.410299207359988
 30
0.0
 11
33.65791434367995
 21
2.410299207359988
 31
0.0
  0
LINE
  5
884
330
1F
100
AcDbEntity
  8
TitleBlock&Notes
  6
Continuous
 62
     3
100
AcDbLine
 10
33.54703434367996
 20
2.322867412799989
 30
0.0
 11
33.54703434367996
 21
2.592147412799984
 31
0.0
  0
LINE
  5
885
330
1F
100
AcDbEntity
  8
TitleBlock&Notes
  6
Continuous
 62
     3
100
AcDbLine
 10
33.56287434367994
 20
2.307027412799992
 30
0.0
 11
33.56287434367994
 21
2.60798741279999
 31
0.0
  0
LINE
  5
886
330
1F
100
AcDbEntity
  8
TitleBlock&Notes
  6
Continuous
 62
     3
100
AcDbLine
 10
33.53119434367997
 20
2.576307412799987
 30
0.0
 11
33.53119434367997
 21
2.338707412799986
 31
0.0
  0
LINE
  5
887
330
1F
100
AcDbEntity
  8
TitleBlock&Notes
  6
Continuous
 62
     3
100
AcDbLine
 10
33.20647434367995
 20
2.175692587199991
 30
0.0
 11
33.65791434367995
 21
2.175692587199991
 31
0.0
  0
LINE
  5
888
330
1F
100
AcDbEntity
  8
TitleBlock&Notes
  6
Continuous
 62
     3
100
AcDbLine
 10
33.20647434367995
 20
2.191532587199988
 30
0.0
 11
33.65791434367995
 21
2.191532587199988
 31
0.0
  0
LINE
  5
889
330
1F
100
AcDbEntity
  8
TitleBlock&Notes
  6
Continuous
 62
     3
100
AcDbLine
 10
33.20647434367995
 20
2.160850380479981
 30
0.0
 11
33.65791434367995
 21
2.160850380479981
 31
0.0
  0
LINE
  5
88A
330
1F
100
AcDbEntity
  8
TitleBlock&Notes
  6
Continuous
 62
     3
100
AcDbLine
 10
33.20647434367995
 20
2.207372587199994
 30
0.0
 11
33.65791434367995
 21
2.207372587199994
 31
0.0
  0
LINE
  5
88B
330
1F
100
AcDbEntity
  8
TitleBlock&Notes
  6
Continuous
 62
     3
100
AcDbLine
 10
33.20647434367995
 20
2.223212587199983
 30
0.0
 11
33.65791434367995
 21
2.223212587199983
 31
0.0
  0
LINE
  5
88C
330
1F
100
AcDbEntity
  8
TitleBlock&Notes
  6
Continuous
 62
     3
100
AcDbLine
 10
33.53119434367997
 20
2.338707412799986
 30
0.0
 11
33.17479434367999
 21
2.338707412799986
 31
0.0
  0
LINE
  5
88D
330
1F
100
AcDbEntity
  8
TitleBlock&Notes
  6
Continuous
 62
     3
100
AcDbLine
 10
33.19063434367997
 20
2.322867412799989
 30
0.0
 11
33.54703434367996
 21
2.322867412799989
 31
0.0
  0
LINE
  5
88E
330
1F
100
AcDbEntity
  8
TitleBlock&Notes
  6
Continuous
 62
     3
100
AcDbLine
 10
33.20647434367995
 20
2.307027412799992
 30
0.0
 11
33.56287434367994
 21
2.307027412799992
 31
0.0
  0
LINE
  5
88F
330
1F
100
AcDbEntity
  8
TitleBlock&Notes
  6
Continuous
 62
     3
100
AcDbLine
 10
33.53940022399994
 20
1.630771655039986
 30
0.0
 11
33.65791434367995
 21
1.632840327359995
 31
0.0
  0
LINE
  5
890
330
1F
100
AcDbEntity
  8
TitleBlock&Notes
  6
Continuous
 62
     3
100
AcDbLine
 10
33.20647434367995
 20
2.096706743999989
 30
0.0
 11
33.30853387135996
 21
2.098488173759987
 31
0.0
  0
LINE
  5
891
330
1F
100
AcDbEntity
  8
TitleBlock&Notes
  6
Continuous
 62
     3
100
AcDbLine
 10
33.20647434367995
 20
1.878439020479992
 30
0.0
 11
33.30853387135996
 21
1.880220481919984
 31
0.0
  0
LINE
  5
892
330
1F
100
AcDbEntity
  8
TitleBlock&Notes
  6
Continuous
 62
     3
100
AcDbLine
 10
33.20647434367995
 20
1.94461955423999
 30
0.0
 11
33.65791434367995
 21
1.952499479039981
 31
0.0
  0
LINE
  5
893
330
1F
100
AcDbEntity
  8
TitleBlock&Notes
  6
Continuous
 62
     3
100
AcDbLine
 10
33.20647434367995
 20
1.957293486719994
 30
0.0
 11
33.65791434367995
 21
1.965173411519994
 31
0.0
  0
LINE
  5
894
330
1F
100
AcDbEntity
  8
TitleBlock&Notes
  6
Continuous
 62
     3
100
AcDbLine
 10
33.20647434367995
 20
1.96996741919999
 30
0.0
 11
33.65791434367995
 21
1.977847343999989
 31
0.0
  0
LINE
  5
895
330
1F
100
AcDbEntity
  8
TitleBlock&Notes
  6
Continuous
 62
     3
100
AcDbLine
 10
33.20647434367995
 20
1.982641351679986
 30
0.0
 11
33.65791434367995
 21
1.990521276479994
 31
0.0
  0
LINE
  5
896
330
1F
100
AcDbEntity
  8
TitleBlock&Notes
  6
Continuous
 62
     3
100
AcDbLine
 10
33.20647434367995
 20
1.99531528415999
 30
0.0
 11
33.65791434367995
 21
2.00319520895999
 31
0.0
  0
LINE
  5
897
330
1F
100
AcDbEntity
  8
TitleBlock&Notes
  6
Continuous
 62
     3
100
AcDbLine
 10
33.20647434367995
 20
2.007989216639986
 30
0.0
 11
33.65791434367995
 21
2.015869141439985
 31
0.0
  0
LINE
  5
898
330
1F
100
AcDbEntity
  8
TitleBlock&Notes
  6
Continuous
 62
     3
100
AcDbLine
 10
33.20647434367995
 20
2.02066314911999
 30
0.0
 11
33.65791434367995
 21
2.028543073919989
 31
0.0
  0
LINE
  5
899
330
1F
100
AcDbEntity
  8
TitleBlock&Notes
  6
Continuous
 62
     3
100
AcDbLine
 10
33.20647434367995
 20
2.033337081599985
 30
0.0
 11
33.65791434367995
 21
2.041217006399985
 31
0.0
  0
LINE
  5
89A
330
1F
100
AcDbEntity
  8
TitleBlock&Notes
  6
Continuous
 62
     3
100
AcDbLine
 10
33.20647434367995
 20
2.046011014079981
 30
0.0
 11
33.65791434367995
 21
2.053890938879989
 31
0.0
  0
LINE
  5
89B
330
1F
100
AcDbEntity
  8
TitleBlock&Notes
  6
Continuous
 62
     3
100
AcDbLine
 10
33.20647434367995
 20
2.058684946559994
 30
0.0
 11
33.65791434367995
 21
2.066564871359985
 31
0.0
  0
LINE
  5
89C
330
1F
100
AcDbEntity
  8
TitleBlock&Notes
  6
Continuous
 62
     3
100
AcDbLine
 10
33.20647434367995
 20
2.071358879039989
 30
0.0
 11
33.65791434367995
 21
2.079238772159995
 31
0.0
  0
LINE
  5
89D
330
1F
100
AcDbEntity
  8
TitleBlock&Notes
  6
Continuous
 62
     3
100
AcDbLine
 10
33.20647434367995
 20
2.084032811519993
 30
0.0
 11
33.65791434367995
 21
2.091912704639991
 31
0.0
  0
LINE
  5
89E
330
1F
100
AcDbEntity
  8
TitleBlock&Notes
  6
Continuous
 62
     3
100
AcDbLine
 10
33.20647434367995
 20
1.637634335039992
 30
0.0
 11
33.65791434367995
 21
1.645514259839991
 31
0.0
  0
LINE
  5
89F
330
1F
100
AcDbEntity
  8
TitleBlock&Notes
  6
Continuous
 62
     3
100
AcDbLine
 10
33.20647434367995
 20
1.650308267519987
 30
0.0
 11
33.65791434367995
 21
1.658188192319987
 31
0.0
  0
LINE
  5
8A0
330
1F
100
AcDbEntity
  8
TitleBlock&Notes
  6
Continuous
 62
     3
100
AcDbLine
 10
33.20647434367995
 20
1.662982199999992
 30
0.0
 11
33.65791434367995
 21
1.670862124799991
 31
0.0
  0
LINE
  5
8A1
330
1F
100
AcDbEntity
  8
TitleBlock&Notes
  6
Continuous
 62
     3
100
AcDbLine
 10
33.20647434367995
 20
1.675656132479987
 30
0.0
 11
33.65791434367995
 21
1.683536057279987
 31
0.0
  0
LINE
  5
8A2
330
1F
100
AcDbEntity
  8
TitleBlock&Notes
  6
Continuous
 62
     3
100
AcDbLine
 10
33.20647434367995
 20
1.688330064959983
 30
0.0
 11
33.65791434367995
 21
1.696209989759991
 31
0.0
  0
LINE
  5
8A3
330
1F
100
AcDbEntity
  8
TitleBlock&Notes
  6
Continuous
 62
     3
100
AcDbLine
 10
33.20647434367995
 20
1.701003997439987
 30
0.0
 11
33.65791434367995
 21
1.708883922239986
 31
0.0
  0
LINE
  5
8A4
330
1F
100
AcDbEntity
  8
TitleBlock&Notes
  6
Continuous
 62
     3
100
AcDbLine
 10
33.20647434367995
 20
1.713677929919983
 30
0.0
 11
33.65791434367995
 21
1.721557823039988
 31
0.0
  0
LINE
  5
8A5
330
1F
100
AcDbEntity
  8
TitleBlock&Notes
  6
Continuous
 62
     3
100
AcDbLine
 10
33.20647434367995
 20
1.726351862399995
 30
0.0
 11
33.65791434367995
 21
1.734231755519984
 31
0.0
  0
LINE
  5
8A6
330
1F
100
AcDbEntity
  8
TitleBlock&Notes
  6
Continuous
 62
     3
100
AcDbLine
 10
33.20647434367995
 20
1.739025794879982
 30
0.0
 11
33.65791434367995
 21
1.746905687999996
 31
0.0
  0
LINE
  5
8A7
330
1F
100
AcDbEntity
  8
TitleBlock&Notes
  6
Continuous
 62
     3
100
AcDbLine
 10
33.20647434367995
 20
1.751699727359978
 30
0.0
 11
33.65791434367995
 21
1.759579620479984
 31
0.0
  0
LINE
  5
8A8
330
1F
100
AcDbEntity
  8
TitleBlock&Notes
  6
Continuous
 62
     3
100
AcDbLine
 10
33.20647434367995
 20
1.764373628159988
 30
0.0
 11
33.65791434367995
 21
1.772253552959979
 31
0.0
  0
LINE
  5
8A9
330
1F
100
AcDbEntity
  8
TitleBlock&Notes
  6
Continuous
 62
     3
100
AcDbLine
 10
33.20647434367995
 20
1.777047560639992
 30
0.0
 11
33.65791434367995
 21
1.784927485439992
 31
0.0
  0
LINE
  5
8AA
330
1F
100
AcDbEntity
  8
TitleBlock&Notes
  6
Continuous
 62
     3
100
AcDbLine
 10
33.20647434367995
 20
1.789721493119988
 30
0.0
 11
33.65791434367995
 21
1.797601417919987
 31
0.0
  0
LINE
  5
8AB
330
1F
100
AcDbEntity
  8
TitleBlock&Notes
  6
Continuous
 62
     3
100
AcDbLine
 10
33.20647434367995
 20
1.802395425599984
 30
0.0
 11
33.65791434367995
 21
1.810275350399992
 31
0.0
  0
LINE
  5
8AC
330
1F
100
AcDbEntity
  8
TitleBlock&Notes
  6
Continuous
 62
     3
100
AcDbLine
 10
33.20647434367995
 20
1.815069358079988
 30
0.0
 11
33.65791434367995
 21
1.822949282879987
 31
0.0
  0
LINE
  5
8AD
330
1F
100
AcDbEntity
  8
TitleBlock&Notes
  6
Continuous
 62
     3
100
AcDbLine
 10
33.20647434367995
 20
1.827743290559983
 30
0.0
 11
33.65791434367995
 21
1.835623215359983
 31
0.0
  0
LINE
  5
8AE
330
1F
100
AcDbEntity
  8
TitleBlock&Notes
  6
Continuous
 62
     3
100
AcDbLine
 10
33.20647434367995
 20
1.840417223039988
 30
0.0
 11
33.65791434367995
 21
1.848297147839987
 31
0.0
  0
LINE
  5
8AF
330
1F
100
AcDbEntity
  8
TitleBlock&Notes
  6
Continuous
 62
     3
100
AcDbLine
 10
33.20647434367995
 20
1.853091155519983
 30
0.0
 11
33.65791434367995
 21
1.860971080319983
 31
0.0
  0
LINE
  5
8B0
330
1F
100
AcDbEntity
  8
TitleBlock&Notes
  6
Continuous
 62
     3
100
AcDbLine
 10
33.20647434367995
 20
1.865765087999979
 30
0.0
 11
33.65791434367995
 21
1.873645012799987
 31
0.0
  0
LINE
  5
8B1
330
1F
100
AcDbEntity
  8
TitleBlock&Notes
  6
Continuous
 62
     3
100
AcDbLine
 10
33.20647434367995
 20
1.630771655039986
 30
0.0
 11
33.65791434367995
 21
1.630771655039986
 31
0.0
  0
LINE
  5
8B2
330
1F
100
AcDbEntity
  8
TitleBlock&Notes
  6
Continuous
 62
     3
100
AcDbLine
 10
33.20647434367995
 20
1.880220481919984
 30
0.0
 11
33.65791434367995
 21
1.880220481919984
 31
0.0
  0
LINE
  5
8B3
330
1F
100
AcDbEntity
  8
TitleBlock&Notes
  6
Continuous
 62
     3
100
AcDbLine
 10
33.20647434367995
 20
1.942582688639986
 30
0.0
 11
33.65791434367995
 21
1.942582688639986
 31
0.0
  0
LINE
  5
8B4
330
1F
100
AcDbEntity
  8
TitleBlock&Notes
  6
Continuous
 62
     3
100
AcDbLine
 10
33.20647434367995
 20
2.098488173759987
 30
0.0
 11
33.65791434367995
 21
2.098488173759987
 31
0.0
  0
LINE
  5
8B5
330
1F
100
AcDbEntity
  8
TitleBlock&Notes
  6
Continuous
 62
     3
100
AcDbLine
 10
33.95887434367995
 20
2.191532587199988
 30
0.0
 11
34.15516821727999
 21
2.191532587199988
 31
0.0
  0
LINE
  5
8B6
330
1F
100
AcDbEntity
  8
TitleBlock&Notes
  6
Continuous
 62
     3
100
AcDbLine
 10
33.95887434367995
 20
2.207372587199994
 30
0.0
 11
34.1602924256
 21
2.207372587199994
 31
0.0
  0
LINE
  5
8B7
330
1F
100
AcDbEntity
  8
TitleBlock&Notes
  6
Continuous
 62
     3
100
AcDbLine
 10
33.95887434367995
 20
2.426139207359985
 30
0.0
 11
34.29307604095998
 21
2.426139207359985
 31
0.0
  0
LINE
  5
8B8
330
1F
100
AcDbEntity
  8
TitleBlock&Notes
  6
Continuous
 62
     3
100
AcDbLine
 10
33.95887434367995
 20
2.441979207359982
 30
0.0
 11
34.30884042079998
 21
2.441979207359982
 31
0.0
  0
LINE
  5
8B9
330
1F
100
AcDbEntity
  8
TitleBlock&Notes
  6
Continuous
 62
     3
100
AcDbLine
 10
33.95887434367995
 20
2.457819207359996
 30
0.0
 11
34.32587253919996
 21
2.457819207359996
 31
0.0
  0
LINE
  5
8BA
330
1F
100
AcDbEntity
  8
TitleBlock&Notes
  6
Continuous
 62
     3
100
AcDbLine
 10
33.95887434367995
 20
2.223212587199983
 30
0.0
 11
34.16591736799995
 21
2.223212587199983
 31
0.0
  0
LINE
  5
8BB
330
1F
100
AcDbEntity
  8
TitleBlock&Notes
  6
Continuous
 62
     3
100
AcDbLine
 10
33.95887434367995
 20
2.410299207359988
 30
0.0
 11
34.27844333407998
 21
2.410299207359988
 31
0.0
  0
LINE
  5
8BC
330
1F
100
AcDbEntity
  8
TitleBlock&Notes
  6
Continuous
 62
     3
100
AcDbLine
 10
33.95887434367995
 20
2.175692587199991
 30
0.0
 11
34.15053118399995
 21
2.175692587199991
 31
0.0
  0
LINE
  5
8BD
330
1F
100
AcDbEntity
  8
TitleBlock&Notes
  6
Continuous
 62
     3
100
AcDbLine
 10
33.95887434367995
 20
2.160850380479981
 30
0.0
 11
34.14661781695998
 21
2.160850380479981
 31
0.0
  0
LINE
  5
8BE
330
1F
100
AcDbEntity
  8
TitleBlock&Notes
  6
Continuous
 62
     3
100
AcDbLine
 10
34.14895434367997
 20
1.687868550719987
 30
0.0
 11
34.14895434367997
 21
2.087187410879993
 31
0.0
  0
LINE
  5
8BF
330
1F
100
AcDbEntity
  8
TitleBlock&Notes
  6
Continuous
 62
     3
100
AcDbLine
 10
34.40239434367998
 20
1.701381052799986
 30
0.0
 11
34.40239434367998
 21
2.068875547199981
 31
0.0
  0
LINE
  5
8C0
330
1F
100
AcDbEntity
  8
TitleBlock&Notes
  6
Continuous
 62
     3
100
AcDbLine
 10
34.13311434367997
 20
1.687868550719987
 30
0.0
 11
34.13311434367997
 21
2.087187410879993
 31
0.0
  0
LINE
  5
8C1
330
1F
100
AcDbEntity
  8
TitleBlock&Notes
  6
Continuous
 62
     3
100
AcDbLine
 10
34.16479434367997
 20
1.689267412799991
 30
0.0
 11
34.16479434367997
 21
2.085267412799989
 31
0.0
  0
LINE
  5
8C2
330
1F
100
AcDbEntity
  8
TitleBlock&Notes
  6
Continuous
 62
     3
100
AcDbLine
 10
34.421356376
 20
2.087035220159994
 30
0.0
 11
34.41823485055997
 21
1.70338503455999
 31
0.0
  0
LINE
  5
8C3
330
1F
100
AcDbEntity
  8
TitleBlock&Notes
  6
Continuous
 62
     3
100
AcDbLine
 10
34.43719583743996
 20
2.086906345919989
 30
0.0
 11
34.43407434367996
 21
1.703256160319985
 31
0.0
  0
LINE
  5
8C4
330
1F
100
AcDbEntity
  8
TitleBlock&Notes
  6
Continuous
 62
     3
100
AcDbLine
 10
33.95887434367995
 20
2.097166008959986
 30
0.0
 11
34.03462287104
 21
2.098488173759987
 31
0.0
  0
LINE
  5
8C5
330
1F
100
AcDbEntity
  8
TitleBlock&Notes
  6
Continuous
 62
     3
100
AcDbLine
 10
33.95887434367995
 20
1.87889828543998
 30
0.0
 11
34.03462287104
 21
1.880220481919984
 31
0.0
  0
LINE
  5
8C6
330
1F
100
AcDbEntity
  8
TitleBlock&Notes
  6
Continuous
 62
     3
100
AcDbLine
 10
33.95887434367995
 20
1.63809359999998
 30
0.0
 11
34.13906885311999
 21
1.641238917119987
 31
0.0
  0
LINE
  5
8C7
330
1F
100
AcDbEntity
  8
TitleBlock&Notes
  6
Continuous
 62
     3
100
AcDbLine
 10
33.95887434367995
 20
1.630771655039986
 30
0.0
 11
34.14093046495994
 21
1.630771655039986
 31
0.0
  0
LINE
  5
8C8
330
1F
100
AcDbEntity
  8
TitleBlock&Notes
  6
Continuous
 62
     3
100
AcDbLine
 10
33.95887434367995
 20
1.945078819199988
 30
0.0
 11
34.13311434367997
 21
1.94812019423998
 31
0.0
  0
LINE
  5
8C9
330
1F
100
AcDbEntity
  8
TitleBlock&Notes
  6
Continuous
 62
     3
100
AcDbLine
 10
33.95887434367995
 20
1.957752751679983
 30
0.0
 11
34.13311434367997
 21
1.960794126719993
 31
0.0
  0
LINE
  5
8CA
330
1F
100
AcDbEntity
  8
TitleBlock&Notes
  6
Continuous
 62
     3
100
AcDbLine
 10
33.95887434367995
 20
1.970426684159996
 30
0.0
 11
34.13311434367997
 21
1.973468059199989
 31
0.0
  0
LINE
  5
8CB
330
1F
100
AcDbEntity
  8
TitleBlock&Notes
  6
Continuous
 62
     3
100
AcDbLine
 10
33.95887434367995
 20
1.983100616639983
 30
0.0
 11
34.13311434367997
 21
1.986141991679993
 31
0.0
  0
LINE
  5
8CC
330
1F
100
AcDbEntity
  8
TitleBlock&Notes
  6
Continuous
 62
     3
100
AcDbLine
 10
33.95887434367995
 20
1.995774549119978
 30
0.0
 11
34.13311434367997
 21
1.998815924159988
 31
0.0
  0
LINE
  5
8CD
330
1F
100
AcDbEntity
  8
TitleBlock&Notes
  6
Continuous
 62
     3
100
AcDbLine
 10
33.95887434367995
 20
2.008448481599991
 30
0.0
 11
34.13311434367997
 21
2.011489856639984
 31
0.0
  0
LINE
  5
8CE
330
1F
100
AcDbEntity
  8
TitleBlock&Notes
  6
Continuous
 62
     3
100
AcDbLine
 10
33.95887434367995
 20
2.021122414079987
 30
0.0
 11
34.13311434367997
 21
2.024163789119988
 31
0.0
  0
LINE
  5
8CF
330
1F
100
AcDbEntity
  8
TitleBlock&Notes
  6
Continuous
 62
     3
100
AcDbLine
 10
33.95887434367995
 20
2.033796346559991
 30
0.0
 11
34.13311434367997
 21
2.036837721599984
 31
0.0
  0
LINE
  5
8D0
330
1F
100
AcDbEntity
  8
TitleBlock&Notes
  6
Continuous
 62
     3
100
AcDbLine
 10
33.95887434367995
 20
2.046470279039986
 30
0.0
 11
34.13311434367997
 21
2.049511654079988
 31
0.0
  0
LINE
  5
8D1
330
1F
100
AcDbEntity
  8
TitleBlock&Notes
  6
Continuous
 62
     3
100
AcDbLine
 10
33.95887434367995
 20
2.059144211519982
 30
0.0
 11
34.13311434367997
 21
2.062185586559984
 31
0.0
  0
LINE
  5
8D2
330
1F
100
AcDbEntity
  8
TitleBlock&Notes
  6
Continuous
 62
     3
100
AcDbLine
 10
33.95887434367995
 20
2.071818143999986
 30
0.0
 11
34.13311434367997
 21
2.074859519039979
 31
0.0
  0
LINE
  5
8D3
330
1F
100
AcDbEntity
  8
TitleBlock&Notes
  6
Continuous
 62
     3
100
AcDbLine
 10
33.95887434367995
 20
2.084492076479991
 30
0.0
 11
34.13315546431999
 21
2.08753414847999
 31
0.0
  0
LINE
  5
8D4
330
1F
100
AcDbEntity
  8
TitleBlock&Notes
  6
Continuous
 62
     3
100
AcDbLine
 10
33.95887434367995
 20
1.650767532479993
 30
0.0
 11
34.13707969759997
 21
1.653878128319992
 31
0.0
  0
LINE
  5
8D5
330
1F
100
AcDbEntity
  8
TitleBlock&Notes
  6
Continuous
 62
     3
100
AcDbLine
 10
33.95887434367995
 20
1.66344146495998
 30
0.0
 11
34.13537027647998
 21
1.666522218239983
 31
0.0
  0
LINE
  5
8D6
330
1F
100
AcDbEntity
  8
TitleBlock&Notes
  6
Continuous
 62
     3
100
AcDbLine
 10
33.95887434367995
 20
1.676115397439993
 30
0.0
 11
34.13393846719995
 21
1.67917115519999
 31
0.0
  0
LINE
  5
8D7
330
1F
100
AcDbEntity
  8
TitleBlock&Notes
  6
Continuous
 62
     3
100
AcDbLine
 10
33.95887434367995
 20
1.688789329919988
 30
0.0
 11
34.13311434367997
 21
1.69183070495999
 31
0.0
  0
LINE
  5
8D8
330
1F
100
AcDbEntity
  8
TitleBlock&Notes
  6
Continuous
 62
     3
100
AcDbLine
 10
33.95887434367995
 20
1.701463262399984
 30
0.0
 11
34.13311434367997
 21
1.704504637439986
 31
0.0
  0
LINE
  5
8D9
330
1F
100
AcDbEntity
  8
TitleBlock&Notes
  6
Continuous
 62
     3
100
AcDbLine
 10
33.95887434367995
 20
1.714137194879988
 30
0.0
 11
34.13311434367997
 21
1.717178538239987
 31
0.0
  0
LINE
  5
8DA
330
1F
100
AcDbEntity
  8
TitleBlock&Notes
  6
Continuous
 62
     3
100
AcDbLine
 10
33.95887434367995
 20
1.726811127359992
 30
0.0
 11
34.13311434367997
 21
1.729852470719983
 31
0.0
  0
LINE
  5
8DB
330
1F
100
AcDbEntity
  8
TitleBlock&Notes
  6
Continuous
 62
     3
100
AcDbLine
 10
33.95887434367995
 20
1.739485028159985
 30
0.0
 11
34.13311434367997
 21
1.742526403199995
 31
0.0
  0
LINE
  5
8DC
330
1F
100
AcDbEntity
  8
TitleBlock&Notes
  6
Continuous
 62
     3
100
AcDbLine
 10
33.95887434367995
 20
1.752158960639981
 30
0.0
 11
34.13311434367997
 21
1.755200335679991
 31
0.0
  0
LINE
  5
8DD
330
1F
100
AcDbEntity
  8
TitleBlock&Notes
  6
Continuous
 62
     3
100
AcDbLine
 10
33.95887434367995
 20
1.764832893119985
 30
0.0
 11
34.13311434367997
 21
1.767874268159987
 31
0.0
  0
LINE
  5
8DE
330
1F
100
AcDbEntity
  8
TitleBlock&Notes
  6
Continuous
 62
     3
100
AcDbLine
 10
33.95887434367995
 20
1.777506825599981
 30
0.0
 11
34.13311434367997
 21
1.780548200639991
 31
0.0
  0
LINE
  5
8DF
330
1F
100
AcDbEntity
  8
TitleBlock&Notes
  6
Continuous
 62
     3
100
AcDbLine
 10
33.95887434367995
 20
1.790180758079993
 30
0.0
 11
34.13311434367997
 21
1.793222133119987
 31
0.0
  0
LINE
  5
8E0
330
1F
100
AcDbEntity
  8
TitleBlock&Notes
  6
Continuous
 62
     3
100
AcDbLine
 10
33.95887434367995
 20
1.802854690559989
 30
0.0
 11
34.13311434367997
 21
1.805896065599991
 31
0.0
  0
LINE
  5
8E1
330
1F
100
AcDbEntity
  8
TitleBlock&Notes
  6
Continuous
 62
     3
100
AcDbLine
 10
33.95887434367995
 20
1.815528623039985
 30
0.0
 11
34.13311434367997
 21
1.818569998079986
 31
0.0
  0
LINE
  5
8E2
330
1F
100
AcDbEntity
  8
TitleBlock&Notes
  6
Continuous
 62
     3
100
AcDbLine
 10
33.95887434367995
 20
1.828202555519989
 30
0.0
 11
34.13311434367997
 21
1.831243930559982
 31
0.0
  0
LINE
  5
8E3
330
1F
100
AcDbEntity
  8
TitleBlock&Notes
  6
Continuous
 62
     3
100
AcDbLine
 10
33.95887434367995
 20
1.840876487999993
 30
0.0
 11
34.13311434367997
 21
1.843917863039986
 31
0.0
  0
LINE
  5
8E4
330
1F
100
AcDbEntity
  8
TitleBlock&Notes
  6
Continuous
 62
     3
100
AcDbLine
 10
33.95887434367995
 20
1.853550420479989
 30
0.0
 11
34.13311434367997
 21
1.856591795519982
 31
0.0
  0
LINE
  5
8E5
330
1F
100
AcDbEntity
  8
TitleBlock&Notes
  6
Continuous
 62
     3
100
AcDbLine
 10
33.95887434367995
 20
1.866224352959985
 30
0.0
 11
34.13311434367997
 21
1.869265727999986
 31
0.0
  0
LINE
  5
8E6
330
1F
100
AcDbEntity
  8
TitleBlock&Notes
  6
Continuous
 62
     3
100
AcDbLine
 10
33.95887434367995
 20
1.880220481919984
 30
0.0
 11
34.13311434367997
 21
1.880220481919984
 31
0.0
  0
LINE
  5
8E7
330
1F
100
AcDbEntity
  8
TitleBlock&Notes
  6
Continuous
 62
     3
100
AcDbLine
 10
33.95887434367995
 20
1.942582688639986
 30
0.0
 11
34.13311434367997
 21
1.942582688639986
 31
0.0
  0
LINE
  5
8E8
330
1F
100
AcDbEntity
  8
TitleBlock&Notes
  6
Continuous
 62
     3
100
AcDbLine
 10
33.95887434367995
 20
2.098488173759987
 30
0.0
 11
34.13456262655996
 21
2.098488173759987
 31
0.0
  0
LINE
  5
8E9
330
1F
100
AcDbEntity
  8
TitleBlock&Notes
  6
Continuous
 62
     3
100
AcDbLine
 10
33.94303434367996
 20
1.166547412799981
 30
0.0
 11
33.67375434367997
 21
1.166547412799981
 31
0.0
  0
LINE
  5
8EA
330
1F
100
AcDbEntity
  8
TitleBlock&Notes
  6
Continuous
 62
     3
100
AcDbLine
 10
33.65791434367995
 20
1.150707412799984
 30
0.0
 11
33.95887434367995
 21
1.150707412799984
 31
0.0
  0
LINE
  5
8EB
330
1F
100
AcDbEntity
  8
TitleBlock&Notes
  6
Continuous
 62
     3
100
AcDbLine
 10
33.68959434367996
 20
1.182387412799978
 30
0.0
 11
33.92719434367996
 21
1.182387412799978
 31
0.0
  0
LINE
  5
8EC
330
1F
100
AcDbEntity
  8
TitleBlock&Notes
  6
Continuous
 62
     3
100
AcDbLine
 10
33.20647434367995
 20
1.34520477695999
 30
0.0
 11
33.65791434367995
 21
1.353084670079987
 31
0.0
  0
LINE
  5
8ED
330
1F
100
AcDbEntity
  8
TitleBlock&Notes
  6
Continuous
 62
     3
100
AcDbLine
 10
33.20647434367995
 20
1.357878709439985
 30
0.0
 11
33.65791434367995
 21
1.365758602559982
 31
0.0
  0
LINE
  5
8EE
330
1F
100
AcDbEntity
  8
TitleBlock&Notes
  6
Continuous
 62
     3
100
AcDbLine
 10
33.20647434367995
 20
1.370552610239978
 30
0.0
 11
33.65791434367995
 21
1.378432535039986
 31
0.0
  0
LINE
  5
8EF
330
1F
100
AcDbEntity
  8
TitleBlock&Notes
  6
Continuous
 62
     3
100
AcDbLine
 10
33.20647434367995
 20
1.383226542719991
 30
0.0
 11
33.65791434367995
 21
1.391106467519982
 31
0.0
  0
LINE
  5
8F0
330
1F
100
AcDbEntity
  8
TitleBlock&Notes
  6
Continuous
 62
     3
100
AcDbLine
 10
33.20647434367995
 20
1.395900475199987
 30
0.0
 11
33.65791434367995
 21
1.403780399999978
 31
0.0
  0
LINE
  5
8F1
330
1F
100
AcDbEntity
  8
TitleBlock&Notes
  6
Continuous
 62
     3
100
AcDbLine
 10
33.20647434367995
 20
1.408574407679991
 30
0.0
 11
33.65791434367995
 21
1.41645433247999
 31
0.0
  0
LINE
  5
8F2
330
1F
100
AcDbEntity
  8
TitleBlock&Notes
  6
Continuous
 62
     3
100
AcDbLine
 10
33.20647434367995
 20
1.421248340159986
 30
0.0
 11
33.65791434367995
 21
1.429128264959994
 31
0.0
  0
LINE
  5
8F3
330
1F
100
AcDbEntity
  8
TitleBlock&Notes
  6
Continuous
 62
     3
100
AcDbLine
 10
33.20647434367995
 20
1.433922272639982
 30
0.0
 11
33.65791434367995
 21
1.44180219743999
 31
0.0
  0
LINE
  5
8F4
330
1F
100
AcDbEntity
  8
TitleBlock&Notes
  6
Continuous
 62
     3
100
AcDbLine
 10
33.20647434367995
 20
1.446596205119986
 30
0.0
 11
33.65791434367995
 21
1.454476129919986
 31
0.0
  0
LINE
  5
8F5
330
1F
100
AcDbEntity
  8
TitleBlock&Notes
  6
Continuous
 62
     3
100
AcDbLine
 10
33.20647434367995
 20
1.459270137599991
 30
0.0
 11
33.65791434367995
 21
1.46715006239999
 31
0.0
  0
LINE
  5
8F6
330
1F
100
AcDbEntity
  8
TitleBlock&Notes
  6
Continuous
 62
     3
100
AcDbLine
 10
33.20647434367995
 20
1.471944070079986
 30
0.0
 11
33.65791434367995
 21
1.479823994879986
 31
0.0
  0
LINE
  5
8F7
330
1F
100
AcDbEntity
  8
TitleBlock&Notes
  6
Continuous
 62
     3
100
AcDbLine
 10
33.20647434367995
 20
1.484618002559982
 30
0.0
 11
33.65791434367995
 21
1.49249792735999
 31
0.0
  0
LINE
  5
8F8
330
1F
100
AcDbEntity
  8
TitleBlock&Notes
  6
Continuous
 62
     3
100
AcDbLine
 10
33.20647434367995
 20
1.497291935039994
 30
0.0
 11
33.65791434367995
 21
1.505171828159983
 31
0.0
  0
LINE
  5
8F9
330
1F
100
AcDbEntity
  8
TitleBlock&Notes
  6
Continuous
 62
     3
100
AcDbLine
 10
33.20647434367995
 20
1.50996586751999
 30
0.0
 11
33.65791434367995
 21
1.517845760639978
 31
0.0
  0
LINE
  5
8FA
330
1F
100
AcDbEntity
  8
TitleBlock&Notes
  6
Continuous
 62
     3
100
AcDbLine
 10
33.20647434367995
 20
1.522639799999994
 30
0.0
 11
33.65791434367995
 21
1.530519693119991
 31
0.0
  0
LINE
  5
8FB
330
1F
100
AcDbEntity
  8
TitleBlock&Notes
  6
Continuous
 62
     3
100
AcDbLine
 10
33.20647434367995
 20
1.53531373247999
 30
0.0
 11
33.65791434367995
 21
1.543193625599995
 31
0.0
  0
LINE
  5
8FC
330
1F
100
AcDbEntity
  8
TitleBlock&Notes
  6
Continuous
 62
     3
100
AcDbLine
 10
33.20647434367995
 20
1.547987633279983
 30
0.0
 11
33.65791434367995
 21
1.555867558079991
 31
0.0
  0
LINE
  5
8FD
330
1F
100
AcDbEntity
  8
TitleBlock&Notes
  6
Continuous
 62
     3
100
AcDbLine
 10
33.20647434367995
 20
1.560661565759987
 30
0.0
 11
33.65034947647993
 21
1.568409448319992
 31
0.0
  0
LINE
  5
8FE
330
1F
100
AcDbEntity
  8
TitleBlock&Notes
  6
Continuous
 62
     3
100
AcDbLine
 10
33.20647434367995
 20
1.568409448319992
 30
0.0
 11
33.65791434367995
 21
1.568409448319992
 31
0.0
  0
LINE
  5
8FF
330
1F
100
AcDbEntity
  8
TitleBlock&Notes
  6
Continuous
 62
     3
100
AcDbLine
 10
33.20647434367995
 20
1.15509582143999
 30
0.0
 11
33.65791434367995
 21
1.162975714559986
 31
0.0
  0
LINE
  5
900
330
1F
100
AcDbEntity
  8
TitleBlock&Notes
  6
Continuous
 62
     3
100
AcDbLine
 10
33.20647434367995
 20
1.167769753919985
 30
0.0
 11
33.65791434367995
 21
1.175649647039991
 31
0.0
  0
LINE
  5
901
330
1F
100
AcDbEntity
  8
TitleBlock&Notes
  6
Continuous
 62
     3
100
AcDbLine
 10
33.20647434367995
 20
1.180443654719987
 30
0.0
 11
33.65791434367995
 21
1.188323579519986
 31
0.0
  0
LINE
  5
902
330
1F
100
AcDbEntity
  8
TitleBlock&Notes
  6
Continuous
 62
     3
100
AcDbLine
 10
33.20647434367995
 20
1.193117587199982
 30
0.0
 11
33.65791434367995
 21
1.20099751199999
 31
0.0
  0
LINE
  5
903
330
1F
100
AcDbEntity
  8
TitleBlock&Notes
  6
Continuous
 62
     3
100
AcDbLine
 10
33.20647434367995
 20
1.205791519679986
 30
0.0
 11
33.65791434367995
 21
1.213671444479986
 31
0.0
  0
LINE
  5
904
330
1F
100
AcDbEntity
  8
TitleBlock&Notes
  6
Continuous
 62
     3
100
AcDbLine
 10
33.20647434367995
 20
1.218465452159982
 30
0.0
 11
33.65791434367995
 21
1.226345376959982
 31
0.0
  0
LINE
  5
905
330
1F
100
AcDbEntity
  8
TitleBlock&Notes
  6
Continuous
 62
     3
100
AcDbLine
 10
33.20647434367995
 20
1.231139384639995
 30
0.0
 11
33.65791434367995
 21
1.239019309439986
 31
0.0
  0
LINE
  5
906
330
1F
100
AcDbEntity
  8
TitleBlock&Notes
  6
Continuous
 62
     3
100
AcDbLine
 10
33.20647434367995
 20
1.24381331711999
 30
0.0
 11
33.65791434367995
 21
1.251693241919981
 31
0.0
  0
LINE
  5
907
330
1F
100
AcDbEntity
  8
TitleBlock&Notes
  6
Continuous
 62
     3
100
AcDbLine
 10
33.20647434367995
 20
1.256487249599977
 30
0.0
 11
33.65791434367995
 21
1.264367174399994
 31
0.0
  0
LINE
  5
908
330
1F
100
AcDbEntity
  8
TitleBlock&Notes
  6
Continuous
 62
     3
100
AcDbLine
 10
33.20647434367995
 20
1.26916118207999
 30
0.0
 11
33.65791434367995
 21
1.277041106879981
 31
0.0
  0
LINE
  5
909
330
1F
100
AcDbEntity
  8
TitleBlock&Notes
  6
Continuous
 62
     3
100
AcDbLine
 10
33.20647434367995
 20
1.281835114559986
 30
0.0
 11
33.65791434367995
 21
1.289715039359977
 31
0.0
  0
LINE
  5
90A
330
1F
100
AcDbEntity
  8
TitleBlock&Notes
  6
Continuous
 62
     3
100
AcDbLine
 10
33.20647434367995
 20
1.29450904703999
 30
0.0
 11
33.65791434367995
 21
1.30238897183999
 31
0.0
  0
LINE
  5
90B
330
1F
100
AcDbEntity
  8
TitleBlock&Notes
  6
Continuous
 62
     3
100
AcDbLine
 10
33.20647434367995
 20
1.307182979519986
 30
0.0
 11
33.65791434367995
 21
1.315062872639991
 31
0.0
  0
LINE
  5
90C
330
1F
100
AcDbEntity
  8
TitleBlock&Notes
  6
Continuous
 62
     3
100
AcDbLine
 10
33.20647434367995
 20
1.319856911999981
 30
0.0
 11
33.65791434367995
 21
1.327736805119987
 31
0.0
  0
LINE
  5
90D
330
1F
100
AcDbEntity
  8
TitleBlock&Notes
  6
Continuous
 62
     3
100
AcDbLine
 10
33.20647434367995
 20
1.332530844479985
 30
0.0
 11
33.65791434367995
 21
1.340410737599982
 31
0.0
  0
LINE
  5
90E
330
1F
100
AcDbEntity
  8
TitleBlock&Notes
  6
Continuous
 62
     3
100
AcDbLine
 10
33.95887434367995
 20
1.345664010239993
 30
0.0
 11
34.27679667103999
 21
1.351213364159987
 31
0.0
  0
LINE
  5
90F
330
1F
100
AcDbEntity
  8
TitleBlock&Notes
  6
Continuous
 62
     3
100
AcDbLine
 10
33.95887434367995
 20
1.358337942719988
 30
0.0
 11
34.26615393343996
 21
1.363701525119994
 31
0.0
  0
LINE
  5
910
330
1F
100
AcDbEntity
  8
TitleBlock&Notes
  6
Continuous
 62
     3
100
AcDbLine
 10
33.95887434367995
 20
1.371011875199984
 30
0.0
 11
34.25608435039996
 21
1.376199696959985
 31
0.0
  0
LINE
  5
911
330
1F
100
AcDbEntity
  8
TitleBlock&Notes
  6
Continuous
 62
     3
100
AcDbLine
 10
33.95887434367995
 20
1.38368580767998
 30
0.0
 11
34.24655253535997
 21
1.388707246079992
 31
0.0
  0
LINE
  5
912
330
1F
100
AcDbEntity
  8
TitleBlock&Notes
  6
Continuous
 62
     3
100
AcDbLine
 10
33.95887434367995
 20
1.396359740159984
 30
0.0
 11
34.23752766368
 21
1.401223665599984
 31
0.0
  0
LINE
  5
913
330
1F
100
AcDbEntity
  8
TitleBlock&Notes
  6
Continuous
 62
     3
100
AcDbLine
 10
33.95887434367995
 20
1.409033672639997
 30
0.0
 11
34.22898271231998
 21
1.413748448639985
 31
0.0
  0
LINE
  5
914
330
1F
100
AcDbEntity
  8
TitleBlock&Notes
  6
Continuous
 62
     3
100
AcDbLine
 10
33.95887434367995
 20
1.421707605119992
 30
0.0
 11
34.22089388959995
 21
1.426281183359996
 31
0.0
  0
LINE
  5
915
330
1F
100
AcDbEntity
  8
TitleBlock&Notes
  6
Continuous
 62
     3
100
AcDbLine
 10
33.95887434367995
 20
1.434381537599988
 30
0.0
 11
34.21324012831998
 21
1.438821521279989
 31
0.0
  0
LINE
  5
916
330
1F
100
AcDbEntity
  8
TitleBlock&Notes
  6
Continuous
 62
     3
100
AcDbLine
 10
33.95887434367995
 20
1.447055470079992
 30
0.0
 11
34.20600273727996
 21
1.451369113919985
 31
0.0
  0
LINE
  5
917
330
1F
100
AcDbEntity
  8
TitleBlock&Notes
  6
Continuous
 62
     3
100
AcDbLine
 10
33.95887434367995
 20
1.459729402559988
 30
0.0
 11
34.19916495775999
 21
1.463923676159986
 31
0.0
  0
LINE
  5
918
330
1F
100
AcDbEntity
  8
TitleBlock&Notes
  6
Continuous
 62
     3
100
AcDbLine
 10
33.95887434367995
 20
1.472403335039992
 30
0.0
 11
34.19271190015996
 21
1.476484986239991
 31
0.0
  0
LINE
  5
919
330
1F
100
AcDbEntity
  8
TitleBlock&Notes
  6
Continuous
 62
     3
100
AcDbLine
 10
33.95887434367995
 20
1.485077267519987
 30
0.0
 11
34.18663013215996
 21
1.489052759039985
 31
0.0
  0
LINE
  5
91A
330
1F
100
AcDbEntity
  8
TitleBlock&Notes
  6
Continuous
 62
     3
100
AcDbLine
 10
33.95887434367995
 20
1.497751199999983
 30
0.0
 11
34.18090761535998
 21
1.501626804479987
 31
0.0
  0
LINE
  5
91B
330
1F
100
AcDbEntity
  8
TitleBlock&Notes
  6
Continuous
 62
     3
100
AcDbLine
 10
33.95887434367995
 20
1.510425132479987
 30
0.0
 11
34.17553351519996
 21
1.514206932479988
 31
0.0
  0
LINE
  5
91C
330
1F
100
AcDbEntity
  8
TitleBlock&Notes
  6
Continuous
 62
     3
100
AcDbLine
 10
33.95887434367995
 20
1.523099033279997
 30
0.0
 11
34.17049810591995
 21
1.526792952959992
 31
0.0
  0
LINE
  5
91D
330
1F
100
AcDbEntity
  8
TitleBlock&Notes
  6
Continuous
 62
     3
100
AcDbLine
 10
33.95887434367995
 20
1.535772965759984
 30
0.0
 11
34.16579254879998
 21
1.539384739199987
 31
0.0
  0
LINE
  5
91E
330
1F
100
AcDbEntity
  8
TitleBlock&Notes
  6
Continuous
 62
     3
100
AcDbLine
 10
33.95887434367995
 20
1.54844689823998
 30
0.0
 11
34.16140901887995
 21
1.551982164479987
 31
0.0
  0
LINE
  5
91F
330
1F
100
AcDbEntity
  8
TitleBlock&Notes
  6
Continuous
 62
     3
100
AcDbLine
 10
33.95887434367995
 20
1.561120830719993
 30
0.0
 11
34.15734029311997
 21
1.564585070399989
 31
0.0
  0
LINE
  5
920
330
1F
100
AcDbEntity
  8
TitleBlock&Notes
  6
Continuous
 62
     3
100
AcDbLine
 10
33.95887434367995
 20
1.568409448319992
 30
0.0
 11
34.15616724607997
 21
1.568409448319992
 31
0.0
  0
LINE
  5
921
330
1F
100
AcDbEntity
  8
TitleBlock&Notes
  6
Continuous
 62
     3
100
AcDbLine
 10
33.95887434367995
 20
1.155555054719992
 30
0.0
 11
34.58394234943998
 21
1.166465678399988
 31
0.0
  0
LINE
  5
922
330
1F
100
AcDbEntity
  8
TitleBlock&Notes
  6
Continuous
 62
     3
100
AcDbLine
 10
33.95887434367995
 20
1.16822898719998
 30
0.0
 11
34.54086103423995
 21
1.178387622719991
 31
0.0
  0
LINE
  5
923
330
1F
100
AcDbEntity
  8
TitleBlock&Notes
  6
Continuous
 62
     3
100
AcDbLine
 10
33.95887434367995
 20
1.180902919679992
 30
0.0
 11
34.50659832223996
 21
1.190463500159991
 31
0.0
  0
LINE
  5
924
330
1F
100
AcDbEntity
  8
TitleBlock&Notes
  6
Continuous
 62
     3
100
AcDbLine
 10
33.95887434367995
 20
1.193576852159988
 30
0.0
 11
34.47753930368
 21
1.202630204159986
 31
0.0
  0
LINE
  5
925
330
1F
100
AcDbEntity
  8
TitleBlock&Notes
  6
Continuous
 62
     3
100
AcDbLine
 10
33.95887434367995
 20
1.206250784639983
 30
0.0
 11
34.45204922719995
 21
1.214859191039984
 31
0.0
  0
LINE
  5
926
330
1F
100
AcDbEntity
  8
TitleBlock&Notes
  6
Continuous
 62
     3
100
AcDbLine
 10
33.95887434367995
 20
1.218924717119988
 30
0.0
 11
34.42922134783995
 21
1.227134652479982
 31
0.0
  0
LINE
  5
927
330
1F
100
AcDbEntity
  8
TitleBlock&Notes
  6
Continuous
 62
     3
100
AcDbLine
 10
33.95887434367995
 20
1.231598649599992
 30
0.0
 11
34.40848973407995
 21
1.239446704319989
 31
0.0
  0
LINE
  5
928
330
1F
100
AcDbEntity
  8
TitleBlock&Notes
  6
Continuous
 62
     3
100
AcDbLine
 10
33.95887434367995
 20
1.244272582079988
 30
0.0
 11
34.38947270527998
 21
1.251788693759992
 31
0.0
  0
LINE
  5
929
330
1F
100
AcDbEntity
  8
TitleBlock&Notes
  6
Continuous
 62
     3
100
AcDbLine
 10
33.95887434367995
 20
1.256946514559983
 30
0.0
 11
34.37189819359995
 21
1.26415586879999
 31
0.0
  0
LINE
  5
92A
330
1F
100
AcDbEntity
  8
TitleBlock&Notes
  6
Continuous
 62
     3
100
AcDbLine
 10
33.95887434367995
 20
1.269620447039987
 30
0.0
 11
34.35556401727996
 21
1.276544681279988
 31
0.0
  0
LINE
  5
92B
330
1F
100
AcDbEntity
  8
TitleBlock&Notes
  6
Continuous
 62
     3
100
AcDbLine
 10
33.95887434367995
 20
1.282294379519983
 30
0.0
 11
34.34031507103998
 21
1.288952438399992
 31
0.0
  0
LINE
  5
92C
330
1F
100
AcDbEntity
  8
TitleBlock&Notes
  6
Continuous
 62
     3
100
AcDbLine
 10
33.95887434367995
 20
1.294968311999996
 30
0.0
 11
34.32602922847996
 21
1.301377017599982
 31
0.0
  0
LINE
  5
92D
330
1F
100
AcDbEntity
  8
TitleBlock&Notes
  6
Continuous
 62
     3
100
AcDbLine
 10
33.95887434367995
 20
1.307642244479991
 30
0.0
 11
34.31260831327997
 21
1.313816676479992
 31
0.0
  0
LINE
  5
92E
330
1F
100
AcDbEntity
  8
TitleBlock&Notes
  6
Continuous
 62
     3
100
AcDbLine
 10
33.95887434367995
 20
1.320316176959987
 30
0.0
 11
34.29997195327995
 21
1.326270052799993
 31
0.0
  0
LINE
  5
92F
330
1F
100
AcDbEntity
  8
TitleBlock&Notes
  6
Continuous
 62
     3
100
AcDbLine
 10
33.95887434367995
 20
1.332990109439991
 30
0.0
 11
34.28805343039996
 21
1.338735942719982
 31
0.0
  0
LINE
  5
930
330
1F
100
AcDbEntity
  8
TitleBlock&Notes
  6
Continuous
 62
     3
100
AcDbLine
 10
35.65375434367999
 20
1.166547412799981
 30
0.0
 11
35.65375434367999
 21
1.65431895551999
 31
0.0
  0
LINE
  5
931
330
1F
100
AcDbEntity
  8
TitleBlock&Notes
  6
Continuous
 62
     3
100
AcDbLine
 10
35.92303434367995
 20
1.65431895551999
 30
0.0
 11
35.92303434367995
 21
1.166547412799981
 31
0.0
  0
LINE
  5
932
330
1F
100
AcDbEntity
  8
TitleBlock&Notes
  6
Continuous
 62
     3
100
AcDbLine
 10
35.93887434367994
 20
1.150707412799984
 30
0.0
 11
35.93887434367994
 21
1.651050498239992
 31
0.0
  0
LINE
  5
933
330
1F
100
AcDbEntity
  8
TitleBlock&Notes
  6
Continuous
 62
     3
100
AcDbLine
 10
35.63791434367995
 20
1.651050498239992
 30
0.0
 11
35.63791434367995
 21
1.150707412799984
 31
0.0
  0
LINE
  5
934
330
1F
100
AcDbEntity
  8
TitleBlock&Notes
  6
Continuous
 62
     3
100
AcDbLine
 10
35.90719434367997
 20
1.182387412799978
 30
0.0
 11
35.90719434367997
 21
1.657587412799988
 31
0.0
  0
LINE
  5
935
330
1F
100
AcDbEntity
  8
TitleBlock&Notes
  6
Continuous
 62
     3
100
AcDbLine
 10
35.66959434367996
 20
1.182387412799978
 30
0.0
 11
35.66959434367996
 21
1.657587412799988
 31
0.0
  0
LINE
  5
936
330
1F
100
AcDbEntity
  8
TitleBlock&Notes
  6
Continuous
 62
     3
100
AcDbLine
 10
35.30054962015995
 20
1.648838695679982
 30
0.0
 11
35.63634130495995
 21
1.654699970879993
 31
0.0
  0
LINE
  5
937
330
1F
100
AcDbEntity
  8
TitleBlock&Notes
  6
Continuous
 62
     3
100
AcDbLine
 10
35.29843520191996
 20
1.636127855999994
 30
0.0
 11
35.63791434367995
 21
1.642053504959993
 31
0.0
  0
LINE
  5
938
330
1F
100
AcDbEntity
  8
TitleBlock&Notes
  6
Continuous
 62
     3
100
AcDbLine
 10
35.29745822239997
 20
1.630771655039986
 30
0.0
 11
35.63791434367995
 21
1.630771655039986
 31
0.0
  0
LINE
  5
939
330
1F
100
AcDbEntity
  8
TitleBlock&Notes
  6
Continuous
 62
     3
100
AcDbLine
 10
35.30237875999998
 20
1.661544561599986
 30
0.0
 11
35.63091917791996
 21
1.667279243519983
 31
0.0
  0
LINE
  5
93A
330
1F
100
AcDbEntity
  8
TitleBlock&Notes
  6
Continuous
 62
     3
100
AcDbLine
 10
35.30392556767995
 20
1.674245485439981
 30
0.0
 11
35.62549708255997
 21
1.679858547839985
 31
0.0
  0
LINE
  5
93B
330
1F
100
AcDbEntity
  8
TitleBlock&Notes
  6
Continuous
 62
     3
100
AcDbLine
 10
35.30519270431995
 20
1.68694153055999
 30
0.0
 11
35.62007495551998
 21
1.692437820479985
 31
0.0
  0
LINE
  5
93C
330
1F
100
AcDbEntity
  8
TitleBlock&Notes
  6
Continuous
 62
     3
100
AcDbLine
 10
35.30618219743997
 20
1.69963272863999
 30
0.0
 11
35.61465286015998
 21
1.705017124799978
 31
0.0
  0
LINE
  5
93D
330
1F
100
AcDbEntity
  8
TitleBlock&Notes
  6
Continuous
 62
     3
100
AcDbLine
 10
35.30689582111997
 20
1.712319111359984
 30
0.0
 11
35.60923076479998
 21
1.717596397439986
 31
0.0
  0
LINE
  5
93E
330
1F
100
AcDbEntity
  8
TitleBlock&Notes
  6
Continuous
 62
     3
100
AcDbLine
 10
35.07512047423998
 20
1.720947412799985
 30
0.0
 11
35.60380863775995
 21
1.730175701759988
 31
0.0
  0
LINE
  5
93F
330
1F
100
AcDbEntity
  8
TitleBlock&Notes
  6
Continuous
 62
     3
100
AcDbLine
 10
35.24951792383996
 20
2.592147412799984
 30
0.0
 11
35.65375434367999
 21
1.65431895551999
 31
0.0
  0
LINE
  5
940
330
1F
100
AcDbEntity
  8
TitleBlock&Notes
  6
Continuous
 62
     3
100
AcDbLine
 10
35.22544153567994
 20
2.60798741279999
 30
0.0
 11
35.63791434367995
 21
1.651050498239992
 31
0.0
  0
LINE
  5
941
330
1F
100
AcDbEntity
  8
TitleBlock&Notes
  6
Continuous
 62
     3
100
AcDbLine
 10
35.66959434367996
 20
1.657587412799988
 30
0.0
 11
35.27359434367997
 21
2.576307412799987
 31
0.0
  0
LINE
  5
942
330
1F
100
AcDbEntity
  8
TitleBlock&Notes
  6
Continuous
 62
     3
100
AcDbLine
 10
35.78839434367998
 20
2.022247307519994
 30
0.0
 11
35.54274775039997
 21
2.592147412799984
 31
0.0
  0
LINE
  5
943
330
1F
100
AcDbEntity
  8
TitleBlock&Notes
  6
Continuous
 62
     3
100
AcDbLine
 10
35.78839434367998
 20
2.062264564799995
 30
0.0
 11
35.55316898143996
 21
2.60798741279999
 31
0.0
  0
LINE
  5
944
330
1F
100
AcDbEntity
  8
TitleBlock&Notes
  6
Continuous
 62
     3
100
AcDbLine
 10
35.78839434367998
 20
1.982230081919986
 30
0.0
 11
35.53232651935994
 21
2.576307412799987
 31
0.0
  0
LINE
  5
945
330
1F
100
AcDbEntity
  8
TitleBlock&Notes
  6
Continuous
 62
     3
100
AcDbLine
 10
35.28322043839998
 20
2.191532587199988
 30
0.0
 11
35.40494792383998
 21
2.191532587199988
 31
0.0
  0
LINE
  5
946
330
1F
100
AcDbEntity
  8
TitleBlock&Notes
  6
Continuous
 62
     3
100
AcDbLine
 10
35.22544153567994
 20
2.60798741279999
 30
0.0
 11
35.55316898143996
 21
2.60798741279999
 31
0.0
  0
LINE
  5
947
330
1F
100
AcDbEntity
  8
TitleBlock&Notes
  6
Continuous
 62
     3
100
AcDbLine
 10
35.39812031359997
 20
2.207372587199994
 30
0.0
 11
35.27809623007998
 21
2.207372587199994
 31
0.0
  0
LINE
  5
948
330
1F
100
AcDbEntity
  8
TitleBlock&Notes
  6
Continuous
 62
     3
100
AcDbLine
 10
35.54274775039997
 20
2.592147412799984
 30
0.0
 11
35.24951792383996
 21
2.592147412799984
 31
0.0
  0
LINE
  5
949
330
1F
100
AcDbEntity
  8
TitleBlock&Notes
  6
Continuous
 62
     3
100
AcDbLine
 10
35.39129273503994
 20
2.223212587199983
 30
0.0
 11
35.27247128767996
 21
2.223212587199983
 31
0.0
  0
LINE
  5
94A
330
1F
100
AcDbEntity
  8
TitleBlock&Notes
  6
Continuous
 62
     3
100
AcDbLine
 10
35.27359434367997
 20
2.576307412799987
 30
0.0
 11
35.53232651935994
 21
2.576307412799987
 31
0.0
  0
LINE
  5
94B
330
1F
100
AcDbEntity
  8
TitleBlock&Notes
  6
Continuous
 62
     3
100
AcDbLine
 10
35.30382438175997
 20
2.426139207359985
 30
0.0
 11
35.14531261471996
 21
2.426139207359985
 31
0.0
  0
LINE
  5
94C
330
1F
100
AcDbEntity
  8
TitleBlock&Notes
  6
Continuous
 62
     3
100
AcDbLine
 10
35.29699677151995
 20
2.441979207359982
 30
0.0
 11
35.12954823487995
 21
2.441979207359982
 31
0.0
  0
LINE
  5
94D
330
1F
100
AcDbEntity
  8
TitleBlock&Notes
  6
Continuous
 62
     3
100
AcDbLine
 10
35.11251614815998
 20
2.457819207359996
 30
0.0
 11
35.29016919295997
 21
2.457819207359996
 31
0.0
  0
LINE
  5
94E
330
1F
100
AcDbEntity
  8
TitleBlock&Notes
  6
Continuous
 62
     3
100
AcDbLine
 10
35.31065196031994
 20
2.410299207359988
 30
0.0
 11
35.15994535327996
 21
2.410299207359988
 31
0.0
  0
LINE
  5
94F
330
1F
100
AcDbEntity
  8
TitleBlock&Notes
  6
Continuous
 62
     3
100
AcDbLine
 10
35.41177550239996
 20
2.175692587199991
 30
0.0
 11
35.28785747167996
 21
2.175692587199991
 31
0.0
  0
LINE
  5
950
330
1F
100
AcDbEntity
  8
TitleBlock&Notes
  6
Continuous
 62
     3
100
AcDbLine
 10
35.41817299327997
 20
2.160850380479981
 30
0.0
 11
35.29177083871999
 21
2.160850380479981
 31
0.0
  0
LINE
  5
951
330
1F
100
AcDbEntity
  8
TitleBlock&Notes
  6
Continuous
 62
     3
100
AcDbLine
 10
35.26804780927998
 20
1.942582688639986
 30
0.0
 11
35.51043028543998
 21
1.946813489279979
 31
0.0
  0
LINE
  5
952
330
1F
100
AcDbEntity
  8
TitleBlock&Notes
  6
Continuous
 62
     3
100
AcDbLine
 10
35.30804007103998
 20
2.057346118079987
 30
0.0
 11
35.46163133215995
 21
2.060027069759984
 31
0.0
  0
LINE
  5
953
330
1F
100
AcDbEntity
  8
TitleBlock&Notes
  6
Continuous
 62
     3
100
AcDbLine
 10
35.30705365087996
 20
2.070002816639989
 30
0.0
 11
35.45620923679996
 21
2.072606342399983
 31
0.0
  0
LINE
  5
954
330
1F
100
AcDbEntity
  8
TitleBlock&Notes
  6
Continuous
 62
     3
100
AcDbLine
 10
35.30579304031997
 20
2.082654763199981
 30
0.0
 11
35.45078710975998
 21
2.085185646719976
 31
0.0
  0
LINE
  5
955
330
1F
100
AcDbEntity
  8
TitleBlock&Notes
  6
Continuous
 62
     3
100
AcDbLine
 10
35.30425684543998
 20
2.095301862719991
 30
0.0
 11
35.44536501439997
 21
2.097764919359984
 31
0.0
  0
LINE
  5
956
330
1F
100
AcDbEntity
  8
TitleBlock&Notes
  6
Continuous
 62
     3
100
AcDbLine
 10
35.44505325151996
 20
2.098488173759987
 30
0.0
 11
35.30382602911998
 21
2.098488173759987
 31
0.0
  0
LINE
  5
957
330
1F
100
AcDbEntity
  8
TitleBlock&Notes
  6
Continuous
 62
     3
100
AcDbLine
 10
35.02048596991994
 20
1.705107412799988
 30
0.0
 11
35.29065677983996
 21
1.705107412799988
 31
0.0
  0
LINE
  5
958
330
1F
100
AcDbEntity
  8
TitleBlock&Notes
  6
Continuous
 62
     3
100
AcDbLine
 10
35.02099155103997
 20
2.069427412799983
 30
0.0
 11
35.29120183423998
 21
2.069427412799983
 31
0.0
  0
LINE
  5
959
330
1F
100
AcDbEntity
  8
TitleBlock&Notes
  6
Continuous
 62
     3
100
AcDbLine
 10
35.00597938111994
 20
1.720947412799985
 30
0.0
 11
35.30722434272
 21
1.720947412799985
 31
0.0
  0
LINE
  5
95A
330
1F
100
AcDbEntity
  8
TitleBlock&Notes
  6
Continuous
 62
     3
100
AcDbLine
 10
35.30828033215996
 20
2.053587412799986
 30
0.0
 11
35.00732064895996
 21
2.053587412799986
 31
0.0
  0
LINE
  5
95B
330
1F
100
AcDbEntity
  8
TitleBlock&Notes
  6
Continuous
 62
     3
100
AcDbLine
 10
35.27359434367997
 20
1.689267412799991
 30
0.0
 11
35.03431926367994
 21
1.689267412799991
 31
0.0
  0
LINE
  5
95C
330
1F
100
AcDbEntity
  8
TitleBlock&Notes
  6
Continuous
 62
     3
100
AcDbLine
 10
35.03291355871997
 20
2.085267412799989
 30
0.0
 11
35.27359434367997
 21
2.085267412799989
 31
0.0
  0
LINE
  5
95D
330
1F
100
AcDbEntity
  8
TitleBlock&Notes
  6
Continuous
 62
     3
100
AcDbLine
 10
35.92303434367995
 20
1.65431895551999
 30
0.0
 11
36.32727073183996
 21
2.592147412799984
 31
0.0
  0
LINE
  5
95E
330
1F
100
AcDbEntity
  8
TitleBlock&Notes
  6
Continuous
 62
     3
100
AcDbLine
 10
35.93887434367994
 20
1.651050498239992
 30
0.0
 11
36.35134711999996
 21
2.60798741279999
 31
0.0
  0
LINE
  5
95F
330
1F
100
AcDbEntity
  8
TitleBlock&Notes
  6
Continuous
 62
     3
100
AcDbLine
 10
35.90719434367997
 20
1.657587412799988
 30
0.0
 11
36.30319434367997
 21
2.576307412799987
 31
0.0
  0
LINE
  5
960
330
1F
100
AcDbEntity
  8
TitleBlock&Notes
  6
Continuous
 62
     3
100
AcDbLine
 10
35.78839434367998
 20
2.022247307519994
 30
0.0
 11
36.03404090527996
 21
2.592147412799984
 31
0.0
  0
LINE
  5
961
330
1F
100
AcDbEntity
  8
TitleBlock&Notes
  6
Continuous
 62
     3
100
AcDbLine
 10
36.02361970591997
 20
2.60798741279999
 30
0.0
 11
35.78839434367998
 21
2.062264564799995
 31
0.0
  0
LINE
  5
962
330
1F
100
AcDbEntity
  8
TitleBlock&Notes
  6
Continuous
 62
     3
100
AcDbLine
 10
35.78839434367998
 20
1.982230081919986
 30
0.0
 11
36.04446213631997
 21
2.576307412799987
 31
0.0
  0
LINE
  5
963
330
1F
100
AcDbEntity
  8
TitleBlock&Notes
  6
Continuous
 62
     3
100
AcDbLine
 10
36.04446213631997
 20
2.576307412799987
 30
0.0
 11
36.30319434367997
 21
2.576307412799987
 31
0.0
  0
LINE
  5
964
330
1F
100
AcDbEntity
  8
TitleBlock&Notes
  6
Continuous
 62
     3
100
AcDbLine
 10
36.03404090527996
 20
2.592147412799984
 30
0.0
 11
36.32727073183996
 21
2.592147412799984
 31
0.0
  0
LINE
  5
965
330
1F
100
AcDbEntity
  8
TitleBlock&Notes
  6
Continuous
 62
     3
100
AcDbLine
 10
36.35134711999996
 20
2.60798741279999
 30
0.0
 11
36.02361970591997
 21
2.60798741279999
 31
0.0
  0
LINE
  5
966
330
1F
100
AcDbEntity
  8
TitleBlock&Notes
  6
Continuous
 62
     3
100
AcDbLine
 10
35.74633052671998
 20
2.159852587199994
 30
0.0
 11
35.83045812895999
 21
2.159852587199994
 31
0.0
  0
LINE
  5
967
330
1F
100
AcDbEntity
  8
TitleBlock&Notes
  6
Continuous
 62
     3
100
AcDbLine
 10
35.73950294816
 20
2.175692587199991
 30
0.0
 11
35.83728573919999
 21
2.175692587199991
 31
0.0
  0
LINE
  5
968
330
1F
100
AcDbEntity
  8
TitleBlock&Notes
  6
Continuous
 62
     3
100
AcDbLine
 10
35.73267533791994
 20
2.191532587199988
 30
0.0
 11
35.84411331775998
 21
2.191532587199988
 31
0.0
  0
LINE
  5
969
330
1F
100
AcDbEntity
  8
TitleBlock&Notes
  6
Continuous
 62
     3
100
AcDbLine
 10
35.94523685983995
 20
2.426139207359985
 30
0.0
 11
35.63155179583998
 21
2.426139207359985
 31
0.0
  0
LINE
  5
96A
330
1F
100
AcDbEntity
  8
TitleBlock&Notes
  6
Continuous
 62
     3
100
AcDbLine
 10
35.95206443839995
 20
2.441979207359982
 30
0.0
 11
35.62472421727999
 21
2.441979207359982
 31
0.0
  0
LINE
  5
96B
330
1F
100
AcDbEntity
  8
TitleBlock&Notes
  6
Continuous
 62
     3
100
AcDbLine
 10
35.61789663871996
 20
2.457819207359996
 30
0.0
 11
35.95889201695996
 21
2.457819207359996
 31
0.0
  0
LINE
  5
96C
330
1F
100
AcDbEntity
  8
TitleBlock&Notes
  6
Continuous
 62
     3
100
AcDbLine
 10
35.63837940607998
 20
2.410299207359988
 30
0.0
 11
35.93840924959997
 21
2.410299207359988
 31
0.0
  0
LINE
  5
96D
330
1F
100
AcDbEntity
  8
TitleBlock&Notes
  6
Continuous
 62
     3
100
AcDbLine
 10
35.85094089631997
 20
2.207372587199994
 30
0.0
 11
35.72584775935996
 21
2.207372587199994
 31
0.0
  0
LINE
  5
96E
330
1F
100
AcDbEntity
  8
TitleBlock&Notes
  6
Continuous
 62
     3
100
AcDbLine
 10
35.71902018079998
 20
2.223212587199983
 30
0.0
 11
35.85776847487997
 21
2.223212587199983
 31
0.0
  0
LINE
  5
96F
330
1F
100
AcDbEntity
  8
TitleBlock&Notes
  6
Continuous
 62
     3
100
AcDbLine
 10
36.03632607871998
 20
1.877138556479987
 30
0.0
 11
36.21288980671997
 21
1.880220481919984
 31
0.0
  0
LINE
  5
970
330
1F
100
AcDbEntity
  8
TitleBlock&Notes
  6
Continuous
 62
     3
100
AcDbLine
 10
35.78691146623997
 20
2.06570485439998
 30
0.0
 11
35.78989968223995
 21
2.065756999679989
 31
0.0
  0
LINE
  5
971
330
1F
100
AcDbEntity
  8
TitleBlock&Notes
  6
Continuous
 62
     3
100
AcDbLine
 10
35.78148933919996
 20
2.078284127039988
 30
0.0
 11
35.79540401887996
 21
2.078527017599988
 31
0.0
  0
LINE
  5
972
330
1F
100
AcDbEntity
  8
TitleBlock&Notes
  6
Continuous
 62
     3
100
AcDbLine
 10
35.77606724384
 20
2.09086343135999
 30
0.0
 11
35.80090832383993
 21
2.091297035519987
 31
0.0
  0
LINE
  5
973
330
1F
100
AcDbEntity
  8
TitleBlock&Notes
  6
Continuous
 62
     3
100
AcDbLine
 10
35.80400795839997
 20
2.098488173759987
 30
0.0
 11
35.77278069727999
 21
2.098488173759987
 31
0.0
  0
LINE
  5
974
330
1F
100
AcDbEntity
  8
TitleBlock&Notes
  6
Continuous
 62
     3
100
AcDbLine
 10
36.13112017855997
 20
2.097060894719978
 30
0.0
 11
36.21288980671997
 21
2.098488173759987
 31
0.0
  0
LINE
  5
975
330
1F
100
AcDbEntity
  8
TitleBlock&Notes
  6
Continuous
 62
     3
100
AcDbLine
 10
35.19468424735995
 20
1.392583040639986
 30
0.0
 11
35.63791434367995
 21
1.400319645119988
 31
0.0
  0
LINE
  5
976
330
1F
100
AcDbEntity
  8
TitleBlock&Notes
  6
Continuous
 62
     3
100
AcDbLine
 10
35.20377377791999
 20
1.405415626559987
 30
0.0
 11
35.63791434367995
 21
1.412993577599984
 31
0.0
  0
LINE
  5
977
330
1F
100
AcDbEntity
  8
TitleBlock&Notes
  6
Continuous
 62
     3
100
AcDbLine
 10
35.21235633343997
 20
1.418239342079978
 30
0.0
 11
35.63791434367995
 21
1.425667510079988
 31
0.0
  0
LINE
  5
978
330
1F
100
AcDbEntity
  8
TitleBlock&Notes
  6
Continuous
 62
     3
100
AcDbLine
 10
35.22045896863997
 20
1.431054725759987
 30
0.0
 11
35.63791434367995
 21
1.438341442559983
 31
0.0
  0
LINE
  5
979
330
1F
100
AcDbEntity
  8
TitleBlock&Notes
  6
Continuous
 62
     3
100
AcDbLine
 10
35.22810547519995
 20
1.443862126079984
 30
0.0
 11
35.63791434367995
 21
1.451015343359985
 31
0.0
  0
LINE
  5
97A
330
1F
100
AcDbEntity
  8
TitleBlock&Notes
  6
Continuous
 62
     3
100
AcDbLine
 10
35.23531688863997
 20
1.456661923199992
 30
0.0
 11
35.63791434367995
 21
1.463689275839981
 31
0.0
  0
LINE
  5
97B
330
1F
100
AcDbEntity
  8
TitleBlock&Notes
  6
Continuous
 62
     3
100
AcDbLine
 10
35.24211199519999
 20
1.469454465599987
 30
0.0
 11
35.63791434367995
 21
1.476363208319993
 31
0.0
  0
LINE
  5
97C
330
1F
100
AcDbEntity
  8
TitleBlock&Notes
  6
Continuous
 62
     3
100
AcDbLine
 10
35.24850745855997
 20
1.482240038399995
 30
0.0
 11
35.63791434367995
 21
1.489037140799989
 31
0.0
  0
LINE
  5
97D
330
1F
100
AcDbEntity
  8
TitleBlock&Notes
  6
Continuous
 62
     3
100
AcDbLine
 10
35.25451819999998
 20
1.495018863359989
 30
0.0
 11
35.63791434367995
 21
1.501711073279993
 31
0.0
  0
LINE
  5
97E
330
1F
100
AcDbEntity
  8
TitleBlock&Notes
  6
Continuous
 62
     3
100
AcDbLine
 10
35.26015768351996
 20
1.507791257279988
 30
0.0
 11
35.63791434367995
 21
1.514385005759989
 31
0.0
  0
LINE
  5
97F
330
1F
100
AcDbEntity
  8
TitleBlock&Notes
  6
Continuous
 62
     3
100
AcDbLine
 10
35.26543788415998
 20
1.520557346879978
 30
0.0
 11
35.63791434367995
 21
1.527058938239984
 31
0.0
  0
LINE
  5
980
330
1F
100
AcDbEntity
  8
TitleBlock&Notes
  6
Continuous
 62
     3
100
AcDbLine
 10
35.27036963647995
 20
1.533317353919984
 30
0.0
 11
35.63791434367995
 21
1.539732870719989
 31
0.0
  0
LINE
  5
981
330
1F
100
AcDbEntity
  8
TitleBlock&Notes
  6
Continuous
 62
     3
100
AcDbLine
 10
35.27496276127993
 20
1.546071468479989
 30
0.0
 11
35.63791434367995
 21
1.552406803199984
 31
0.0
  0
LINE
  5
982
330
1F
100
AcDbEntity
  8
TitleBlock&Notes
  6
Continuous
 62
     3
100
AcDbLine
 10
35.27922597055997
 20
1.558819817279986
 30
0.0
 11
35.63791434367995
 21
1.565080735679988
 31
0.0
  0
LINE
  5
983
330
1F
100
AcDbEntity
  8
TitleBlock&Notes
  6
Continuous
 62
     3
100
AcDbLine
 10
35.28222140959996
 20
1.568409448319992
 30
0.0
 11
35.63791434367995
 21
1.568409448319992
 31
0.0
  0
LINE
  5
984
330
1F
100
AcDbEntity
  8
TitleBlock&Notes
  6
Continuous
 62
     3
100
AcDbLine
 10
35.16404211583994
 20
1.35402638975999
 30
0.0
 11
35.63791434367995
 21
1.362297847679992
 31
0.0
  0
LINE
  5
985
330
1F
100
AcDbEntity
  8
TitleBlock&Notes
  6
Continuous
 62
     3
100
AcDbLine
 10
35.17485659071997
 20
1.36688907167999
 30
0.0
 11
35.63791434367995
 21
1.374971780159988
 31
0.0
  0
LINE
  5
986
330
1F
100
AcDbEntity
  8
TitleBlock&Notes
  6
Continuous
 62
     3
100
AcDbLine
 10
35.18505698047996
 20
1.379741045759983
 30
0.0
 11
35.63791434367995
 21
1.387645712639992
 31
0.0
  0
LINE
  5
987
330
1F
100
AcDbEntity
  8
TitleBlock&Notes
  6
Continuous
 62
     3
100
AcDbLine
 10
34.80985566079997
 20
1.157735082239982
 30
0.0
 11
35.63791434367995
 21
1.172188892159984
 31
0.0
  0
LINE
  5
988
330
1F
100
AcDbEntity
  8
TitleBlock&Notes
  6
Continuous
 62
     3
100
AcDbLine
 10
34.87434559135996
 20
1.171534668479988
 30
0.0
 11
35.63791434367995
 21
1.184862824639988
 31
0.0
  0
LINE
  5
989
330
1F
100
AcDbEntity
  8
TitleBlock&Notes
  6
Continuous
 62
     3
100
AcDbLine
 10
34.91698459039997
 20
1.184952890879979
 30
0.0
 11
35.63791434367995
 21
1.197536757119983
 31
0.0
  0
LINE
  5
98A
330
1F
100
AcDbEntity
  8
TitleBlock&Notes
  6
Continuous
 62
     3
100
AcDbLine
 10
34.95080498623995
 20
1.198217148479987
 30
0.0
 11
35.63791434367995
 21
1.210210689599988
 31
0.0
  0
LINE
  5
98B
330
1F
100
AcDbEntity
  8
TitleBlock&Notes
  6
Continuous
 62
     3
100
AcDbLine
 10
34.97942172031998
 20
1.211390579519992
 30
0.0
 11
35.63791434367995
 21
1.222884622079983
 31
0.0
  0
LINE
  5
98C
330
1F
100
AcDbEntity
  8
TitleBlock&Notes
  6
Continuous
 62
     3
100
AcDbLine
 10
35.00446948063998
 20
1.224501727679985
 30
0.0
 11
35.63791434367995
 21
1.235558554559979
 31
0.0
  0
LINE
  5
98D
330
1F
100
AcDbEntity
  8
TitleBlock&Notes
  6
Continuous
 62
     3
100
AcDbLine
 10
35.02685504383996
 20
1.237566401279987
 30
0.0
 11
35.63791434367995
 21
1.248232487039992
 31
0.0
  0
LINE
  5
98E
330
1F
100
AcDbEntity
  8
TitleBlock&Notes
  6
Continuous
 62
     3
100
AcDbLine
 10
35.04714434143997
 20
1.250594484479988
 30
0.0
 11
35.63791434367995
 21
1.260906419519987
 31
0.0
  0
LINE
  5
98F
330
1F
100
AcDbEntity
  8
TitleBlock&Notes
  6
Continuous
 62
     3
100
AcDbLine
 10
35.06571905407994
 20
1.263592630079993
 30
0.0
 11
35.63791434367995
 21
1.273580320319989
 31
0.0
  0
LINE
  5
990
330
1F
100
AcDbEntity
  8
TitleBlock&Notes
  6
Continuous
 62
     3
100
AcDbLine
 10
35.0828512496
 20
1.276565590079987
 30
0.0
 11
35.63791434367995
 21
1.286254252799984
 31
0.0
  0
LINE
  5
991
330
1F
100
AcDbEntity
  8
TitleBlock&Notes
  6
Continuous
 62
     3
100
AcDbLine
 10
35.09874310975996
 20
1.289516912639989
 30
0.0
 11
35.63791434367995
 21
1.298928185279989
 31
0.0
  0
LINE
  5
992
330
1F
100
AcDbEntity
  8
TitleBlock&Notes
  6
Continuous
 62
     3
100
AcDbLine
 10
35.11354973983997
 20
1.302449322239986
 30
0.0
 11
35.63791434367995
 21
1.311602117759984
 31
0.0
  0
LINE
  5
993
330
1F
100
AcDbEntity
  8
TitleBlock&Notes
  6
Continuous
 62
     3
100
AcDbLine
 10
35.12739326623995
 20
1.315364878079996
 30
0.0
 11
35.63791434367995
 21
1.324276050239989
 31
0.0
  0
LINE
  5
994
330
1F
100
AcDbEntity
  8
TitleBlock&Notes
  6
Continuous
 62
     3
100
AcDbLine
 10
35.14037186528
 20
1.328265354239978
 30
0.0
 11
35.63791434367995
 21
1.336949982719984
 31
0.0
  0
LINE
  5
995
330
1F
100
AcDbEntity
  8
TitleBlock&Notes
  6
Continuous
 62
     3
100
AcDbLine
 10
35.15256590911996
 20
1.341152112959984
 30
0.0
 11
35.63791434367995
 21
1.34962391519998
 31
0.0
  0
LINE
  5
996
330
1F
100
AcDbEntity
  8
TitleBlock&Notes
  6
Continuous
 62
     3
100
AcDbLine
 10
35.92303434367995
 20
1.166547412799981
 30
0.0
 11
35.65375434367999
 21
1.166547412799981
 31
0.0
  0
LINE
  5
997
330
1F
100
AcDbEntity
  8
TitleBlock&Notes
  6
Continuous
 62
     3
100
AcDbLine
 10
35.63791434367995
 20
1.150707412799984
 30
0.0
 11
35.93887434367994
 21
1.150707412799984
 31
0.0
  0
LINE
  5
998
330
1F
100
AcDbEntity
  8
TitleBlock&Notes
  6
Continuous
 62
     3
100
AcDbLine
 10
35.66959434367996
 20
1.182387412799978
 30
0.0
 11
35.90719434367997
 21
1.182387412799978
 31
0.0
  0
LINE
  5
999
330
1F
100
AcDbEntity
  8
TitleBlock&Notes
  6
Continuous
 62
     3
100
AcDbLine
 10
36.71503434367997
 20
1.435827412799985
 30
0.0
 11
36.71503434367997
 21
2.592147412799984
 31
0.0
  0
LINE
  5
99A
330
1F
100
AcDbEntity
  8
TitleBlock&Notes
  6
Continuous
 62
     3
100
AcDbLine
 10
36.73087434367994
 20
1.451667412799982
 30
0.0
 11
36.73087434367994
 21
2.60798741279999
 31
0.0
  0
LINE
  5
99B
330
1F
100
AcDbEntity
  8
TitleBlock&Notes
  6
Continuous
 62
     3
100
AcDbLine
 10
36.69919434367997
 20
2.576307412799987
 30
0.0
 11
36.69919434367997
 21
1.419987412799987
 31
0.0
  0
LINE
  5
99C
330
1F
100
AcDbEntity
  8
TitleBlock&Notes
  6
Continuous
 62
     3
100
AcDbLine
 10
36.44575434367999
 20
2.592147412799984
 30
0.0
 11
36.44575434367999
 21
1.166547412799981
 31
0.0
  0
LINE
  5
99D
330
1F
100
AcDbEntity
  8
TitleBlock&Notes
  6
Continuous
 62
     3
100
AcDbLine
 10
36.42991434367994
 20
2.60798741279999
 30
0.0
 11
36.42991434367994
 21
1.150707412799984
 31
0.0
  0
LINE
  5
99E
330
1F
100
AcDbEntity
  8
TitleBlock&Notes
  6
Continuous
 62
     3
100
AcDbLine
 10
36.46159434367996
 20
1.182387412799978
 30
0.0
 11
36.46159434367996
 21
2.576307412799987
 31
0.0
  0
LINE
  5
99F
330
1F
100
AcDbEntity
  8
TitleBlock&Notes
  6
Continuous
 62
     3
100
AcDbLine
 10
37.68270865567997
 20
2.191532587199988
 30
0.0
 11
37.19454092287998
 21
2.191532587199988
 31
0.0
  0
LINE
  5
9A0
330
1F
100
AcDbEntity
  8
TitleBlock&Notes
  6
Continuous
 62
     3
100
AcDbLine
 10
37.68270865567997
 20
2.207372587199994
 30
0.0
 11
37.22198403967994
 21
2.207372587199994
 31
0.0
  0
LINE
  5
9A1
330
1F
100
AcDbEntity
  8
TitleBlock&Notes
  6
Continuous
 62
     3
100
AcDbLine
 10
37.68270865567997
 20
2.223212587199983
 30
0.0
 11
37.24205217919998
 21
2.223212587199983
 31
0.0
  0
LINE
  5
9A2
330
1F
100
AcDbEntity
  8
TitleBlock&Notes
  6
Continuous
 62
     3
100
AcDbLine
 10
37.16984512735998
 20
1.630771655039986
 30
0.0
 11
37.68270865567997
 21
1.639723726079994
 31
0.0
  0
LINE
  5
9A3
330
1F
100
AcDbEntity
  8
TitleBlock&Notes
  6
Continuous
 62
     3
100
AcDbLine
 10
37.68270865567997
 20
2.175692587199991
 30
0.0
 11
37.14562684447995
 21
2.175692587199991
 31
0.0
  0
CIRCLE
  5
9A4
330
1F
100
AcDbEntity
  8
TitleBlock&Notes
  6
Continuous
 62
     3
100
AcDbCircle
 10
37.10959999999996
 20
2.370387412799979
 30
0.0
 40
0.198
  0
LINE
  5
9A5
330
1F
100
AcDbEntity
  8
TitleBlock&Notes
  6
Continuous
 62
     3
100
AcDbLine
 10
36.73087434367994
 20
1.942768555199982
 30
0.0
 11
37.68270865567997
 21
1.959382877759996
 31
0.0
  0
LINE
  5
9A6
330
1F
100
AcDbEntity
  8
TitleBlock&Notes
  6
Continuous
 62
     3
100
AcDbLine
 10
36.73087434367994
 20
1.955442487679987
 30
0.0
 11
37.68270865567997
 21
1.972056810239992
 31
0.0
  0
LINE
  5
9A7
330
1F
100
AcDbEntity
  8
TitleBlock&Notes
  6
Continuous
 62
     3
100
AcDbLine
 10
36.73087434367994
 20
1.968116420159983
 30
0.0
 11
37.68270865567997
 21
1.984730742719987
 31
0.0
  0
LINE
  5
9A8
330
1F
100
AcDbEntity
  8
TitleBlock&Notes
  6
Continuous
 62
     3
100
AcDbLine
 10
36.73087434367994
 20
1.980790352639987
 30
0.0
 11
37.68270865567997
 21
1.997404675199992
 31
0.0
  0
LINE
  5
9A9
330
1F
100
AcDbEntity
  8
TitleBlock&Notes
  6
Continuous
 62
     3
100
AcDbLine
 10
36.73087434367994
 20
1.993464285119982
 30
0.0
 11
37.68270865567997
 21
2.010078607679988
 31
0.0
  0
LINE
  5
9AA
330
1F
100
AcDbEntity
  8
TitleBlock&Notes
  6
Continuous
 62
     3
100
AcDbLine
 10
36.73087434367994
 20
2.006138185919992
 30
0.0
 11
37.68270865567997
 21
2.022752540159991
 31
0.0
  0
LINE
  5
9AB
330
1F
100
AcDbEntity
  8
TitleBlock&Notes
  6
Continuous
 62
     3
100
AcDbLine
 10
36.73087434367994
 20
2.018812118399988
 30
0.0
 11
37.68270865567997
 21
2.035426472639987
 31
0.0
  0
LINE
  5
9AC
330
1F
100
AcDbEntity
  8
TitleBlock&Notes
  6
Continuous
 62
     3
100
AcDbLine
 10
36.73087434367994
 20
2.031486050879992
 30
0.0
 11
37.68270865567997
 21
2.048100405119983
 31
0.0
  0
LINE
  5
9AD
330
1F
100
AcDbEntity
  8
TitleBlock&Notes
  6
Continuous
 62
     3
100
AcDbLine
 10
36.73087434367994
 20
2.044159983359988
 30
0.0
 11
37.68270865567997
 21
2.060774305919984
 31
0.0
  0
LINE
  5
9AE
330
1F
100
AcDbEntity
  8
TitleBlock&Notes
  6
Continuous
 62
     3
100
AcDbLine
 10
36.73087434367994
 20
2.056833915839983
 30
0.0
 11
37.68270865567997
 21
2.073448238399997
 31
0.0
  0
LINE
  5
9AF
330
1F
100
AcDbEntity
  8
TitleBlock&Notes
  6
Continuous
 62
     3
100
AcDbLine
 10
36.73087434367994
 20
2.069507848319988
 30
0.0
 11
37.68270865567997
 21
2.086122170879993
 31
0.0
  0
LINE
  5
9B0
330
1F
100
AcDbEntity
  8
TitleBlock&Notes
  6
Continuous
 62
     3
100
AcDbLine
 10
36.73087434367994
 20
2.082181780799992
 30
0.0
 11
37.66506777439994
 21
2.098488173759987
 31
0.0
  0
LINE
  5
9B1
330
1F
100
AcDbEntity
  8
TitleBlock&Notes
  6
Continuous
 62
     3
100
AcDbLine
 10
36.73087434367994
 20
1.635783304319981
 30
0.0
 11
37.68270865567997
 21
1.652397658559989
 31
0.0
  0
LINE
  5
9B2
330
1F
100
AcDbEntity
  8
TitleBlock&Notes
  6
Continuous
 62
     3
100
AcDbLine
 10
36.73087434367994
 20
1.648457236799986
 30
0.0
 11
37.68270865567997
 21
1.665071591039994
 31
0.0
  0
LINE
  5
9B3
330
1F
100
AcDbEntity
  8
TitleBlock&Notes
  6
Continuous
 62
     3
100
AcDbLine
 10
36.73087434367994
 20
1.661131169279981
 30
0.0
 11
37.68270865567997
 21
1.677745523519989
 31
0.0
  0
LINE
  5
9B4
330
1F
100
AcDbEntity
  8
TitleBlock&Notes
  6
Continuous
 62
     3
100
AcDbLine
 10
36.73087434367994
 20
1.673805101759994
 30
0.0
 11
37.68270865567997
 21
1.690419455999985
 31
0.0
  0
LINE
  5
9B5
330
1F
100
AcDbEntity
  8
TitleBlock&Notes
  6
Continuous
 62
     3
100
AcDbLine
 10
36.73087434367994
 20
1.686479034239989
 30
0.0
 11
37.68270865567997
 21
1.703093356799986
 31
0.0
  0
LINE
  5
9B6
330
1F
100
AcDbEntity
  8
TitleBlock&Notes
  6
Continuous
 62
     3
100
AcDbLine
 10
36.73087434367994
 20
1.699152966719985
 30
0.0
 11
37.68270865567997
 21
1.71576728927999
 31
0.0
  0
LINE
  5
9B7
330
1F
100
AcDbEntity
  8
TitleBlock&Notes
  6
Continuous
 62
     3
100
AcDbLine
 10
36.73087434367994
 20
1.711826899199989
 30
0.0
 11
37.68270865567997
 21
1.728441221759986
 31
0.0
  0
LINE
  5
9B8
330
1F
100
AcDbEntity
  8
TitleBlock&Notes
  6
Continuous
 62
     3
100
AcDbLine
 10
36.73087434367994
 20
1.724500831679994
 30
0.0
 11
37.68270865567997
 21
1.741115154239982
 31
0.0
  0
LINE
  5
9B9
330
1F
100
AcDbEntity
  8
TitleBlock&Notes
  6
Continuous
 62
     3
100
AcDbLine
 10
36.73087434367994
 20
1.737174764159989
 30
0.0
 11
37.68270865567997
 21
1.753789086719995
 31
0.0
  0
LINE
  5
9BA
330
1F
100
AcDbEntity
  8
TitleBlock&Notes
  6
Continuous
 62
     3
100
AcDbLine
 10
36.73087434367994
 20
1.749848696639985
 30
0.0
 11
37.68270865567997
 21
1.766463019199981
 31
0.0
  0
LINE
  5
9BB
330
1F
100
AcDbEntity
  8
TitleBlock&Notes
  6
Continuous
 62
     3
100
AcDbLine
 10
36.73087434367994
 20
1.76252262911998
 30
0.0
 11
37.68270865567997
 21
1.779136951679994
 31
0.0
  0
LINE
  5
9BC
330
1F
100
AcDbEntity
  8
TitleBlock&Notes
  6
Continuous
 62
     3
100
AcDbLine
 10
36.73087434367994
 20
1.775196561599985
 30
0.0
 11
37.68270865567997
 21
1.79181088415999
 31
0.0
  0
LINE
  5
9BD
330
1F
100
AcDbEntity
  8
TitleBlock&Notes
  6
Continuous
 62
     3
100
AcDbLine
 10
36.73087434367994
 20
1.787870494079997
 30
0.0
 11
37.68270865567997
 21
1.804484816639986
 31
0.0
  0
LINE
  5
9BE
330
1F
100
AcDbEntity
  8
TitleBlock&Notes
  6
Continuous
 62
     3
100
AcDbLine
 10
36.73087434367994
 20
1.800544426559985
 30
0.0
 11
37.68270865567997
 21
1.81715874911999
 31
0.0
  0
LINE
  5
9BF
330
1F
100
AcDbEntity
  8
TitleBlock&Notes
  6
Continuous
 62
     3
100
AcDbLine
 10
36.73087434367994
 20
1.81321835903998
 30
0.0
 11
37.68270865567997
 21
1.829832681599985
 31
0.0
  0
LINE
  5
9C0
330
1F
100
AcDbEntity
  8
TitleBlock&Notes
  6
Continuous
 62
     3
100
AcDbLine
 10
36.73087434367994
 20
1.82589225983999
 30
0.0
 11
37.68270865567997
 21
1.84250661407999
 31
0.0
  0
LINE
  5
9C1
330
1F
100
AcDbEntity
  8
TitleBlock&Notes
  6
Continuous
 62
     3
100
AcDbLine
 10
36.73087434367994
 20
1.838566192319986
 30
0.0
 11
37.68270865567997
 21
1.855180546559985
 31
0.0
  0
LINE
  5
9C2
330
1F
100
AcDbEntity
  8
TitleBlock&Notes
  6
Continuous
 62
     3
100
AcDbLine
 10
36.73087434367994
 20
1.85124012479999
 30
0.0
 11
37.68270865567997
 21
1.867854479039981
 31
0.0
  0
LINE
  5
9C3
330
1F
100
AcDbEntity
  8
TitleBlock&Notes
  6
Continuous
 62
     3
100
AcDbLine
 10
36.73087434367994
 20
1.863914057279986
 30
0.0
 11
37.66506777439994
 21
1.880220481919984
 31
0.0
  0
LINE
  5
9C4
330
1F
100
AcDbEntity
  8
TitleBlock&Notes
  6
Continuous
 62
     3
100
AcDbLine
 10
37.68270865567997
 20
1.630771655039986
 30
0.0
 11
36.73087434367994
 21
1.630771655039986
 31
0.0
  0
LINE
  5
9C5
330
1F
100
AcDbEntity
  8
TitleBlock&Notes
  6
Continuous
 62
     3
100
AcDbLine
 10
37.68270865567997
 20
1.880220481919984
 30
0.0
 11
36.73087434367994
 21
1.880220481919984
 31
0.0
  0
LINE
  5
9C6
330
1F
100
AcDbEntity
  8
TitleBlock&Notes
  6
Continuous
 62
     3
100
AcDbLine
 10
37.68270865567997
 20
1.942582688639986
 30
0.0
 11
36.73087434367994
 21
1.942582688639986
 31
0.0
  0
LINE
  5
9C7
330
1F
100
AcDbEntity
  8
TitleBlock&Notes
  6
Continuous
 62
     3
100
AcDbLine
 10
37.68270865567997
 20
2.098488173759987
 30
0.0
 11
36.73087434367994
 21
2.098488173759987
 31
0.0
  0
LINE
  5
9C8
330
1F
100
AcDbEntity
  8
TitleBlock&Notes
  6
Continuous
 62
     3
100
AcDbLine
 10
37.68270865567997
 20
2.160850380479981
 30
0.0
 11
36.73087434367994
 21
2.160850380479981
 31
0.0
  0
TEXT
  5
9C9
330
1F
100
AcDbEntity
  8
TitleBlock&Notes
  6
Continuous
 62
     3
100
AcDbText
 10
37.01066247296
 20
2.247636758399985
 30
0.0
 40
0.2376
  1
R
 41
1.1965812
100
AcDbText
  0
LINE
  5
9CA
330
1F
100
AcDbEntity
  8
TitleBlock&Notes
  6
Continuous
 62
     3
100
AcDbLine
 10
36.44575434367999
 20
2.592147412799984
 30
0.0
 11
36.71503434367997
 21
2.592147412799984
 31
0.0
  0
LINE
  5
9CB
330
1F
100
AcDbEntity
  8
TitleBlock&Notes
  6
Continuous
 62
     3
100
AcDbLine
 10
36.42991434367994
 20
2.60798741279999
 30
0.0
 11
36.73087434367994
 21
2.60798741279999
 31
0.0
  0
LINE
  5
9CC
330
1F
100
AcDbEntity
  8
TitleBlock&Notes
  6
Continuous
 62
     3
100
AcDbLine
 10
36.46159434367996
 20
2.576307412799987
 30
0.0
 11
36.69919434367997
 21
2.576307412799987
 31
0.0
  0
LINE
  5
9CD
330
1F
100
AcDbEntity
  8
TitleBlock&Notes
  6
Continuous
 62
     3
100
AcDbLine
 10
36.73087434367994
 20
2.175692587199991
 30
0.0
 11
37.07357315551996
 21
2.175692587199991
 31
0.0
  0
LINE
  5
9CE
330
1F
100
AcDbEntity
  8
TitleBlock&Notes
  6
Continuous
 62
     3
100
AcDbLine
 10
36.73087434367994
 20
2.191532587199988
 30
0.0
 11
37.02465907711998
 21
2.191532587199988
 31
0.0
  0
LINE
  5
9CF
330
1F
100
AcDbEntity
  8
TitleBlock&Notes
  6
Continuous
 62
     3
100
AcDbLine
 10
36.73087434367994
 20
2.207372587199994
 30
0.0
 11
36.99721596031995
 21
2.207372587199994
 31
0.0
  0
LINE
  5
9D0
330
1F
100
AcDbEntity
  8
TitleBlock&Notes
  6
Continuous
 62
     3
100
AcDbLine
 10
36.73087434367994
 20
2.426139207359985
 30
0.0
 11
36.91961120671995
 21
2.426139207359985
 31
0.0
  0
LINE
  5
9D1
330
1F
100
AcDbEntity
  8
TitleBlock&Notes
  6
Continuous
 62
     3
100
AcDbLine
 10
36.73087434367994
 20
2.441979207359982
 30
0.0
 11
36.92499607807997
 21
2.441979207359982
 31
0.0
  0
LINE
  5
9D2
330
1F
100
AcDbEntity
  8
TitleBlock&Notes
  6
Continuous
 62
     3
100
AcDbLine
 10
36.73087434367994
 20
2.457819207359996
 30
0.0
 11
36.93194955295996
 21
2.457819207359996
 31
0.0
  0
LINE
  5
9D3
330
1F
100
AcDbEntity
  8
TitleBlock&Notes
  6
Continuous
 62
     3
100
AcDbLine
 10
36.73087434367994
 20
2.410299207359988
 30
0.0
 11
36.91566432223996
 21
2.410299207359988
 31
0.0
  0
LINE
  5
9D4
330
1F
100
AcDbEntity
  8
TitleBlock&Notes
  6
Continuous
 62
     3
100
AcDbLine
 10
36.73087434367994
 20
2.223212587199983
 30
0.0
 11
36.97714782079998
 21
2.223212587199983
 31
0.0
  0
LINE
  5
9D5
330
1F
100
AcDbEntity
  8
TitleBlock&Notes
  6
Continuous
 62
     3
100
AcDbLine
 10
36.73087434367994
 20
2.094855713279987
 30
0.0
 11
36.93897877472
 21
2.098488173759987
 31
0.0
  0
LINE
  5
9D6
330
1F
100
AcDbEntity
  8
TitleBlock&Notes
  6
Continuous
 62
     3
100
AcDbLine
 10
36.73087434367994
 20
1.876587989759981
 30
0.0
 11
36.93897877472
 21
1.880220481919984
 31
0.0
  0
LINE
  5
9D7
330
1F
100
AcDbEntity
  8
TitleBlock&Notes
  6
Continuous
 62
     3
100
AcDbLine
 10
37.68270865567997
 20
2.426139207359985
 30
0.0
 11
37.29958879327995
 21
2.426139207359985
 31
0.0
  0
LINE
  5
9D8
330
1F
100
AcDbEntity
  8
TitleBlock&Notes
  6
Continuous
 62
     3
100
AcDbLine
 10
37.68270865567997
 20
2.441979207359982
 30
0.0
 11
37.29420392191994
 21
2.441979207359982
 31
0.0
  0
LINE
  5
9D9
330
1F
100
AcDbEntity
  8
TitleBlock&Notes
  6
Continuous
 62
     3
100
AcDbLine
 10
37.68270865567997
 20
2.457819207359996
 30
0.0
 11
37.28725044704001
 21
2.457819207359996
 31
0.0
  0
LINE
  5
9DA
330
1F
100
AcDbEntity
  8
TitleBlock&Notes
  6
Continuous
 62
     3
100
AcDbLine
 10
37.68270865567997
 20
2.410299207359988
 30
0.0
 11
37.30353567775995
 21
2.410299207359988
 31
0.0
  0
TEXT
  5
9DB
330
1F
100
AcDbEntity
  8
TitleBlock&Notes
  6
Continuous
 62
     3
100
AcDbText
 10
37.37126748607999
 20
2.273610018239991
 30
0.0
 40
0.0792
  1
INC.
 41
1.282051279999999
100
AcDbText
  0
LINE
  5
9DC
330
1F
100
AcDbEntity
  8
TitleBlock&Notes
  6
Continuous
 62
     3
100
AcDbLine
 10
37.44631474495995
 20
1.942582688639986
 30
0.0
 11
37.68270865567997
 21
1.946708945279984
 31
0.0
  0
LINE
  5
9DD
330
1F
100
AcDbEntity
  8
TitleBlock&Notes
  6
Continuous
 62
     3
100
AcDbLine
 10
37.12744781503999
 20
1.451667412799982
 30
0.0
 11
37.68270865567997
 21
1.461359528639992
 31
0.0
  0
LINE
  5
9DE
330
1F
100
AcDbEntity
  8
TitleBlock&Notes
  6
Continuous
 62
     3
100
AcDbLine
 10
37.31695434367996
 20
1.435827412799985
 30
0.0
 11
36.71503434367997
 21
1.435827412799985
 31
0.0
  0
LINE
  5
9DF
330
1F
100
AcDbEntity
  8
TitleBlock&Notes
  6
Continuous
 62
     3
100
AcDbLine
 10
36.73087434367994
 20
1.457419106879989
 30
0.0
 11
37.68270865567997
 21
1.474033461119988
 31
0.0
  0
LINE
  5
9E0
330
1F
100
AcDbEntity
  8
TitleBlock&Notes
  6
Continuous
 62
     3
100
AcDbLine
 10
36.73087434367994
 20
1.470093039359993
 30
0.0
 11
37.68270865567997
 21
1.486707361919981
 31
0.0
  0
LINE
  5
9E1
330
1F
100
AcDbEntity
  8
TitleBlock&Notes
  6
Continuous
 62
     3
100
AcDbLine
 10
36.73087434367994
 20
1.482766971839988
 30
0.0
 11
37.68270865567997
 21
1.499381294399985
 31
0.0
  0
LINE
  5
9E2
330
1F
100
AcDbEntity
  8
TitleBlock&Notes
  6
Continuous
 62
     3
100
AcDbLine
 10
36.73087434367994
 20
1.495440904319984
 30
0.0
 11
37.68270865567997
 21
1.512055226879981
 31
0.0
  0
LINE
  5
9E3
330
1F
100
AcDbEntity
  8
TitleBlock&Notes
  6
Continuous
 62
     3
100
AcDbLine
 10
36.73087434367994
 20
1.508114836799988
 30
0.0
 11
37.68270865567997
 21
1.524729159359994
 31
0.0
  0
LINE
  5
9E4
330
1F
100
AcDbEntity
  8
TitleBlock&Notes
  6
Continuous
 62
     3
100
AcDbLine
 10
36.73087434367994
 20
1.520788769279984
 30
0.0
 11
37.68270865567997
 21
1.537403091839989
 31
0.0
  0
LINE
  5
9E5
330
1F
100
AcDbEntity
  8
TitleBlock&Notes
  6
Continuous
 62
     3
100
AcDbLine
 10
36.73087434367994
 20
1.533462701759988
 30
0.0
 11
37.68270865567997
 21
1.550077024319985
 31
0.0
  0
LINE
  5
9E6
330
1F
100
AcDbEntity
  8
TitleBlock&Notes
  6
Continuous
 62
     3
100
AcDbLine
 10
36.73087434367994
 20
1.546136634239984
 30
0.0
 11
37.68270865567997
 21
1.562750956799989
 31
0.0
  0
LINE
  5
9E7
330
1F
100
AcDbEntity
  8
TitleBlock&Notes
  6
Continuous
 62
     3
100
AcDbLine
 10
36.73087434367994
 20
1.558810566719979
 30
0.0
 11
37.28079437983998
 21
1.568409448319984
 31
0.0
  0
LINE
  5
9E8
330
1F
100
AcDbEntity
  8
TitleBlock&Notes
  6
Continuous
 62
     3
100
AcDbLine
 10
37.68270865567997
 20
1.568409448319984
 30
0.0
 11
36.73087434367994
 21
1.568409448319992
 31
0.0
  0
LINE
  5
9E9
330
1F
100
AcDbEntity
  8
TitleBlock&Notes
  6
Continuous
 62
     3
100
AcDbLine
 10
37.33279434368
 20
1.451667412799982
 30
0.0
 11
36.73087434367994
 21
1.451667412799982
 31
0.0
  0
LINE
  5
9EA
330
1F
100
AcDbEntity
  8
TitleBlock&Notes
  6
Continuous
 62
     3
100
AcDbLine
 10
36.69919434367997
 20
1.419987412799987
 30
0.0
 11
37.30111434367996
 21
1.419987412799987
 31
0.0
  0
LINE
  5
9EB
330
1F
100
AcDbEntity
  8
TitleBlock&Notes
  6
Continuous
 62
     3
100
AcDbLine
 10
37.13187129343998
 20
0.9447874127999952
 30
0.0
 11
37.68270865567997
 21
0.9544022927999849
 31
0.0
  0
LINE
  5
9EC
330
1F
100
AcDbEntity
  8
TitleBlock&Notes
  6
Continuous
 62
     3
100
AcDbLine
 10
36.44575434367999
 20
1.166547412799981
 30
0.0
 11
37.31695434367996
 21
1.166547412799981
 31
0.0
  0
LINE
  5
9ED
330
1F
100
AcDbEntity
  8
TitleBlock&Notes
  6
Continuous
 62
     3
100
AcDbLine
 10
36.42991434367994
 20
1.150707412799984
 30
0.0
 11
37.33279434368
 21
1.150707412799984
 31
0.0
  0
LINE
  5
9EE
330
1F
100
AcDbEntity
  8
TitleBlock&Notes
  6
Continuous
 62
     3
100
AcDbLine
 10
36.46159434367996
 20
1.182387412799978
 30
0.0
 11
37.30111434367996
 21
1.182387412799978
 31
0.0
  0
LINE
  5
9EF
330
1F
100
AcDbEntity
  8
TitleBlock&Notes
  6
Continuous
 62
     3
100
AcDbLine
 10
37.33279434368
 20
1.353860291519991
 30
0.0
 11
37.68270865567997
 21
1.359968068799985
 31
0.0
  0
LINE
  5
9F0
330
1F
100
AcDbEntity
  8
TitleBlock&Notes
  6
Continuous
 62
     3
100
AcDbLine
 10
37.33279434368
 20
1.366534223999996
 30
0.0
 11
37.68270865567997
 21
1.37264200127998
 31
0.0
  0
LINE
  5
9F1
330
1F
100
AcDbEntity
  8
TitleBlock&Notes
  6
Continuous
 62
     3
100
AcDbLine
 10
37.33279434368
 20
1.379208156479991
 30
0.0
 11
37.68270865567997
 21
1.385315933759984
 31
0.0
  0
LINE
  5
9F2
330
1F
100
AcDbEntity
  8
TitleBlock&Notes
  6
Continuous
 62
     3
100
AcDbLine
 10
37.33279434368
 20
1.391882088959987
 30
0.0
 11
37.68270865567997
 21
1.39798986623998
 31
0.0
  0
LINE
  5
9F3
330
1F
100
AcDbEntity
  8
TitleBlock&Notes
  6
Continuous
 62
     3
100
AcDbLine
 10
37.33279434368
 20
1.404556021439982
 30
0.0
 11
37.68270865567997
 21
1.410663798719993
 31
0.0
  0
LINE
  5
9F4
330
1F
100
AcDbEntity
  8
TitleBlock&Notes
  6
Continuous
 62
     3
100
AcDbLine
 10
37.33279434368
 20
1.417229953919987
 30
0.0
 11
37.68270865567997
 21
1.423337731199988
 31
0.0
  0
LINE
  5
9F5
330
1F
100
AcDbEntity
  8
TitleBlock&Notes
  6
Continuous
 62
     3
100
AcDbLine
 10
37.33279434368
 20
1.429903886399991
 30
0.0
 11
37.68270865567997
 21
1.436011663679984
 31
0.0
  0
LINE
  5
9F6
330
1F
100
AcDbEntity
  8
TitleBlock&Notes
  6
Continuous
 62
     3
100
AcDbLine
 10
37.33279434368
 20
1.442577818879986
 30
0.0
 11
37.68270865567997
 21
1.448685596159988
 31
0.0
  0
LINE
  5
9F7
330
1F
100
AcDbEntity
  8
TitleBlock&Notes
  6
Continuous
 62
     3
100
AcDbLine
 10
37.33279434368
 20
1.151077403519987
 30
0.0
 11
37.68270865567997
 21
1.157185180799989
 31
0.0
  0
LINE
  5
9F8
330
1F
100
AcDbEntity
  8
TitleBlock&Notes
  6
Continuous
 62
     3
100
AcDbLine
 10
37.33279434368
 20
1.163751335999982
 30
0.0
 11
37.68270865567997
 21
1.169859113279993
 31
0.0
  0
LINE
  5
9F9
330
1F
100
AcDbEntity
  8
TitleBlock&Notes
  6
Continuous
 62
     3
100
AcDbLine
 10
37.33279434368
 20
1.176425268479987
 30
0.0
 11
37.68270865567997
 21
1.182533045759988
 31
0.0
  0
LINE
  5
9FA
330
1F
100
AcDbEntity
  8
TitleBlock&Notes
  6
Continuous
 62
     3
100
AcDbLine
 10
37.33279434368
 20
1.189099200959982
 30
0.0
 11
37.68270865567997
 21
1.195206978239984
 31
0.0
  0
LINE
  5
9FB
330
1F
100
AcDbEntity
  8
TitleBlock&Notes
  6
Continuous
 62
     3
100
AcDbLine
 10
37.33279434368
 20
1.201773133439987
 30
0.0
 11
37.68270865567997
 21
1.207880910719988
 31
0.0
  0
LINE
  5
9FC
330
1F
100
AcDbEntity
  8
TitleBlock&Notes
  6
Continuous
 62
     3
100
AcDbLine
 10
37.33279434368
 20
1.214447065919982
 30
0.0
 11
37.68270865567997
 21
1.220554843199984
 31
0.0
  0
LINE
  5
9FD
330
1F
100
AcDbEntity
  8
TitleBlock&Notes
  6
Continuous
 62
     3
100
AcDbLine
 10
37.33279434368
 20
1.227120998399978
 30
0.0
 11
37.68270865567997
 21
1.233228775679988
 31
0.0
  0
LINE
  5
9FE
330
1F
100
AcDbEntity
  8
TitleBlock&Notes
  6
Continuous
 62
     3
100
AcDbLine
 10
37.33279434368
 20
1.23979493087999
 30
0.0
 11
37.68270865567997
 21
1.245902708159984
 31
0.0
  0
LINE
  5
9FF
330
1F
100
AcDbEntity
  8
TitleBlock&Notes
  6
Continuous
 62
     3
100
AcDbLine
 10
37.33279434368
 20
1.252468863359995
 30
0.0
 11
37.68270865567997
 21
1.258576640639979
 31
0.0
  0
LINE
  5
A00
330
1F
100
AcDbEntity
  8
TitleBlock&Notes
  6
Continuous
 62
     3
100
AcDbLine
 10
37.33279434368
 20
1.26514279583999
 30
0.0
 11
37.68270865567997
 21
1.271250573119992
 31
0.0
  0
LINE
  5
A01
330
1F
100
AcDbEntity
  8
TitleBlock&Notes
  6
Continuous
 62
     3
100
AcDbLine
 10
37.33279434368
 20
1.277816728319986
 30
0.0
 11
37.68270865567997
 21
1.283924505599979
 31
0.0
  0
LINE
  5
A02
330
1F
100
AcDbEntity
  8
TitleBlock&Notes
  6
Continuous
 62
     3
100
AcDbLine
 10
37.33279434368
 20
1.290490629119988
 30
0.0
 11
37.68270865567997
 21
1.296598406399989
 31
0.0
  0
LINE
  5
A03
330
1F
100
AcDbEntity
  8
TitleBlock&Notes
  6
Continuous
 62
     3
100
AcDbLine
 10
37.33279434368
 20
1.303164561599983
 30
0.0
 11
37.68270865567997
 21
1.309272338879985
 31
0.0
  0
LINE
  5
A04
330
1F
100
AcDbEntity
  8
TitleBlock&Notes
  6
Continuous
 62
     3
100
AcDbLine
 10
37.33279434368
 20
1.315838494079987
 30
0.0
 11
37.68270865567997
 21
1.321946271359989
 31
0.0
  0
LINE
  5
A05
330
1F
100
AcDbEntity
  8
TitleBlock&Notes
  6
Continuous
 62
     3
100
AcDbLine
 10
37.33279434368
 20
1.328512426559983
 30
0.0
 11
37.68270865567997
 21
1.334620203839985
 31
0.0
  0
LINE
  5
A06
330
1F
100
AcDbEntity
  8
TitleBlock&Notes
  6
Continuous
 62
     3
100
AcDbLine
 10
37.30111434367996
 20
1.182387412799978
 30
0.0
 11
37.30111434367996
 21
1.419987412799987
 31
0.0
  0
LINE
  5
A07
330
1F
100
AcDbEntity
  8
TitleBlock&Notes
  6
Continuous
 62
     3
100
AcDbLine
 10
37.31695434367996
 20
1.166547412799981
 30
0.0
 11
37.31695434367996
 21
1.435827412799985
 31
0.0
  0
LINE
  5
A08
330
1F
100
AcDbEntity
  8
TitleBlock&Notes
  6
Continuous
 62
     3
100
AcDbLine
 10
37.33279434368
 20
1.341186359039979
 30
0.0
 11
37.68270865567997
 21
1.347294136319989
 31
0.0
  0
LINE
  5
A09
330
1F
100
AcDbEntity
  8
TitleBlock&Notes
  6
Continuous
 62
     3
100
AcDbLine
 10
37.33279434368
 20
1.150707412799984
 30
0.0
 11
37.33279434368
 21
1.451667412799982
 31
0.0
  0
TEXT
  5
A0C
330
1F
100
AcDbEntity
  8
TitleBlock&Notes
  6
Continuous
 62
     3
100
AcDbText
 10
41.78927387045976
 20
2.863098983069067
 30
0.0
 40
0.17424
  1
R
 41
1.165501169999999
100
AcDbText
  0
CIRCLE
  5
A0D
330
1F
100
AcDbEntity
  8
TitleBlock&Notes
  6
Continuous
 62
     3
100
AcDbCircle
 10
41.85546802661977
 20
2.949823870109067
 30
0.0
 40
0.14256
  0
TEXT
  5
A0E
330
1F
100
AcDbEntity
  8
TitleBlock&Notes
  6
Continuous
 62
     3
100
AcDbText
 10
39.63753799367402
 20
1.764537213117696
 30
0.0
 40
0.2534400000000001
  1
 Bolton, Ontario
 41
0.7000000000000001
100
AcDbText
  0
MTEXT
  5
B5E
330
1F
100
AcDbEntity
  8
Dimensions
100
AcDbMText
 10
31.3724352861502
 20
11.54912913176995
 30
0.0
 40
0.312
 41
0.0
 71
     1
 72
     1
  1
\A1;{\H0.7x;\S3/8;}-16, 4 PLCS
 73
     1
 44
1.0
  0
LINE
  5
B5F
330
1F
100
AcDbEntity
  8
Dimensions
100
AcDbLine
 10
34.81672133990126
 20
9.944746451114301
 30
0.0
 11
37.82277633319745
 21
12.89226270502219
 31
0.0
  0
LINE
  5
B60
330
1F
100
AcDbEntity
  8
CenterLine
  6
CENTERX2
100
AcDbLine
 10
26.02438886282564
 20
23.48513262311382
 30
0.0
 11
26.02438886282564
 21
7.668788743299316
 31
0.0
  0
LINE
  5
B61
330
1F
100
AcDbEntity
  8
CenterLine
  6
CENTERX2
100
AcDbLine
 10
15.66990223723196
 20
23.48513262311382
 30
0.0
 11
15.66990223723196
 21
7.668788743299316
 31
0.0
  0
DIMENSION
  5
B62
330
1F
100
AcDbEntity
  8
Dimensions
100
AcDbDimension
  2
*D1
 10
21.45106570303301
 20
22.32576736667904
 30
0.0
 11
21.45106570303301
 21
14.86951809624622
 31
0.0
 70
   160
  1
\A1;13{\H0.7x;\S1/2;} 
 71
     5
 42
13.591057
  3
Standard
100
AcDbAlignedDimension
 13
23.10251386282564
 23
8.734710366679038
 33
0.0
 14
24.27438886282564
 24
22.32576736667903
 34
0.0
 50
90.0
100
AcDbRotatedDimension
1001
ACAD
1000
DSTYLE
1002
{
1070
    41
1040
0.312
1070
    42
1040
0.1
1070
    43
1040
0.55
1070
    44
1040
0.2132
1070
   140
1040
0.312
1070
   141
1040
0.19
1070
   271
1070
     2
1070
   272
1070
     2
1070
   277
1070
     5
1070
   288
1070
     1
1002
}
  0
DIMENSION
  5
B63
330
1F
100
AcDbEntity
  8
Dimensions
100
AcDbDimension
  2
*D2
 10
22.76679297129648
 20
21.35971036667904
 30
0.0
 11
22.76679297129648
 21
14.44397413780926
 31
0.0
 70
   160
  1
\A1;11{\H0.7x;\S3/4;} 
 71
     5
 42
11.625
  3
Standard
100
AcDbAlignedDimension
 13
23.10251386282564
 23
9.734710366679038
 33
0.0
 14
24.27438886282564
 24
21.35971036667903
 34
0.0
 50
90.0
100
AcDbRotatedDimension
1001
ACAD
1000
DSTYLE
1002
{
1070
    41
1040
0.312
1070
    42
1040
0.1
1070
    43
1040
0.55
1070
    44
1040
0.2132
1070
   140
1040
0.312
1070
   141
1040
0.19
1070
   271
1070
     2
1070
   272
1070
     2
1070
   277
1070
     5
1070
   288
1070
     1
1002
}
  0
LINE
  5
B64
330
1F
100
AcDbEntity
  8
6082FlameCut
  6
Continuous
 62
     7
100
AcDbLine
 10
13.41990223723196
 20
21.37209936667904
 30
0.0
 11
13.41990223723196
 21
8.997099366679039
 31
0.0
  0
LINE
  5
B65
330
1F
100
AcDbEntity
  8
6082FlameCut
  6
Continuous
 62
     7
100
AcDbLine
 10
17.91990223723196
 20
21.37209936667904
 30
0.0
 11
17.91990223723196
 21
8.997099366679039
 31
0.0
  0
ARC
  5
B66
330
1F
100
AcDbEntity
  8
6082FlameCut
  6
Continuous
 62
     7
100
AcDbCircle
 10
29.27438886282564
 20
12.36461938937885
 30
0.0
 40
1.0
100
AcDbArc
 50
293.7494944928665
 51
0.0
  0
LINE
  5
B67
330
1F
100
AcDbEntity
  8
6082FlameCut
  6
Continuous
 62
     7
100
AcDbLine
 10
36.02438886282564
 20
17.87906537792914
 30
0.0
 11
36.02438886282564
 21
9.997099366679039
 31
0.0
  0
LINE
  5
B68
330
1F
100
AcDbEntity
  8
6082FlameCut
  6
Continuous
 62
     7
100
AcDbLine
 10
17.16990223723196
 20
21.37209936667904
 30
0.0
 11
17.16990223723196
 21
8.997099366679039
 31
0.0
  0
LINE
  5
B69
330
1F
100
AcDbEntity
  8
6082FlameCut
  6
Continuous
 62
     7
100
AcDbLine
 10
14.16990223723196
 20
21.37209936667904
 30
0.0
 11
14.16990223723196
 21
8.997099366679039
 31
0.0
  0
LINE
  5
B6A
330
1F
100
AcDbEntity
  8
6082FlameCut
  6
Continuous
 62
     7
100
AcDbLine
 10
29.67712747709166
 20
11.44930435695608
 30
0.0
 11
25.52438886282564
 21
9.622099366679039
 31
0.0
  0
DIMENSION
  5
B6B
330
1F
100
AcDbEntity
  8
Dimensions
100
AcDbDimension
  2
*D3
 10
36.02438886282564
 20
6.745774776328829
 30
0.0
 11
29.56345136282564
 21
6.745774776328829
 31
0.0
 70
    32
 71
     5
 42
12.921875
  3
Standard
100
AcDbAlignedDimension
 13
23.10251386282564
 23
8.734710366679038
 33
0.0
 14
36.02438886282564
 24
9.997099366679039
 34
0.0
100
AcDbRotatedDimension
1001
ACAD
1000
DSTYLE
1002
{
1070
    41
1040
0.3
1070
   140
1040
0.3
1070
   271
1070
     2
1070
   272
1070
     2
1070
   277
1070
     5
1002
}
  0
DIMENSION
  5
B6C
330
1F
100
AcDbEntity
  8
Dimensions
100
AcDbDimension
  2
*D4
 10
27.52438886282564
 20
7.852377973019912
 30
0.0
 11
26.77438886282564
 21
7.852377973019912
 31
0.0
 70
    32
 71
     5
 42
1.5
  3
Standard
100
AcDbAlignedDimension
 13
26.02438886282564
 23
8.251019391314613
 33
0.0
 14
27.52438886282564
 24
8.313519391314613
 34
0.0
100
AcDbRotatedDimension
1001
ACAD
1000
DSTYLE
1002
{
1070
    41
1040
0.24
1070
   140
1040
0.3
1070
   271
1070
     2
1070
   272
1070
     2
1070
   277
1070
     5
1002
}
  0
LINE
  5
B6D
330
1F
100
AcDbEntity
  8
6082FlameCut
  6
Continuous
 62
     7
100
AcDbLine
 10
25.52438886282564
 20
8.997099366679039
 30
0.0
 11
35.02438886282564
 21
8.997099366679039
 31
0.0
  0
LINE
  5
B6E
330
1F
100
AcDbEntity
  8
5097ABasePlate
  6
Continuous
 62
     7
100
AcDbLine
 10
23.10251386282564
 20
8.734710366679038
 30
0.0
 11
35.10251386282564
 21
8.734710366679038
 31
0.0
  0
LINE
  5
B6F
330
1F
100
AcDbEntity
  8
5097ABasePlate
  6
HIDDEN
 62
     7
100
AcDbLine
 10
25.78032295373473
 20
9.734710366679037
 30
0.0
 11
25.52438886282564
 21
9.734710366679038
 31
0.0
  0
DIMENSION
  5
B70
330
1F
100
AcDbEntity
  8
Dimensions
100
AcDbDimension
  2
*D5
 10
13.41990223723196
 20
8.175541601396076
 30
0.0
 11
12.40677542793656
 21
8.175541601396076
 31
0.0
 70
   160
  1
\A1;4{\H0.7x;\S1/2;} 
 71
     5
 42
4.5
  3
Standard
100
AcDbAlignedDimension
 13
17.91990223723196
 23
8.997099366679039
 33
0.0
 14
13.41990223723196
 24
8.997099366679039
 34
0.0
100
AcDbRotatedDimension
1001
ACAD
1000
DSTYLE
1002
{
1070
    41
1040
0.3
1070
   140
1040
0.3
1070
   271
1070
     2
1070
   272
1070
     2
1070
   277
1070
     5
1070
   288
1070
     1
1002
}
  0
LINE
  5
B71
330
1F
100
AcDbEntity
  8
6082FlameCut
  6
Continuous
 62
     7
100
AcDbLine
 10
13.41990223723197
 20
8.997099366679039
 30
0.0
 11
14.16990223723196
 21
8.997099366679039
 31
0.0
  0
LINE
  5
B72
330
1F
100
AcDbEntity
  8
6082FlameCut
 62
     7
100
AcDbLine
 10
14.16990223723196
 20
9.622099366679039
 30
0.0
 11
13.41990223723197
 21
9.622099366679039
 31
0.0
  0
LINE
  5
B73
330
1F
100
AcDbEntity
  8
Dimensions
100
AcDbLine
 10
25.89548028870132
 20
8.463818174991585
 30
0.0
 11
24.28302196241554
 21
5.075351791126749
 31
0.0
  0
MTEXT
  5
B74
330
1F
100
AcDbEntity
  8
Dimensions
100
AcDbMText
 10
23.80302196241554
 20
5.231351791126749
 30
0.0
 40
0.312
 41
0.0
 71
     3
 72
     1
  1
\A1;{\H0.7x;\S3/8;} REAM, 2 PLCS
 73
     1
 44
1.0
  0
LINE
  5
B75
330
1F
100
AcDbEntity
  8
Dimensions
100
AcDbLine
 10
24.28302196241554
 20
5.075351791126749
 30
0.0
 11
23.98302196241555
 21
5.075351791126749
 31
0.0
  0
LINE
  5
B76
330
1F
100
AcDbEntity
  8
6082FlameCut
  6
Continuous
 62
     7
100
AcDbLine
 10
17.16990223723196
 20
8.734710366679038
 30
0.0
 11
17.43229123723196
 21
8.997099366679039
 31
0.0
  0
LINE
  5
B77
330
1F
100
AcDbEntity
  8
5097ABasePlate
  6
Continuous
 62
     7
100
AcDbLine
 10
17.16990223723196
 20
9.609710366679038
 30
0.0
 11
17.16990223723196
 21
8.734710366679038
 31
0.0
  0
LINE
  5
B78
330
1F
100
AcDbEntity
  8
5097ABasePlate
  6
HIDDEN
 62
     7
100
AcDbLine
 10
15.53240223723196
 20
9.734710366679038
 30
0.0
 11
15.53240223723196
 21
8.734710366679042
 31
0.0
  0
LINE
  5
B79
330
1F
100
AcDbEntity
  8
5097ABasePlate
  6
HIDDEN
 62
     7
100
AcDbLine
 10
15.48240223723196
 20
9.734710366679038
 30
0.0
 11
15.48240223723196
 21
8.734710366679042
 31
0.0
  0
LINE
  5
B7A
330
1F
100
AcDbEntity
  8
5097ABasePlate
  6
HIDDEN
 62
     7
100
AcDbLine
 10
15.80740223723196
 20
9.734710366679038
 30
0.0
 11
15.80740223723196
 21
8.734710366679042
 31
0.0
  0
LINE
  5
B7B
330
1F
100
AcDbEntity
  8
5097ABasePlate
  6
HIDDEN
 62
     7
100
AcDbLine
 10
15.85740223723196
 20
9.734710366679038
 30
0.0
 11
15.85740223723196
 21
8.734710366679042
 31
0.0
  0
LINE
  5
B7C
330
1F
100
AcDbEntity
  8
6082FlameCut
  6
Continuous
 62
     7
100
AcDbLine
 10
14.16990223723196
 20
8.734710366679038
 30
0.0
 11
13.90751323723196
 21
8.997099366679039
 31
0.0
  0
LINE
  5
B7D
330
1F
100
AcDbEntity
  8
5097ABasePlate
  6
Continuous
 62
     7
100
AcDbLine
 10
14.16990223723196
 20
9.734710366679038
 30
0.0
 11
14.16990223723196
 21
8.734710366679038
 31
0.0
  0
LINE
  5
B7E
330
1F
100
AcDbEntity
  8
5097ABasePlate
  6
Continuous
 62
     7
100
AcDbLine
 10
17.16990223723196
 20
8.734710366679038
 30
0.0
 11
14.16990223723196
 21
8.734710366679038
 31
0.0
  0
LINE
  5
B7F
330
1F
100
AcDbEntity
  8
5097ABasePlate
  6
Continuous
 62
     7
100
AcDbLine
 10
17.16990223723196
 20
9.734710366679038
 30
0.0
 11
14.16990223723196
 21
9.734710366679038
 31
0.0
  0
LINE
  5
B80
330
1F
100
AcDbEntity
  8
6082FlameCut
  6
Continuous
 62
     7
100
AcDbLine
 10
17.91990223723195
 20
8.997099366679039
 30
0.0
 11
17.16990223723196
 21
8.997099366679039
 31
0.0
  0
LINE
  5
B81
330
1F
100
AcDbEntity
  8
6082FlameCut
 62
     7
100
AcDbLine
 10
17.91990223723195
 20
9.622099366679039
 30
0.0
 11
17.16990223723196
 21
9.622099366679039
 31
0.0
  0
LINE
  5
B82
330
1F
100
AcDbEntity
  8
5097ABasePlate
  6
HIDDEN
 62
     7
100
AcDbLine
 10
25.83688886282564
 20
9.734710366679038
 30
0.0
 11
25.83688886282564
 21
8.734710366679042
 31
0.0
  0
LINE
  5
B83
330
1F
100
AcDbEntity
  8
5097ABasePlate
  6
HIDDEN
 62
     7
100
AcDbLine
 10
26.21188886282564
 20
9.734710366679038
 30
0.0
 11
26.21188886282564
 21
8.734710366679042
 31
0.0
  0
LINE
  5
B84
330
1F
100
AcDbEntity
  8
CenterLine
  6
CENTER2
100
AcDbLine
 10
23.60251386282564
 20
10.15402274938247
 30
0.0
 11
23.60251386282564
 21
8.313519391314613
 31
0.0
  0
LINE
  5
B85
330
1F
100
AcDbEntity
  8
5097ABasePlate
  6
HIDDEN
 62
     7
100
AcDbLine
 10
23.39938886282564
 20
9.734710366679038
 30
0.0
 11
23.39938886282564
 21
8.734710366679042
 31
0.0
  0
LINE
  5
B86
330
1F
100
AcDbEntity
  8
5097ABasePlate
  6
Continuous
 62
     7
100
AcDbLine
 10
23.10251386282564
 20
9.734710366679038
 30
0.0
 11
23.10251386282564
 21
8.734710366679038
 31
0.0
  0
LINE
  5
B87
330
1F
100
AcDbEntity
  8
5097ABasePlate
  6
HIDDEN
 62
     7
100
AcDbLine
 10
23.80563886282564
 20
9.734710366679038
 30
0.0
 11
23.80563886282564
 21
8.734710366679042
 31
0.0
  0
DIMENSION
  5
B88
330
1F
100
AcDbEntity
  8
Dimensions
  6
Continuous
100
AcDbDimension
  2
*D6
 10
23.60251386282564
 20
8.227577567907289
 30
0.0
 11
23.35251386282564
 21
8.227577567907289
 31
0.0
 70
    32
  1
\A1;{\H0.7x;\S1/2;}
 71
     5
 42
0.5
  3
Standard
100
AcDbAlignedDimension
 13
23.10251386282564
 23
8.734710366679038
 33
0.0
 14
23.60251386282564
 24
8.313519391314613
 34
0.0
100
AcDbRotatedDimension
1001
ACAD
1000
DSTYLE
1002
{
1070
    41
1040
0.24
1070
   140
1040
0.312
1070
    47
1040
0.001
1070
    48
1040
0.001
1070
   271
1070
     3
1070
   272
1070
     3
1070
   277
1070
     5
1002
}
  0
DIMENSION
  5
B89
330
1F
100
AcDbEntity
  8
Dimensions
  6
Continuous
100
AcDbDimension
  2
*D7
 10
26.02438886282564
 20
7.819354011116658
 30
0.0
 11
24.56345136282564
 21
7.819354011116658
 31
0.0
 70
    32
  1
\A1;2{\H0.7x;\S7/8;} 
 71
     5
 42
2.921875
  3
Standard
100
AcDbAlignedDimension
 13
23.10251386282564
 23
8.734710366679038
 33
0.0
 14
26.02438886282564
 24
8.313519391314613
 34
0.0
100
AcDbRotatedDimension
1001
ACAD
1000
DSTYLE
1002
{
1070
    41
1040
0.24
1070
   140
1040
0.312
1070
    47
1040
0.001
1070
    48
1040
0.001
1070
   271
1070
     3
1070
   272
1070
     3
1070
   277
1070
     5
1002
}
  0
SOLID
  5
B8B
330
1F
100
AcDbEntity
  8
Dimensions
100
AcDbTrace
 10
25.85033159008673
 20
8.48530293734564
 30
0.0
 11
25.94062898731589
 21
8.442333412637529
 31
0.0
 12
26.02438886282564
 22
8.734710366679038
 32
0.0
 13
26.02438886282564
 23
8.734710366679038
 33
0.0
  0
LINE
  5
B8C
330
1F
100
AcDbEntity
  8
5097ABasePlate
  6
Continuous
 62
     7
100
AcDbLine
 10
23.10251386282564
 20
9.734710366679038
 30
0.0
 11
25.52438886282564
 21
9.734710366679038
 31
0.0
  0
LINE
  5
B8D
330
1F
100
AcDbEntity
  8
6082FlameCut
  6
Continuous
 62
     7
100
AcDbLine
 10
25.52438886282564
 20
9.622099366679039
 30
0.0
 11
25.52438886282564
 21
8.997099366679039
 31
0.0
  0
LINE
  5
B8E
330
1F
100
AcDbEntity
  8
CenterLine
  6
CENTER2
100
AcDbLine
 10
32.52438886282564
 20
10.15402274938246
 30
0.0
 11
32.52438886282564
 21
8.313519391314599
 31
0.0
  0
LINE
  5
B8F
330
1F
100
AcDbEntity
  8
5097ABasePlate
  6
HIDDEN
 62
     7
100
AcDbLine
 10
32.71188886282564
 20
9.734710366679038
 30
0.0
 11
32.71188886282564
 21
8.734710366679042
 31
0.0
  0
LINE
  5
B90
330
1F
100
AcDbEntity
  8
5097ABasePlate
  6
HIDDEN
 62
     7
100
AcDbLine
 10
32.33688886282564
 20
9.734710366679038
 30
0.0
 11
32.33688886282564
 21
8.734710366679042
 31
0.0
  0
LINE
  5
B91
330
1F
100
AcDbEntity
  8
5097ABasePlate
  6
HIDDEN
 62
     7
100
AcDbLine
 10
32.38688886282564
 20
9.734710366679038
 30
0.0
 11
32.38688886282564
 21
8.734710366679042
 31
0.0
  0
LINE
  5
B92
330
1F
100
AcDbEntity
  8
5097ABasePlate
  6
HIDDEN
 62
     7
100
AcDbLine
 10
32.66188886282565
 20
9.734710366679038
 30
0.0
 11
32.66188886282565
 21
8.734710366679042
 31
0.0
  0
LINE
  5
B93
330
1F
100
AcDbEntity
  8
CenterLine
  6
CENTER2
100
AcDbLine
 10
30.52438886282564
 20
10.15402274938246
 30
0.0
 11
30.52438886282564
 21
8.313519391314606
 31
0.0
  0
LINE
  5
B94
330
1F
100
AcDbEntity
  8
5097ABasePlate
  6
HIDDEN
 62
     7
100
AcDbLine
 10
30.66188886282565
 20
9.734710366679038
 30
0.0
 11
30.66188886282565
 21
8.734710366679042
 31
0.0
  0
LINE
  5
B95
330
1F
100
AcDbEntity
  8
5097ABasePlate
  6
HIDDEN
 62
     7
100
AcDbLine
 10
30.71188886282564
 20
9.734710366679038
 30
0.0
 11
30.71188886282564
 21
8.734710366679042
 31
0.0
  0
LINE
  5
B96
330
1F
100
AcDbEntity
  8
5097ABasePlate
  6
HIDDEN
 62
     7
100
AcDbLine
 10
30.38688886282564
 20
9.734710366679038
 30
0.0
 11
30.38688886282564
 21
8.734710366679042
 31
0.0
  0
LINE
  5
B97
330
1F
100
AcDbEntity
  8
5097ABasePlate
  6
HIDDEN
 62
     7
100
AcDbLine
 10
30.33688886282564
 20
9.734710366679038
 30
0.0
 11
30.33688886282564
 21
8.734710366679042
 31
0.0
  0
LINE
  5
B98
330
1F
100
AcDbEntity
  8
CenterLine
  6
CENTER2
100
AcDbLine
 10
29.52438886282564
 20
10.15402274938247
 30
0.0
 11
29.52438886282564
 21
8.31351939131461
 31
0.0
  0
LINE
  5
B99
330
1F
100
AcDbEntity
  8
CenterLine
  6
CENTER2
100
AcDbLine
 10
28.52438886282564
 20
10.15402274938247
 30
0.0
 11
28.52438886282564
 21
8.313519391314613
 31
0.0
  0
LINE
  5
B9A
330
1F
100
AcDbEntity
  8
5097ABasePlate
  6
HIDDEN
 62
     7
100
AcDbLine
 10
28.66188886282564
 20
9.734710366679038
 30
0.0
 11
28.66188886282564
 21
8.734710366679042
 31
0.0
  0
LINE
  5
B9B
330
1F
100
AcDbEntity
  8
5097ABasePlate
  6
HIDDEN
 62
     7
100
AcDbLine
 10
28.38688886282564
 20
9.734710366679038
 30
0.0
 11
28.38688886282564
 21
8.734710366679042
 31
0.0
  0
LINE
  5
B9C
330
1F
100
AcDbEntity
  8
5097ABasePlate
  6
HIDDEN
 62
     7
100
AcDbLine
 10
28.33688886282564
 20
9.734710366679038
 30
0.0
 11
28.33688886282564
 21
8.734710366679042
 31
0.0
  0
LINE
  5
B9D
330
1F
100
AcDbEntity
  8
5097ABasePlate
  6
HIDDEN
 62
     7
100
AcDbLine
 10
28.71188886282564
 20
9.734710366679038
 30
0.0
 11
28.71188886282564
 21
8.734710366679042
 31
0.0
  0
LINE
  5
B9E
330
1F
100
AcDbEntity
  8
5097ABasePlate
  6
HIDDEN
 62
     7
100
AcDbLine
 10
29.33688886282564
 20
9.734710366679038
 30
0.0
 11
29.33688886282564
 21
8.734710366679042
 31
0.0
  0
LINE
  5
B9F
330
1F
100
AcDbEntity
  8
5097ABasePlate
  6
HIDDEN
 62
     7
100
AcDbLine
 10
29.71188886282564
 20
9.734710366679038
 30
0.0
 11
29.71188886282564
 21
8.734710366679042
 31
0.0
  0
LINE
  5
BA0
330
1F
100
AcDbEntity
  8
5097ABasePlate
  6
HIDDEN
 62
     7
100
AcDbLine
 10
29.38688886282564
 20
9.734710366679038
 30
0.0
 11
29.38688886282564
 21
8.734710366679042
 31
0.0
  0
LINE
  5
BA1
330
1F
100
AcDbEntity
  8
5097ABasePlate
  6
HIDDEN
 62
     7
100
AcDbLine
 10
29.66188886282564
 20
9.734710366679038
 30
0.0
 11
29.66188886282564
 21
8.734710366679042
 31
0.0
  0
LINE
  5
BA2
330
1F
100
AcDbEntity
  8
CenterLine
  6
CENTER2
100
AcDbLine
 10
27.52438886282564
 20
10.15402274938247
 30
0.0
 11
27.52438886282564
 21
8.313519391314613
 31
0.0
  0
LINE
  5
BA3
330
1F
100
AcDbEntity
  8
5097ABasePlate
  6
HIDDEN
 62
     7
100
AcDbLine
 10
27.33688886282564
 20
9.734710366679038
 30
0.0
 11
27.33688886282563
 21
8.734710366679042
 31
0.0
  0
LINE
  5
BA4
330
1F
100
AcDbEntity
  8
5097ABasePlate
  6
HIDDEN
 62
     7
100
AcDbLine
 10
27.71188886282564
 20
9.734710366679038
 30
0.0
 11
27.71188886282564
 21
8.734710366679042
 31
0.0
  0
DIMENSION
  5
BA5
330
1F
100
AcDbEntity
  8
Dimensions
100
AcDbDimension
  2
*D8
 10
30.52438886282564
 20
7.852377973019912
 30
0.0
 11
30.02438886282564
 21
7.852377973019912
 31
0.0
 70
    32
 71
     5
  3
Standard
100
AcDbAlignedDimension
 13
29.52438886282564
 23
8.31351939131461
 33
0.0
 14
30.52438886282564
 24
8.313519391314606
 34
0.0
100
AcDbRotatedDimension
1001
ACAD
1000
DSTYLE
1002
{
1070
    41
1040
0.24
1070
   140
1040
0.3
1070
   271
1070
     2
1070
   272
1070
     2
1070
   277
1070
     5
1002
}
  0
DIMENSION
  5
BA6
330
1F
100
AcDbEntity
  8
Dimensions
100
AcDbDimension
  2
*D9
 10
29.52438886282564
 20
7.852377973019912
 30
0.0
 11
29.02438886282564
 21
7.852377973019912
 31
0.0
 70
    32
 71
     5
  3
Standard
100
AcDbAlignedDimension
 13
28.52438886282564
 23
8.313519391314613
 33
0.0
 14
29.52438886282564
 24
8.31351939131461
 34
0.0
100
AcDbRotatedDimension
1001
ACAD
1000
DSTYLE
1002
{
1070
    41
1040
0.24
1070
   140
1040
0.3
1070
   271
1070
     2
1070
   272
1070
     2
1070
   277
1070
     5
1002
}
  0
DIMENSION
  5
BA7
330
1F
100
AcDbEntity
  8
Dimensions
100
AcDbDimension
  2
*D10
 10
28.52438886282564
 20
7.852377973019912
 30
0.0
 11
28.02438886282564
 21
7.852377973019912
 31
0.0
 70
    32
 71
     5
  3
Standard
100
AcDbAlignedDimension
 13
27.52438886282564
 23
8.313519391314613
 33
0.0
 14
28.52438886282564
 24
8.313519391314613
 34
0.0
100
AcDbRotatedDimension
1001
ACAD
1000
DSTYLE
1002
{
1070
    41
1040
0.24
1070
   140
1040
0.3
1070
   271
1070
     2
1070
   272
1070
     2
1070
   277
1070
     5
1002
}
  0
DIMENSION
  5
BA8
330
1F
100
AcDbEntity
  8
Dimensions
100
AcDbDimension
  2
*D11
 10
32.52438886282564
 20
7.852377973019912
 30
0.0
 11
31.52438886282564
 21
7.852377973019912
 31
0.0
 70
    32
 71
     5
 42
2.0
  3
Standard
100
AcDbAlignedDimension
 13
30.52438886282564
 23
8.313519391314606
 33
0.0
 14
32.52438886282564
 24
8.313519391314599
 34
0.0
100
AcDbRotatedDimension
1001
ACAD
1000
DSTYLE
1002
{
1070
    41
1040
0.24
1070
   140
1040
0.3
1070
   271
1070
     2
1070
   272
1070
     2
1070
   277
1070
     5
1002
}
  0
LINE
  5
BA9
330
1F
100
AcDbEntity
  8
Dimensions
100
AcDbLine
 10
29.71529137257494
 20
9.966132560453578
 30
0.0
 11
30.8924352861502
 21
11.39312913176995
 31
0.0
  0
SOLID
  5
BAA
330
1F
100
AcDbEntity
  8
Dimensions
100
AcDbTrace
 10
29.75386173820403
 20
9.934315475495361
 30
0.0
 11
29.67672100694585
 21
9.997949645411793
 31
0.0
 12
29.52438886282564
 22
9.734710366679038
 32
0.0
 13
29.52438886282564
 23
9.734710366679038
 33
0.0
  0
LINE
  5
BAB
330
1F
100
AcDbEntity
  8
Dimensions
100
AcDbLine
 10
30.8924352861502
 20
11.39312913176995
 30
0.0
 11
31.1924352861502
 21
11.39312913176995
 31
0.0
  0
LINE
  5
BAC
330
1F
100
AcDbEntity
  8
CenterLine
  6
CENTER2
100
AcDbLine
 10
34.60251386282564
 20
10.15402274938247
 30
0.0
 11
34.60251386282564
 21
8.313519391314613
 31
0.0
  0
LINE
  5
BAD
330
1F
100
AcDbEntity
  8
5097ABasePlate
  6
HIDDEN
 62
     7
100
AcDbLine
 10
34.39938886282564
 20
9.734710366679042
 30
0.0
 11
34.39938886282564
 21
8.734710366679038
 31
0.0
  0
LINE
  5
BAE
330
1F
100
AcDbEntity
  8
5097ABasePlate
  6
HIDDEN
 62
     7
100
AcDbLine
 10
34.80563886282564
 20
9.734710366679045
 30
0.0
 11
34.80563886282567
 21
8.734710366679042
 31
0.0
  0
LINE
  5
BAF
330
1F
100
AcDbEntity
  8
5097ABasePlate
  6
Continuous
 62
     7
100
AcDbLine
 10
35.10251386282564
 20
9.00015579536971
 30
0.0
 11
35.10251386282564
 21
8.734710366679038
 31
0.0
  0
ARC
  5
BB0
330
1F
100
AcDbEntity
  8
6082FlameCut
  6
Continuous
 62
     7
100
AcDbCircle
 10
35.02438886282564
 20
9.997099366679039
 30
0.0
 40
1.0
100
AcDbArc
 50
270.0
 51
0.0
  0
DIMENSION
  5
BB1
330
1F
100
AcDbEntity
  8
Dimensions
100
AcDbDimension
  2
*D12
 10
34.60251386282564
 20
7.852377973019912
 30
0.0
 11
34.85251386282564
 21
7.852377973019912
 31
0.0
 70
    32
  1
\A1;{\H0.7x;\S1/2;}
 71
     5
 42
0.5
  3
Standard
100
AcDbAlignedDimension
 13
35.10251386282564
 23
8.734710366679038
 33
0.0
 14
34.60251386282564
 24
8.313519391314613
 34
0.0
100
AcDbRotatedDimension
1001
ACAD
1000
DSTYLE
1002
{
1070
    41
1040
0.24
1070
   140
1040
0.3
1070
   271
1070
     2
1070
   272
1070
     2
1070
   277
1070
     5
1002
}
  0
SOLID
  5
BB2
330
1F
100
AcDbEntity
  8
Dimensions
100
AcDbTrace
 10
34.85172735397381
 20
9.909045204935031
 30
0.0
 11
34.78171532582873
 21
9.980447697293572
 31
0.0
 12
34.60251386282564
 22
9.734710366679038
 32
0.0
 13
34.60251386282564
 23
9.734710366679038
 33
0.0
  0
LINE
  5
BB3
330
1F
100
AcDbEntity
  8
Dimensions
100
AcDbLine
 10
26.14780691737209
 20
22.50312601973853
 30
0.0
 11
27.18112563862774
 21
23.6001477973659
 31
0.0
  0
DIMENSION
  5
BB4
330
1F
100
AcDbEntity
  8
Dimensions
100
AcDbDimension
  2
*D13
 10
26.02438886282564
 20
14.40528836146187
 30
0.0
 11
28.02970214533759
 21
14.40528836146187
 31
0.0
 70
   160
  1
\A1;4{\H0.7x;\S1/4;} 
 71
     5
 42
4.25
  3
Standard
100
AcDbAlignedDimension
 13
30.27438886282564
 23
14.52428112687897
 33
0.0
 14
26.02438886282564
 24
15.28145907299668
 34
0.0
100
AcDbRotatedDimension
1001
ACAD
1000
DSTYLE
1002
{
1070
    75
1070
     1
1070
    76
1070
     1
1070
    41
1040
0.312
1070
    42
1040
0.1
1070
    43
1040
0.55
1070
    44
1040
0.2132
1070
   140
1040
0.312
1070
   141
1040
0.19
1070
   271
1070
     2
1070
   272
1070
     2
1070
   277
1070
     5
1070
   288
1070
     1
1002
}
  0
LINE
  5
BB5
330
1F
100
AcDbEntity
  8
5034MountPlate
  6
Continuous
 62
     7
100
AcDbLine
 10
24.27438886282564
 20
22.37209936667903
 30
0.0
 11
27.77438886282564
 21
22.37209936667903
 31
0.0
  0
LINE
  5
BB6
330
1F
100
AcDbEntity
  8
6082FlameCut
  6
Continuous
 62
     7
100
AcDbLine
 10
24.27438886282564
 20
21.37209936667904
 30
0.0
 11
30.03832088532587
 21
21.37209936667904
 31
0.0
  0
LINE
  5
BB7
330
1F
100
AcDbEntity
  8
6082FlameCut
  6
Continuous
 62
     7
100
AcDbLine
 10
29.66336089986601
 20
16.13008895103977
 30
0.0
 11
25.10944200706177
 21
18.05285470577933
 31
0.0
  0
LINE
  5
BB8
330
1F
100
AcDbEntity
  8
6082FlameCut
  6
Continuous
 62
     7
100
AcDbLine
 10
24.27438886282564
 20
21.37209936667904
 30
0.0
 11
24.27438886282564
 21
19.8702049922967
 31
0.0
  0
LINE
  5
BB9
330
1F
100
AcDbEntity
  8
6082FlameCut
  6
Continuous
 62
     7
100
AcDbLine
 10
17.16990223723196
 20
21.22802236667903
 30
0.0
 11
17.02410823723196
 21
21.37381636667903
 31
0.0
  0
LINE
  5
BBA
330
1F
100
AcDbEntity
  8
6082FlameCut
  6
Continuous
 62
     7
100
AcDbLine
 10
14.16990223723196
 20
21.22209936667903
 30
0.0
 11
14.31990223723196
 21
21.37209936667904
 31
0.0
  0
DIMENSION
  5
BBB
330
1F
100
AcDbEntity
  8
Dimensions
100
AcDbDimension
  2
*D14
 10
14.16990223723196
 20
14.8155606929703
 30
0.0
 11
12.20339142484425
 21
14.8155606929703
 31
0.0
 70
   160
 71
     5
 42
3.0
  3
Standard
100
AcDbAlignedDimension
 13
17.16990223723196
 23
15.7615725815753
 33
0.0
 14
14.16990223723196
 24
15.7615725815753
 34
0.0
100
AcDbRotatedDimension
1001
ACAD
1000
DSTYLE
1002
{
1070
    76
1070
     1
1070
    75
1070
     1
1070
    41
1040
0.3
1070
   140
1040
0.3
1070
   271
1070
     2
1070
   272
1070
     2
1070
   277
1070
     5
1070
   288
1070
     1
1002
}
  0
LINE
  5
BBC
330
1F
100
AcDbEntity
  8
6082FlameCut
 62
     7
100
AcDbLine
 10
14.16990223723196
 20
19.748021728601
 30
0.0
 11
13.41990223723197
 21
19.748021728601
 31
0.0
  0
LINE
  5
BBD
330
1F
100
AcDbEntity
  8
6082FlameCut
 62
     7
100
AcDbLine
 10
14.16990223723196
 20
15.7615725815753
 30
0.0
 11
13.41990223723197
 21
15.7615725815753
 31
0.0
  0
LINE
  5
BBE
330
1F
100
AcDbEntity
  8
6082FlameCut
 62
     7
100
AcDbLine
 10
14.16990223723196
 20
18.32368996319272
 30
0.0
 11
13.41990223723197
 21
18.32368996319273
 31
0.0
  0
LINE
  5
BBF
330
1F
100
AcDbEntity
  8
6082FlameCut
 62
     7
100
AcDbLine
 10
14.16990223723196
 20
11.81814826217541
 30
0.0
 11
13.41990223723197
 21
11.81814826217541
 31
0.0
  0
LINE
  5
BC0
330
1F
100
AcDbEntity
  8
6082FlameCut
 62
     7
100
AcDbLine
 10
17.91990223723195
 20
11.81814826217541
 30
0.0
 11
17.16990223723196
 21
11.81814826217541
 31
0.0
  0
LINE
  5
BC1
330
1F
100
AcDbEntity
  8
6082FlameCut
 62
     7
100
AcDbLine
 10
17.91990223723195
 20
15.7615725815753
 30
0.0
 11
17.16990223723196
 21
15.7615725815753
 31
0.0
  0
LINE
  5
BC2
330
1F
100
AcDbEntity
  8
6082FlameCut
 62
     7
100
AcDbLine
 10
17.91990223723195
 20
18.32368996319272
 30
0.0
 11
17.16990223723196
 21
18.32368996319272
 31
0.0
  0
LINE
  5
BC3
330
1F
100
AcDbEntity
  8
6082FlameCut
 62
     7
100
AcDbLine
 10
17.91990223723195
 20
19.748021728601
 30
0.0
 11
17.16990223723196
 21
19.748021728601
 31
0.0
  0
LINE
  5
BC4
330
1F
100
AcDbEntity
  8
6082FlameCut
  6
Continuous
 62
     7
100
AcDbLine
 10
24.5282715439568
 20
18.73156864215439
 30
0.0
 11
24.30424636268031
 21
19.62766936726037
 31
0.0
  0
ARC
  5
BC5
330
1F
100
AcDbEntity
  8
6082FlameCut
  6
Continuous
 62
     7
100
AcDbCircle
 10
25.49841404410213
 20
18.97410426719072
 30
0.0
 40
1.0
100
AcDbArc
 50
194.0362434679265
 51
247.1094483437517
  0
ARC
  5
BC6
330
1F
100
AcDbEntity
  8
6082FlameCut
  6
Continuous
 62
     7
100
AcDbCircle
 10
25.27438886282564
 20
19.8702049922967
 30
0.0
 40
1.0
100
AcDbArc
 50
180.0
 51
194.0362434679265
  0
LINE
  5
BC7
330
1F
100
AcDbEntity
  8
6082FlameCut
  6
Continuous
 62
     7
100
AcDbLine
 10
13.41990223723196
 20
21.37209936667903
 30
0.0
 11
14.06990223723196
 21
21.37209936667904
 31
0.0
  0
LINE
  5
BC8
330
1F
100
AcDbEntity
  8
6082FlameCut
  6
Continuous
 62
     7
100
AcDbLine
 10
13.41774923723196
 20
21.37209936667904
 30
0.0
 11
13.66990223723196
 21
21.60497236667903
 31
0.0
  0
LINE
  5
BC9
330
1F
100
AcDbEntity
  8
6082FlameCut
 62
     7
100
AcDbLine
 10
14.16990223723196
 20
21.37209936667904
 30
0.0
 11
13.41990223723197
 21
21.37209936667904
 31
0.0
  0
LINE
  5
BCA
330
1F
100
AcDbEntity
  8
5034MountPlate
  6
Continuous
 62
     7
100
AcDbLine
 10
13.66990223723196
 20
21.37209936667904
 30
0.0
 11
17.66990223723196
 21
21.37209936667904
 31
0.0
  0
LINE
  5
BCB
330
1F
100
AcDbEntity
  8
5034MountPlate
  6
Continuous
 62
     7
100
AcDbLine
 10
13.66990223723196
 20
22.37209936667903
 30
0.0
 11
17.66990223723196
 21
22.37209936667903
 31
0.0
  0
LINE
  5
BCC
330
1F
100
AcDbEntity
  8
5034MountPlate
  6
Continuous
 62
     7
100
AcDbLine
 10
13.66990223723196
 20
21.37209936667904
 30
0.0
 11
13.66990223723196
 21
22.37209936667903
 31
0.0
  0
LINE
  5
BCD
330
1F
100
AcDbEntity
  8
5034MountPlate
  6
HIDDEN
 62
     7
100
AcDbLine
 10
14.41990223723196
 20
21.37209936667904
 30
0.0
 11
14.41990223723196
 21
22.37209936667903
 31
0.0
  0
LINE
  5
BCE
330
1F
100
AcDbEntity
  8
5034MountPlate
  6
HIDDEN
 62
     7
100
AcDbLine
 10
14.46990223723196
 20
21.37209936667904
 30
0.0
 11
14.46990223723196
 21
22.37209936667903
 31
0.0
  0
LINE
  5
BCF
330
1F
100
AcDbEntity
  8
5034MountPlate
  6
HIDDEN
 62
     7
100
AcDbLine
 10
16.86990223723197
 20
21.37209936667904
 30
0.0
 11
16.86990223723197
 21
22.37209936667903
 31
0.0
  0
LINE
  5
BD0
330
1F
100
AcDbEntity
  8
5034MountPlate
  6
HIDDEN
 62
     7
100
AcDbLine
 10
16.91990223723196
 20
21.37209936667904
 30
0.0
 11
16.91990223723196
 21
22.37209936667903
 31
0.0
  0
LINE
  5
BD1
330
1F
100
AcDbEntity
  8
5034MountPlate
  6
Continuous
 62
     7
100
AcDbLine
 10
17.66990223723196
 20
21.37209936667904
 30
0.0
 11
17.66990223723196
 21
22.37209936667903
 31
0.0
  0
LINE
  5
BD2
330
1F
100
AcDbEntity
  8
6082FlameCut
  6
Continuous
 62
     7
100
AcDbLine
 10
17.90291323723196
 20
21.37209936667904
 30
0.0
 11
17.66990223723196
 21
21.64166036667904
 31
0.0
  0
LINE
  5
BD3
330
1F
100
AcDbEntity
  8
6082FlameCut
  6
Continuous
 62
     7
100
AcDbLine
 10
17.26990223723196
 20
21.37209936667904
 30
0.0
 11
17.91990223723195
 21
21.37209936667903
 31
0.0
  0
LINE
  5
BD4
330
1F
100
AcDbEntity
  8
6082FlameCut
 62
     7
100
AcDbLine
 10
17.91990223723195
 20
21.37209936667904
 30
0.0
 11
17.16990223723196
 21
21.37209936667904
 31
0.0
  0
LINE
  5
BD5
330
1F
100
AcDbEntity
  8
5034MountPlate
  6
HIDDEN
 62
     7
100
AcDbLine
 10
24.82438886282564
 20
21.37209936667904
 30
0.0
 11
24.82438886282564
 21
22.37209936667903
 31
0.0
  0
LINE
  5
BD6
330
1F
100
AcDbEntity
  8
5034MountPlate
  6
HIDDEN
 62
     7
100
AcDbLine
 10
24.77438886282564
 20
21.37209936667904
 30
0.0
 11
24.77438886282564
 21
22.37209936667903
 31
0.0
  0
LINE
  5
BD7
330
1F
100
AcDbEntity
  8
5034MountPlate
  6
Continuous
 62
     7
100
AcDbLine
 10
24.27438886282564
 20
21.37209936667904
 30
0.0
 11
24.27438886282564
 21
22.37209936667904
 31
0.0
  0
SOLID
  5
BD8
330
1F
100
AcDbEntity
  8
Dimensions
100
AcDbTrace
 10
26.169644692882
 20
22.48255634398079
 30
0.0
 11
26.12596914186218
 21
22.52369569549627
 31
0.0
 12
26.02438886282566
 22
22.37209936667903
 32
0.0
 13
26.02438886282566
 23
22.37209936667903
 33
0.0
  0
ARC
  5
BD9
330
1F
100
AcDbEntity
  8
6082FlameCut
  6
Continuous
 62
     7
100
AcDbCircle
 10
30.03832088532587
 20
20.37209936667903
 30
0.0
 40
1.0
100
AcDbArc
 50
63.43494882292233
 51
90.0
  0
MTEXT
  5
BDA
330
1F
100
AcDbEntity
  8
Dimensions
100
AcDbMText
 10
38.30277633319745
 20
13.04826270502219
 30
0.0
 40
0.312
 41
0.0
 71
     1
 72
     1
  1
\A1;{\H0.7x;\S13/32;}, 2 PLCS
 73
     1
 44
1.0
  0
LINE
  5
BDB
330
1F
100
AcDbEntity
  8
6082FlameCut
  6
Continuous
 62
     7
100
AcDbLine
 10
30.27438886282564
 20
15.20883938962838
 30
0.0
 11
30.27438886282564
 21
12.36461938937885
 31
0.0
  0
ARC
  5
BDC
330
1F
100
AcDbEntity
  8
6082FlameCut
  6
Continuous
 62
     7
100
AcDbCircle
 10
29.27438886282564
 20
15.20883938962838
 30
0.0
 40
1.0
100
AcDbArc
 50
0.0
 51
67.1094483437518
  0
LINE
  5
BDD
330
1F
100
AcDbEntity
  8
Dimensions
100
AcDbLine
 10
37.82277633319745
 20
12.89226270502219
 30
0.0
 11
38.12277633319745
 21
12.89226270502219
 31
0.0
  0
LINE
  5
BDE
330
1F
100
AcDbEntity
  8
6082FlameCut
  6
Continuous
 62
     7
100
AcDbLine
 10
35.4716024583256
 20
18.77349256892905
 30
0.0
 11
30.48553448082582
 21
21.26652655767895
 31
0.0
  0
ARC
  5
BDF
330
1F
100
AcDbEntity
  8
6082FlameCut
  6
Continuous
 62
     7
100
AcDbCircle
 10
35.02438886282564
 20
17.87906537792914
 30
0.0
 40
1.0
100
AcDbArc
 50
0.0
 51
63.43494882292233
  0
LINE
  5
BE0
330
1F
100
AcDbEntity
  8
5034MountPlate
  6
HIDDEN
 62
     7
100
AcDbLine
 10
27.27438886282564
 20
21.37209936667904
 30
0.0
 11
27.27438886282564
 21
22.37209936667903
 31
0.0
  0
LINE
  5
BE1
330
1F
100
AcDbEntity
  8
5034MountPlate
  6
HIDDEN
 62
     7
100
AcDbLine
 10
27.22438886282565
 20
21.37209936667904
 30
0.0
 11
27.22438886282565
 21
22.37209936667903
 31
0.0
  0
LINE
  5
BE2
330
1F
100
AcDbEntity
  8
5034MountPlate
  6
Continuous
 62
     7
100
AcDbLine
 10
27.77438886282564
 20
21.37209936667904
 30
0.0
 11
27.77438886282564
 21
22.37209936667904
 31
0.0
  0
MTEXT
  5
BE3
330
1F
100
AcDbEntity
  8
Dimensions
100
AcDbMText
 10
27.45112563862775
 20
23.7501477973659
 30
0.0
 40
0.3
 41
0.0
 71
     1
 72
     1
  1
\A1;2{\H0.7x;\S1/2;}-16 TPI
 73
     1
 44
1.0
  0
LINE
  5
BE4
330
1F
100
AcDbEntity
  8
Dimensions
100
AcDbLine
 10
27.18112563862774
 20
23.6001477973659
 30
0.0
 11
27.36112563862775
 21
23.6001477973659
 31
0.0
  0
LINE
  5
DE1
330
1F
100
AcDbEntity
  8
0
100
AcDbLine
 10
22.61176566907215
 20
25.19423800975328
 30
0.0
 11
31.73244033152162
 21
25.19423800975327
 31
0.0
  0
TEXT
  5
DE2
330
1F
100
AcDbEntity
  8
0
100
AcDbText
 10
22.73706330953419
 20
25.44471544676786
 30
0.0
 40
0.5
  1
UN3-H C-FRAME CAGE
100
AcDbText
  0
LINE
  5
E6B
330
1F
100
AcDbEntity
  8
0
  6
HIDDEN
100
AcDbLine
 10
25.83688886282564
 20
9.734710366679038
 30
0.0
 11
35.10251386282564
 21
9.734710366679038
 31
0.0
  0
LINE
  5
E6C
330
1F
100
AcDbEntity
  8
0
  6
HIDDEN
100
AcDbLine
 10
35.10251386282564
 20
9.734710366679038
 30
0.0
 11
35.10251386282564
 21
9.00015579536971
 31
0.0
  0
DIMENSION
  5
E94
330
1F
100
AcDbEntity
  8
Dimensions
100
AcDbDimension
  2
*D16
 10
22.20129532218783
 20
8.734710366679038
 30
0.0
 11
21.76129532218782
 21
8.434710366679041
 31
0.0
 70
    32
 71
     5
  3
Standard
100
AcDbAlignedDimension
 13
23.10251386282564
 23
9.734710366679038
 33
0.0
 14
23.10251386282564
 24
8.734710366679038
 34
0.0
 50
90.0
100
AcDbRotatedDimension
1001
ACAD
1000
DSTYLE
1002
{
1070
    41
1040
0.3
1070
   140
1040
0.3
1070
   277
1070
     5
1002
}
  0
ENDSEC
  0
SECTION
  2
OBJECTS
  0
DICTIONARY
  5
C
330
0
100
AcDbDictionary
281
     1
  3
ACAD_GROUP
350
D
  3
ACAD_LAYOUT
350
1A
  3
ACAD_MLINESTYLE
350
17
  3
ACAD_PLOTSETTINGS
350
19
  3
ACAD_PLOTSTYLENAME
350
E
  0
DICTIONARY
  5
D
102
{ACAD_REACTORS
330
C
102
}
330
C
100
AcDbDictionary
281
     1
  0
DICTIONARY
  5
1A
102
{ACAD_REACTORS
330
C
102
}
330
C
100
AcDbDictionary
281
     1
  3
Layout1
350
1E
  3
Layout2
350
26
  3
Model
350
22
  0
DICTIONARY
  5
17
102
{ACAD_REACTORS
330
C
102
}
330
C
100
AcDbDictionary
281
     1
  3
Standard
350
18
  0
DICTIONARY
  5
19
102
{ACAD_REACTORS
330
C
102
}
330
C
100
AcDbDictionary
281
     1
  0
ACDBDICTIONARYWDFLT
  5
E
102
{ACAD_REACTORS
330
C
102
}
330
C
100
AcDbDictionary
281
     1
  3
Normal
350
F
100
AcDbDictionaryWithDefault
340
F
  0
LAYOUT
  5
1E
102
{ACAD_REACTORS
330
1A
102
}
330
1A
100
AcDbPlotSettings
  1

  2
HP LaserJet III
  4

  6

 40
0.0
 41
0.0
 42
0.0
 43
0.0
 44
0.0
 45
0.0
 46
0.0
 47
0.0
 48
0.0
 49
0.0
140
0.0
141
0.0
142
1.0
143
1.0
 70
   688
 72
     0
 73
     0
 74
     5
  7

 75
    16
147
1.0
148
0.0
149
0.0
100
AcDbLayout
  1
Layout1
 70
     1
 71
     1
 10
0.0
 20
0.0
 11
12.0
 21
9.0
 12
0.0
 22
0.0
 32
0.0
 14
1.000000000000000E+20
 24
1.000000000000000E+20
 34
1.000000000000000E+20
 15
-1.000000000000000E+20
 25
-1.000000000000000E+20
 35
-1.000000000000000E+20
146
0.0
 13
0.0
 23
0.0
 33
0.0
 16
1.0
 26
0.0
 36
0.0
 17
0.0
 27
1.0
 37
0.0
 76
     0
330
1B
  0
LAYOUT
  5
26
102
{ACAD_REACTORS
330
1A
102
}
330
1A
100
AcDbPlotSettings
  1

  2
HP LaserJet III
  4

  6

 40
0.0
 41
0.0
 42
0.0
 43
0.0
 44
0.0
 45
0.0
 46
0.0
 47
0.0
 48
0.0
 49
0.0
140
0.0
141
0.0
142
1.0
143
1.0
 70
   688
 72
     0
 73
     0
 74
     5
  7

 75
    16
147
1.0
148
0.0
149
0.0
100
AcDbLayout
  1
Layout2
 70
     1
 71
     2
 10
0.0
 20
0.0
 11
12.0
 21
9.0
 12
0.0
 22
0.0
 32
0.0
 14
0.0
 24
0.0
 34
0.0
 15
0.0
 25
0.0
 35
0.0
146
0.0
 13
0.0
 23
0.0
 33
0.0
 16
1.0
 26
0.0
 36
0.0
 17
0.0
 27
1.0
 37
0.0
 76
     0
330
23
  0
LAYOUT
  5
22
102
{ACAD_REACTORS
330
1A
102
}
330
1A
100
AcDbPlotSettings
  1

  2
HP LaserJet III
  4
Letter
  6

 40
7.143749713897705
 41
7.143741130828857
 42
7.14373779296875
 43
5.365753173828125
 44
215.8999938964843
 45
279.3999938964843
 46
0.0
 47
0.0
 48
8.800000000000004
 49
-0.0000000000000071
140
44.0
141
27.2
142
1.0
143
3.426771544940117
 70
 11952
 72
     0
 73
     1
 74
     4
  7

 75
     0
147
0.291819862189697
148
-223.5200000000001
149
0.0000000000001805
100
AcDbLayout
  1
Model
 70
     1
 71
     0
 10
0.0
 20
0.0
 11
12.0
 21
9.0
 12
0.0
 22
0.0
 32
0.0
 14
0.0
 24
0.0
 34
0.0
 15
0.0
 25
0.0
 35
0.0
146
0.0
 13
0.0
 23
0.0
 33
0.0
 16
1.0
 26
0.0
 36
0.0
 17
0.0
 27
1.0
 37
0.0
 76
     0
330
1F
  0
MLINESTYLE
  5
18
102
{ACAD_REACTORS
330
17
102
}
330
17
100
AcDbMlineStyle
  2
STANDARD
 70
     0
  3

 62
   256
 51
90.0
 52
90.0
 71
     2
 49
0.5
 62
   256
  6
BYLAYER
 49
-0.5
 62
   256
  6
BYLAYER
  0
ACDBPLACEHOLDER
  5
F
102
{ACAD_REACTORS
330
E
102
}
330
E
  0
ENDSEC
  0
EOF
