  0
SECTION
  2
HEADER
  9
$ACADVER
  1
AC1015
  9
$ACADMAINTVER
 70
     6
  9
$DWGCODEPAGE
  3
ANSI_1252
  9
$INSBASE
 10
0.0
 20
0.0
 30
0.0
  9
$EXTMIN
 10
-2.368122189086847
 20
-0.0032643781220116
 30
0.0
  9
$EXTMAX
 10
41.63187781091316
 20
34.0
 30
0.0
  9
$LIMMIN
 10
0.0
 20
0.0
  9
$LIMMAX
 10
12.0
 20
9.0
  9
$ORTHOMODE
 70
     0
  9
$REGENMODE
 70
     1
  9
$FILLMODE
 70
     1
  9
$QTEXTMODE
 70
     0
  9
$MIRRTEXT
 70
     1
  9
$LTSCALE
 40
1.0
  9
$ATTMODE
 70
     1
  9
$TEXTSIZE
 40
0.5
  9
$TRACEWID
 40
0.05
  9
$TEXTSTYLE
  7
Standard
  9
$CLAYER
  8
Dimensions
  9
$CELTYPE
  6
ByLayer
  9
$CECOLOR
 62
   256
  9
$CELTSCALE
 40
1.0
  9
$DISPSILH
 70
     0
  9
$DIMSCALE
 40
1.0
  9
$DIMASZ
 40
0.3
  9
$DIMEXO
 40
0.1
  9
$DIMDLI
 40
0.5
  9
$DIMRND
 40
0.0
  9
$DIMDLE
 40
0.0
  9
$DIMEXE
 40
0.3
  9
$DIMTP
 40
0.0
  9
$DIMTM
 40
0.0
  9
$DIMTXT
 40
0.3
  9
$DIMCEN
 40
0.15
  9
$DIMTSZ
 40
0.0
  9
$DIMTOL
 70
     0
  9
$DIMLIM
 70
     0
  9
$DIMTIH
 70
     1
  9
$DIMTOH
 70
     1
  9
$DIMSE1
 70
     0
  9
$DIMSE2
 70
     0
  9
$DIMTAD
 70
     0
  9
$DIMZIN
 70
     0
  9
$DIMBLK
  1

  9
$DIMASO
 70
     1
  9
$DIMSHO
 70
     1
  9
$DIMPOST
  1

  9
$DIMAPOST
  1

  9
$DIMALT
 70
     0
  9
$DIMALTD
 70
     2
  9
$DIMALTF
 40
25.4
  9
$DIMLFAC
 40
1.0
  9
$DIMTOFL
 70
     0
  9
$DIMTVP
 40
0.0
  9
$DIMTIX
 70
     0
  9
$DIMSOXD
 70
     0
  9
$DIMSAH
 70
     0
  9
$DIMBLK1
  1

  9
$DIMBLK2
  1

  9
$DIMSTYLE
  2
Standard
  9
$DIMCLRD
 70
     0
  9
$DIMCLRE
 70
     0
  9
$DIMCLRT
 70
     0
  9
$DIMTFAC
 40
1.0
  9
$DIMGAP
 40
0.15
  9
$DIMJUST
 70
     0
  9
$DIMSD1
 70
     0
  9
$DIMSD2
 70
     0
  9
$DIMTOLJ
 70
     1
  9
$DIMTZIN
 70
     0
  9
$DIMALTZ
 70
     0
  9
$DIMALTTZ
 70
     0
  9
$DIMUPT
 70
     1
  9
$DIMDEC
 70
     3
  9
$DIMTDEC
 70
     3
  9
$DIMALTU
 70
     2
  9
$DIMALTTD
 70
     2
  9
$DIMTXSTY
  7
Standard
  9
$DIMAUNIT
 70
     0
  9
$DIMADEC
 70
     0
  9
$DIMALTRND
 40
0.0
  9
$DIMAZIN
 70
     0
  9
$DIMDSEP
 70
    46
  9
$DIMATFIT
 70
     3
  9
$DIMFRAC
 70
     0
  9
$DIMLDRBLK
  1

  9
$DIMLUNIT
 70
     5
  9
$DIMLWD
 70
    -2
  9
$DIMLWE
 70
    -2
  9
$DIMTMOVE
 70
     0
  9
$LUNITS
 70
     2
  9
$LUPREC
 70
     4
  9
$SKETCHINC
 40
0.1
  9
$FILLETRAD
 40
0.5
  9
$AUNITS
 70
     0
  9
$AUPREC
 70
     0
  9
$MENU
  1
.
  9
$ELEVATION
 40
0.0
  9
$PELEVATION
 40
0.0
  9
$THICKNESS
 40
0.0
  9
$LIMCHECK
 70
     0
  9
$CHAMFERA
 40
0.5
  9
$CHAMFERB
 40
0.5
  9
$CHAMFERC
 40
1.0
  9
$CHAMFERD
 40
0.0
  9
$SKPOLY
 70
     0
  9
$TDCREATE
 40
2451705.410471759
  9
$TDUCREATE
 40
2451705.618805092
  9
$TDUPDATE
 40
2452345.655615856
  9
$TDUUPDATE
 40
2452345.863949190
  9
$TDINDWG
 40
0.0875694444
  9
$TDUSRTIMER
 40
0.0875694444
  9
$USRTIMER
 70
     1
  9
$ANGBASE
 50
0.0
  9
$ANGDIR
 70
     0
  9
$PDMODE
 70
     0
  9
$PDSIZE
 40
0.0
  9
$PLINEWID
 40
0.0
  9
$SPLFRAME
 70
     0
  9
$SPLINETYPE
 70
     6
  9
$SPLINESEGS
 70
     8
  9
$HANDSEED
  5
1062
  9
$SURFTAB1
 70
     6
  9
$SURFTAB2
 70
     6
  9
$SURFTYPE
 70
     6
  9
$SURFU
 70
     6
  9
$SURFV
 70
     6
  9
$UCSBASE
  2

  9
$UCSNAME
  2

  9
$UCSORG
 10
0.0
 20
0.0
 30
0.0
  9
$UCSXDIR
 10
1.0
 20
0.0
 30
0.0
  9
$UCSYDIR
 10
0.0
 20
1.0
 30
0.0
  9
$UCSORTHOREF
  2

  9
$UCSORTHOVIEW
 70
     0
  9
$UCSORGTOP
 10
0.0
 20
0.0
 30
0.0
  9
$UCSORGBOTTOM
 10
0.0
 20
0.0
 30
0.0
  9
$UCSORGLEFT
 10
0.0
 20
0.0
 30
0.0
  9
$UCSORGRIGHT
 10
0.0
 20
0.0
 30
0.0
  9
$UCSORGFRONT
 10
0.0
 20
0.0
 30
0.0
  9
$UCSORGBACK
 10
0.0
 20
0.0
 30
0.0
  9
$PUCSBASE
  2

  9
$PUCSNAME
  2

  9
$PUCSORG
 10
0.0
 20
0.0
 30
0.0
  9
$PUCSXDIR
 10
1.0
 20
0.0
 30
0.0
  9
$PUCSYDIR
 10
0.0
 20
1.0
 30
0.0
  9
$PUCSORTHOREF
  2

  9
$PUCSORTHOVIEW
 70
     0
  9
$PUCSORGTOP
 10
0.0
 20
0.0
 30
0.0
  9
$PUCSORGBOTTOM
 10
0.0
 20
0.0
 30
0.0
  9
$PUCSORGLEFT
 10
0.0
 20
0.0
 30
0.0
  9
$PUCSORGRIGHT
 10
0.0
 20
0.0
 30
0.0
  9
$PUCSORGFRONT
 10
0.0
 20
0.0
 30
0.0
  9
$PUCSORGBACK
 10
0.0
 20
0.0
 30
0.0
  9
$USERI1
 70
     0
  9
$USERI2
 70
     0
  9
$USERI3
 70
     0
  9
$USERI4
 70
     0
  9
$USERI5
 70
     0
  9
$USERR1
 40
0.0
  9
$USERR2
 40
0.0
  9
$USERR3
 40
0.0
  9
$USERR4
 40
0.0
  9
$USERR5
 40
0.0
  9
$WORLDVIEW
 70
     1
  9
$SHADEDGE
 70
     3
  9
$SHADEDIF
 70
    70
  9
$TILEMODE
 70
     1
  9
$MAXACTVP
 70
    64
  9
$PINSBASE
 10
0.0
 20
0.0
 30
0.0
  9
$PLIMCHECK
 70
     0
  9
$PEXTMIN
 10
1.000000000000000E+20
 20
1.000000000000000E+20
 30
1.000000000000000E+20
  9
$PEXTMAX
 10
-1.000000000000000E+20
 20
-1.000000000000000E+20
 30
-1.000000000000000E+20
  9
$PLIMMIN
 10
0.0
 20
0.0
  9
$PLIMMAX
 10
12.0
 20
9.0
  9
$UNITMODE
 70
     0
  9
$VISRETAIN
 70
     1
  9
$PLINEGEN
 70
     0
  9
$PSLTSCALE
 70
     1
  9
$TREEDEPTH
 70
  3020
  9
$CMLSTYLE
  2
Standard
  9
$CMLJUST
 70
     0
  9
$CMLSCALE
 40
1.0
  9
$PROXYGRAPHICS
 70
     1
  9
$MEASUREMENT
 70
     0
  9
$CELWEIGHT
370
    -1
  9
$ENDCAPS
280
     0
  9
$JOINSTYLE
280
     0
  9
$LWDISPLAY
290
     0
  9
$INSUNITS
 70
     1
  9
$HYPERLINKBASE
  1

  9
$STYLESHEET
  1

  9
$XEDIT
290
     1
  9
$CEPSNTYPE
380
     0
  9
$PSTYLEMODE
290
     1
  9
$FINGERPRINTGUID
  2
{7516F52A-0BD7-11D4-8360-004F4908EF25}
  9
$VERSIONGUID
  2
{43F50BF3-4C04-11D4-8360-004F4908EF25}
  9
$EXTNAMES
290
     1
  9
$PSVPSCALE
 40
0.0
  9
$OLESTARTUP
290
     0
  0
ENDSEC
  0
SECTION
  2
CLASSES
  0
CLASS
  1
ACDBDICTIONARYWDFLT
  2
AcDbDictionaryWithDefault
  3
AutoCAD 2000
 90
        0
280
     0
281
     0
  0
CLASS
  1
ACDBPLACEHOLDER
  2
AcDbPlaceHolder
  3
AutoCAD 2000
 90
        0
280
     0
281
     0
  0
CLASS
  1
LAYOUT
  2
AcDbLayout
  3
AutoCAD 2000
 90
        0
280
     0
281
     0
  0
ENDSEC
  0
SECTION
  2
TABLES
  0
TABLE
  2
VPORT
  5
8
330
0
100
AcDbSymbolTable
 70
     2
  0
VPORT
  5
1061
330
8
100
AcDbSymbolTableRecord
100
AcDbViewportTableRecord
  2
*Active
 70
     0
 10
0.0
 20
0.0
 11
1.0
 21
1.0
 12
19.43980900446001
 22
16.99193655127593
 13
0.0
 23
0.0
 14
0.5
 24
0.5
 15
0.5
 25
0.5
 16
0.0
 26
0.0
 36
1.0
 17
0.0
 27
0.0
 37
0.0
 40
38.15467168851436
 41
1.378947368421052
 42
50.0
 43
0.0
 44
0.0
 50
0.0
 51
0.0
 71
     0
 72
   100
 73
     1
 74
     3
 75
     0
 76
     0
 77
     0
 78
     0
281
     0
 65
     1
110
0.0
120
0.0
130
0.0
111
1.0
121
0.0
131
0.0
112
0.0
122
1.0
132
0.0
 79
     0
146
0.0
  0
ENDTAB
  0
TABLE
  2
LTYPE
  5
5
330
0
100
AcDbSymbolTable
 70
     5
  0
LTYPE
  5
14
330
5
100
AcDbSymbolTableRecord
100
AcDbLinetypeTableRecord
  2
ByBlock
 70
     0
  3

 72
    65
 73
     0
 40
0.0
  0
LTYPE
  5
15
330
5
100
AcDbSymbolTableRecord
100
AcDbLinetypeTableRecord
  2
ByLayer
 70
     0
  3

 72
    65
 73
     0
 40
0.0
  0
LTYPE
  5
16
330
5
100
AcDbSymbolTableRecord
100
AcDbLinetypeTableRecord
  2
Continuous
 70
     0
  3
Solid line
 72
    65
 73
     0
 40
0.0
  0
LTYPE
  5
A58
330
5
100
AcDbSymbolTableRecord
100
AcDbLinetypeTableRecord
  2
HIDDEN
 70
     0
  3
_____________________                     _____________________
 72
    65
 73
     2
 40
0.2
 49
0.133333
 74
     0
 49
-0.066667
 74
     0
  0
LTYPE
  5
A59
330
5
100
AcDbSymbolTableRecord
100
AcDbLinetypeTableRecord
  2
CENTER
 70
     0
  3
___________________________  _____  ___________________________
 72
    65
 73
     4
 40
1.25
 49
1.071429
 74
     0
 49
-0.039683
 74
     0
 49
0.099206
 74
     0
 49
-0.039683
 74
     0
  0
LTYPE
  5
A5A
330
5
100
AcDbSymbolTableRecord
100
AcDbLinetypeTableRecord
  2
HIDDEN2
 70
     0
  3
Hidden (.5x) _ _ _ _ _ _ _ _ _ _ _ _ _ _ _ _ _
 72
    65
 73
     2
 40
0.1875
 49
0.125
 74
     0
 49
-0.0625
 74
     0
  0
LTYPE
  5
BB4
330
5
100
AcDbSymbolTableRecord
100
AcDbLinetypeTableRecord
  2
CENTERX2
 70
     0
  3
Center (2x) ________  __  ________  __  _____
 72
    65
 73
     4
 40
4.0
 49
2.5
 74
     0
 49
-0.5
 74
     0
 49
0.5
 74
     0
 49
-0.5
 74
     0
  0
ENDTAB
  0
TABLE
  2
LAYER
  5
2
330
0
100
AcDbSymbolTable
 70
    11
  0
LAYER
  5
10
330
2
100
AcDbSymbolTableRecord
100
AcDbLayerTableRecord
  2
0
 70
     0
 62
     7
  6
Continuous
370
    -3
390
F
  0
LAYER
  5
2B
330
2
100
AcDbSymbolTableRecord
100
AcDbLayerTableRecord
  2
TitleBlock&Notes
 70
     0
 62
     3
  6
Continuous
370
    -3
390
F
  0
LAYER
  5
2C
330
2
100
AcDbSymbolTableRecord
100
AcDbLayerTableRecord
  2
B.O.M
 70
     0
 62
     3
  6
Continuous
370
    -3
390
F
  0
LAYER
  5
A5B
330
2
100
AcDbSymbolTableRecord
100
AcDbLayerTableRecord
  2
Defpoints
 70
     0
 62
     7
  6
Continuous
290
     0
370
    -3
390
F
  0
LAYER
  5
A5F
330
2
100
AcDbSymbolTableRecord
100
AcDbLayerTableRecord
  2
5159FlameCuts
 70
     0
 62
     7
  6
Continuous
370
    -3
390
F
  0
LAYER
  5
BCE
330
2
100
AcDbSymbolTableRecord
100
AcDbLayerTableRecord
  2
centre
 70
     0
 62
     2
  6
Continuous
370
    -3
390
F
  0
LAYER
  5
BD8
330
2
100
AcDbSymbolTableRecord
100
AcDbLayerTableRecord
  2
Dimensions
 70
     0
 62
     1
  6
Continuous
370
    -3
390
F
  0
LAYER
  5
FBF
330
2
100
AcDbSymbolTableRecord
100
AcDbLayerTableRecord
  2
5832MountPlate
 70
     0
 62
     7
  6
Continuous
370
    -3
390
F
  0
LAYER
  5
FC0
330
2
100
AcDbSymbolTableRecord
100
AcDbLayerTableRecord
  2
5833SupportPlate
 70
     0
 62
     7
  6
Continuous
370
    -3
390
F
  0
LAYER
  5
FC1
330
2
100
AcDbSymbolTableRecord
100
AcDbLayerTableRecord
  2
5834BasePlate
 70
     0
 62
     7
  6
Continuous
370
    -3
390
F
  0
LAYER
  5
100F
330
2
100
AcDbSymbolTableRecord
100
AcDbLayerTableRecord
  2
6083FlameCut
 70
     0
 62
     7
  6
Continuous
370
    -3
390
F
  0
ENDTAB
  0
TABLE
  2
STYLE
  5
3
330
0
100
AcDbSymbolTable
 70
     3
  0
STYLE
  5
11
330
3
100
AcDbSymbolTableRecord
100
AcDbTextStyleTableRecord
  2
Standard
 70
     0
 40
0.0
 41
1.0
 50
0.0
 71
     0
 42
0.5
  3
txt
  4

  0
STYLE
  5
BB3
330
3
100
AcDbSymbolTableRecord
100
AcDbTextStyleTableRecord
  2

 70
     1
 40
0.0
 41
1.0
 50
0.0
 71
     0
 42
0.2
  3
ltypeshp.shx
  4

  0
STYLE
  5
1010
330
3
100
AcDbSymbolTableRecord
100
AcDbTextStyleTableRecord
  2
HAND
 70
     0
 40
0.0
 41
1.0
 50
0.0
 71
     0
 42
0.3135
  3
DAUPHINN.TTF
  4

1001
ACAD
1000
Dauphin
1071
       18
  0
ENDTAB
  0
TABLE
  2
VIEW
  5
6
330
0
100
AcDbSymbolTable
 70
     0
  0
ENDTAB
  0
TABLE
  2
UCS
  5
7
330
0
100
AcDbSymbolTable
 70
     0
  0
ENDTAB
  0
TABLE
  2
APPID
  5
9
330
0
100
AcDbSymbolTable
 70
     1
  0
APPID
  5
12
330
9
100
AcDbSymbolTableRecord
100
AcDbRegAppTableRecord
  2
ACAD
 70
     0
  0
ENDTAB
  0
TABLE
  2
DIMSTYLE
  5
A
330
0
100
AcDbSymbolTable
 70
     1
100
AcDbDimStyleTable
 71
     1
340
27
  0
DIMSTYLE
105
27
102
{ACAD_REACTORS
330
C03
330
C11
330
D56
330
ED0
330
EE8
330
F58
330
F81
330
F9D
330
FC7
330
FD5
330
FE3
330
103E
102
}
330
A
100
AcDbSymbolTableRecord
100
AcDbDimStyleTableRecord
  2
Standard
 70
     0
340
11
  0
ENDTAB
  0
TABLE
  2
BLOCK_RECORD
  5
1
330
0
100
AcDbSymbolTable
 70
    14
  0
BLOCK_RECORD
  5
1F
330
1
100
AcDbSymbolTableRecord
100
AcDbBlockTableRecord
  2
*Model_Space
340
22
  0
BLOCK_RECORD
  5
1B
330
1
100
AcDbSymbolTableRecord
100
AcDbBlockTableRecord
  2
*Paper_Space
340
1E
  0
BLOCK_RECORD
  5
23
330
1
100
AcDbSymbolTableRecord
100
AcDbBlockTableRecord
  2
*Paper_Space0
340
26
  0
BLOCK_RECORD
  5
C04
330
1
100
AcDbSymbolTableRecord
100
AcDbBlockTableRecord
  2
*D1
340
0
  0
BLOCK_RECORD
  5
C12
330
1
100
AcDbSymbolTableRecord
100
AcDbBlockTableRecord
  2
*D2
340
0
  0
BLOCK_RECORD
  5
D32
330
1
100
AcDbSymbolTableRecord
100
AcDbBlockTableRecord
  2
_None
340
0
  0
BLOCK_RECORD
  5
D57
330
1
100
AcDbSymbolTableRecord
100
AcDbBlockTableRecord
  2
*D4
340
0
  0
BLOCK_RECORD
  5
ED1
330
1
100
AcDbSymbolTableRecord
100
AcDbBlockTableRecord
  2
*D5
340
0
  0
BLOCK_RECORD
  5
EE9
330
1
100
AcDbSymbolTableRecord
100
AcDbBlockTableRecord
  2
*D6
340
0
  0
BLOCK_RECORD
  5
F59
330
1
100
AcDbSymbolTableRecord
100
AcDbBlockTableRecord
  2
*D7
340
0
  0
BLOCK_RECORD
  5
F82
330
1
100
AcDbSymbolTableRecord
100
AcDbBlockTableRecord
  2
*D8
340
0
  0
BLOCK_RECORD
  5
F9E
330
1
100
AcDbSymbolTableRecord
100
AcDbBlockTableRecord
  2
*D9
340
0
  0
BLOCK_RECORD
  5
FC8
330
1
100
AcDbSymbolTableRecord
100
AcDbBlockTableRecord
  2
*D10
340
0
  0
BLOCK_RECORD
  5
FD6
330
1
100
AcDbSymbolTableRecord
100
AcDbBlockTableRecord
  2
*D11
340
0
  0
BLOCK_RECORD
  5
FE4
330
1
100
AcDbSymbolTableRecord
100
AcDbBlockTableRecord
  2
*D12
340
0
  0
BLOCK_RECORD
  5
103F
330
1
100
AcDbSymbolTableRecord
100
AcDbBlockTableRecord
  2
*D13
340
0
  0
ENDTAB
  0
ENDSEC
  0
SECTION
  2
BLOCKS
  0
BLOCK
  5
20
330
1F
100
AcDbEntity
  8
0
100
AcDbBlockBegin
  2
*Model_Space
 70
     0
 10
0.0
 20
0.0
 30
0.0
  3
*Model_Space
  1

  0
ENDBLK
  5
21
330
1F
100
AcDbEntity
  8
0
100
AcDbBlockEnd
  0
BLOCK
  5
1C
330
1B
100
AcDbEntity
 67
     1
  8
0
100
AcDbBlockBegin
  2
*Paper_Space
 70
     0
 10
0.0
 20
0.0
 30
0.0
  3
*Paper_Space
  1

  0
ENDBLK
  5
1D
330
1B
100
AcDbEntity
 67
     1
  8
0
100
AcDbBlockEnd
  0
BLOCK
  5
24
330
23
100
AcDbEntity
  8
0
100
AcDbBlockBegin
  2
*Paper_Space0
 70
     0
 10
0.0
 20
0.0
 30
0.0
  3
*Paper_Space0
  1

  0
ENDBLK
  5
25
330
23
100
AcDbEntity
  8
0
100
AcDbBlockEnd
  0
BLOCK
  5
C0F
330
C04
100
AcDbEntity
  8
0
100
AcDbBlockBegin
  2
*D1
 70
     1
 10
0.0
 20
0.0
 30
0.0
  3
*D1
  1

  0
LINE
  5
DE9
330
C04
100
AcDbEntity
  8
Dimensions
 62
     0
370
    -2
100
AcDbLine
 10
17.86844123263045
 20
16.34699707466579
 30
0.0
 11
15.61008955689205
 21
16.34699707466579
 31
0.0
  0
LINE
  5
DEA
330
C04
100
AcDbEntity
  8
Dimensions
 62
     0
370
    -2
100
AcDbLine
 10
19.11844123263045
 20
29.97199707466579
 30
0.0
 11
15.61008955689205
 21
29.97199707466579
 31
0.0
  0
LINE
  5
DEB
330
C04
100
AcDbEntity
  8
Dimensions
 62
     0
370
    -2
100
AcDbLine
 10
15.91008955689204
 20
16.64699707466579
 30
0.0
 11
15.91008955689205
 21
22.89393264389987
 31
0.0
  0
LINE
  5
DEC
330
C04
100
AcDbEntity
  8
Dimensions
 62
     0
370
    -2
100
AcDbLine
 10
15.91008955689205
 20
29.67199707466579
 30
0.0
 11
15.91008955689205
 21
23.89393264389986
 31
0.0
  0
SOLID
  5
DED
330
C04
100
AcDbEntity
  8
Dimensions
 62
     0
100
AcDbTrace
 10
15.86008955689204
 20
16.64699707466579
 30
0.0
 11
15.96008955689204
 21
16.64699707466579
 31
0.0
 12
15.91008955689204
 22
16.34699707466579
 32
0.0
 13
15.91008955689204
 23
16.34699707466579
 33
0.0
  0
SOLID
  5
DEE
330
C04
100
AcDbEntity
  8
Dimensions
 62
     0
100
AcDbTrace
 10
15.86008955689205
 20
29.67199707466579
 30
0.0
 11
15.96008955689205
 21
29.67199707466579
 31
0.0
 12
15.91008955689205
 22
29.97199707466579
 32
0.0
 13
15.91008955689205
 23
29.97199707466579
 33
0.0
  0
MTEXT
  5
DEF
330
C04
100
AcDbEntity
  8
Dimensions
 62
     0
100
AcDbMText
 10
15.91008955689204
 20
23.39393264389987
 30
0.0
 40
0.3
 41
0.0
 71
     5
 72
     1
  1
\A1;13{\H1.000000x;\S5/8;}
 73
     1
 44
1.0
  0
POINT
  5
DF0
330
C04
100
AcDbEntity
  8
Defpoints
 62
     0
100
AcDbPoint
 10
17.96844123263045
 20
16.34699707466579
 30
0.0
  0
POINT
  5
DF1
330
C04
100
AcDbEntity
  8
Defpoints
 62
     0
100
AcDbPoint
 10
19.21844123263045
 20
29.97199707466579
 30
0.0
  0
POINT
  5
DF2
330
C04
100
AcDbEntity
  8
Defpoints
 62
     0
100
AcDbPoint
 10
15.91008955689205
 20
29.97199707466579
 30
0.0
  0
ENDBLK
  5
C10
330
C04
100
AcDbEntity
  8
0
100
AcDbBlockEnd
  0
BLOCK
  5
C1D
330
C12
100
AcDbEntity
  8
0
100
AcDbBlockBegin
  2
*D2
 70
     1
 10
0.0
 20
0.0
 30
0.0
  3
*D2
  1

  0
LINE
  5
DD8
330
C12
100
AcDbEntity
  8
Dimensions
 62
     0
370
    -2
100
AcDbLine
 10
21.26844123263045
 20
22.32335836279357
 30
0.0
 11
22.66328234200446
 21
22.32335836279357
 31
0.0
  0
LINE
  5
DD9
330
C12
100
AcDbEntity
  8
Dimensions
 62
     0
370
    -2
100
AcDbLine
 10
24.66844123263045
 20
22.32335836279357
 30
0.0
 11
23.16328234200446
 21
22.32335836279357
 31
0.0
  0
SOLID
  5
DDA
330
C12
100
AcDbEntity
  8
Dimensions
 62
     0
100
AcDbTrace
 10
21.26844123263045
 20
22.37335836279357
 30
0.0
 11
21.26844123263045
 21
22.27335836279356
 31
0.0
 12
20.96844123263045
 22
22.32335836279357
 32
0.0
 13
20.96844123263045
 23
22.32335836279357
 33
0.0
  0
SOLID
  5
DDB
330
C12
100
AcDbEntity
  8
Dimensions
 62
     0
100
AcDbTrace
 10
24.66844123263045
 20
22.37335836279357
 30
0.0
 11
24.66844123263045
 21
22.27335836279356
 31
0.0
 12
24.96844123263045
 22
22.32335836279357
 32
0.0
 13
24.96844123263045
 23
22.32335836279357
 33
0.0
  0
MTEXT
  5
DDC
330
C12
100
AcDbEntity
  8
Dimensions
 62
     0
100
AcDbMText
 10
22.91328234200446
 20
22.32335836279357
 30
0.0
 40
0.3
 41
0.0
 71
     5
 72
     1
  1
\A1;4
 73
     1
 44
1.0
  0
POINT
  5
DDD
330
C12
100
AcDbEntity
  8
Defpoints
 62
     0
100
AcDbPoint
 10
20.96844123263045
 20
23.16266944013691
 30
0.0
  0
POINT
  5
DDE
330
C12
100
AcDbEntity
  8
Defpoints
 62
     0
100
AcDbPoint
 10
24.96844123263045
 20
22.39975157466579
 30
0.0
  0
POINT
  5
DDF
330
C12
100
AcDbEntity
  8
Defpoints
 62
     0
100
AcDbPoint
 10
24.96844123263045
 20
22.32335836279357
 30
0.0
  0
ENDBLK
  5
C1E
330
C12
100
AcDbEntity
  8
0
100
AcDbBlockEnd
  0
BLOCK
  5
D33
330
D32
100
AcDbEntity
  8
0
100
AcDbBlockBegin
  2
_None
 70
     0
 10
0.0
 20
0.0
 30
0.0
  3
_None
  1

  0
ENDBLK
  5
D34
330
D32
100
AcDbEntity
  8
0
100
AcDbBlockEnd
  0
BLOCK
  5
D62
330
D57
100
AcDbEntity
  8
0
100
AcDbBlockBegin
  2
*D4
 70
     1
 10
0.0
 20
0.0
 30
0.0
  3
*D4
  1

  0
LINE
  5
EAA
330
D57
100
AcDbEntity
  8
Dimensions
 62
     0
370
    -2
100
AcDbLine
 10
8.064309151517024
 20
10.89481699796236
 30
0.0
 11
8.064309151517024
 21
11.92082404208315
 31
0.0
  0
LINE
  5
EAB
330
D57
100
AcDbEntity
  8
Dimensions
 62
     0
370
    -2
100
AcDbLine
 10
15.06433415151702
 20
10.89481699796236
 30
0.0
 11
15.06433415151702
 21
11.92082404208315
 31
0.0
  0
LINE
  5
EAC
330
D57
100
AcDbEntity
  8
Dimensions
 62
     0
370
    -2
100
AcDbLine
 10
8.364309151517025
 20
11.62082404208315
 30
0.0
 11
11.2254378306811
 21
11.62082404208315
 31
0.0
  0
LINE
  5
EAD
330
D57
100
AcDbEntity
  8
Dimensions
 62
     0
370
    -2
100
AcDbLine
 10
14.76433415151702
 20
11.62082404208315
 30
0.0
 11
11.7254378306811
 21
11.62082404208315
 31
0.0
  0
SOLID
  5
EAE
330
D57
100
AcDbEntity
  8
Dimensions
 62
     0
100
AcDbTrace
 10
8.364309151517025
 20
11.67082404208315
 30
0.0
 11
8.364309151517025
 21
11.57082404208315
 31
0.0
 12
8.064309151517024
 22
11.62082404208315
 32
0.0
 13
8.064309151517024
 23
11.62082404208315
 33
0.0
  0
SOLID
  5
EAF
330
D57
100
AcDbEntity
  8
Dimensions
 62
     0
100
AcDbTrace
 10
14.76433415151702
 20
11.67082404208315
 30
0.0
 11
14.76433415151702
 21
11.57082404208315
 31
0.0
 12
15.06433415151702
 22
11.62082404208315
 32
0.0
 13
15.06433415151702
 23
11.62082404208315
 33
0.0
  0
MTEXT
  5
EB0
330
D57
100
AcDbEntity
  8
Dimensions
 62
     0
100
AcDbMText
 10
11.4754378306811
 20
11.62082404208315
 30
0.0
 40
0.3
 41
0.0
 71
     5
 72
     1
  1
\A1;7
 73
     1
 44
1.0
  0
POINT
  5
EB1
330
D57
100
AcDbEntity
  8
Defpoints
 62
     0
100
AcDbPoint
 10
8.064309151517024
 20
10.79481699796236
 30
0.0
  0
POINT
  5
EB2
330
D57
100
AcDbEntity
  8
Defpoints
 62
     0
100
AcDbPoint
 10
15.06433415151702
 20
10.79481699796236
 30
0.0
  0
POINT
  5
EB3
330
D57
100
AcDbEntity
  8
Defpoints
 62
     0
100
AcDbPoint
 10
15.06433415151702
 20
11.62082404208315
 30
0.0
  0
ENDBLK
  5
D63
330
D57
100
AcDbEntity
  8
0
100
AcDbBlockEnd
  0
BLOCK
  5
EDC
330
ED1
100
AcDbEntity
  8
0
100
AcDbBlockBegin
  2
*D5
 70
     1
 10
0.0
 20
0.0
 30
0.0
  3
*D5
  1

  0
LINE
  5
EDE
330
ED1
100
AcDbEntity
  8
Dimensions
 62
     0
370
    -2
100
AcDbLine
 10
15.16433415151702
 20
10.79481699796236
 30
0.0
 11
16.06254672902348
 21
10.79481699796236
 31
0.0
  0
LINE
  5
EDF
330
ED1
100
AcDbEntity
  8
Dimensions
 62
     0
370
    -2
100
AcDbLine
 10
15.16433415151702
 20
6.794816997962366
 30
0.0
 11
16.06254672902348
 21
6.794816997962366
 31
0.0
  0
LINE
  5
EE0
330
ED1
100
AcDbEntity
  8
Dimensions
 62
     0
370
    -2
100
AcDbLine
 10
15.76254672902348
 20
10.49481699796236
 30
0.0
 11
15.76254672902348
 21
9.1261619405947
 31
0.0
  0
LINE
  5
EE1
330
ED1
100
AcDbEntity
  8
Dimensions
 62
     0
370
    -2
100
AcDbLine
 10
15.76254672902348
 20
7.094816997962365
 30
0.0
 11
15.76254672902348
 21
8.526161940594699
 31
0.0
  0
SOLID
  5
EE2
330
ED1
100
AcDbEntity
  8
Dimensions
 62
     0
100
AcDbTrace
 10
15.71254672902348
 20
10.49481699796236
 30
0.0
 11
15.81254672902348
 21
10.49481699796236
 31
0.0
 12
15.76254672902348
 22
10.79481699796236
 32
0.0
 13
15.76254672902348
 23
10.79481699796236
 33
0.0
  0
SOLID
  5
EE3
330
ED1
100
AcDbEntity
  8
Dimensions
 62
     0
100
AcDbTrace
 10
15.71254672902348
 20
7.094816997962365
 30
0.0
 11
15.81254672902348
 21
7.094816997962365
 31
0.0
 12
15.76254672902348
 22
6.794816997962366
 32
0.0
 13
15.76254672902348
 23
6.794816997962366
 33
0.0
  0
MTEXT
  5
EE4
330
ED1
100
AcDbEntity
  8
Dimensions
 62
     0
100
AcDbMText
 10
15.76254672902348
 20
8.826161940594701
 30
0.0
 40
0.3
 41
0.0
 71
     5
 72
     1
  1
\A1;4
 73
     1
 44
1.0
  0
POINT
  5
EE5
330
ED1
100
AcDbEntity
  8
Defpoints
 62
     0
100
AcDbPoint
 10
15.06433415151702
 20
10.79481699796236
 30
0.0
  0
POINT
  5
EE6
330
ED1
100
AcDbEntity
  8
Defpoints
 62
     0
100
AcDbPoint
 10
15.06433415151702
 20
6.794816997962366
 30
0.0
  0
POINT
  5
EE7
330
ED1
100
AcDbEntity
  8
Defpoints
 62
     0
100
AcDbPoint
 10
15.76254672902348
 20
6.794816997962366
 30
0.0
  0
ENDBLK
  5
EDD
330
ED1
100
AcDbEntity
  8
0
100
AcDbBlockEnd
  0
BLOCK
  5
EF4
330
EE9
100
AcDbEntity
  8
0
100
AcDbBlockBegin
  2
*D6
 70
     1
 10
0.0
 20
0.0
 30
0.0
  3
*D6
  1

  0
LINE
  5
EEA
330
EE9
100
AcDbEntity
  8
Dimensions
 62
     0
370
    -2
100
AcDbLine
 10
8.064309151517022
 20
6.694816997962364
 30
0.0
 11
8.064309151517022
 21
5.949112500237402
 31
0.0
  0
LINE
  5
EEB
330
EE9
100
AcDbEntity
  8
Dimensions
 62
     0
370
    -2
100
AcDbLine
 10
9.985498151517024
 20
8.390769270384106
 30
0.0
 11
9.985498151517024
 21
5.949112500237402
 31
0.0
  0
LINE
  5
EEC
330
EE9
100
AcDbEntity
  8
Dimensions
 62
     0
370
    -2
100
AcDbLine
 10
8.364309151517023
 20
6.249112500237401
 30
0.0
 11
8.871083265226701
 21
6.249112500237401
 31
0.0
  0
LINE
  5
EED
330
EE9
100
AcDbEntity
  8
Dimensions
 62
     0
370
    -2
100
AcDbLine
 10
9.685498151517023
 20
6.249112500237401
 30
0.0
 11
9.371083265226701
 21
6.249112500237401
 31
0.0
  0
SOLID
  5
EEE
330
EE9
100
AcDbEntity
  8
Dimensions
 62
     0
100
AcDbTrace
 10
8.364309151517023
 20
6.299112500237401
 30
0.0
 11
8.364309151517023
 21
6.199112500237402
 31
0.0
 12
8.064309151517022
 22
6.249112500237401
 32
0.0
 13
8.064309151517022
 23
6.249112500237401
 33
0.0
  0
SOLID
  5
EEF
330
EE9
100
AcDbEntity
  8
Dimensions
 62
     0
100
AcDbTrace
 10
9.685498151517023
 20
6.299112500237401
 30
0.0
 11
9.685498151517023
 21
6.199112500237402
 31
0.0
 12
9.985498151517024
 22
6.249112500237401
 32
0.0
 13
9.985498151517024
 23
6.249112500237401
 33
0.0
  0
MTEXT
  5
EF0
330
EE9
100
AcDbEntity
  8
Dimensions
 62
     0
100
AcDbMText
 10
9.121083265226701
 20
6.249112500237401
 30
0.0
 40
0.3
 41
0.0
 71
     5
 72
     1
  1
\A1;2
 73
     1
 44
1.0
  0
POINT
  5
EF1
330
EE9
100
AcDbEntity
  8
Defpoints
 62
     0
100
AcDbPoint
 10
8.064309151517022
 20
6.794816997962364
 30
0.0
  0
POINT
  5
EF2
330
EE9
100
AcDbEntity
  8
Defpoints
 62
     0
100
AcDbPoint
 10
9.985498151517024
 20
8.490769270384106
 30
0.0
  0
POINT
  5
EF3
330
EE9
100
AcDbEntity
  8
Defpoints
 62
     0
100
AcDbPoint
 10
9.985498151517024
 20
6.249112500237401
 30
0.0
  0
ENDBLK
  5
EF5
330
EE9
100
AcDbEntity
  8
0
100
AcDbBlockEnd
  0
BLOCK
  5
F64
330
F59
100
AcDbEntity
  8
0
100
AcDbBlockBegin
  2
*D7
 70
     1
 10
0.0
 20
0.0
 30
0.0
  3
*D7
  1

  0
LINE
  5
F79
330
F59
100
AcDbEntity
  8
Dimensions
 62
     0
370
    -2
100
AcDbLine
 10
12.71071823263045
 20
22.69784854385727
 30
0.0
 11
9.310718232630453
 21
22.69784854385727
 31
0.0
  0
LINE
  5
F7A
330
F59
100
AcDbEntity
  8
Dimensions
 62
     0
370
    -2
100
AcDbLine
 10
9.010718232630452
 20
22.69784854385727
 30
0.0
 11
6.913898249477171
 21
22.69784854385727
 31
0.0
  0
SOLID
  5
F7B
330
F59
100
AcDbEntity
  8
Dimensions
 62
     0
100
AcDbTrace
 10
12.71071823263045
 20
22.74784854385727
 30
0.0
 11
12.71071823263045
 21
22.64784854385727
 31
0.0
 12
13.01071823263045
 22
22.69784854385727
 32
0.0
 13
13.01071823263045
 23
22.69784854385727
 33
0.0
  0
SOLID
  5
F7C
330
F59
100
AcDbEntity
  8
Dimensions
 62
     0
100
AcDbTrace
 10
9.310718232630453
 20
22.74784854385727
 30
0.0
 11
9.310718232630453
 21
22.64784854385727
 31
0.0
 12
9.010718232630452
 22
22.69784854385727
 32
0.0
 13
9.010718232630452
 23
22.69784854385727
 33
0.0
  0
MTEXT
  5
F7D
330
F59
100
AcDbEntity
  8
Dimensions
 62
     0
100
AcDbMText
 10
6.663898249477171
 20
22.69784854385727
 30
0.0
 40
0.3
 41
0.0
 71
     5
 72
     1
  1
\A1;4
 73
     1
 44
1.0
  0
POINT
  5
F7E
330
F59
100
AcDbEntity
  8
Defpoints
 62
     0
100
AcDbPoint
 10
9.010718232630452
 20
22.78449707466579
 30
0.0
  0
POINT
  5
F7F
330
F59
100
AcDbEntity
  8
Defpoints
 62
     0
100
AcDbPoint
 10
13.01071823263045
 20
22.78449707466579
 30
0.0
  0
POINT
  5
F80
330
F59
100
AcDbEntity
  8
Defpoints
 62
     0
100
AcDbPoint
 10
13.01071823263045
 20
22.69784854385727
 30
0.0
  0
ENDBLK
  5
F65
330
F59
100
AcDbEntity
  8
0
100
AcDbBlockEnd
  0
BLOCK
  5
F8D
330
F82
100
AcDbEntity
  8
0
100
AcDbBlockBegin
  2
*D8
 70
     1
 10
0.0
 20
0.0
 30
0.0
  3
*D8
  1

  0
LINE
  5
F8F
330
F82
100
AcDbEntity
  8
Dimensions
 62
     0
370
    -2
100
AcDbLine
 10
13.76071823263045
 20
16.49699707466579
 30
0.0
 11
13.76071823263045
 21
14.44531168172744
 31
0.0
  0
LINE
  5
F90
330
F82
100
AcDbEntity
  8
Dimensions
 62
     0
370
    -2
100
AcDbLine
 10
8.260718232630452
 20
16.49699707466579
 30
0.0
 11
8.260718232630452
 21
14.44531168172744
 31
0.0
  0
LINE
  5
F91
330
F82
100
AcDbEntity
  8
Dimensions
 62
     0
370
    -2
100
AcDbLine
 10
13.46071823263045
 20
14.74531168172744
 30
0.0
 11
11.44924269552611
 21
14.74531168172744
 31
0.0
  0
LINE
  5
F92
330
F82
100
AcDbEntity
  8
Dimensions
 62
     0
370
    -2
100
AcDbLine
 10
8.560718232630453
 20
14.74531168172744
 30
0.0
 11
10.64924269552611
 21
14.74531168172744
 31
0.0
  0
SOLID
  5
F93
330
F82
100
AcDbEntity
  8
Dimensions
 62
     0
100
AcDbTrace
 10
13.46071823263045
 20
14.79531168172744
 30
0.0
 11
13.46071823263045
 21
14.69531168172744
 31
0.0
 12
13.76071823263045
 22
14.74531168172744
 32
0.0
 13
13.76071823263045
 23
14.74531168172744
 33
0.0
  0
SOLID
  5
F94
330
F82
100
AcDbEntity
  8
Dimensions
 62
     0
100
AcDbTrace
 10
8.560718232630453
 20
14.79531168172744
 30
0.0
 11
8.560718232630453
 21
14.69531168172744
 31
0.0
 12
8.260718232630452
 22
14.74531168172744
 32
0.0
 13
8.260718232630452
 23
14.74531168172744
 33
0.0
  0
MTEXT
  5
F95
330
F82
100
AcDbEntity
  8
Dimensions
 62
     0
100
AcDbMText
 10
11.04924269552611
 20
14.74531168172744
 30
0.0
 40
0.3
 41
0.0
 71
     5
 72
     1
  1
\A1;5{\H1.000000x;\S1/2;}
 73
     1
 44
1.0
  0
POINT
  5
F96
330
F82
100
AcDbEntity
  8
Defpoints
 62
     0
100
AcDbPoint
 10
13.76071823263045
 20
16.59699707466579
 30
0.0
  0
POINT
  5
F97
330
F82
100
AcDbEntity
  8
Defpoints
 62
     0
100
AcDbPoint
 10
8.260718232630452
 20
16.59699707466579
 30
0.0
  0
POINT
  5
F98
330
F82
100
AcDbEntity
  8
Defpoints
 62
     0
100
AcDbPoint
 10
8.260718232630452
 20
14.74531168172744
 30
0.0
  0
ENDBLK
  5
F8E
330
F82
100
AcDbEntity
  8
0
100
AcDbBlockEnd
  0
BLOCK
  5
FA9
330
F9E
100
AcDbEntity
  8
0
100
AcDbBlockBegin
  2
*D9
 70
     1
 10
0.0
 20
0.0
 30
0.0
  3
*D9
  1

  0
LINE
  5
FAF
330
F9E
100
AcDbEntity
  8
Dimensions
 62
     0
370
    -2
100
AcDbLine
 10
11.48550915151702
 20
8.507316997962364
 30
0.0
 11
11.48550915151702
 21
5.185880397738924
 31
0.0
  0
LINE
  5
FB0
330
F9E
100
AcDbEntity
  8
Dimensions
 62
     0
370
    -2
100
AcDbLine
 10
12.48550915151702
 20
8.390769270384106
 30
0.0
 11
12.48550915151702
 21
5.185880397738924
 31
0.0
  0
LINE
  5
FB1
330
F9E
100
AcDbEntity
  8
Dimensions
 62
     0
370
    -2
100
AcDbLine
 10
11.18550915151702
 20
5.485880397738924
 30
0.0
 11
10.88550915151702
 21
5.485880397738924
 31
0.0
  0
LINE
  5
FB2
330
F9E
100
AcDbEntity
  8
Dimensions
 62
     0
370
    -2
100
AcDbLine
 10
12.78550915151702
 20
5.485880397738924
 30
0.0
 11
13.08550915151702
 21
5.485880397738924
 31
0.0
  0
SOLID
  5
FB3
330
F9E
100
AcDbEntity
  8
Dimensions
 62
     0
100
AcDbTrace
 10
11.18550915151702
 20
5.535880397738924
 30
0.0
 11
11.18550915151702
 21
5.435880397738924
 31
0.0
 12
11.48550915151702
 22
5.485880397738924
 32
0.0
 13
11.48550915151702
 23
5.485880397738924
 33
0.0
  0
SOLID
  5
FB4
330
F9E
100
AcDbEntity
  8
Dimensions
 62
     0
100
AcDbTrace
 10
12.78550915151702
 20
5.535880397738924
 30
0.0
 11
12.78550915151702
 21
5.435880397738924
 31
0.0
 12
12.48550915151702
 22
5.485880397738924
 32
0.0
 13
12.48550915151702
 23
5.485880397738924
 33
0.0
  0
MTEXT
  5
FB5
330
F9E
100
AcDbEntity
  8
Dimensions
 62
     0
100
AcDbMText
 10
12.0031165975231
 20
5.485880397738924
 30
0.0
 40
0.3
 41
0.0
 71
     5
 72
     1
  1
\A1;1
 73
     1
 44
1.0
  0
POINT
  5
FB6
330
F9E
100
AcDbEntity
  8
Defpoints
 62
     0
100
AcDbPoint
 10
11.48550915151702
 20
8.607316997962364
 30
0.0
  0
POINT
  5
FB7
330
F9E
100
AcDbEntity
  8
Defpoints
 62
     0
100
AcDbPoint
 10
12.48550915151702
 20
8.490769270384106
 30
0.0
  0
POINT
  5
FB8
330
F9E
100
AcDbEntity
  8
Defpoints
 62
     0
100
AcDbPoint
 10
12.48550915151702
 20
5.485880397738924
 30
0.0
  0
ENDBLK
  5
FAA
330
F9E
100
AcDbEntity
  8
0
100
AcDbBlockEnd
  0
BLOCK
  5
FD3
330
FC8
100
AcDbEntity
  8
0
100
AcDbBlockBegin
  2
*D10
 70
     1
 10
0.0
 20
0.0
 30
0.0
  3
*D10
  1

  0
LINE
  5
FF1
330
FC8
100
AcDbEntity
  8
Dimensions
 62
     0
370
    -2
100
AcDbLine
 10
17.86844123263045
 20
16.34699707466579
 30
0.0
 11
16.82302178443717
 21
16.34699707466579
 31
0.0
  0
LINE
  5
FF2
330
FC8
100
AcDbEntity
  8
Dimensions
 62
     0
370
    -2
100
AcDbLine
 10
18.94725223263045
 20
18.84699707466579
 30
0.0
 11
16.82302178443717
 21
18.84699707466579
 31
0.0
  0
LINE
  5
FF3
330
FC8
100
AcDbEntity
  8
Dimensions
 62
     0
370
    -2
100
AcDbLine
 10
17.12302178443717
 20
16.64699707466579
 30
0.0
 11
17.12302178443717
 21
17.22001407419784
 31
0.0
  0
LINE
  5
FF4
330
FC8
100
AcDbEntity
  8
Dimensions
 62
     0
370
    -2
100
AcDbLine
 10
17.12302178443717
 20
18.54699707466579
 30
0.0
 11
17.12302178443717
 21
18.22001407419784
 31
0.0
  0
SOLID
  5
FF5
330
FC8
100
AcDbEntity
  8
Dimensions
 62
     0
100
AcDbTrace
 10
17.07302178443717
 20
16.64699707466579
 30
0.0
 11
17.17302178443717
 21
16.64699707466579
 31
0.0
 12
17.12302178443717
 22
16.34699707466579
 32
0.0
 13
17.12302178443717
 23
16.34699707466579
 33
0.0
  0
SOLID
  5
FF6
330
FC8
100
AcDbEntity
  8
Dimensions
 62
     0
100
AcDbTrace
 10
17.07302178443717
 20
18.54699707466579
 30
0.0
 11
17.17302178443717
 21
18.54699707466579
 31
0.0
 12
17.12302178443717
 22
18.84699707466579
 32
0.0
 13
17.12302178443717
 23
18.84699707466579
 33
0.0
  0
MTEXT
  5
FF7
330
FC8
100
AcDbEntity
  8
Dimensions
 62
     0
100
AcDbMText
 10
17.12302178443717
 20
17.72001407419784
 30
0.0
 40
0.3
 41
0.0
 71
     5
 72
     1
  1
\A1;2{\H1.000000x;\S1/2;}
 73
     1
 44
1.0
  0
POINT
  5
FF8
330
FC8
100
AcDbEntity
  8
Defpoints
 62
     0
100
AcDbPoint
 10
17.96844123263045
 20
16.34699707466579
 30
0.0
  0
POINT
  5
FF9
330
FC8
100
AcDbEntity
  8
Defpoints
 62
     0
100
AcDbPoint
 10
19.04725223263045
 20
18.84699707466579
 30
0.0
  0
POINT
  5
FFA
330
FC8
100
AcDbEntity
  8
Defpoints
 62
     0
100
AcDbPoint
 10
17.12302178443717
 20
18.84699707466579
 30
0.0
  0
ENDBLK
  5
FD4
330
FC8
100
AcDbEntity
  8
0
100
AcDbBlockEnd
  0
BLOCK
  5
FE1
330
FD6
100
AcDbEntity
  8
0
100
AcDbBlockBegin
  2
*D11
 70
     1
 10
0.0
 20
0.0
 30
0.0
  3
*D11
  1

  0
LINE
  5
FFB
330
FD6
100
AcDbEntity
  8
Dimensions
 62
     0
370
    -2
100
AcDbLine
 10
17.96844123263045
 20
16.24699707466579
 30
0.0
 11
17.96844123263045
 21
14.99053342114809
 31
0.0
  0
LINE
  5
FFC
330
FD6
100
AcDbEntity
  8
Dimensions
 62
     0
370
    -2
100
AcDbLine
 10
28.96844123263045
 20
16.24699707466579
 30
0.0
 11
28.96844123263045
 21
14.99053342114809
 31
0.0
  0
LINE
  5
FFD
330
FD6
100
AcDbEntity
  8
Dimensions
 62
     0
370
    -2
100
AcDbLine
 10
18.26844123263045
 20
15.29053342114809
 30
0.0
 11
22.91562934526998
 21
15.29053342114809
 31
0.0
  0
LINE
  5
FFE
330
FD6
100
AcDbEntity
  8
Dimensions
 62
     0
370
    -2
100
AcDbLine
 10
28.66844123263045
 20
15.29053342114809
 30
0.0
 11
23.51562934526998
 21
15.29053342114809
 31
0.0
  0
SOLID
  5
FFF
330
FD6
100
AcDbEntity
  8
Dimensions
 62
     0
100
AcDbTrace
 10
18.26844123263045
 20
15.34053342114809
 30
0.0
 11
18.26844123263045
 21
15.24053342114809
 31
0.0
 12
17.96844123263045
 22
15.29053342114809
 32
0.0
 13
17.96844123263045
 23
15.29053342114809
 33
0.0
  0
SOLID
  5
1000
330
FD6
100
AcDbEntity
  8
Dimensions
 62
     0
100
AcDbTrace
 10
28.66844123263045
 20
15.34053342114809
 30
0.0
 11
28.66844123263045
 21
15.24053342114809
 31
0.0
 12
28.96844123263045
 22
15.29053342114809
 32
0.0
 13
28.96844123263045
 23
15.29053342114809
 33
0.0
  0
MTEXT
  5
1001
330
FD6
100
AcDbEntity
  8
Dimensions
 62
     0
100
AcDbMText
 10
23.21562934526999
 20
15.29053342114809
 30
0.0
 40
0.3
 41
0.0
 71
     5
 72
     1
  1
\A1;11
 73
     1
 44
1.0
  0
POINT
  5
1002
330
FD6
100
AcDbEntity
  8
Defpoints
 62
     0
100
AcDbPoint
 10
17.96844123263045
 20
16.34699707466579
 30
0.0
  0
POINT
  5
1003
330
FD6
100
AcDbEntity
  8
Defpoints
 62
     0
100
AcDbPoint
 10
28.96844123263045
 20
16.34699707466579
 30
0.0
  0
POINT
  5
1004
330
FD6
100
AcDbEntity
  8
Defpoints
 62
     0
100
AcDbPoint
 10
28.96844123263045
 20
15.29053342114809
 30
0.0
  0
ENDBLK
  5
FE2
330
FD6
100
AcDbEntity
  8
0
100
AcDbBlockEnd
  0
BLOCK
  5
FEF
330
FE4
100
AcDbEntity
  8
0
100
AcDbBlockBegin
  2
*D12
 70
     1
 10
0.0
 20
0.0
 30
0.0
  3
*D12
  1

  0
LINE
  5
1005
330
FE4
100
AcDbEntity
  8
Dimensions
 62
     0
370
    -2
100
AcDbLine
 10
17.96844123263045
 20
16.14699707466579
 30
0.0
 11
17.96844123263045
 21
13.98634805848169
 31
0.0
  0
LINE
  5
1006
330
FE4
100
AcDbEntity
  8
Dimensions
 62
     0
370
    -2
100
AcDbLine
 10
30.96844123263045
 20
19.87199707466579
 30
0.0
 11
30.96844123263045
 21
13.98634805848169
 31
0.0
  0
LINE
  5
1007
330
FE4
100
AcDbEntity
  8
Dimensions
 62
     0
370
    -2
100
AcDbLine
 10
18.26844123263045
 20
14.28634805848169
 30
0.0
 11
23.48137163602722
 21
14.28634805848169
 31
0.0
  0
LINE
  5
1008
330
FE4
100
AcDbEntity
  8
Dimensions
 62
     0
370
    -2
100
AcDbLine
 10
30.66844123263045
 20
14.28634805848169
 30
0.0
 11
24.18137163602723
 21
14.28634805848169
 31
0.0
  0
SOLID
  5
1009
330
FE4
100
AcDbEntity
  8
Dimensions
 62
     0
100
AcDbTrace
 10
18.26844123263045
 20
14.33634805848169
 30
0.0
 11
18.26844123263045
 21
14.23634805848169
 31
0.0
 12
17.96844123263045
 22
14.28634805848169
 32
0.0
 13
17.96844123263045
 23
14.28634805848169
 33
0.0
  0
SOLID
  5
100A
330
FE4
100
AcDbEntity
  8
Dimensions
 62
     0
100
AcDbTrace
 10
30.66844123263045
 20
14.33634805848169
 30
0.0
 11
30.66844123263045
 21
14.23634805848169
 31
0.0
 12
30.96844123263045
 22
14.28634805848169
 32
0.0
 13
30.96844123263045
 23
14.28634805848169
 33
0.0
  0
MTEXT
  5
100B
330
FE4
100
AcDbEntity
  8
Dimensions
 62
     0
100
AcDbMText
 10
23.83137163602722
 20
14.28634805848169
 30
0.0
 40
0.3
 41
0.0
 71
     5
 72
     1
  1
\A1;13
 73
     1
 44
1.0
  0
POINT
  5
100C
330
FE4
100
AcDbEntity
  8
Defpoints
 62
     0
100
AcDbPoint
 10
17.96844123263045
 20
16.24699707466579
 30
0.0
  0
POINT
  5
100D
330
FE4
100
AcDbEntity
  8
Defpoints
 62
     0
100
AcDbPoint
 10
30.96844123263045
 20
19.97199707466579
 30
0.0
  0
POINT
  5
100E
330
FE4
100
AcDbEntity
  8
Defpoints
 62
     0
100
AcDbPoint
 10
30.96844123263045
 20
14.28634805848169
 30
0.0
  0
ENDBLK
  5
FF0
330
FE4
100
AcDbEntity
  8
0
100
AcDbBlockEnd
  0
BLOCK
  5
104A
330
103F
100
AcDbEntity
  8
0
100
AcDbBlockBegin
  2
*D13
 70
     1
 10
0.0
 20
0.0
 30
0.0
  3
*D13
  1

  0
LINE
  5
1040
330
103F
100
AcDbEntity
  8
Dimensions
 62
     0
370
    -2
100
AcDbLine
 10
9.985498151517024
 20
8.390769270384106
 30
0.0
 11
9.985498151517024
 21
5.949293875556205
 31
0.0
  0
LINE
  5
1041
330
103F
100
AcDbEntity
  8
Dimensions
 62
     0
370
    -2
100
AcDbLine
 10
11.48550915151702
 20
8.407316997962364
 30
0.0
 11
11.48550915151702
 21
5.949293875556205
 31
0.0
  0
LINE
  5
1042
330
103F
100
AcDbEntity
  8
Dimensions
 62
     0
370
    -2
100
AcDbLine
 10
10.28549815151702
 20
6.249293875556205
 30
0.0
 11
10.31672488354336
 21
6.249293875556205
 31
0.0
  0
LINE
  5
1043
330
103F
100
AcDbEntity
  8
Dimensions
 62
     0
370
    -2
100
AcDbLine
 10
11.18550915151702
 20
6.249293875556205
 30
0.0
 11
11.01672488354336
 21
6.249293875556205
 31
0.0
  0
SOLID
  5
1044
330
103F
100
AcDbEntity
  8
Dimensions
 62
     0
100
AcDbTrace
 10
10.28549815151702
 20
6.299293875556204
 30
0.0
 11
10.28549815151702
 21
6.199293875556205
 31
0.0
 12
9.985498151517024
 22
6.249293875556205
 32
0.0
 13
9.985498151517024
 23
6.249293875556205
 33
0.0
  0
SOLID
  5
1045
330
103F
100
AcDbEntity
  8
Dimensions
 62
     0
100
AcDbTrace
 10
11.18550915151702
 20
6.299293875556204
 30
0.0
 11
11.18550915151702
 21
6.199293875556205
 31
0.0
 12
11.48550915151702
 22
6.249293875556205
 32
0.0
 13
11.48550915151702
 23
6.249293875556205
 33
0.0
  0
MTEXT
  5
1046
330
103F
100
AcDbEntity
  8
Dimensions
 62
     0
100
AcDbMText
 10
10.66672488354336
 20
6.249293875556205
 30
0.0
 40
0.3
 41
0.0
 71
     5
 72
     1
  1
\A1;1{\H1.000000x;\S1/2;}
 73
     1
 44
1.0
  0
POINT
  5
1047
330
103F
100
AcDbEntity
  8
Defpoints
 62
     0
100
AcDbPoint
 10
9.985498151517024
 20
8.490769270384106
 30
0.0
  0
POINT
  5
1048
330
103F
100
AcDbEntity
  8
Defpoints
 62
     0
100
AcDbPoint
 10
11.48550915151702
 20
8.507316997962364
 30
0.0
  0
POINT
  5
1049
330
103F
100
AcDbEntity
  8
Defpoints
 62
     0
100
AcDbPoint
 10
11.48550915151702
 20
6.249293875556205
 30
0.0
  0
ENDBLK
  5
104B
330
103F
100
AcDbEntity
  8
0
100
AcDbBlockEnd
  0
ENDSEC
  0
SECTION
  2
ENTITIES
  0
LWPOLYLINE
  5
520
330
1F
100
AcDbEntity
  8
TitleBlock&Notes
100
AcDbPolyline
 90
        4
 70
     1
 43
0.0
 10
-2.368122189086847
 20
0.0
 10
41.63187781091315
 20
-0.0000000000000071
 10
41.63187781091316
 20
33.99999999999999
 10
-2.36812218908684
 20
34.0
  0
LINE
  5
521
330
1F
100
AcDbEntity
  8
TitleBlock&Notes
 62
     3
100
AcDbLine
 10
41.63187781091315
 20
7.325999999999986
 30
0.0
 11
41.63187781091315
 21
-0.0000000000000071
 31
0.0
  0
LINE
  5
522
330
1F
100
AcDbEntity
  8
B.O.M
100
AcDbLine
 10
41.63187781091316
 20
33.99999999999998
 30
0.0
 11
27.71086031587221
 21
33.99999999999999
 31
0.0
  0
TEXT
  5
53E
330
1F
100
AcDbEntity
  8
TitleBlock&Notes
  6
Continuous
 62
     3
100
AcDbText
 10
35.27397846578784
 20
2.695976270369144
 30
0.0
 40
0.3168
  1
640 Hardwick Road, Unit 5
 41
0.7000000000000001
100
AcDbText
  0
TEXT
  5
53F
330
1F
100
AcDbEntity
  8
TitleBlock&Notes
  6
Continuous
 62
     3
100
AcDbText
 10
34.75814331017001
 20
3.295674674324343
 30
0.0
 40
0.5940000000000002
  1
MULTICYL  Inc.
 41
0.85470085
100
AcDbText
  0
TEXT
  5
540
330
1F
100
AcDbEntity
  8
TitleBlock&Notes
  6
Continuous
 62
     3
100
AcDbText
 10
35.88548449113786
 20
1.144393682712032
 30
0.0
 40
0.25344
  1
(905) 951-0670 
 41
1.282051279999999
100
AcDbText
  0
TEXT
  5
541
330
1F
100
AcDbEntity
  8
TitleBlock&Notes
  6
Continuous
 62
     3
100
AcDbText
 10
35.19338193529405
 20
0.6989998469717884
 30
0.0
 40
0.25344
  1
FAX (905) 951-0672
 41
1.282051279999999
100
AcDbText
  0
TEXT
  5
542
330
1F
100
AcDbEntity
  8
TitleBlock&Notes
  6
Continuous
 62
     3
100
AcDbText
 10
34.16501076614552
 20
1.675720250447519
 30
0.0
 40
0.3168
  1
          Canada L7E 5R1
 41
0.7000000000000001
100
AcDbText
  0
LINE
  5
543
330
1F
100
AcDbEntity
  8
TitleBlock&Notes
 62
     3
100
AcDbLine
 10
22.82187781091314
 20
-0.0000000000000178
 30
0.0
 11
41.63187781091315
 21
-0.0000000000000071
 31
0.0
  0
LINE
  5
544
330
1F
100
AcDbEntity
  8
TitleBlock&Notes
  6
Continuous
 62
     3
100
AcDbLine
 10
22.82187781091314
 20
4.454999999999991
 30
0.0
 11
41.63187781091315
 21
4.454999999999991
 31
0.0
  0
LINE
  5
547
330
1F
100
AcDbEntity
  8
TitleBlock&Notes
 62
     3
100
AcDbLine
 10
29.09187781091315
 20
-0.0000000000000142
 30
0.0
 11
19.79323676827127
 21
-0.0032643781220116
 31
0.0
  0
LINE
  5
553
330
1F
100
AcDbEntity
  8
TitleBlock&Notes
  6
Continuous
 62
     3
100
AcDbLine
 10
27.33807074051309
 20
3.240184265999982
 30
0.0
 11
28.56567074051311
 21
3.240184265999982
 31
0.0
  0
LINE
  5
554
330
1F
100
AcDbEntity
  8
TitleBlock&Notes
  6
Continuous
 62
     3
100
AcDbLine
 10
27.31827074051312
 20
3.259984265999989
 30
0.0
 11
28.58547074051308
 21
3.259984265999989
 31
0.0
  0
LINE
  5
555
330
1F
100
AcDbEntity
  8
TitleBlock&Notes
  6
Continuous
 62
     3
100
AcDbLine
 10
27.35787074051313
 20
3.220384265999985
 30
0.0
 11
28.54587074051311
 21
3.220384265999985
 31
0.0
  0
LINE
  5
556
330
1F
100
AcDbEntity
  8
TitleBlock&Notes
  6
Continuous
 62
     3
100
AcDbLine
 10
27.80337074051313
 20
1.477984265999975
 30
0.0
 11
28.10037074051314
 21
1.477984265999975
 31
0.0
  0
LINE
  5
557
330
1F
100
AcDbEntity
  8
TitleBlock&Notes
  6
Continuous
 62
     3
100
AcDbLine
 10
27.78357074051313
 20
1.458184265999978
 30
0.0
 11
28.12017074051311
 21
1.458184265999978
 31
0.0
  0
LINE
  5
558
330
1F
100
AcDbEntity
  8
TitleBlock&Notes
  6
Continuous
 62
     3
100
AcDbLine
 10
27.76377074051309
 20
1.438384265999982
 30
0.0
 11
28.13997074051309
 21
1.438384265999982
 31
0.0
  0
TEXT
  5
559
330
1F
100
AcDbEntity
  8
TitleBlock&Notes
  6
Continuous
 62
     3
100
AcDbText
 10
26.56258627691315
 20
0.5157644183999956
 30
0.0
 40
0.2772
  1
 with the
 41
0.8
 51
11.0
100
AcDbText
  0
LINE
  5
55A
330
1F
100
AcDbEntity
  8
TitleBlock&Notes
  6
Continuous
 62
     3
100
AcDbLine
 10
27.60104954891308
 20
1.180984265999995
 30
0.0
 11
33.73526363051311
 21
1.288057359599992
 31
0.0
  0
LINE
  5
55B
330
1F
100
AcDbEntity
  8
TitleBlock&Notes
  6
Continuous
 62
     3
100
AcDbLine
 10
26.69343833891312
 20
1.180984265999995
 30
0.0
 11
33.73526363051311
 21
1.303899775199987
 31
0.0
  0
LINE
  5
55C
330
1F
100
AcDbEntity
  8
TitleBlock&Notes
  6
Continuous
 62
     3
100
AcDbLine
 10
25.78582708931312
 20
1.180984265999995
 30
0.0
 11
33.73526363051311
 21
1.319742190799992
 31
0.0
  0
LINE
  5
55D
330
1F
100
AcDbEntity
  8
TitleBlock&Notes
  6
Continuous
 62
     3
100
AcDbLine
 10
24.8782158793131
 20
1.180984265999995
 30
0.0
 11
33.73526363051311
 21
1.335584606399986
 31
0.0
  0
LINE
  5
55E
330
1F
100
AcDbEntity
  8
TitleBlock&Notes
  6
Continuous
 62
     3
100
AcDbLine
 10
23.97060466931308
 20
1.180984265999995
 30
0.0
 11
33.73526363051311
 21
1.351427021999981
 31
0.0
  0
LINE
  5
55F
330
1F
100
AcDbEntity
  8
TitleBlock&Notes
  6
Continuous
 62
     3
100
AcDbLine
 10
23.06299341971314
 20
1.180984265999995
 30
0.0
 11
33.73526363051311
 21
1.367269437599986
 31
0.0
  0
LINE
  5
560
330
1F
100
AcDbEntity
  8
TitleBlock&Notes
  6
Continuous
 62
     3
100
AcDbLine
 10
22.82187781091314
 20
1.192617993599995
 30
0.0
 11
33.73526363051311
 21
1.383111853199981
 31
0.0
  0
LINE
  5
561
330
1F
100
AcDbEntity
  8
TitleBlock&Notes
  6
Continuous
 62
     3
100
AcDbLine
 10
22.82187781091314
 20
1.208460369599986
 30
0.0
 11
33.73526363051311
 21
1.398954229199983
 31
0.0
  0
LINE
  5
562
330
1F
100
AcDbEntity
  8
TitleBlock&Notes
  6
Continuous
 62
     3
100
AcDbLine
 10
22.82187781091314
 20
1.224302785199991
 30
0.0
 11
33.73526363051311
 21
1.414796644799977
 31
0.0
  0
LINE
  5
563
330
1F
100
AcDbEntity
  8
TitleBlock&Notes
  6
Continuous
 62
     3
100
AcDbLine
 10
22.82187781091314
 20
1.240145200799986
 30
0.0
 11
33.73526363051311
 21
1.430639060399993
 31
0.0
  0
LINE
  5
564
330
1F
100
AcDbEntity
  8
TitleBlock&Notes
  6
Continuous
 62
     3
100
AcDbLine
 10
22.82187781091314
 20
1.255987616399991
 30
0.0
 11
33.2713734301131
 21
1.438384265999982
 31
0.0
  0
LINE
  5
565
330
1F
100
AcDbEntity
  8
TitleBlock&Notes
  6
Continuous
 62
     3
100
AcDbLine
 10
22.82187781091314
 20
1.271830031999986
 30
0.0
 11
32.3637621805131
 21
1.438384265999982
 31
0.0
  0
LINE
  5
566
330
1F
100
AcDbEntity
  8
TitleBlock&Notes
  6
Continuous
 62
     3
100
AcDbLine
 10
22.82187781091314
 20
1.180984265999995
 30
0.0
 11
33.73526363051311
 21
1.180984265999995
 31
0.0
  0
LINE
  5
567
330
1F
100
AcDbEntity
  8
TitleBlock&Notes
  6
Continuous
 62
     3
100
AcDbLine
 10
33.73526363051311
 20
3.363661421999985
 30
0.0
 11
22.82187781091314
 21
3.363661421999985
 31
0.0
  0
LINE
  5
568
330
1F
100
AcDbEntity
  8
TitleBlock&Notes
  6
Continuous
 62
     3
100
AcDbLine
 10
33.73526363051311
 20
3.753425213999985
 30
0.0
 11
22.82187781091314
 21
3.753425213999985
 31
0.0
  0
LINE
  5
569
330
1F
100
AcDbEntity
  8
TitleBlock&Notes
  6
Continuous
 62
     3
100
AcDbLine
 10
22.82187781091314
 20
1.28767244759998
 30
0.0
 11
31.45615097051308
 21
1.438384265999982
 31
0.0
  0
LINE
  5
56A
330
1F
100
AcDbEntity
  8
TitleBlock&Notes
  6
Continuous
 62
     3
100
AcDbLine
 10
22.82187781091314
 20
1.303514863199985
 30
0.0
 11
31.17927074051309
 21
1.449393699599987
 31
0.0
  0
LINE
  5
56B
330
1F
100
AcDbEntity
  8
TitleBlock&Notes
  6
Continuous
 62
     3
100
AcDbLine
 10
22.82187781091314
 20
1.31935727879998
 30
0.0
 11
29.94297105611311
 21
1.443656411999985
 31
0.0
  0
LINE
  5
56C
330
1F
100
AcDbEntity
  8
TitleBlock&Notes
  6
Continuous
 62
     3
100
AcDbLine
 10
22.82187781091314
 20
1.335199694399985
 30
0.0
 11
28.7333173009131
 21
1.438384265999982
 31
0.0
  0
LINE
  5
56D
330
1F
100
AcDbEntity
  8
TitleBlock&Notes
  6
Continuous
 62
     3
100
AcDbLine
 10
22.82187781091314
 20
-0.0000000000000178
 30
0.0
 11
22.82187781091313
 21
4.454999999999991
 31
0.0
  0
LINE
  5
574
330
1F
100
AcDbEntity
  8
TitleBlock&Notes
  6
Continuous
 62
     3
100
AcDbLine
 10
23.77008436691312
 20
3.240184265999982
 30
0.0
 11
23.27907074051313
 21
3.240184265999982
 31
0.0
  0
LINE
  5
575
330
1F
100
AcDbEntity
  8
TitleBlock&Notes
  6
Continuous
 62
     3
100
AcDbLine
 10
23.29887074051311
 20
3.220384265999985
 30
0.0
 11
23.75427074051309
 21
3.220384265999985
 31
0.0
  0
LINE
  5
576
330
1F
100
AcDbEntity
  8
TitleBlock&Notes
  6
Continuous
 62
     3
100
AcDbLine
 10
23.25927074051309
 20
3.259984265999989
 30
0.0
 11
23.78589799331309
 21
3.259984265999989
 31
0.0
  0
LINE
  5
577
330
1F
100
AcDbEntity
  8
TitleBlock&Notes
  6
Continuous
 62
     3
100
AcDbLine
 10
23.63547074051309
 20
1.682091694799989
 30
0.0
 11
23.77885711331314
 21
1.684594493999984
 31
0.0
  0
LINE
  5
578
330
1F
100
AcDbEntity
  8
TitleBlock&Notes
  6
Continuous
 62
     3
100
AcDbLine
 10
23.63547074051309
 20
1.697934110399984
 30
0.0
 11
23.77336415771311
 21
1.700341037999987
 31
0.0
  0
LINE
  5
579
330
1F
100
AcDbEntity
  8
TitleBlock&Notes
  6
Continuous
 62
     3
100
AcDbLine
 10
23.63547074051309
 20
1.713776486399986
 30
0.0
 11
23.76787116251315
 21
1.716087581999989
 31
0.0
  0
LINE
  5
57A
330
1F
100
AcDbEntity
  8
TitleBlock&Notes
  6
Continuous
 62
     3
100
AcDbLine
 10
23.63547074051309
 20
1.72961890199998
 30
0.0
 11
23.7623782069131
 21
1.731834086399977
 31
0.0
  0
LINE
  5
57B
330
1F
100
AcDbEntity
  8
TitleBlock&Notes
  6
Continuous
 62
     3
100
AcDbLine
 10
23.63547074051309
 20
1.745461317599975
 30
0.0
 11
23.75688521171313
 21
1.74758063039998
 31
0.0
  0
LINE
  5
57C
330
1F
100
AcDbEntity
  8
TitleBlock&Notes
  6
Continuous
 62
     3
100
AcDbLine
 10
23.63547074051309
 20
1.761303733199991
 30
0.0
 11
23.75139225611311
 21
1.763327174399993
 31
0.0
  0
LINE
  5
57D
330
1F
100
AcDbEntity
  8
TitleBlock&Notes
  6
Continuous
 62
     3
100
AcDbLine
 10
23.63547074051309
 20
1.777146148799996
 30
0.0
 11
23.74589926091315
 21
1.779073678799981
 31
0.0
  0
LINE
  5
57E
330
1F
100
AcDbEntity
  8
TitleBlock&Notes
  6
Continuous
 62
     3
100
AcDbLine
 10
23.63547074051309
 20
1.79298856439999
 30
0.0
 11
23.7404063053131
 21
1.794820222799994
 31
0.0
  0
LINE
  5
57F
330
1F
100
AcDbEntity
  8
TitleBlock&Notes
  6
Continuous
 62
     3
100
AcDbLine
 10
23.63547074051309
 20
1.808830979999985
 30
0.0
 11
23.73491331011315
 21
1.810566766799986
 31
0.0
  0
LINE
  5
580
330
1F
100
AcDbEntity
  8
TitleBlock&Notes
  6
Continuous
 62
     3
100
AcDbLine
 10
23.63547074051309
 20
1.82467339559999
 30
0.0
 11
23.7294203545131
 21
1.826313310799989
 31
0.0
  0
LINE
  5
581
330
1F
100
AcDbEntity
  8
TitleBlock&Notes
  6
Continuous
 62
     3
100
AcDbLine
 10
23.63547074051309
 20
1.444455500399978
 30
0.0
 11
23.86125176411311
 21
1.448396492399982
 31
0.0
  0
LINE
  5
582
330
1F
100
AcDbEntity
  8
TitleBlock&Notes
  6
Continuous
 62
     3
100
AcDbLine
 10
23.63547074051309
 20
1.460297915999973
 30
0.0
 11
23.85575880851313
 21
1.464143036399985
 31
0.0
  0
LINE
  5
583
330
1F
100
AcDbEntity
  8
TitleBlock&Notes
  6
Continuous
 62
     3
100
AcDbLine
 10
23.63547074051309
 20
1.476140331599989
 30
0.0
 11
23.8502658133131
 21
1.479889580399987
 31
0.0
  0
LINE
  5
584
330
1F
100
AcDbEntity
  8
TitleBlock&Notes
  6
Continuous
 62
     3
100
AcDbLine
 10
23.63547074051309
 20
1.491982707599991
 30
0.0
 11
23.84477285771311
 21
1.49563612439999
 31
0.0
  0
LINE
  5
585
330
1F
100
AcDbEntity
  8
TitleBlock&Notes
  6
Continuous
 62
     3
100
AcDbLine
 10
23.63547074051309
 20
1.507825123199985
 30
0.0
 11
23.83927986251311
 21
1.511382628799989
 31
0.0
  0
LINE
  5
586
330
1F
100
AcDbEntity
  8
TitleBlock&Notes
  6
Continuous
 62
     3
100
AcDbLine
 10
23.63547074051309
 20
1.52366753879998
 30
0.0
 11
23.83378690691312
 21
1.52712917279998
 31
0.0
  0
LINE
  5
587
330
1F
100
AcDbEntity
  8
TitleBlock&Notes
  6
Continuous
 62
     3
100
AcDbLine
 10
23.63547074051309
 20
1.539509954399985
 30
0.0
 11
23.82829391171311
 21
1.542875716799983
 31
0.0
  0
LINE
  5
588
330
1F
100
AcDbEntity
  8
TitleBlock&Notes
  6
Continuous
 62
     3
100
AcDbLine
 10
23.63547074051309
 20
1.55535236999998
 30
0.0
 11
23.82280091651315
 21
1.558622221199993
 31
0.0
  0
LINE
  5
589
330
1F
100
AcDbEntity
  8
TitleBlock&Notes
  6
Continuous
 62
     3
100
AcDbLine
 10
23.63547074051309
 20
1.571194785599985
 30
0.0
 11
23.8173079609131
 21
1.574368765199984
 31
0.0
  0
LINE
  5
58A
330
1F
100
AcDbEntity
  8
TitleBlock&Notes
  6
Continuous
 62
     3
100
AcDbLine
 10
23.63547074051309
 20
1.587037201199979
 30
0.0
 11
23.81181496571314
 21
1.590115309199997
 31
0.0
  0
LINE
  5
58B
330
1F
100
AcDbEntity
  8
TitleBlock&Notes
  6
Continuous
 62
     3
100
AcDbLine
 10
23.63547074051309
 20
1.602879616799974
 30
0.0
 11
23.80632201011311
 21
1.605861853199989
 31
0.0
  0
LINE
  5
58C
330
1F
100
AcDbEntity
  8
TitleBlock&Notes
  6
Continuous
 62
     3
100
AcDbLine
 10
23.63547074051309
 20
1.61872203239999
 30
0.0
 11
23.80082901491314
 21
1.621608357599988
 31
0.0
  0
LINE
  5
58D
330
1F
100
AcDbEntity
  8
TitleBlock&Notes
  6
Continuous
 62
     3
100
AcDbLine
 10
23.63547074051309
 20
1.634564447999995
 30
0.0
 11
23.7953360593131
 21
1.63735490159998
 31
0.0
  0
LINE
  5
58E
330
1F
100
AcDbEntity
  8
TitleBlock&Notes
  6
Continuous
 62
     3
100
AcDbLine
 10
23.63547074051309
 20
1.65040686359999
 30
0.0
 11
23.78984306411315
 21
1.653101445599983
 31
0.0
  0
LINE
  5
58F
330
1F
100
AcDbEntity
  8
TitleBlock&Notes
  6
Continuous
 62
     3
100
AcDbLine
 10
23.63547074051309
 20
1.666249279199984
 30
0.0
 11
23.78435010851311
 21
1.668847949999982
 31
0.0
  0
LINE
  5
590
330
1F
100
AcDbEntity
  8
TitleBlock&Notes
  6
Continuous
 62
     3
100
AcDbLine
 10
23.61567074051309
 20
2.212509895199982
 30
0.0
 11
23.8788075529131
 21
1.458184265999978
 31
0.0
  0
LINE
  5
591
330
1F
100
AcDbEntity
  8
TitleBlock&Notes
  6
Continuous
 62
     3
100
AcDbLine
 10
23.86474440491311
 20
1.438384265999982
 30
0.0
 11
23.63547074051309
 21
2.09563552439998
 31
0.0
  0
LINE
  5
592
330
1F
100
AcDbEntity
  8
TitleBlock&Notes
  6
Continuous
 62
     3
100
AcDbLine
 10
23.59587074051312
 20
2.329384265999994
 30
0.0
 11
23.89287074051313
 21
1.477984265999975
 31
0.0
  0
LINE
  5
593
330
1F
100
AcDbEntity
  8
TitleBlock&Notes
  6
Continuous
 62
     3
100
AcDbLine
 10
22.82187781091314
 20
1.398569356799985
 30
0.0
 11
25.49020497131314
 21
1.445145173999989
 31
0.0
  0
LINE
  5
594
330
1F
100
AcDbEntity
  8
TitleBlock&Notes
  6
Continuous
 62
     3
100
AcDbLine
 10
22.82187781091314
 20
1.41441177239999
 30
0.0
 11
24.19526117171312
 21
1.438384265999982
 31
0.0
  0
LINE
  5
595
330
1F
100
AcDbEntity
  8
TitleBlock&Notes
  6
Continuous
 62
     3
100
AcDbLine
 10
22.82187781091314
 20
1.35104210999998
 30
0.0
 11
27.8257060513131
 21
1.438384265999982
 31
0.0
  0
LINE
  5
596
330
1F
100
AcDbEntity
  8
TitleBlock&Notes
  6
Continuous
 62
     3
100
AcDbLine
 10
22.82187781091314
 20
1.366884525599974
 30
0.0
 11
26.91809484131315
 21
1.438384265999982
 31
0.0
  0
LINE
  5
597
330
1F
100
AcDbEntity
  8
TitleBlock&Notes
  6
Continuous
 62
     3
100
AcDbLine
 10
22.82187781091314
 20
1.38272694119999
 30
0.0
 11
26.4668707405131
 21
1.446350518799981
 31
0.0
  0
TEXT
  5
598
330
1F
100
AcDbEntity
  8
TitleBlock&Notes
  6
Continuous
 62
     3
100
AcDbText
 10
22.8648853117131
 20
0.5157644183999964
 30
0.0
 40
0.2772
  1
The
 41
0.8
 51
11.0
100
AcDbText
  0
LINE
  5
599
330
1F
100
AcDbEntity
  8
TitleBlock&Notes
  6
Continuous
 62
     3
100
AcDbLine
 10
23.27907074051313
 20
1.458184265999978
 30
0.0
 11
23.27907074051313
 21
3.240184265999982
 31
0.0
  0
LINE
  5
59A
330
1F
100
AcDbEntity
  8
TitleBlock&Notes
  6
Continuous
 62
     3
100
AcDbLine
 10
23.29887074051311
 20
1.477984265999975
 30
0.0
 11
23.29887074051311
 21
3.220384265999985
 31
0.0
  0
LINE
  5
59B
330
1F
100
AcDbEntity
  8
TitleBlock&Notes
  6
Continuous
 62
     3
100
AcDbLine
 10
23.25927074051309
 20
1.438384265999982
 30
0.0
 11
23.25927074051309
 21
3.259984265999989
 31
0.0
  0
LINE
  5
59C
330
1F
100
AcDbEntity
  8
TitleBlock&Notes
  6
Continuous
 62
     3
100
AcDbLine
 10
23.61567074051309
 20
2.212509895199982
 30
0.0
 11
23.61567074051309
 21
1.458184265999978
 31
0.0
  0
LINE
  5
59D
330
1F
100
AcDbEntity
  8
TitleBlock&Notes
  6
Continuous
 62
     3
100
AcDbLine
 10
23.63547074051309
 20
1.438384265999982
 30
0.0
 11
23.63547074051309
 21
2.09563552439998
 31
0.0
  0
LINE
  5
59E
330
1F
100
AcDbEntity
  8
TitleBlock&Notes
  6
Continuous
 62
     3
100
AcDbLine
 10
23.59587074051312
 20
1.477984265999975
 30
0.0
 11
23.59587074051312
 21
2.329384265999994
 31
0.0
  0
LINE
  5
59F
330
1F
100
AcDbEntity
  8
TitleBlock&Notes
  6
Continuous
 62
     3
100
AcDbLine
 10
22.82187781091314
 20
2.739415733999987
 30
0.0
 11
23.25927074051309
 21
2.739415733999987
 31
0.0
  0
LINE
  5
5A0
330
1F
100
AcDbEntity
  8
TitleBlock&Notes
  6
Continuous
 62
     3
100
AcDbLine
 10
22.82187781091314
 20
2.720862975599995
 30
0.0
 11
23.25927074051309
 21
2.720862975599995
 31
0.0
  0
LINE
  5
5A1
330
1F
100
AcDbEntity
  8
TitleBlock&Notes
  6
Continuous
 62
     3
100
AcDbLine
 10
22.82187781091314
 20
2.701062975599977
 30
0.0
 11
23.25927074051309
 21
2.701062975599977
 31
0.0
  0
LINE
  5
5A2
330
1F
100
AcDbEntity
  8
TitleBlock&Notes
  6
Continuous
 62
     3
100
AcDbLine
 10
22.82187781091314
 20
2.759215733999994
 30
0.0
 11
23.25927074051309
 21
2.759215733999994
 31
0.0
  0
LINE
  5
5A3
330
1F
100
AcDbEntity
  8
TitleBlock&Notes
  6
Continuous
 62
     3
100
AcDbLine
 10
22.82187781091314
 20
3.032674009199993
 30
0.0
 11
23.25927074051309
 21
3.032674009199993
 31
0.0
  0
LINE
  5
5A4
330
1F
100
AcDbEntity
  8
TitleBlock&Notes
  6
Continuous
 62
     3
100
AcDbLine
 10
22.82187781091314
 20
3.052474009199979
 30
0.0
 11
23.25927074051309
 21
3.052474009199979
 31
0.0
  0
LINE
  5
5A5
330
1F
100
AcDbEntity
  8
TitleBlock&Notes
  6
Continuous
 62
     3
100
AcDbLine
 10
22.82187781091314
 20
3.072274009199997
 30
0.0
 11
23.25927074051309
 21
3.072274009199997
 31
0.0
  0
LINE
  5
5A6
330
1F
100
AcDbEntity
  8
TitleBlock&Notes
  6
Continuous
 62
     3
100
AcDbLine
 10
22.82187781091314
 20
3.012874009199997
 30
0.0
 11
23.25927074051309
 21
3.012874009199997
 31
0.0
  0
LINE
  5
5A7
330
1F
100
AcDbEntity
  8
TitleBlock&Notes
  6
Continuous
 62
     3
100
AcDbLine
 10
22.82187781091314
 20
2.77901573399998
 30
0.0
 11
23.25927074051309
 21
2.77901573399998
 31
0.0
  0
LINE
  5
5A8
330
1F
100
AcDbEntity
  8
TitleBlock&Notes
  6
Continuous
 62
     3
100
AcDbLine
 10
23.63547074051309
 20
1.983097511999986
 30
0.0
 11
23.67449056091313
 21
1.983778631999982
 31
0.0
  0
LINE
  5
5A9
330
1F
100
AcDbEntity
  8
TitleBlock&Notes
  6
Continuous
 62
     3
100
AcDbLine
 10
23.63547074051309
 20
1.998939927599991
 30
0.0
 11
23.66899760531314
 21
1.999525136399991
 31
0.0
  0
LINE
  5
5AA
330
1F
100
AcDbEntity
  8
TitleBlock&Notes
  6
Continuous
 62
     3
100
AcDbLine
 10
23.63547074051309
 20
2.014782343199986
 30
0.0
 11
23.66350461011313
 21
2.015271680399983
 31
0.0
  0
LINE
  5
5AB
330
1F
100
AcDbEntity
  8
TitleBlock&Notes
  6
Continuous
 62
     3
100
AcDbLine
 10
23.63547074051309
 20
2.03062475879998
 30
0.0
 11
23.65801165451315
 21
2.031018224399986
 31
0.0
  0
LINE
  5
5AC
330
1F
100
AcDbEntity
  8
TitleBlock&Notes
  6
Continuous
 62
     3
100
AcDbLine
 10
23.63547074051309
 20
2.046467174399985
 30
0.0
 11
23.65251865931314
 21
2.046764728799985
 31
0.0
  0
LINE
  5
5AD
330
1F
100
AcDbEntity
  8
TitleBlock&Notes
  6
Continuous
 62
     3
100
AcDbLine
 10
23.63547074051309
 20
2.06230958999998
 30
0.0
 11
23.64702570371314
 21
2.062511272799987
 31
0.0
  0
LINE
  5
5AE
330
1F
100
AcDbEntity
  8
TitleBlock&Notes
  6
Continuous
 62
     3
100
AcDbLine
 10
23.63547074051309
 20
2.078152005599996
 30
0.0
 11
23.64153270851313
 21
2.078257816799979
 31
0.0
  0
LINE
  5
5AF
330
1F
100
AcDbEntity
  8
TitleBlock&Notes
  6
Continuous
 62
     3
100
AcDbLine
 10
23.63547074051309
 20
2.09399442119999
 30
0.0
 11
23.63603975291315
 21
2.094004360799992
 31
0.0
  0
LINE
  5
5B0
330
1F
100
AcDbEntity
  8
TitleBlock&Notes
  6
Continuous
 62
     3
100
AcDbLine
 10
23.11046075171312
 20
2.038464568799984
 30
0.0
 11
23.25927074051309
 21
2.04106205159999
 31
0.0
  0
LINE
  5
5B1
330
1F
100
AcDbEntity
  8
TitleBlock&Notes
  6
Continuous
 62
     3
100
AcDbLine
 10
22.82187781091314
 20
2.049269745599982
 30
0.0
 11
23.25927074051309
 21
2.056904467199995
 31
0.0
  0
LINE
  5
5B2
330
1F
100
AcDbEntity
  8
TitleBlock&Notes
  6
Continuous
 62
     3
100
AcDbLine
 10
22.82187781091314
 20
2.038464568799984
 30
0.0
 11
23.25927074051309
 21
2.038464568799984
 31
0.0
  0
LINE
  5
5B3
330
1F
100
AcDbEntity
  8
TitleBlock&Notes
  6
Continuous
 62
     3
100
AcDbLine
 10
22.82187781091314
 20
2.433001269599991
 30
0.0
 11
23.25927074051309
 21
2.440635991199993
 31
0.0
  0
LINE
  5
5B4
330
1F
100
AcDbEntity
  8
TitleBlock&Notes
  6
Continuous
 62
     3
100
AcDbLine
 10
22.82187781091314
 20
2.448843685199985
 30
0.0
 11
23.25927074051309
 21
2.456478406799988
 31
0.0
  0
LINE
  5
5B5
330
1F
100
AcDbEntity
  8
TitleBlock&Notes
  6
Continuous
 62
     3
100
AcDbLine
 10
22.82187781091314
 20
2.46468610079999
 30
0.0
 11
23.25927074051309
 21
2.472320822399982
 31
0.0
  0
LINE
  5
5B6
330
1F
100
AcDbEntity
  8
TitleBlock&Notes
  6
Continuous
 62
     3
100
AcDbLine
 10
22.82187781091314
 20
2.480528516399985
 30
0.0
 11
23.25927074051309
 21
2.488163237999987
 31
0.0
  0
LINE
  5
5B7
330
1F
100
AcDbEntity
  8
TitleBlock&Notes
  6
Continuous
 62
     3
100
AcDbLine
 10
22.82187781091314
 20
2.49637093199998
 30
0.0
 11
23.25927074051309
 21
2.504005653599993
 31
0.0
  0
LINE
  5
5B8
330
1F
100
AcDbEntity
  8
TitleBlock&Notes
  6
Continuous
 62
     3
100
AcDbLine
 10
22.82187781091314
 20
2.512213347599985
 30
0.0
 11
23.25927074051309
 21
2.519848069199987
 31
0.0
  0
LINE
  5
5B9
330
1F
100
AcDbEntity
  8
TitleBlock&Notes
  6
Continuous
 62
     3
100
AcDbLine
 10
22.82187781091314
 20
2.528055763199979
 30
0.0
 11
23.25927074051309
 21
2.535690484799982
 31
0.0
  0
LINE
  5
5BA
330
1F
100
AcDbEntity
  8
TitleBlock&Notes
  6
Continuous
 62
     3
100
AcDbLine
 10
22.82187781091314
 20
2.543898178799995
 30
0.0
 11
23.25927074051309
 21
2.551532900399987
 31
0.0
  0
LINE
  5
5BB
330
1F
100
AcDbEntity
  8
TitleBlock&Notes
  6
Continuous
 62
     3
100
AcDbLine
 10
22.82187781091314
 20
2.55974059439999
 30
0.0
 11
23.25927074051309
 21
2.567375315999981
 31
0.0
  0
LINE
  5
5BC
330
1F
100
AcDbEntity
  8
TitleBlock&Notes
  6
Continuous
 62
     3
100
AcDbLine
 10
22.82187781091314
 20
2.575583009999984
 30
0.0
 11
23.25927074051309
 21
2.583217731599997
 31
0.0
  0
LINE
  5
5BD
330
1F
100
AcDbEntity
  8
TitleBlock&Notes
  6
Continuous
 62
     3
100
AcDbLine
 10
22.82187781091314
 20
2.59142542559999
 30
0.0
 11
23.25927074051309
 21
2.599060147199981
 31
0.0
  0
LINE
  5
5BE
330
1F
100
AcDbEntity
  8
TitleBlock&Notes
  6
Continuous
 62
     3
100
AcDbLine
 10
22.82187781091314
 20
2.607267841199984
 30
0.0
 11
23.25927074051309
 21
2.614902562799976
 31
0.0
  0
LINE
  5
5BF
330
1F
100
AcDbEntity
  8
TitleBlock&Notes
  6
Continuous
 62
     3
100
AcDbLine
 10
22.82187781091314
 20
2.065112161199987
 30
0.0
 11
23.25927074051309
 21
2.072746882799989
 31
0.0
  0
LINE
  5
5C0
330
1F
100
AcDbEntity
  8
TitleBlock&Notes
  6
Continuous
 62
     3
100
AcDbLine
 10
22.82187781091314
 20
2.080954576799982
 30
0.0
 11
23.25927074051309
 21
2.088589298399984
 31
0.0
  0
LINE
  5
5C1
330
1F
100
AcDbEntity
  8
TitleBlock&Notes
  6
Continuous
 62
     3
100
AcDbLine
 10
22.82187781091314
 20
2.096796992399987
 30
0.0
 11
23.25927074051309
 21
2.104431713999989
 31
0.0
  0
LINE
  5
5C2
330
1F
100
AcDbEntity
  8
TitleBlock&Notes
  6
Continuous
 62
     3
100
AcDbLine
 10
22.82187781091314
 20
2.112639407999981
 30
0.0
 11
23.25927074051309
 21
2.120274129599984
 31
0.0
  0
LINE
  5
5C3
330
1F
100
AcDbEntity
  8
TitleBlock&Notes
  6
Continuous
 62
     3
100
AcDbLine
 10
22.82187781091314
 20
2.128481823599976
 30
0.0
 11
23.25927074051309
 21
2.136116545199989
 31
0.0
  0
LINE
  5
5C4
330
1F
100
AcDbEntity
  8
TitleBlock&Notes
  6
Continuous
 62
     3
100
AcDbLine
 10
22.82187781091314
 20
2.144324239199992
 30
0.0
 11
23.25927074051309
 21
2.151958960799984
 31
0.0
  0
LINE
  5
5C5
330
1F
100
AcDbEntity
  8
TitleBlock&Notes
  6
Continuous
 62
     3
100
AcDbLine
 10
22.82187781091314
 20
2.160166654799986
 30
0.0
 11
23.25927074051309
 21
2.167801376399978
 31
0.0
  0
LINE
  5
5C6
330
1F
100
AcDbEntity
  8
TitleBlock&Notes
  6
Continuous
 62
     3
100
AcDbLine
 10
22.82187781091314
 20
2.176009030799988
 30
0.0
 11
23.25927074051309
 21
2.18364375239998
 31
0.0
  0
LINE
  5
5C7
330
1F
100
AcDbEntity
  8
TitleBlock&Notes
  6
Continuous
 62
     3
100
AcDbLine
 10
22.82187781091314
 20
2.191851446399983
 30
0.0
 11
23.25927074051309
 21
2.199486167999996
 31
0.0
  0
LINE
  5
5C8
330
1F
100
AcDbEntity
  8
TitleBlock&Notes
  6
Continuous
 62
     3
100
AcDbLine
 10
22.82187781091314
 20
2.207693861999988
 30
0.0
 11
23.25927074051309
 21
2.21532858359999
 31
0.0
  0
LINE
  5
5C9
330
1F
100
AcDbEntity
  8
TitleBlock&Notes
  6
Continuous
 62
     3
100
AcDbLine
 10
22.82187781091314
 20
2.223536277599983
 30
0.0
 11
23.25927074051309
 21
2.231170999199985
 31
0.0
  0
LINE
  5
5CA
330
1F
100
AcDbEntity
  8
TitleBlock&Notes
  6
Continuous
 62
     3
100
AcDbLine
 10
22.82187781091314
 20
2.239378693199988
 30
0.0
 11
23.25927074051309
 21
2.24701341479999
 31
0.0
  0
LINE
  5
5CB
330
1F
100
AcDbEntity
  8
TitleBlock&Notes
  6
Continuous
 62
     3
100
AcDbLine
 10
22.82187781091314
 20
2.255221108799982
 30
0.0
 11
23.25927074051309
 21
2.262855830399985
 31
0.0
  0
LINE
  5
5CC
330
1F
100
AcDbEntity
  8
TitleBlock&Notes
  6
Continuous
 62
     3
100
AcDbLine
 10
22.82187781091314
 20
2.271063524399977
 30
0.0
 11
23.25927074051309
 21
2.27869824599999
 31
0.0
  0
LINE
  5
5CD
330
1F
100
AcDbEntity
  8
TitleBlock&Notes
  6
Continuous
 62
     3
100
AcDbLine
 10
22.82187781091314
 20
2.286905939999982
 30
0.0
 11
23.25927074051309
 21
2.294540661599985
 31
0.0
  0
LINE
  5
5CE
330
1F
100
AcDbEntity
  8
TitleBlock&Notes
  6
Continuous
 62
     3
100
AcDbLine
 10
22.82187781091314
 20
2.302748355599977
 30
0.0
 11
23.25927074051309
 21
2.310383077199979
 31
0.0
  0
LINE
  5
5CF
330
1F
100
AcDbEntity
  8
TitleBlock&Notes
  6
Continuous
 62
     3
100
AcDbLine
 10
22.82187781091314
 20
2.318590771199993
 30
0.0
 11
23.25927074051309
 21
2.326225492799984
 31
0.0
  0
LINE
  5
5D0
330
1F
100
AcDbEntity
  8
TitleBlock&Notes
  6
Continuous
 62
     3
100
AcDbLine
 10
22.82187781091314
 20
2.334433186799987
 30
0.0
 11
23.25927074051309
 21
2.342067908399979
 31
0.0
  0
LINE
  5
5D1
330
1F
100
AcDbEntity
  8
TitleBlock&Notes
  6
Continuous
 62
     3
100
AcDbLine
 10
22.82187781091314
 20
2.623110217199986
 30
0.0
 11
23.25927074051309
 21
2.623110217199986
 31
0.0
  0
LINE
  5
5D2
330
1F
100
AcDbEntity
  8
TitleBlock&Notes
  6
Continuous
 62
     3
100
AcDbLine
 10
22.82187781091314
 20
2.428228360799984
 30
0.0
 11
23.25927074051309
 21
2.428228360799984
 31
0.0
  0
LINE
  5
5D3
330
1F
100
AcDbEntity
  8
TitleBlock&Notes
  6
Continuous
 62
     3
100
AcDbLine
 10
22.82187781091314
 20
2.350275602399982
 30
0.0
 11
23.25927074051309
 21
2.350275602399982
 31
0.0
  0
LINE
  5
5D4
330
1F
100
AcDbEntity
  8
TitleBlock&Notes
  6
Continuous
 62
     3
100
AcDbLine
 10
23.63547074051309
 20
1.840515811199985
 30
0.0
 11
23.72392735931314
 21
1.842059815199977
 31
0.0
  0
LINE
  5
5D5
330
1F
100
AcDbEntity
  8
TitleBlock&Notes
  6
Continuous
 62
     3
100
AcDbLine
 10
23.63547074051309
 20
1.85635822679999
 30
0.0
 11
23.71843436411313
 21
1.85780635919999
 31
0.0
  0
LINE
  5
5D6
330
1F
100
AcDbEntity
  8
TitleBlock&Notes
  6
Continuous
 62
     3
100
AcDbLine
 10
23.63547074051309
 20
1.872200642399985
 30
0.0
 11
23.71294140851315
 21
1.873552903199982
 31
0.0
  0
LINE
  5
5D7
330
1F
100
AcDbEntity
  8
TitleBlock&Notes
  6
Continuous
 62
     3
100
AcDbLine
 10
23.63547074051309
 20
1.888043057999979
 30
0.0
 11
23.70744841331314
 21
1.889299407599992
 31
0.0
  0
LINE
  5
5D8
330
1F
100
AcDbEntity
  8
TitleBlock&Notes
  6
Continuous
 62
     3
100
AcDbLine
 10
23.63547074051309
 20
1.903885473599984
 30
0.0
 11
23.70195545771314
 21
1.905045951599984
 31
0.0
  0
LINE
  5
5D9
330
1F
100
AcDbEntity
  8
TitleBlock&Notes
  6
Continuous
 62
     3
100
AcDbLine
 10
23.63547074051309
 20
1.919727889199979
 30
0.0
 11
23.69646246251313
 21
1.920792495599986
 31
0.0
  0
LINE
  5
5DA
330
1F
100
AcDbEntity
  8
TitleBlock&Notes
  6
Continuous
 62
     3
100
AcDbLine
 10
23.63547074051309
 20
1.935570304799995
 30
0.0
 11
23.69096950691314
 21
1.936539039599978
 31
0.0
  0
LINE
  5
5DB
330
1F
100
AcDbEntity
  8
TitleBlock&Notes
  6
Continuous
 62
     3
100
AcDbLine
 10
23.63547074051309
 20
1.951412680799986
 30
0.0
 11
23.68547651171314
 21
1.952285543999987
 31
0.0
  0
LINE
  5
5DC
330
1F
100
AcDbEntity
  8
TitleBlock&Notes
  6
Continuous
 62
     3
100
AcDbLine
 10
23.63547074051309
 20
1.967255096399991
 30
0.0
 11
23.67998355611315
 21
1.96803208799999
 31
0.0
  0
LINE
  5
5DD
330
1F
100
AcDbEntity
  8
TitleBlock&Notes
  6
Continuous
 62
     3
100
AcDbLine
 10
23.27907074051313
 20
1.458184265999978
 30
0.0
 11
23.61567074051309
 21
1.458184265999978
 31
0.0
  0
LINE
  5
5DE
330
1F
100
AcDbEntity
  8
TitleBlock&Notes
  6
Continuous
 62
     3
100
AcDbLine
 10
23.29887074051311
 20
1.477984265999975
 30
0.0
 11
23.59587074051312
 21
1.477984265999975
 31
0.0
  0
LINE
  5
5DF
330
1F
100
AcDbEntity
  8
TitleBlock&Notes
  6
Continuous
 62
     3
100
AcDbLine
 10
23.25927074051309
 20
1.438384265999982
 30
0.0
 11
23.63547074051309
 21
1.438384265999982
 31
0.0
  0
LINE
  5
5E0
330
1F
100
AcDbEntity
  8
TitleBlock&Notes
  6
Continuous
 62
     3
100
AcDbLine
 10
22.82187781091314
 20
1.446096563999986
 30
0.0
 11
23.25927074051309
 21
1.453731285599989
 31
0.0
  0
LINE
  5
5E1
330
1F
100
AcDbEntity
  8
TitleBlock&Notes
  6
Continuous
 62
     3
100
AcDbLine
 10
22.82187781091314
 20
1.461938979599981
 30
0.0
 11
23.25927074051309
 21
1.469573701199983
 31
0.0
  0
LINE
  5
5E2
330
1F
100
AcDbEntity
  8
TitleBlock&Notes
  6
Continuous
 62
     3
100
AcDbLine
 10
22.82187781091314
 20
1.477781395199986
 30
0.0
 11
23.25927074051309
 21
1.485416116799989
 31
0.0
  0
LINE
  5
5E3
330
1F
100
AcDbEntity
  8
TitleBlock&Notes
  6
Continuous
 62
     3
100
AcDbLine
 10
22.82187781091314
 20
1.493623810799981
 30
0.0
 11
23.25927074051309
 21
1.501258532399983
 31
0.0
  0
LINE
  5
5E4
330
1F
100
AcDbEntity
  8
TitleBlock&Notes
  6
Continuous
 62
     3
100
AcDbLine
 10
22.82187781091314
 20
1.509466226399975
 30
0.0
 11
23.25927074051309
 21
1.517100947999988
 31
0.0
  0
LINE
  5
5E5
330
1F
100
AcDbEntity
  8
TitleBlock&Notes
  6
Continuous
 62
     3
100
AcDbLine
 10
22.82187781091314
 20
1.525308641999991
 30
0.0
 11
23.25927074051309
 21
1.532943363599983
 31
0.0
  0
LINE
  5
5E6
330
1F
100
AcDbEntity
  8
TitleBlock&Notes
  6
Continuous
 62
     3
100
AcDbLine
 10
22.82187781091314
 20
1.541151057599986
 30
0.0
 11
23.25927074051309
 21
1.548785779199977
 31
0.0
  0
LINE
  5
5E7
330
1F
100
AcDbEntity
  8
TitleBlock&Notes
  6
Continuous
 62
     3
100
AcDbLine
 10
22.82187781091314
 20
1.556993473199991
 30
0.0
 11
23.25927074051309
 21
1.564628194799993
 31
0.0
  0
LINE
  5
5E8
330
1F
100
AcDbEntity
  8
TitleBlock&Notes
  6
Continuous
 62
     3
100
AcDbLine
 10
22.82187781091314
 20
1.572835888799986
 30
0.0
 11
23.25927074051309
 21
1.580470610399977
 31
0.0
  0
LINE
  5
5E9
330
1F
100
AcDbEntity
  8
TitleBlock&Notes
  6
Continuous
 62
     3
100
AcDbLine
 10
22.82187781091314
 20
1.58867830439998
 30
0.0
 11
23.25927074051309
 21
1.596313025999993
 31
0.0
  0
LINE
  5
5EA
330
1F
100
AcDbEntity
  8
TitleBlock&Notes
  6
Continuous
 62
     3
100
AcDbLine
 10
22.82187781091314
 20
1.604520719999985
 30
0.0
 11
23.25927074051309
 21
1.612155441599988
 31
0.0
  0
LINE
  5
5EB
330
1F
100
AcDbEntity
  8
TitleBlock&Notes
  6
Continuous
 62
     3
100
AcDbLine
 10
22.82187781091314
 20
1.620363135599991
 30
0.0
 11
23.25927074051309
 21
1.627997857199982
 31
0.0
  0
LINE
  5
5EC
330
1F
100
AcDbEntity
  8
TitleBlock&Notes
  6
Continuous
 62
     3
100
AcDbLine
 10
22.82187781091314
 20
1.636205551199985
 30
0.0
 11
23.25927074051309
 21
1.643840272799987
 31
0.0
  0
LINE
  5
5ED
330
1F
100
AcDbEntity
  8
TitleBlock&Notes
  6
Continuous
 62
     3
100
AcDbLine
 10
22.82187781091314
 20
1.65204796679998
 30
0.0
 11
23.25927074051309
 21
1.659682688399982
 31
0.0
  0
LINE
  5
5EE
330
1F
100
AcDbEntity
  8
TitleBlock&Notes
  6
Continuous
 62
     3
100
AcDbLine
 10
22.82187781091314
 20
1.667890342799992
 30
0.0
 11
23.25927074051309
 21
1.675525064399984
 31
0.0
  0
LINE
  5
5EF
330
1F
100
AcDbEntity
  8
TitleBlock&Notes
  6
Continuous
 62
     3
100
AcDbLine
 10
22.82187781091314
 20
1.683732758399976
 30
0.0
 11
23.25927074051309
 21
1.691367479999978
 31
0.0
  0
LINE
  5
5F0
330
1F
100
AcDbEntity
  8
TitleBlock&Notes
  6
Continuous
 62
     3
100
AcDbLine
 10
22.82187781091314
 20
1.699575173999992
 30
0.0
 11
23.25927074051309
 21
1.707209895599984
 31
0.0
  0
LINE
  5
5F1
330
1F
100
AcDbEntity
  8
TitleBlock&Notes
  6
Continuous
 62
     3
100
AcDbLine
 10
22.82187781091314
 20
1.715417589599987
 30
0.0
 11
23.25927074051309
 21
1.723052311199978
 31
0.0
  0
LINE
  5
5F2
330
1F
100
AcDbEntity
  8
TitleBlock&Notes
  6
Continuous
 62
     3
100
AcDbLine
 10
22.82187781091314
 20
1.731260005199981
 30
0.0
 11
23.25927074051309
 21
1.738894726799994
 31
0.0
  0
LINE
  5
5F3
330
1F
100
AcDbEntity
  8
TitleBlock&Notes
  6
Continuous
 62
     3
100
AcDbLine
 10
22.82187781091314
 20
1.747102420799986
 30
0.0
 11
23.25927074051309
 21
1.754737142399989
 31
0.0
  0
LINE
  5
5F4
330
1F
100
AcDbEntity
  8
TitleBlock&Notes
  6
Continuous
 62
     3
100
AcDbLine
 10
22.82187781091314
 20
1.762944836399991
 30
0.0
 11
23.25927074051309
 21
1.770579557999983
 31
0.0
  0
LINE
  5
5F5
330
1F
100
AcDbEntity
  8
TitleBlock&Notes
  6
Continuous
 62
     3
100
AcDbLine
 10
22.82187781091314
 20
1.778787251999986
 30
0.0
 11
23.25927074051309
 21
1.786421973599988
 31
0.0
  0
LINE
  5
5F6
330
1F
100
AcDbEntity
  8
TitleBlock&Notes
  6
Continuous
 62
     3
100
AcDbLine
 10
22.82187781091314
 20
1.794629667599981
 30
0.0
 11
23.25927074051309
 21
1.802264389199983
 31
0.0
  0
LINE
  5
5F7
330
1F
100
AcDbEntity
  8
TitleBlock&Notes
  6
Continuous
 62
     3
100
AcDbLine
 10
22.82187781091314
 20
1.810472083199986
 30
0.0
 11
23.25927074051309
 21
1.818106804799988
 31
0.0
  0
LINE
  5
5F8
330
1F
100
AcDbEntity
  8
TitleBlock&Notes
  6
Continuous
 62
     3
100
AcDbLine
 10
22.82187781091314
 20
1.82631449879998
 30
0.0
 11
23.25927074051309
 21
1.833949220399983
 31
0.0
  0
LINE
  5
5F9
330
1F
100
AcDbEntity
  8
TitleBlock&Notes
  6
Continuous
 62
     3
100
AcDbLine
 10
22.82187781091314
 20
1.842156914399996
 30
0.0
 11
23.25927074051309
 21
1.849791635999977
 31
0.0
  0
LINE
  5
5FA
330
1F
100
AcDbEntity
  8
TitleBlock&Notes
  6
Continuous
 62
     3
100
AcDbLine
 10
22.82187781091314
 20
1.857999329999991
 30
0.0
 11
23.25927074051309
 21
1.865634051599982
 31
0.0
  0
LINE
  5
5FB
330
1F
100
AcDbEntity
  8
TitleBlock&Notes
  6
Continuous
 62
     3
100
AcDbLine
 10
22.82187781091314
 20
1.873841745599985
 30
0.0
 11
23.25927074051309
 21
1.881476467199998
 31
0.0
  0
LINE
  5
5FC
330
1F
100
AcDbEntity
  8
TitleBlock&Notes
  6
Continuous
 62
     3
100
AcDbLine
 10
22.82187781091314
 20
1.889684161199991
 30
0.0
 11
23.25927074051309
 21
1.897318882799993
 31
0.0
  0
LINE
  5
5FD
330
1F
100
AcDbEntity
  8
TitleBlock&Notes
  6
Continuous
 62
     3
100
AcDbLine
 10
22.82187781091314
 20
1.905526537199992
 30
0.0
 11
23.25927074051309
 21
1.913161258799984
 31
0.0
  0
LINE
  5
5FE
330
1F
100
AcDbEntity
  8
TitleBlock&Notes
  6
Continuous
 62
     3
100
AcDbLine
 10
22.82187781091314
 20
1.921368952799987
 30
0.0
 11
23.25927074051309
 21
1.929003674399989
 31
0.0
  0
LINE
  5
5FF
330
1F
100
AcDbEntity
  8
TitleBlock&Notes
  6
Continuous
 62
     3
100
AcDbLine
 10
22.82187781091314
 20
1.937211368399982
 30
0.0
 11
23.25927074051309
 21
1.944846089999984
 31
0.0
  0
LINE
  5
600
330
1F
100
AcDbEntity
  8
TitleBlock&Notes
  6
Continuous
 62
     3
100
AcDbLine
 10
22.82187781091314
 20
1.953053783999987
 30
0.0
 11
23.24914731731312
 21
1.960511810399992
 31
0.0
  0
LINE
  5
601
330
1F
100
AcDbEntity
  8
TitleBlock&Notes
  6
Continuous
 62
     3
100
AcDbLine
 10
22.82187781091314
 20
1.960511810399992
 30
0.0
 11
23.25927074051309
 21
1.960511810399992
 31
0.0
  0
LINE
  5
602
330
1F
100
AcDbEntity
  8
TitleBlock&Notes
  6
Continuous
 62
     3
100
AcDbLine
 10
22.82187781091314
 20
1.430254187999985
 30
0.0
 11
23.2876499617131
 21
1.438384265999982
 31
0.0
  0
TEXT
  5
603
330
1F
100
AcDbEntity
  8
TitleBlock&Notes
  6
Continuous
 62
     3
100
AcDbText
 10
25.50779612291312
 20
0.5157644183999956
 30
0.0
 40
0.2772
  1
 AIR
 41
1.098901099999999
 51
11.0
100
AcDbText
  0
TEXT
  5
604
330
1F
100
AcDbEntity
  8
TitleBlock&Notes
  6
Continuous
 62
     3
100
AcDbText
 10
24.79282655771311
 20
0.5157644183999956
 30
0.0
 40
0.2772
  1
 of
 41
1.098901099999999
 51
11.0
100
AcDbText
  0
TEXT
  5
605
330
1F
100
AcDbEntity
  8
TitleBlock&Notes
  6
Continuous
 62
     3
100
AcDbText
 10
23.59651348811309
 20
0.515764418399985
 30
0.0
 40
0.2772
  1
 SPEED
 41
0.8
 51
11.0
100
AcDbText
  0
ARC
  5
606
330
1F
100
AcDbEntity
  8
TitleBlock&Notes
  6
Continuous
 62
     3
100
AcDbCircle
 10
25.77387074051312
 20
1.972984265999981
 30
0.0
 40
0.1782
100
AcDbArc
 50
270.0000000000008
 51
359.9999953200008
  0
LINE
  5
607
330
1F
100
AcDbEntity
  8
TitleBlock&Notes
  6
Continuous
 62
     3
100
AcDbLine
 10
25.8332944213131
 20
2.038464568799984
 30
0.0
 11
25.93227074051313
 21
2.040192197999992
 31
0.0
  0
ARC
  5
608
330
1F
100
AcDbEntity
  8
TitleBlock&Notes
  6
Continuous
 62
     3
100
AcDbCircle
 10
25.77387074051312
 20
1.972984265999981
 30
0.0
 40
0.1584
100
AcDbArc
 50
270.0000000000008
 51
0.0000000000008015
  0
ARC
  5
609
330
1F
100
AcDbEntity
  8
TitleBlock&Notes
  6
Continuous
 62
     3
100
AcDbCircle
 10
25.77387074051312
 20
1.972984265999981
 30
0.0
 40
0.198
100
AcDbArc
 50
270.0000000000008
 51
359.9999953200008
  0
LINE
  5
60A
330
1F
100
AcDbEntity
  8
TitleBlock&Notes
  6
Continuous
 62
     3
100
AcDbLine
 10
25.93227074051313
 20
2.71961573399999
 30
0.0
 11
25.41747074051309
 21
2.71961573399999
 31
0.0
  0
LINE
  5
60B
330
1F
100
AcDbEntity
  8
TitleBlock&Notes
  6
Continuous
 62
     3
100
AcDbLine
 10
25.93227074051313
 20
2.739415733999987
 30
0.0
 11
25.41747074051309
 21
2.739415733999987
 31
0.0
  0
LINE
  5
60C
330
1F
100
AcDbEntity
  8
TitleBlock&Notes
  6
Continuous
 62
     3
100
AcDbLine
 10
25.93227074051313
 20
2.759215733999994
 30
0.0
 11
25.41747074051309
 21
2.759215733999994
 31
0.0
  0
LINE
  5
60D
330
1F
100
AcDbEntity
  8
TitleBlock&Notes
  6
Continuous
 62
     3
100
AcDbLine
 10
25.93227074051313
 20
3.032674009199983
 30
0.0
 11
25.41747074051309
 21
3.032674009199983
 31
0.0
  0
LINE
  5
60E
330
1F
100
AcDbEntity
  8
TitleBlock&Notes
  6
Continuous
 62
     3
100
AcDbLine
 10
25.93227074051313
 20
3.052474009199979
 30
0.0
 11
25.41747074051309
 21
3.052474009199979
 31
0.0
  0
LINE
  5
60F
330
1F
100
AcDbEntity
  8
TitleBlock&Notes
  6
Continuous
 62
     3
100
AcDbLine
 10
25.49778959891308
 20
1.835165890799984
 30
0.0
 11
25.8622430509131
 21
1.841527472399981
 31
0.0
  0
LINE
  5
610
330
1F
100
AcDbEntity
  8
TitleBlock&Notes
  6
Continuous
 62
     3
100
AcDbLine
 10
25.47529006691309
 20
1.850615593199993
 30
0.0
 11
25.8825243493131
 21
1.857723872399986
 31
0.0
  0
LINE
  5
611
330
1F
100
AcDbEntity
  8
TitleBlock&Notes
  6
Continuous
 62
     3
100
AcDbLine
 10
25.45890196331311
 20
1.86617193839999
 30
0.0
 11
25.89739470371315
 21
1.873825865999993
 31
0.0
  0
LINE
  5
612
330
1F
100
AcDbEntity
  8
TitleBlock&Notes
  6
Continuous
 62
     3
100
AcDbLine
 10
25.44635189171313
 20
1.881795286799977
 30
0.0
 11
25.90871091851314
 21
1.889865806399981
 31
0.0
  0
LINE
  5
613
330
1F
100
AcDbEntity
  8
TitleBlock&Notes
  6
Continuous
 62
     3
100
AcDbLine
 10
25.43663044811315
 20
1.89746801639999
 30
0.0
 11
25.91734458971311
 21
1.905858899999994
 31
0.0
  0
LINE
  5
614
330
1F
100
AcDbEntity
  8
TitleBlock&Notes
  6
Continuous
 62
     3
100
AcDbLine
 10
25.42919392451312
 20
1.913180623199977
 30
0.0
 11
25.92377776811311
 21
1.921813621199987
 31
0.0
  0
LINE
  5
615
330
1F
100
AcDbEntity
  8
TitleBlock&Notes
  6
Continuous
 62
     3
100
AcDbLine
 10
25.4237209273131
 20
1.928927483999984
 30
0.0
 11
25.92829886051315
 21
1.937734919999986
 31
0.0
  0
LINE
  5
616
330
1F
100
AcDbEntity
  8
TitleBlock&Notes
  6
Continuous
 62
     3
100
AcDbLine
 10
25.4200154761131
 20
1.944705232799989
 30
0.0
 11
25.93108337411315
 21
1.953625964399996
 31
0.0
  0
LINE
  5
617
330
1F
100
AcDbEntity
  8
TitleBlock&Notes
  6
Continuous
 62
     3
100
AcDbLine
 10
25.41747074051309
 20
2.430780303599973
 30
0.0
 11
25.93227074051313
 21
2.439766137599995
 31
0.0
  0
LINE
  5
618
330
1F
100
AcDbEntity
  8
TitleBlock&Notes
  6
Continuous
 62
     3
100
AcDbLine
 10
25.41747074051309
 20
2.446622679599986
 30
0.0
 11
25.93227074051313
 21
2.45560855319999
 31
0.0
  0
LINE
  5
619
330
1F
100
AcDbEntity
  8
TitleBlock&Notes
  6
Continuous
 62
     3
100
AcDbLine
 10
25.41747074051309
 20
2.462465095199991
 30
0.0
 11
25.93227074051313
 21
2.471450968799985
 31
0.0
  0
LINE
  5
61A
330
1F
100
AcDbEntity
  8
TitleBlock&Notes
  6
Continuous
 62
     3
100
AcDbLine
 10
25.41747074051309
 20
2.478307510799986
 30
0.0
 11
25.93227074051313
 21
2.48729338439999
 31
0.0
  0
LINE
  5
61B
330
1F
100
AcDbEntity
  8
TitleBlock&Notes
  6
Continuous
 62
     3
100
AcDbLine
 10
25.41747074051309
 20
2.49414992639998
 30
0.0
 11
25.93227074051313
 21
2.503135799999984
 31
0.0
  0
LINE
  5
61C
330
1F
100
AcDbEntity
  8
TitleBlock&Notes
  6
Continuous
 62
     3
100
AcDbLine
 10
25.41747074051309
 20
2.509992341999986
 30
0.0
 11
25.93227074051313
 21
2.51897821559999
 31
0.0
  0
LINE
  5
61D
330
1F
100
AcDbEntity
  8
TitleBlock&Notes
  6
Continuous
 62
     3
100
AcDbLine
 10
25.41747074051309
 20
2.52583475759998
 30
0.0
 11
25.93227074051313
 21
2.534820631199984
 31
0.0
  0
LINE
  5
61E
330
1F
100
AcDbEntity
  8
TitleBlock&Notes
  6
Continuous
 62
     3
100
AcDbLine
 10
25.41747074051309
 20
2.541677173199985
 30
0.0
 11
25.93227074051313
 21
2.550663046799979
 31
0.0
  0
LINE
  5
61F
330
1F
100
AcDbEntity
  8
TitleBlock&Notes
  6
Continuous
 62
     3
100
AcDbLine
 10
25.41747074051309
 20
2.55751958879998
 30
0.0
 11
25.93227074051313
 21
2.566505462399984
 31
0.0
  0
LINE
  5
620
330
1F
100
AcDbEntity
  8
TitleBlock&Notes
  6
Continuous
 62
     3
100
AcDbLine
 10
25.41747074051309
 20
2.573362004399974
 30
0.0
 11
25.93227074051313
 21
2.582347877999978
 31
0.0
  0
LINE
  5
621
330
1F
100
AcDbEntity
  8
TitleBlock&Notes
  6
Continuous
 62
     3
100
AcDbLine
 10
25.41747074051309
 20
2.58920441999999
 30
0.0
 11
25.93227074051313
 21
2.598190293599994
 31
0.0
  0
LINE
  5
622
330
1F
100
AcDbEntity
  8
TitleBlock&Notes
  6
Continuous
 62
     3
100
AcDbLine
 10
25.41747074051309
 20
2.605046835599996
 30
0.0
 11
25.93227074051313
 21
2.614032709199989
 31
0.0
  0
LINE
  5
623
330
1F
100
AcDbEntity
  8
TitleBlock&Notes
  6
Continuous
 62
     3
100
AcDbLine
 10
25.41747074051309
 20
2.047048739999983
 30
0.0
 11
25.93227074051313
 21
2.056034613599987
 31
0.0
  0
LINE
  5
624
330
1F
100
AcDbEntity
  8
TitleBlock&Notes
  6
Continuous
 62
     3
100
AcDbLine
 10
25.41747074051309
 20
2.062891155599988
 30
0.0
 11
25.93227074051313
 21
2.071877029199992
 31
0.0
  0
LINE
  5
625
330
1F
100
AcDbEntity
  8
TitleBlock&Notes
  6
Continuous
 62
     3
100
AcDbLine
 10
25.41747074051309
 20
2.078733571199983
 30
0.0
 11
25.93227074051313
 21
2.087719444799986
 31
0.0
  0
LINE
  5
626
330
1F
100
AcDbEntity
  8
TitleBlock&Notes
  6
Continuous
 62
     3
100
AcDbLine
 10
25.41747074051309
 20
2.094575986799988
 30
0.0
 11
25.93227074051313
 21
2.103561860399981
 31
0.0
  0
LINE
  5
627
330
1F
100
AcDbEntity
  8
TitleBlock&Notes
  6
Continuous
 62
     3
100
AcDbLine
 10
25.41747074051309
 20
2.110418402399982
 30
0.0
 11
25.93227074051313
 21
2.119404275999986
 31
0.0
  0
LINE
  5
628
330
1F
100
AcDbEntity
  8
TitleBlock&Notes
  6
Continuous
 62
     3
100
AcDbLine
 10
25.41747074051309
 20
2.126260817999977
 30
0.0
 11
25.93227074051313
 21
2.135246691599981
 31
0.0
  0
LINE
  5
629
330
1F
100
AcDbEntity
  8
TitleBlock&Notes
  6
Continuous
 62
     3
100
AcDbLine
 10
25.41747074051309
 20
2.142103233599982
 30
0.0
 11
25.93227074051313
 21
2.151089107199986
 31
0.0
  0
LINE
  5
62A
330
1F
100
AcDbEntity
  8
TitleBlock&Notes
  6
Continuous
 62
     3
100
AcDbLine
 10
25.41747074051309
 20
2.157945649199998
 30
0.0
 11
25.93227074051313
 21
2.166931522799981
 31
0.0
  0
LINE
  5
62B
330
1F
100
AcDbEntity
  8
TitleBlock&Notes
  6
Continuous
 62
     3
100
AcDbLine
 10
25.41747074051309
 20
2.173788064799992
 30
0.0
 11
25.93227074051313
 21
2.182773938399975
 31
0.0
  0
LINE
  5
62C
330
1F
100
AcDbEntity
  8
TitleBlock&Notes
  6
Continuous
 62
     3
100
AcDbLine
 10
25.41747074051309
 20
2.189630480399987
 30
0.0
 11
25.93227074051313
 21
2.198616314399988
 31
0.0
  0
LINE
  5
62D
330
1F
100
AcDbEntity
  8
TitleBlock&Notes
  6
Continuous
 62
     3
100
AcDbLine
 10
25.41747074051309
 20
2.205472895999992
 30
0.0
 11
25.93227074051313
 21
2.214458729999993
 31
0.0
  0
LINE
  5
62E
330
1F
100
AcDbEntity
  8
TitleBlock&Notes
  6
Continuous
 62
     3
100
AcDbLine
 10
25.41747074051309
 20
2.221315271999984
 30
0.0
 11
25.93227074051313
 21
2.230301145599987
 31
0.0
  0
LINE
  5
62F
330
1F
100
AcDbEntity
  8
TitleBlock&Notes
  6
Continuous
 62
     3
100
AcDbLine
 10
25.41747074051309
 20
2.237157687599989
 30
0.0
 11
25.93227074051313
 21
2.246143561199982
 31
0.0
  0
LINE
  5
630
330
1F
100
AcDbEntity
  8
TitleBlock&Notes
  6
Continuous
 62
     3
100
AcDbLine
 10
25.41747074051309
 20
2.253000103199983
 30
0.0
 11
25.93227074051313
 21
2.261985976799987
 31
0.0
  0
LINE
  5
631
330
1F
100
AcDbEntity
  8
TitleBlock&Notes
  6
Continuous
 62
     3
100
AcDbLine
 10
25.41747074051309
 20
2.268842518799978
 30
0.0
 11
25.93227074051313
 21
2.277828392399982
 31
0.0
  0
LINE
  5
632
330
1F
100
AcDbEntity
  8
TitleBlock&Notes
  6
Continuous
 62
     3
100
AcDbLine
 10
25.41747074051309
 20
2.284684934399983
 30
0.0
 11
25.93227074051313
 21
2.293670807999987
 31
0.0
  0
LINE
  5
633
330
1F
100
AcDbEntity
  8
TitleBlock&Notes
  6
Continuous
 62
     3
100
AcDbLine
 10
25.41747074051309
 20
2.300527349999999
 30
0.0
 11
25.93227074051313
 21
2.309513223599982
 31
0.0
  0
LINE
  5
634
330
1F
100
AcDbEntity
  8
TitleBlock&Notes
  6
Continuous
 62
     3
100
AcDbLine
 10
25.41747074051309
 20
2.316369765599993
 30
0.0
 11
25.93227074051313
 21
2.325355639199976
 31
0.0
  0
LINE
  5
635
330
1F
100
AcDbEntity
  8
TitleBlock&Notes
  6
Continuous
 62
     3
100
AcDbLine
 10
25.41747074051309
 20
2.332212181199988
 30
0.0
 11
25.93227074051313
 21
2.341198054799981
 31
0.0
  0
LINE
  5
636
330
1F
100
AcDbEntity
  8
TitleBlock&Notes
  6
Continuous
 62
     3
100
AcDbLine
 10
25.93227074051313
 20
3.072274009199997
 30
0.0
 11
25.41747074051309
 21
3.072274009199997
 31
0.0
  0
LINE
  5
637
330
1F
100
AcDbEntity
  8
TitleBlock&Notes
  6
Continuous
 62
     3
100
AcDbLine
 10
25.93227074051313
 20
3.012874009199986
 30
0.0
 11
25.41747074051309
 21
3.012874009199986
 31
0.0
  0
LINE
  5
638
330
1F
100
AcDbEntity
  8
TitleBlock&Notes
  6
Continuous
 62
     3
100
AcDbLine
 10
25.93227074051313
 20
2.623110217199986
 30
0.0
 11
25.41747074051309
 21
2.623110217199986
 31
0.0
  0
LINE
  5
639
330
1F
100
AcDbEntity
  8
TitleBlock&Notes
  6
Continuous
 62
     3
100
AcDbLine
 10
25.93227074051313
 20
2.77901573399998
 30
0.0
 11
25.41747074051309
 21
2.77901573399998
 31
0.0
  0
LINE
  5
63A
330
1F
100
AcDbEntity
  8
TitleBlock&Notes
  6
Continuous
 62
     3
100
AcDbLine
 10
25.93227074051313
 20
2.701062975599977
 30
0.0
 11
25.41747074051309
 21
2.701062975599977
 31
0.0
  0
LINE
  5
63B
330
1F
100
AcDbEntity
  8
TitleBlock&Notes
  6
Continuous
 62
     3
100
AcDbLine
 10
25.93227074051313
 20
2.428228360799984
 30
0.0
 11
25.41747074051309
 21
2.428228360799984
 31
0.0
  0
LINE
  5
63C
330
1F
100
AcDbEntity
  8
TitleBlock&Notes
  6
Continuous
 62
     3
100
AcDbLine
 10
25.93227074051313
 20
2.350275602399982
 30
0.0
 11
25.41747074051309
 21
2.350275602399982
 31
0.0
  0
LINE
  5
63D
330
1F
100
AcDbEntity
  8
TitleBlock&Notes
  6
Continuous
 62
     3
100
AcDbLine
 10
25.93227074051313
 20
2.038464568799984
 30
0.0
 11
25.41747074051309
 21
2.038464568799984
 31
0.0
  0
LINE
  5
63E
330
1F
100
AcDbEntity
  8
TitleBlock&Notes
  6
Continuous
 62
     3
100
AcDbLine
 10
25.93177890851313
 20
1.960511810399992
 30
0.0
 11
25.41796253291313
 21
1.960511810399992
 31
0.0
  0
ARC
  5
63F
330
1F
100
AcDbEntity
  8
TitleBlock&Notes
  6
Continuous
 62
     3
100
AcDbCircle
 10
25.77387074051312
 20
1.972984265999981
 30
0.0
 40
0.5148000000000001
100
AcDbArc
 50
270.0000000000008
 51
0.0000000000008015
  0
ARC
  5
640
330
1F
100
AcDbEntity
  8
TitleBlock&Notes
  6
Continuous
 62
     3
100
AcDbCircle
 10
25.77387074051312
 20
1.972984265999981
 30
0.0
 40
0.5346000000000001
100
AcDbArc
 50
270.0000000000008
 51
0.0000000000008015
  0
ARC
  5
641
330
1F
100
AcDbEntity
  8
TitleBlock&Notes
  6
Continuous
 62
     3
100
AcDbCircle
 10
25.77387074051312
 20
1.972984265999981
 30
0.0
 40
0.4950000000000001
100
AcDbArc
 50
270.0000000000008
 51
0.0000000000008015
  0
LINE
  5
642
330
1F
100
AcDbEntity
  8
TitleBlock&Notes
  6
Continuous
 62
     3
100
AcDbLine
 10
25.39767074051312
 20
1.97298422639999
 30
0.0
 11
25.39767074051312
 21
3.240184265999982
 31
0.0
  0
LINE
  5
643
330
1F
100
AcDbEntity
  8
TitleBlock&Notes
  6
Continuous
 62
     3
100
AcDbLine
 10
25.06107074051314
 20
1.972984265999983
 30
0.0
 11
25.06107074051314
 21
3.240184265999982
 31
0.0
  0
LINE
  5
644
330
1F
100
AcDbEntity
  8
TitleBlock&Notes
  6
Continuous
 62
     3
100
AcDbLine
 10
25.41747074051309
 20
1.97298422639999
 30
0.0
 11
25.41747074051309
 21
3.259984265999989
 31
0.0
  0
LINE
  5
645
330
1F
100
AcDbEntity
  8
TitleBlock&Notes
  6
Continuous
 62
     3
100
AcDbLine
 10
25.04127074051309
 20
3.259984265999989
 30
0.0
 11
25.04127074051309
 21
1.972984265999983
 31
0.0
  0
LINE
  5
646
330
1F
100
AcDbEntity
  8
TitleBlock&Notes
  6
Continuous
 62
     3
100
AcDbLine
 10
25.37787074051314
 20
3.220384265999985
 30
0.0
 11
25.37787074051314
 21
1.97298422639999
 31
0.0
  0
LINE
  5
647
330
1F
100
AcDbEntity
  8
TitleBlock&Notes
  6
Continuous
 62
     3
100
AcDbLine
 10
25.08087074051313
 20
3.220384265999985
 30
0.0
 11
25.08087074051313
 21
1.972984265999983
 31
0.0
  0
LINE
  5
648
330
1F
100
AcDbEntity
  8
TitleBlock&Notes
  6
Continuous
 62
     3
100
AcDbLine
 10
24.04137074051311
 20
1.953999827999989
 30
0.0
 11
23.75427074051309
 21
3.220384265999985
 31
0.0
  0
LINE
  5
649
330
1F
100
AcDbEntity
  8
TitleBlock&Notes
  6
Continuous
 62
     3
100
AcDbLine
 10
24.04137074051311
 20
1.953999827999989
 30
0.0
 11
24.32847074051314
 21
3.220384265999985
 31
0.0
  0
LINE
  5
64A
330
1F
100
AcDbEntity
  8
TitleBlock&Notes
  6
Continuous
 62
     3
100
AcDbLine
 10
24.80367074051314
 20
3.240184265999982
 30
0.0
 11
24.80367074051314
 21
1.458184265999978
 31
0.0
  0
LINE
  5
64B
330
1F
100
AcDbEntity
  8
TitleBlock&Notes
  6
Continuous
 62
     3
100
AcDbLine
 10
24.82347074051313
 20
1.438384265999982
 30
0.0
 11
24.82347074051313
 21
3.259984265999989
 31
0.0
  0
LINE
  5
64C
330
1F
100
AcDbEntity
  8
TitleBlock&Notes
  6
Continuous
 62
     3
100
AcDbLine
 10
24.78387074051312
 20
1.477984265999975
 30
0.0
 11
24.78387074051312
 21
3.220384265999985
 31
0.0
  0
LINE
  5
64D
330
1F
100
AcDbEntity
  8
TitleBlock&Notes
  6
Continuous
 62
     3
100
AcDbLine
 10
24.46707074051311
 20
2.212509895199982
 30
0.0
 11
24.46707074051311
 21
1.458184265999978
 31
0.0
  0
LINE
  5
64E
330
1F
100
AcDbEntity
  8
TitleBlock&Notes
  6
Continuous
 62
     3
100
AcDbLine
 10
24.46707074051311
 20
2.212509895199982
 30
0.0
 11
24.20393388851314
 21
1.458184265999978
 31
0.0
  0
LINE
  5
64F
330
1F
100
AcDbEntity
  8
TitleBlock&Notes
  6
Continuous
 62
     3
100
AcDbLine
 10
24.44727074051314
 20
2.09563552439998
 30
0.0
 11
24.44727074051314
 21
1.438384265999982
 31
0.0
  0
LINE
  5
650
330
1F
100
AcDbEntity
  8
TitleBlock&Notes
  6
Continuous
 62
     3
100
AcDbLine
 10
24.21799703651314
 20
1.438384265999982
 30
0.0
 11
24.44727074051314
 21
2.09563552439998
 31
0.0
  0
LINE
  5
651
330
1F
100
AcDbEntity
  8
TitleBlock&Notes
  6
Continuous
 62
     3
100
AcDbLine
 10
24.48687074051311
 20
1.477984265999975
 30
0.0
 11
24.48687074051311
 21
2.329384265999994
 31
0.0
  0
LINE
  5
652
330
1F
100
AcDbEntity
  8
TitleBlock&Notes
  6
Continuous
 62
     3
100
AcDbLine
 10
24.18987074051314
 20
1.477984265999975
 30
0.0
 11
24.48687074051311
 21
2.329384265999994
 31
0.0
  0
LINE
  5
653
330
1F
100
AcDbEntity
  8
TitleBlock&Notes
  6
Continuous
 62
     3
100
AcDbLine
 10
24.3126571141131
 20
3.240184265999982
 30
0.0
 11
24.80367074051314
 21
3.240184265999982
 31
0.0
  0
LINE
  5
654
330
1F
100
AcDbEntity
  8
TitleBlock&Notes
  6
Continuous
 62
     3
100
AcDbLine
 10
24.82347074051313
 20
3.259984265999989
 30
0.0
 11
24.29684348771312
 21
3.259984265999989
 31
0.0
  0
LINE
  5
655
330
1F
100
AcDbEntity
  8
TitleBlock&Notes
  6
Continuous
 62
     3
100
AcDbLine
 10
24.78387074051312
 20
3.220384265999985
 30
0.0
 11
24.32847074051314
 21
3.220384265999985
 31
0.0
  0
LINE
  5
656
330
1F
100
AcDbEntity
  8
TitleBlock&Notes
  6
Continuous
 62
     3
100
AcDbLine
 10
24.04137074051311
 20
2.043552970799993
 30
0.0
 11
23.77008436691312
 21
3.240184265999982
 31
0.0
  0
LINE
  5
657
330
1F
100
AcDbEntity
  8
TitleBlock&Notes
  6
Continuous
 62
     3
100
AcDbLine
 10
24.04137074051311
 20
2.133106113599986
 30
0.0
 11
23.78589799331309
 21
3.259984265999989
 31
0.0
  0
LINE
  5
658
330
1F
100
AcDbEntity
  8
TitleBlock&Notes
  6
Continuous
 62
     3
100
AcDbLine
 10
24.3126571141131
 20
3.240184265999982
 30
0.0
 11
24.04137074051311
 21
2.043552970799993
 31
0.0
  0
LINE
  5
659
330
1F
100
AcDbEntity
  8
TitleBlock&Notes
  6
Continuous
 62
     3
100
AcDbLine
 10
24.29684348771312
 20
3.259984265999989
 30
0.0
 11
24.04137074051311
 21
2.133106113599986
 31
0.0
  0
LINE
  5
65A
330
1F
100
AcDbEntity
  8
TitleBlock&Notes
  6
Continuous
 62
     3
100
AcDbLine
 10
23.90363247611309
 20
2.740662975599992
 30
0.0
 11
24.17910896531309
 21
2.740662975599992
 31
0.0
  0
LINE
  5
65B
330
1F
100
AcDbEntity
  8
TitleBlock&Notes
  6
Continuous
 62
     3
100
AcDbLine
 10
23.89942640171309
 20
2.759215733999994
 30
0.0
 11
24.18331503971309
 21
2.759215733999994
 31
0.0
  0
LINE
  5
65C
330
1F
100
AcDbEntity
  8
TitleBlock&Notes
  6
Continuous
 62
     3
100
AcDbLine
 10
24.24979916291313
 20
3.052474009199979
 30
0.0
 11
23.83294227851311
 21
3.052474009199979
 31
0.0
  0
LINE
  5
65D
330
1F
100
AcDbEntity
  8
TitleBlock&Notes
  6
Continuous
 62
     3
100
AcDbLine
 10
24.2453103445131
 20
3.032674009199993
 30
0.0
 11
23.83743113651313
 21
3.032674009199993
 31
0.0
  0
LINE
  5
65E
330
1F
100
AcDbEntity
  8
TitleBlock&Notes
  6
Continuous
 62
     3
100
AcDbLine
 10
23.82845346011312
 20
3.072274009199997
 30
0.0
 11
24.25428798131312
 21
3.072274009199997
 31
0.0
  0
LINE
  5
65F
330
1F
100
AcDbEntity
  8
TitleBlock&Notes
  6
Continuous
 62
     3
100
AcDbLine
 10
23.84191995491312
 20
3.012874009199997
 30
0.0
 11
24.24082148651312
 21
3.012874009199997
 31
0.0
  0
LINE
  5
660
330
1F
100
AcDbEntity
  8
TitleBlock&Notes
  6
Continuous
 62
     3
100
AcDbLine
 10
23.8949375833131
 20
2.77901573399998
 30
0.0
 11
24.18780385811308
 21
2.77901573399998
 31
0.0
  0
LINE
  5
661
330
1F
100
AcDbEntity
  8
TitleBlock&Notes
  6
Continuous
 62
     3
100
AcDbLine
 10
24.17462014691309
 20
2.720862975599995
 30
0.0
 11
23.90812129451308
 21
2.720862975599995
 31
0.0
  0
LINE
  5
662
330
1F
100
AcDbEntity
  8
TitleBlock&Notes
  6
Continuous
 62
     3
100
AcDbLine
 10
23.91261011291314
 20
2.701062975599977
 30
0.0
 11
24.17013132851311
 21
2.701062975599977
 31
0.0
  0
LINE
  5
663
330
1F
100
AcDbEntity
  8
TitleBlock&Notes
  6
Continuous
 62
     3
100
AcDbLine
 10
24.4071858385131
 20
1.980725432399989
 30
0.0
 11
24.44727074051314
 21
1.981425124799976
 31
0.0
  0
LINE
  5
664
330
1F
100
AcDbEntity
  8
TitleBlock&Notes
  6
Continuous
 62
     3
100
AcDbLine
 10
24.41274611411313
 20
1.996664907599978
 30
0.0
 11
24.44727074051314
 21
1.997267540399981
 31
0.0
  0
LINE
  5
665
330
1F
100
AcDbEntity
  8
TitleBlock&Notes
  6
Continuous
 62
     3
100
AcDbLine
 10
24.41830638971312
 20
2.012604382799988
 30
0.0
 11
24.44727074051314
 21
2.013109955999997
 31
0.0
  0
LINE
  5
666
330
1F
100
AcDbEntity
  8
TitleBlock&Notes
  6
Continuous
 62
     3
100
AcDbLine
 10
24.42386666531309
 20
2.028543857999977
 30
0.0
 11
24.44727074051314
 21
2.028952371599991
 31
0.0
  0
LINE
  5
667
330
1F
100
AcDbEntity
  8
TitleBlock&Notes
  6
Continuous
 62
     3
100
AcDbLine
 10
24.42942694091314
 20
2.044483333199988
 30
0.0
 11
24.44727074051314
 21
2.044794787199986
 31
0.0
  0
LINE
  5
668
330
1F
100
AcDbEntity
  8
TitleBlock&Notes
  6
Continuous
 62
     3
100
AcDbLine
 10
24.43498721651311
 20
2.060422768799984
 30
0.0
 11
24.44727074051314
 21
2.060637202799991
 31
0.0
  0
LINE
  5
669
330
1F
100
AcDbEntity
  8
TitleBlock&Notes
  6
Continuous
 62
     3
100
AcDbLine
 10
24.4405474921131
 20
2.076362243999994
 30
0.0
 11
24.44727074051314
 21
2.076479618399986
 31
0.0
  0
LINE
  5
66A
330
1F
100
AcDbEntity
  8
TitleBlock&Notes
  6
Continuous
 62
     3
100
AcDbLine
 10
24.44610776771313
 20
2.092301719199983
 30
0.0
 11
24.44727074051314
 21
2.092322033999991
 31
0.0
  0
LINE
  5
66B
330
1F
100
AcDbEntity
  8
TitleBlock&Notes
  6
Continuous
 62
     3
100
AcDbLine
 10
23.96884318211316
 20
2.453021643599985
 30
0.0
 11
24.11447455811315
 21
2.455563646799983
 31
0.0
  0
LINE
  5
66C
330
1F
100
AcDbEntity
  8
TitleBlock&Notes
  6
Continuous
 62
     3
100
AcDbLine
 10
23.96526571811309
 20
2.468801609999992
 30
0.0
 11
24.11808041531309
 21
2.471468986799983
 31
0.0
  0
LINE
  5
66D
330
1F
100
AcDbEntity
  8
TitleBlock&Notes
  6
Continuous
 62
     3
100
AcDbLine
 10
23.96168829371307
 20
2.484581576399978
 30
0.0
 11
24.12168631211312
 21
2.487374366399976
 31
0.0
  0
LINE
  5
66E
330
1F
100
AcDbEntity
  8
TitleBlock&Notes
  6
Continuous
 62
     3
100
AcDbLine
 10
23.95811082971309
 20
2.500361542799986
 30
0.0
 11
24.12529216931309
 21
2.503279706399986
 31
0.0
  0
LINE
  5
66F
330
1F
100
AcDbEntity
  8
TitleBlock&Notes
  6
Continuous
 62
     3
100
AcDbLine
 10
23.95453336571308
 20
2.516141509199993
 30
0.0
 11
24.12889806611312
 21
2.519185046399986
 31
0.0
  0
LINE
  5
670
330
1F
100
AcDbEntity
  8
TitleBlock&Notes
  6
Continuous
 62
     3
100
AcDbLine
 10
23.95095594131313
 20
2.531921475599979
 30
0.0
 11
24.13250396291311
 21
2.535090425999978
 31
0.0
  0
LINE
  5
671
330
1F
100
AcDbEntity
  8
TitleBlock&Notes
  6
Continuous
 62
     3
100
AcDbLine
 10
23.94737847731313
 20
2.547701441999986
 30
0.0
 11
24.13610982011312
 21
2.550995765999989
 31
0.0
  0
LINE
  5
672
330
1F
100
AcDbEntity
  8
TitleBlock&Notes
  6
Continuous
 62
     3
100
AcDbLine
 10
23.94380101331314
 20
2.563481408399994
 30
0.0
 11
24.13971571691311
 21
2.566901105999988
 31
0.0
  0
LINE
  5
673
330
1F
100
AcDbEntity
  8
TitleBlock&Notes
  6
Continuous
 62
     3
100
AcDbLine
 10
23.94022358891312
 20
2.57926137479999
 30
0.0
 11
24.14332157411311
 21
2.582806485599981
 31
0.0
  0
LINE
  5
674
330
1F
100
AcDbEntity
  8
TitleBlock&Notes
  6
Continuous
 62
     3
100
AcDbLine
 10
23.93664612491312
 20
2.595041341199987
 30
0.0
 11
24.14692747091315
 21
2.598711825599981
 31
0.0
  0
LINE
  5
675
330
1F
100
AcDbEntity
  8
TitleBlock&Notes
  6
Continuous
 62
     3
100
AcDbLine
 10
23.93306866091314
 20
2.610821307599984
 30
0.0
 11
24.15053332811311
 21
2.614617165599991
 31
0.0
  0
LINE
  5
676
330
1F
100
AcDbEntity
  8
TitleBlock&Notes
  6
Continuous
 62
     3
100
AcDbLine
 10
23.9302826821131
 20
2.623110217199986
 30
0.0
 11
24.1524587593131
 21
2.623110217199986
 31
0.0
  0
LINE
  5
677
330
1F
100
AcDbEntity
  8
TitleBlock&Notes
  6
Continuous
 62
     3
100
AcDbLine
 10
23.97242064611314
 20
2.437241677199978
 30
0.0
 11
24.11086866131309
 21
2.439658306799994
 31
0.0
  0
LINE
  5
678
330
1F
100
AcDbEntity
  8
TitleBlock&Notes
  6
Continuous
 62
     3
100
AcDbLine
 10
24.04118565011311
 20
2.133922507199983
 30
0.0
 11
24.04155725651311
 21
2.133928961999984
 31
0.0
  0
LINE
  5
679
330
1F
100
AcDbEntity
  8
TitleBlock&Notes
  6
Continuous
 62
     3
100
AcDbLine
 10
24.0376081861131
 20
2.14970247359999
 30
0.0
 11
24.0451631533131
 21
2.149834341599987
 31
0.0
  0
LINE
  5
67A
330
1F
100
AcDbEntity
  8
TitleBlock&Notes
  6
Continuous
 62
     3
100
AcDbLine
 10
24.03403072211312
 20
2.165482439999976
 30
0.0
 11
24.04876901051311
 21
2.165739681599998
 31
0.0
  0
LINE
  5
67B
330
1F
100
AcDbEntity
  8
TitleBlock&Notes
  6
Continuous
 62
     3
100
AcDbLine
 10
24.0304532977131
 20
2.181262406399984
 30
0.0
 11
24.0523749073131
 21
2.18164506119999
 31
0.0
  0
LINE
  5
67C
330
1F
100
AcDbEntity
  8
TitleBlock&Notes
  6
Continuous
 62
     3
100
AcDbLine
 10
24.0268758337131
 20
2.197042372799991
 30
0.0
 11
24.05598080411313
 21
2.19755040119999
 31
0.0
  0
LINE
  5
67D
330
1F
100
AcDbEntity
  8
TitleBlock&Notes
  6
Continuous
 62
     3
100
AcDbLine
 10
24.02329836971311
 20
2.212822339199998
 30
0.0
 11
24.05958666131314
 21
2.213455741199979
 31
0.0
  0
LINE
  5
67E
330
1F
100
AcDbEntity
  8
TitleBlock&Notes
  6
Continuous
 62
     3
100
AcDbLine
 10
24.01972094531309
 20
2.228602305599984
 30
0.0
 11
24.06319255811313
 21
2.229361120799982
 31
0.0
  0
LINE
  5
67F
330
1F
100
AcDbEntity
  8
TitleBlock&Notes
  6
Continuous
 62
     3
100
AcDbLine
 10
24.01614348131309
 20
2.244382271999992
 30
0.0
 11
24.06679841531307
 21
2.245266460799992
 31
0.0
  0
LINE
  5
680
330
1F
100
AcDbEntity
  8
TitleBlock&Notes
  6
Continuous
 62
     3
100
AcDbLine
 10
24.01256601731309
 20
2.260162238399978
 30
0.0
 11
24.07040431211312
 21
2.261171800799981
 31
0.0
  0
LINE
  5
681
330
1F
100
AcDbEntity
  8
TitleBlock&Notes
  6
Continuous
 62
     3
100
AcDbLine
 10
24.00898859291313
 20
2.275942204799985
 30
0.0
 11
24.07401016931313
 21
2.277077180399984
 31
0.0
  0
LINE
  5
682
330
1F
100
AcDbEntity
  8
TitleBlock&Notes
  6
Continuous
 62
     3
100
AcDbLine
 10
24.00541112891315
 20
2.291722171199982
 30
0.0
 11
24.07761606611312
 21
2.292982520399995
 31
0.0
  0
LINE
  5
683
330
1F
100
AcDbEntity
  8
TitleBlock&Notes
  6
Continuous
 62
     3
100
AcDbLine
 10
24.00183366491315
 20
2.307502137599989
 30
0.0
 11
24.08122192331313
 21
2.308887860399984
 31
0.0
  0
LINE
  5
684
330
1F
100
AcDbEntity
  8
TitleBlock&Notes
  6
Continuous
 62
     3
100
AcDbLine
 10
23.99825624051313
 20
2.323282103999986
 30
0.0
 11
24.0848278201131
 21
2.324793239999987
 31
0.0
  0
LINE
  5
685
330
1F
100
AcDbEntity
  8
TitleBlock&Notes
  6
Continuous
 62
     3
100
AcDbLine
 10
23.99467877651312
 20
2.339062070399982
 30
0.0
 11
24.0884336773131
 21
2.340698579999976
 31
0.0
  0
LINE
  5
686
330
1F
100
AcDbEntity
  8
TitleBlock&Notes
  6
Continuous
 62
     3
100
AcDbLine
 10
23.99213657531311
 20
2.350275602399982
 30
0.0
 11
24.09060486611314
 21
2.350275602399982
 31
0.0
  0
LINE
  5
687
330
1F
100
AcDbEntity
  8
TitleBlock&Notes
  6
Continuous
 62
     3
100
AcDbLine
 10
23.97446404571309
 20
2.428228360799984
 30
0.0
 11
24.10827739571312
 21
2.428228360799984
 31
0.0
  0
LINE
  5
688
330
1F
100
AcDbEntity
  8
TitleBlock&Notes
  6
Continuous
 62
     3
100
AcDbLine
 10
25.06107074051314
 20
3.240184265999982
 30
0.0
 11
25.39767074051312
 21
3.240184265999982
 31
0.0
  0
LINE
  5
689
330
1F
100
AcDbEntity
  8
TitleBlock&Notes
  6
Continuous
 62
     3
100
AcDbLine
 10
25.04127074051309
 20
3.259984265999989
 30
0.0
 11
25.41747074051309
 21
3.259984265999989
 31
0.0
  0
LINE
  5
68A
330
1F
100
AcDbEntity
  8
TitleBlock&Notes
  6
Continuous
 62
     3
100
AcDbLine
 10
25.08087074051313
 20
3.220384265999985
 30
0.0
 11
25.37787074051314
 21
3.220384265999985
 31
0.0
  0
LINE
  5
68B
330
1F
100
AcDbEntity
  8
TitleBlock&Notes
  6
Continuous
 62
     3
100
AcDbLine
 10
25.04127074051309
 20
2.740662975599992
 30
0.0
 11
24.82347074051313
 21
2.740662975599992
 31
0.0
  0
LINE
  5
68C
330
1F
100
AcDbEntity
  8
TitleBlock&Notes
  6
Continuous
 62
     3
100
AcDbLine
 10
25.04127074051309
 20
2.759215733999994
 30
0.0
 11
24.82347074051313
 21
2.759215733999994
 31
0.0
  0
LINE
  5
68D
330
1F
100
AcDbEntity
  8
TitleBlock&Notes
  6
Continuous
 62
     3
100
AcDbLine
 10
25.04127074051309
 20
3.052474009199979
 30
0.0
 11
24.82347074051313
 21
3.052474009199979
 31
0.0
  0
LINE
  5
68E
330
1F
100
AcDbEntity
  8
TitleBlock&Notes
  6
Continuous
 62
     3
100
AcDbLine
 10
25.04127074051309
 20
3.032674009199983
 30
0.0
 11
24.82347074051313
 21
3.032674009199983
 31
0.0
  0
LINE
  5
68F
330
1F
100
AcDbEntity
  8
TitleBlock&Notes
  6
Continuous
 62
     3
100
AcDbLine
 10
25.04127074051309
 20
3.072274009199997
 30
0.0
 11
24.82347074051313
 21
3.072274009199997
 31
0.0
  0
LINE
  5
690
330
1F
100
AcDbEntity
  8
TitleBlock&Notes
  6
Continuous
 62
     3
100
AcDbLine
 10
25.04127074051309
 20
3.012874009199986
 30
0.0
 11
24.82347074051313
 21
3.012874009199986
 31
0.0
  0
LINE
  5
691
330
1F
100
AcDbEntity
  8
TitleBlock&Notes
  6
Continuous
 62
     3
100
AcDbLine
 10
25.04127074051309
 20
2.77901573399998
 30
0.0
 11
24.82347074051313
 21
2.77901573399998
 31
0.0
  0
LINE
  5
692
330
1F
100
AcDbEntity
  8
TitleBlock&Notes
  6
Continuous
 62
     3
100
AcDbLine
 10
25.04127074051309
 20
2.720862975599995
 30
0.0
 11
24.82347074051313
 21
2.720862975599995
 31
0.0
  0
LINE
  5
693
330
1F
100
AcDbEntity
  8
TitleBlock&Notes
  6
Continuous
 62
     3
100
AcDbLine
 10
25.04127074051309
 20
2.701062975599977
 30
0.0
 11
24.82347074051313
 21
2.701062975599977
 31
0.0
  0
LINE
  5
694
330
1F
100
AcDbEntity
  8
TitleBlock&Notes
  6
Continuous
 62
     3
100
AcDbLine
 10
25.41747074051309
 20
2.62088925119999
 30
0.0
 11
25.54471148051312
 21
2.623110217199986
 31
0.0
  0
LINE
  5
695
330
1F
100
AcDbEntity
  8
TitleBlock&Notes
  6
Continuous
 62
     3
100
AcDbLine
 10
25.41747074051309
 20
2.348054596799972
 30
0.0
 11
25.54471148051312
 21
2.350275602399982
 31
0.0
  0
LINE
  5
696
330
1F
100
AcDbEntity
  8
TitleBlock&Notes
  6
Continuous
 62
     3
100
AcDbLine
 10
24.92568321131308
 20
2.038464568799984
 30
0.0
 11
25.04127074051309
 21
2.040482149199991
 31
0.0
  0
LINE
  5
697
330
1F
100
AcDbEntity
  8
TitleBlock&Notes
  6
Continuous
 62
     3
100
AcDbLine
 10
24.82347074051313
 20
2.052522845999984
 30
0.0
 11
25.04127074051309
 21
2.056324564799986
 31
0.0
  0
LINE
  5
698
330
1F
100
AcDbEntity
  8
TitleBlock&Notes
  6
Continuous
 62
     3
100
AcDbLine
 10
25.04127074051309
 20
2.038464568799984
 30
0.0
 11
24.82347074051313
 21
2.038464568799984
 31
0.0
  0
LINE
  5
699
330
1F
100
AcDbEntity
  8
TitleBlock&Notes
  6
Continuous
 62
     3
100
AcDbLine
 10
24.82347074051313
 20
2.436254409599975
 30
0.0
 11
25.04127074051309
 21
2.440056088799984
 31
0.0
  0
LINE
  5
69A
330
1F
100
AcDbEntity
  8
TitleBlock&Notes
  6
Continuous
 62
     3
100
AcDbLine
 10
24.82347074051313
 20
2.452096785599987
 30
0.0
 11
25.04127074051309
 21
2.455898504399989
 31
0.0
  0
LINE
  5
69B
330
1F
100
AcDbEntity
  8
TitleBlock&Notes
  6
Continuous
 62
     3
100
AcDbLine
 10
24.82347074051313
 20
2.467939201199992
 30
0.0
 11
25.04127074051309
 21
2.471740919999984
 31
0.0
  0
LINE
  5
69C
330
1F
100
AcDbEntity
  8
TitleBlock&Notes
  6
Continuous
 62
     3
100
AcDbLine
 10
24.82347074051313
 20
2.483781616799987
 30
0.0
 11
25.04127074051309
 21
2.487583335599989
 31
0.0
  0
LINE
  5
69D
330
1F
100
AcDbEntity
  8
TitleBlock&Notes
  6
Continuous
 62
     3
100
AcDbLine
 10
24.82347074051313
 20
2.499624032399982
 30
0.0
 11
25.04127074051309
 21
2.503425751199984
 31
0.0
  0
LINE
  5
69E
330
1F
100
AcDbEntity
  8
TitleBlock&Notes
  6
Continuous
 62
     3
100
AcDbLine
 10
24.82347074051313
 20
2.515466447999987
 30
0.0
 11
25.04127074051309
 21
2.519268166799978
 31
0.0
  0
LINE
  5
69F
330
1F
100
AcDbEntity
  8
TitleBlock&Notes
  6
Continuous
 62
     3
100
AcDbLine
 10
24.82347074051313
 20
2.531308863599981
 30
0.0
 11
25.04127074051309
 21
2.535110582399994
 31
0.0
  0
LINE
  5
6A0
330
1F
100
AcDbEntity
  8
TitleBlock&Notes
  6
Continuous
 62
     3
100
AcDbLine
 10
24.82347074051313
 20
2.547151279199987
 30
0.0
 11
25.04127074051309
 21
2.550952997999978
 31
0.0
  0
LINE
  5
6A1
330
1F
100
AcDbEntity
  8
TitleBlock&Notes
  6
Continuous
 62
     3
100
AcDbLine
 10
24.82347074051313
 20
2.562993694799981
 30
0.0
 11
25.04127074051309
 21
2.566795413599994
 31
0.0
  0
LINE
  5
6A2
330
1F
100
AcDbEntity
  8
TitleBlock&Notes
  6
Continuous
 62
     3
100
AcDbLine
 10
24.82347074051313
 20
2.578836110399976
 30
0.0
 11
25.04127074051309
 21
2.582637829199988
 31
0.0
  0
LINE
  5
6A3
330
1F
100
AcDbEntity
  8
TitleBlock&Notes
  6
Continuous
 62
     3
100
AcDbLine
 10
24.82347074051313
 20
2.594678525999992
 30
0.0
 11
25.04127074051309
 21
2.598480244799983
 31
0.0
  0
LINE
  5
6A4
330
1F
100
AcDbEntity
  8
TitleBlock&Notes
  6
Continuous
 62
     3
100
AcDbLine
 10
24.82347074051313
 20
2.610520941599997
 30
0.0
 11
25.04127074051309
 21
2.614322660399988
 31
0.0
  0
LINE
  5
6A5
330
1F
100
AcDbEntity
  8
TitleBlock&Notes
  6
Continuous
 62
     3
100
AcDbLine
 10
24.82347074051313
 20
2.068365261599989
 30
0.0
 11
25.04127074051309
 21
2.07216698039998
 31
0.0
  0
LINE
  5
6A6
330
1F
100
AcDbEntity
  8
TitleBlock&Notes
  6
Continuous
 62
     3
100
AcDbLine
 10
24.82347074051313
 20
2.084207677199984
 30
0.0
 11
25.04127074051309
 21
2.088009395999986
 31
0.0
  0
LINE
  5
6A7
330
1F
100
AcDbEntity
  8
TitleBlock&Notes
  6
Continuous
 62
     3
100
AcDbLine
 10
24.82347074051313
 20
2.100050092799989
 30
0.0
 11
25.04127074051309
 21
2.10385181159998
 31
0.0
  0
LINE
  5
6A8
330
1F
100
AcDbEntity
  8
TitleBlock&Notes
  6
Continuous
 62
     3
100
AcDbLine
 10
24.82347074051313
 20
2.115892508399983
 30
0.0
 11
25.04127074051309
 21
2.119694227199996
 31
0.0
  0
LINE
  5
6A9
330
1F
100
AcDbEntity
  8
TitleBlock&Notes
  6
Continuous
 62
     3
100
AcDbLine
 10
24.82347074051313
 20
2.131734923999978
 30
0.0
 11
25.04127074051309
 21
2.13553664279998
 31
0.0
  0
LINE
  5
6AA
330
1F
100
AcDbEntity
  8
TitleBlock&Notes
  6
Continuous
 62
     3
100
AcDbLine
 10
24.82347074051313
 20
2.147577339599983
 30
0.0
 11
25.04127074051309
 21
2.151379058399975
 31
0.0
  0
LINE
  5
6AB
330
1F
100
AcDbEntity
  8
TitleBlock&Notes
  6
Continuous
 62
     3
100
AcDbLine
 10
24.82347074051313
 20
2.163419755199999
 30
0.0
 11
25.04127074051309
 21
2.16722147399999
 31
0.0
  0
LINE
  5
6AC
330
1F
100
AcDbEntity
  8
TitleBlock&Notes
  6
Continuous
 62
     3
100
AcDbLine
 10
24.82347074051313
 20
2.179262170799994
 30
0.0
 11
25.04127074051309
 21
2.183063889599985
 31
0.0
  0
LINE
  5
6AD
330
1F
100
AcDbEntity
  8
TitleBlock&Notes
  6
Continuous
 62
     3
100
AcDbLine
 10
24.82347074051313
 20
2.195104586399988
 30
0.0
 11
25.04127074051309
 21
2.198906265599987
 31
0.0
  0
LINE
  5
6AE
330
1F
100
AcDbEntity
  8
TitleBlock&Notes
  6
Continuous
 62
     3
100
AcDbLine
 10
24.82347074051313
 20
2.210947001999972
 30
0.0
 11
25.04127074051309
 21
2.214748681199981
 31
0.0
  0
LINE
  5
6AF
330
1F
100
AcDbEntity
  8
TitleBlock&Notes
  6
Continuous
 62
     3
100
AcDbLine
 10
24.82347074051313
 20
2.226789377999985
 30
0.0
 11
25.04127074051309
 21
2.230591096799987
 31
0.0
  0
LINE
  5
6B0
330
1F
100
AcDbEntity
  8
TitleBlock&Notes
  6
Continuous
 62
     3
100
AcDbLine
 10
24.82347074051313
 20
2.24263179359999
 30
0.0
 11
25.04127074051309
 21
2.246433512399981
 31
0.0
  0
LINE
  5
6B1
330
1F
100
AcDbEntity
  8
TitleBlock&Notes
  6
Continuous
 62
     3
100
AcDbLine
 10
24.82347074051313
 20
2.258474209199984
 30
0.0
 11
25.04127074051309
 21
2.262275927999986
 31
0.0
  0
LINE
  5
6B2
330
1F
100
AcDbEntity
  8
TitleBlock&Notes
  6
Continuous
 62
     3
100
AcDbLine
 10
24.82347074051313
 20
2.274316624799979
 30
0.0
 11
25.04127074051309
 21
2.278118343599981
 31
0.0
  0
LINE
  5
6B3
330
1F
100
AcDbEntity
  8
TitleBlock&Notes
  6
Continuous
 62
     3
100
AcDbLine
 10
24.82347074051313
 20
2.290159040399984
 30
0.0
 11
25.04127074051309
 21
2.293960759199975
 31
0.0
  0
LINE
  5
6B4
330
1F
100
AcDbEntity
  8
TitleBlock&Notes
  6
Continuous
 62
     3
100
AcDbLine
 10
24.82347074051313
 20
2.306001456
 30
0.0
 11
25.04127074051309
 21
2.309803174799991
 31
0.0
  0
LINE
  5
6B5
330
1F
100
AcDbEntity
  8
TitleBlock&Notes
  6
Continuous
 62
     3
100
AcDbLine
 10
24.82347074051313
 20
2.321843871599984
 30
0.0
 11
25.04127074051309
 21
2.325645590399986
 31
0.0
  0
LINE
  5
6B6
330
1F
100
AcDbEntity
  8
TitleBlock&Notes
  6
Continuous
 62
     3
100
AcDbLine
 10
24.82347074051313
 20
2.337686287199979
 30
0.0
 11
25.04127074051309
 21
2.341488005999991
 31
0.0
  0
LINE
  5
6B7
330
1F
100
AcDbEntity
  8
TitleBlock&Notes
  6
Continuous
 62
     3
100
AcDbLine
 10
25.04127074051309
 20
2.623110217199986
 30
0.0
 11
24.82347074051313
 21
2.623110217199986
 31
0.0
  0
LINE
  5
6B8
330
1F
100
AcDbEntity
  8
TitleBlock&Notes
  6
Continuous
 62
     3
100
AcDbLine
 10
25.04127074051309
 20
2.428228360799984
 30
0.0
 11
24.82347074051313
 21
2.428228360799984
 31
0.0
  0
LINE
  5
6B9
330
1F
100
AcDbEntity
  8
TitleBlock&Notes
  6
Continuous
 62
     3
100
AcDbLine
 10
25.04127074051309
 20
2.350275602399982
 30
0.0
 11
24.82347074051313
 21
2.350275602399982
 31
0.0
  0
LINE
  5
6BA
330
1F
100
AcDbEntity
  8
TitleBlock&Notes
  6
Continuous
 62
     3
100
AcDbLine
 10
24.46707074051311
 20
1.458184265999978
 30
0.0
 11
24.80367074051314
 21
1.458184265999978
 31
0.0
  0
LINE
  5
6BB
330
1F
100
AcDbEntity
  8
TitleBlock&Notes
  6
Continuous
 62
     3
100
AcDbLine
 10
24.44727074051314
 20
1.438384265999982
 30
0.0
 11
24.82347074051313
 21
1.438384265999982
 31
0.0
  0
LINE
  5
6BC
330
1F
100
AcDbEntity
  8
TitleBlock&Notes
  6
Continuous
 62
     3
100
AcDbLine
 10
24.78387074051312
 20
1.477984265999975
 30
0.0
 11
24.48687074051311
 21
1.477984265999975
 31
0.0
  0
LINE
  5
6BD
330
1F
100
AcDbEntity
  8
TitleBlock&Notes
  6
Continuous
 62
     3
100
AcDbLine
 10
24.3071007985131
 20
1.693815037199986
 30
0.0
 11
24.44727074051314
 21
1.696261683599992
 31
0.0
  0
LINE
  5
6BE
330
1F
100
AcDbEntity
  8
TitleBlock&Notes
  6
Continuous
 62
     3
100
AcDbLine
 10
24.31266107411313
 20
1.709754512399996
 30
0.0
 11
24.44727074051314
 21
1.712104099199986
 31
0.0
  0
LINE
  5
6BF
330
1F
100
AcDbEntity
  8
TitleBlock&Notes
  6
Continuous
 62
     3
100
AcDbLine
 10
24.31822134971312
 20
1.725693947999992
 30
0.0
 11
24.44727074051314
 21
1.727946514799992
 31
0.0
  0
LINE
  5
6C0
330
1F
100
AcDbEntity
  8
TitleBlock&Notes
  6
Continuous
 62
     3
100
AcDbLine
 10
24.32378162531311
 20
1.741633423199981
 30
0.0
 11
24.44727074051314
 21
1.743788930399986
 31
0.0
  0
LINE
  5
6C1
330
1F
100
AcDbEntity
  8
TitleBlock&Notes
  6
Continuous
 62
     3
100
AcDbLine
 10
24.32934190091311
 20
1.757572898399981
 30
0.0
 11
24.44727074051314
 21
1.759631345999981
 31
0.0
  0
LINE
  5
6C2
330
1F
100
AcDbEntity
  8
TitleBlock&Notes
  6
Continuous
 62
     3
100
AcDbLine
 10
24.33490217651314
 20
1.773512373599981
 30
0.0
 11
24.44727074051314
 21
1.775473761599986
 31
0.0
  0
LINE
  5
6C3
330
1F
100
AcDbEntity
  8
TitleBlock&Notes
  6
Continuous
 62
     3
100
AcDbLine
 10
24.34046245211312
 20
1.789451848799991
 30
0.0
 11
24.44727074051314
 21
1.791316177199991
 31
0.0
  0
LINE
  5
6C4
330
1F
100
AcDbEntity
  8
TitleBlock&Notes
  6
Continuous
 62
     3
100
AcDbLine
 10
24.34602272771309
 20
1.805391284399988
 30
0.0
 11
24.44727074051314
 21
1.807158592799986
 31
0.0
  0
LINE
  5
6C5
330
1F
100
AcDbEntity
  8
TitleBlock&Notes
  6
Continuous
 62
     3
100
AcDbLine
 10
24.35158304291311
 20
1.821330759599987
 30
0.0
 11
24.44727074051314
 21
1.82300100839998
 31
0.0
  0
LINE
  5
6C6
330
1F
100
AcDbEntity
  8
TitleBlock&Notes
  6
Continuous
 62
     3
100
AcDbLine
 10
24.3571433185131
 20
1.837270234799987
 30
0.0
 11
24.44727074051314
 21
1.838843423999975
 31
0.0
  0
LINE
  5
6C7
330
1F
100
AcDbEntity
  8
TitleBlock&Notes
  6
Continuous
 62
     3
100
AcDbLine
 10
24.36270359411309
 20
1.853209709999976
 30
0.0
 11
24.44727074051314
 21
1.85468583959998
 31
0.0
  0
LINE
  5
6C8
330
1F
100
AcDbEntity
  8
TitleBlock&Notes
  6
Continuous
 62
     3
100
AcDbLine
 10
24.36826386971312
 20
1.869149185199987
 30
0.0
 11
24.44727074051314
 21
1.870528255199996
 31
0.0
  0
LINE
  5
6C9
330
1F
100
AcDbEntity
  8
TitleBlock&Notes
  6
Continuous
 62
     3
100
AcDbLine
 10
24.37382414531311
 20
1.885088660399997
 30
0.0
 11
24.44727074051314
 21
1.88637067079999
 31
0.0
  0
LINE
  5
6CA
330
1F
100
AcDbEntity
  8
TitleBlock&Notes
  6
Continuous
 62
     3
100
AcDbLine
 10
24.37938442091308
 20
1.901028095999993
 30
0.0
 11
24.44727074051314
 21
1.902213086399985
 31
0.0
  0
LINE
  5
6CB
330
1F
100
AcDbEntity
  8
TitleBlock&Notes
  6
Continuous
 62
     3
100
AcDbLine
 10
24.38494469651313
 20
1.916967571199982
 30
0.0
 11
24.44727074051314
 21
1.918055462399987
 31
0.0
  0
LINE
  5
6CC
330
1F
100
AcDbEntity
  8
TitleBlock&Notes
  6
Continuous
 62
     3
100
AcDbLine
 10
24.3905049721131
 20
1.932907046399982
 30
0.0
 11
24.44727074051314
 21
1.933897877999992
 31
0.0
  0
LINE
  5
6CD
330
1F
100
AcDbEntity
  8
TitleBlock&Notes
  6
Continuous
 62
     3
100
AcDbLine
 10
24.39606524771309
 20
1.948846521599982
 30
0.0
 11
24.44727074051314
 21
1.949740293599987
 31
0.0
  0
LINE
  5
6CE
330
1F
100
AcDbEntity
  8
TitleBlock&Notes
  6
Continuous
 62
     3
100
AcDbLine
 10
24.40162552331313
 20
1.964785996799992
 30
0.0
 11
24.44727074051314
 21
1.965582709199981
 31
0.0
  0
LINE
  5
6CF
330
1F
100
AcDbEntity
  8
TitleBlock&Notes
  6
Continuous
 62
     3
100
AcDbLine
 10
24.29041993211313
 20
1.645996611599986
 30
0.0
 11
24.44727074051314
 21
1.64873447639999
 31
0.0
  0
LINE
  5
6D0
330
1F
100
AcDbEntity
  8
TitleBlock&Notes
  6
Continuous
 62
     3
100
AcDbLine
 10
24.29598024731314
 20
1.661936086799986
 30
0.0
 11
24.44727074051314
 21
1.664576891999985
 31
0.0
  0
LINE
  5
6D1
330
1F
100
AcDbEntity
  8
TitleBlock&Notes
  6
Continuous
 62
     3
100
AcDbLine
 10
23.8788075529131
 20
1.458184265999978
 30
0.0
 11
24.20393388851314
 21
1.458184265999978
 31
0.0
  0
LINE
  5
6D2
330
1F
100
AcDbEntity
  8
TitleBlock&Notes
  6
Continuous
 62
     3
100
AcDbLine
 10
23.86474440491311
 20
1.438384265999982
 30
0.0
 11
24.21799703651314
 21
1.438384265999982
 31
0.0
  0
LINE
  5
6D3
330
1F
100
AcDbEntity
  8
TitleBlock&Notes
  6
Continuous
 62
     3
100
AcDbLine
 10
23.89287074051313
 20
1.477984265999975
 30
0.0
 11
24.18987074051314
 21
1.477984265999975
 31
0.0
  0
LINE
  5
6D4
330
1F
100
AcDbEntity
  8
TitleBlock&Notes
  6
Continuous
 62
     3
100
AcDbLine
 10
24.21813630971309
 20
1.438783552799989
 30
0.0
 11
24.44727074051314
 21
1.44278311319999
 31
0.0
  0
LINE
  5
6D5
330
1F
100
AcDbEntity
  8
TitleBlock&Notes
  6
Continuous
 62
     3
100
AcDbLine
 10
24.22369658531312
 20
1.454722988399996
 30
0.0
 11
24.44727074051314
 21
1.458625489199981
 31
0.0
  0
LINE
  5
6D6
330
1F
100
AcDbEntity
  8
TitleBlock&Notes
  6
Continuous
 62
     3
100
AcDbLine
 10
24.22925686091311
 20
1.470662463599985
 30
0.0
 11
24.44727074051314
 21
1.474467904799986
 31
0.0
  0
LINE
  5
6D7
330
1F
100
AcDbEntity
  8
TitleBlock&Notes
  6
Continuous
 62
     3
100
AcDbLine
 10
24.2348171365131
 20
1.486601938799985
 30
0.0
 11
24.44727074051314
 21
1.490310320399981
 31
0.0
  0
LINE
  5
6D8
330
1F
100
AcDbEntity
  8
TitleBlock&Notes
  6
Continuous
 62
     3
100
AcDbLine
 10
24.24037745171311
 20
1.502541413999985
 30
0.0
 11
24.44727074051314
 21
1.506152735999986
 31
0.0
  0
LINE
  5
6D9
330
1F
100
AcDbEntity
  8
TitleBlock&Notes
  6
Continuous
 62
     3
100
AcDbLine
 10
24.2459377273131
 20
1.518480889199985
 30
0.0
 11
24.44727074051314
 21
1.52199515159998
 31
0.0
  0
LINE
  5
6DA
330
1F
100
AcDbEntity
  8
TitleBlock&Notes
  6
Continuous
 62
     3
100
AcDbLine
 10
24.25149800291313
 20
1.534420364399995
 30
0.0
 11
24.44727074051314
 21
1.537837567199975
 31
0.0
  0
LINE
  5
6DB
330
1F
100
AcDbEntity
  8
TitleBlock&Notes
  6
Continuous
 62
     3
100
AcDbLine
 10
24.25705827851313
 20
1.550359799999991
 30
0.0
 11
24.44727074051314
 21
1.553679982799991
 31
0.0
  0
LINE
  5
6DC
330
1F
100
AcDbEntity
  8
TitleBlock&Notes
  6
Continuous
 62
     3
100
AcDbLine
 10
24.2626185541131
 20
1.566299275199991
 30
0.0
 11
24.44727074051314
 21
1.569522398399985
 31
0.0
  0
LINE
  5
6DD
330
1F
100
AcDbEntity
  8
TitleBlock&Notes
  6
Continuous
 62
     3
100
AcDbLine
 10
24.26817882971315
 20
1.58223875039998
 30
0.0
 11
24.44727074051314
 21
1.585364813999991
 31
0.0
  0
LINE
  5
6DE
330
1F
100
AcDbEntity
  8
TitleBlock&Notes
  6
Continuous
 62
     3
100
AcDbLine
 10
24.27373910531311
 20
1.59817822559998
 30
0.0
 11
24.44727074051314
 21
1.601207229599985
 31
0.0
  0
LINE
  5
6DF
330
1F
100
AcDbEntity
  8
TitleBlock&Notes
  6
Continuous
 62
     3
100
AcDbLine
 10
24.27929938091311
 20
1.61411770079999
 30
0.0
 11
24.44727074051314
 21
1.61704964519998
 31
0.0
  0
LINE
  5
6E0
330
1F
100
AcDbEntity
  8
TitleBlock&Notes
  6
Continuous
 62
     3
100
AcDbLine
 10
24.28485965651314
 20
1.630057136399987
 30
0.0
 11
24.44727074051314
 21
1.632892060799985
 31
0.0
  0
LINE
  5
6E1
330
1F
100
AcDbEntity
  8
TitleBlock&Notes
  6
Continuous
 62
     3
100
AcDbLine
 10
24.30154052291311
 20
1.677875561999986
 30
0.0
 11
24.44727074051314
 21
1.680419307599979
 31
0.0
  0
ARC
  5
6E2
330
1F
100
AcDbEntity
  8
TitleBlock&Notes
  6
Continuous
 62
     3
100
AcDbCircle
 10
25.57587074051313
 20
1.972984265999981
 30
0.0
 40
0.1782
100
AcDbArc
 50
180.0000046800004
 51
269.9999931700005
  0
ARC
  5
6E3
330
1F
100
AcDbEntity
  8
TitleBlock&Notes
  6
Continuous
 62
     3
100
AcDbCircle
 10
25.57587074051313
 20
1.972984265999981
 30
0.0
 40
0.1584
100
AcDbArc
 50
180.0000052300005
 51
269.9999947700005
  0
ARC
  5
6E4
330
1F
100
AcDbEntity
  8
TitleBlock&Notes
  6
Continuous
 62
     3
100
AcDbCircle
 10
25.57587074051313
 20
1.972984265999981
 30
0.0
 40
0.198
100
AcDbArc
 50
180.0000046800004
 51
269.9999931700005
  0
LINE
  5
6E5
330
1F
100
AcDbEntity
  8
TitleBlock&Notes
  6
Continuous
 62
     3
100
AcDbLine
 10
24.82347074051313
 20
1.686985898399981
 30
0.0
 11
25.12078916411312
 21
1.692175597199994
 31
0.0
  0
LINE
  5
6E6
330
1F
100
AcDbEntity
  8
TitleBlock&Notes
  6
Continuous
 62
     3
100
AcDbLine
 10
24.82347074051313
 20
1.702828313999997
 30
0.0
 11
25.1114792041131
 21
1.707855494399982
 31
0.0
  0
LINE
  5
6E7
330
1F
100
AcDbEntity
  8
TitleBlock&Notes
  6
Continuous
 62
     3
100
AcDbLine
 10
24.82347074051313
 20
1.718670689999978
 30
0.0
 11
25.10286537251314
 21
1.723547548799995
 31
0.0
  0
LINE
  5
6E8
330
1F
100
AcDbEntity
  8
TitleBlock&Notes
  6
Continuous
 62
     3
100
AcDbLine
 10
24.82347074051313
 20
1.734513105599972
 30
0.0
 11
25.09491171251308
 21
1.739251126799992
 31
0.0
  0
LINE
  5
6E9
330
1F
100
AcDbEntity
  8
TitleBlock&Notes
  6
Continuous
 62
     3
100
AcDbLine
 10
24.82347074051313
 20
1.750355521199988
 30
0.0
 11
25.08758737571309
 21
1.754965713599993
 31
0.0
  0
LINE
  5
6EA
330
1F
100
AcDbEntity
  8
TitleBlock&Notes
  6
Continuous
 62
     3
100
AcDbLine
 10
24.82347074051313
 20
1.766197936799994
 30
0.0
 11
25.08086559251309
 21
1.770690794399978
 31
0.0
  0
LINE
  5
6EB
330
1F
100
AcDbEntity
  8
TitleBlock&Notes
  6
Continuous
 62
     3
100
AcDbLine
 10
24.82347074051313
 20
1.782040352399988
 30
0.0
 11
25.0747233157131
 21
1.7864259732
 31
0.0
  0
LINE
  5
6EC
330
1F
100
AcDbEntity
  8
TitleBlock&Notes
  6
Continuous
 62
     3
100
AcDbLine
 10
24.82347074051313
 20
1.797882767999983
 30
0.0
 11
25.0691404681131
 21
1.802170972799991
 31
0.0
  0
LINE
  5
6ED
330
1F
100
AcDbEntity
  8
TitleBlock&Notes
  6
Continuous
 62
     3
100
AcDbLine
 10
24.82347074051313
 20
1.813725183599988
 30
0.0
 11
25.06409982371312
 21
1.817925397199996
 31
0.0
  0
LINE
  5
6EE
330
1F
100
AcDbEntity
  8
TitleBlock&Notes
  6
Continuous
 62
     3
100
AcDbLine
 10
24.82347074051313
 20
1.829567599199982
 30
0.0
 11
25.05958633451307
 21
1.833689008799982
 31
0.0
  0
LINE
  5
6EF
330
1F
100
AcDbEntity
  8
TitleBlock&Notes
  6
Continuous
 62
     3
100
AcDbLine
 10
24.82347074051313
 20
1.845410014799988
 30
0.0
 11
25.05558724931312
 21
1.849461609599988
 31
0.0
  0
LINE
  5
6F0
330
1F
100
AcDbEntity
  8
TitleBlock&Notes
  6
Continuous
 62
     3
100
AcDbLine
 10
24.82347074051313
 20
1.861252430399982
 30
0.0
 11
25.05209163851311
 21
1.865243001599985
 31
0.0
  0
LINE
  5
6F1
330
1F
100
AcDbEntity
  8
TitleBlock&Notes
  6
Continuous
 62
     3
100
AcDbLine
 10
24.82347074051313
 20
1.877094845999977
 30
0.0
 11
25.04909023571309
 21
1.881033026399993
 31
0.0
  0
LINE
  5
6F2
330
1F
100
AcDbEntity
  8
TitleBlock&Notes
  6
Continuous
 62
     3
100
AcDbLine
 10
24.82347074051313
 20
1.892937261599993
 30
0.0
 11
25.04657543771311
 21
1.896831565199992
 31
0.0
  0
LINE
  5
6F3
330
1F
100
AcDbEntity
  8
TitleBlock&Notes
  6
Continuous
 62
     3
100
AcDbLine
 10
24.82347074051313
 20
1.908779677199987
 30
0.0
 11
25.04454114611312
 21
1.912638459599989
 31
0.0
  0
LINE
  5
6F4
330
1F
100
AcDbEntity
  8
TitleBlock&Notes
  6
Continuous
 62
     3
100
AcDbLine
 10
24.82347074051313
 20
1.924622092799992
 30
0.0
 11
25.04298260891313
 21
1.928453669999992
 31
0.0
  0
LINE
  5
6F5
330
1F
100
AcDbEntity
  8
TitleBlock&Notes
  6
Continuous
 62
     3
100
AcDbLine
 10
24.82347074051313
 20
1.940464508399987
 30
0.0
 11
25.0418963413131
 21
1.944277117199995
 31
0.0
  0
LINE
  5
6F6
330
1F
100
AcDbEntity
  8
TitleBlock&Notes
  6
Continuous
 62
     3
100
AcDbLine
 10
24.82347074051313
 20
1.956306884399989
 30
0.0
 11
25.04128028411314
 21
1.960108801199986
 31
0.0
  0
LINE
  5
6F7
330
1F
100
AcDbEntity
  8
TitleBlock&Notes
  6
Continuous
 62
     3
100
AcDbLine
 10
25.04127074051309
 20
1.960511810399992
 30
0.0
 11
24.82347074051313
 21
1.960511810399992
 31
0.0
  0
LINE
  5
6F8
330
1F
100
AcDbEntity
  8
TitleBlock&Notes
  6
Continuous
 62
     3
100
AcDbLine
 10
25.53491170811311
 20
1.819971449999993
 30
0.0
 11
25.83071317451312
 21
1.825134695999992
 31
0.0
  0
LINE
  5
6F9
330
1F
100
AcDbEntity
  8
TitleBlock&Notes
  6
Continuous
 62
     3
100
AcDbLine
 10
25.57587066131312
 20
1.794784265999982
 30
0.0
 11
25.77387074051312
 21
1.794784265999982
 31
0.0
  0
LINE
  5
6FA
330
1F
100
AcDbEntity
  8
TitleBlock&Notes
  6
Continuous
 62
     3
100
AcDbLine
 10
25.77387074051312
 20
1.814584265999979
 30
0.0
 11
25.57587070091308
 21
1.814584265999979
 31
0.0
  0
LINE
  5
6FB
330
1F
100
AcDbEntity
  8
TitleBlock&Notes
  6
Continuous
 62
     3
100
AcDbLine
 10
25.57587066131312
 20
1.774984265999986
 30
0.0
 11
25.77387074051312
 21
1.774984265999986
 31
0.0
  0
LINE
  5
6FC
330
1F
100
AcDbEntity
  8
TitleBlock&Notes
  6
Continuous
 62
     3
100
AcDbLine
 10
24.82347074051313
 20
1.449349703999992
 30
0.0
 11
25.42536519851313
 21
1.459855781999991
 31
0.0
  0
LINE
  5
6FD
330
1F
100
AcDbEntity
  8
TitleBlock&Notes
  6
Continuous
 62
     3
100
AcDbLine
 10
24.82347074051313
 20
1.465192119599986
 30
0.0
 11
25.38121155491313
 21
1.474927502399985
 31
0.0
  0
LINE
  5
6FE
330
1F
100
AcDbEntity
  8
TitleBlock&Notes
  6
Continuous
 62
     3
100
AcDbLine
 10
24.82347074051313
 20
1.481034535199992
 30
0.0
 11
25.34602438091309
 21
1.490155721999979
 31
0.0
  0
LINE
  5
6FF
330
1F
100
AcDbEntity
  8
TitleBlock&Notes
  6
Continuous
 62
     3
100
AcDbLine
 10
24.82347074051313
 20
1.496876911199983
 30
0.0
 11
25.3162722277131
 21
1.50547882319999
 31
0.0
  0
LINE
  5
700
330
1F
100
AcDbEntity
  8
TitleBlock&Notes
  6
Continuous
 62
     3
100
AcDbLine
 10
24.82347074051313
 20
1.512719326799977
 30
0.0
 11
25.29031217051309
 21
1.520868095999976
 31
0.0
  0
LINE
  5
701
330
1F
100
AcDbEntity
  8
TitleBlock&Notes
  6
Continuous
 62
     3
100
AcDbLine
 10
24.82347074051313
 20
1.528561742399983
 30
0.0
 11
25.2672187177131
 21
1.536307423199989
 31
0.0
  0
LINE
  5
702
330
1F
100
AcDbEntity
  8
TitleBlock&Notes
  6
Continuous
 62
     3
100
AcDbLine
 10
24.82347074051313
 20
1.544404157999998
 30
0.0
 11
25.24640868011311
 21
1.551786587999984
 31
0.0
  0
LINE
  5
703
330
1F
100
AcDbEntity
  8
TitleBlock&Notes
  6
Continuous
 62
     3
100
AcDbLine
 10
24.82347074051313
 20
1.560246573599993
 30
0.0
 11
25.22748593891314
 21
1.567298699999987
 31
0.0
  0
LINE
  5
704
330
1F
100
AcDbEntity
  8
TitleBlock&Notes
  6
Continuous
 62
     3
100
AcDbLine
 10
24.82347074051313
 20
1.576088989199988
 30
0.0
 11
25.2101669581131
 21
1.582838809199994
 31
0.0
  0
LINE
  5
705
330
1F
100
AcDbEntity
  8
TitleBlock&Notes
  6
Continuous
 62
     3
100
AcDbLine
 10
24.82347074051313
 20
1.591931404799982
 30
0.0
 11
25.1942403133131
 21
1.598403232799988
 31
0.0
  0
LINE
  5
706
330
1F
100
AcDbEntity
  8
TitleBlock&Notes
  6
Continuous
 62
     3
100
AcDbLine
 10
24.82347074051313
 20
1.607773820399987
 30
0.0
 11
25.17954360491312
 21
1.613989079999985
 31
0.0
  0
LINE
  5
707
330
1F
100
AcDbEntity
  8
TitleBlock&Notes
  6
Continuous
 62
     3
100
AcDbLine
 10
24.82347074051313
 20
1.623616235999993
 30
0.0
 11
25.16594876651309
 21
1.62959421239999
 31
0.0
  0
LINE
  5
708
330
1F
100
AcDbEntity
  8
TitleBlock&Notes
  6
Continuous
 62
     3
100
AcDbLine
 10
24.82347074051313
 20
1.639458651599987
 30
0.0
 11
25.15335303611314
 21
1.645216768799997
 31
0.0
  0
LINE
  5
709
330
1F
100
AcDbEntity
  8
TitleBlock&Notes
  6
Continuous
 62
     3
100
AcDbLine
 10
24.82347074051313
 20
1.655301067199982
 30
0.0
 11
25.14167234291311
 21
1.660855283999982
 31
0.0
  0
LINE
  5
70A
330
1F
100
AcDbEntity
  8
TitleBlock&Notes
  6
Continuous
 62
     3
100
AcDbLine
 10
24.82347074051313
 20
1.671143482799987
 30
0.0
 11
25.13083714931312
 21
1.676508569999985
 31
0.0
  0
LINE
  5
70B
330
1F
100
AcDbEntity
  8
TitleBlock&Notes
  6
Continuous
 62
     3
100
AcDbLine
 10
25.57587066131312
 20
1.458184265999978
 30
0.0
 11
25.77387074051312
 21
1.458184265999978
 31
0.0
  0
LINE
  5
70C
330
1F
100
AcDbEntity
  8
TitleBlock&Notes
  6
Continuous
 62
     3
100
AcDbLine
 10
25.57587066131312
 20
1.438384265999982
 30
0.0
 11
25.77387074051312
 21
1.438384265999982
 31
0.0
  0
LINE
  5
70D
330
1F
100
AcDbEntity
  8
TitleBlock&Notes
  6
Continuous
 62
     3
100
AcDbLine
 10
25.57587066131312
 20
1.477984265999975
 30
0.0
 11
25.77387074051312
 21
1.477984265999975
 31
0.0
  0
ARC
  5
70E
330
1F
100
AcDbEntity
  8
TitleBlock&Notes
  6
Continuous
 62
     3
100
AcDbCircle
 10
25.57587074051313
 20
1.972984265999981
 30
0.0
 40
0.5148000000000001
100
AcDbArc
 50
180.0000000000004
 51
269.9999934300003
  0
ARC
  5
70F
330
1F
100
AcDbEntity
  8
TitleBlock&Notes
  6
Continuous
 62
     3
100
AcDbCircle
 10
25.57587074051313
 20
1.972984265999981
 30
0.0
 40
0.5346000000000001
100
AcDbArc
 50
180.0000000000004
 51
269.9999934300003
  0
ARC
  5
710
330
1F
100
AcDbEntity
  8
TitleBlock&Notes
  6
Continuous
 62
     3
100
AcDbCircle
 10
25.57587074051313
 20
1.972984265999981
 30
0.0
 40
0.4950000000000001
100
AcDbArc
 50
180.0000000000004
 51
269.9999931700005
  0
LINE
  5
711
330
1F
100
AcDbEntity
  8
TitleBlock&Notes
  6
Continuous
 62
     3
100
AcDbLine
 10
26.28867074051315
 20
1.972984265999983
 30
0.0
 11
26.28867074051315
 21
3.240184265999982
 31
0.0
  0
LINE
  5
712
330
1F
100
AcDbEntity
  8
TitleBlock&Notes
  6
Continuous
 62
     3
100
AcDbLine
 10
26.82327074051312
 20
1.794784265999982
 30
0.0
 11
26.82327074051312
 21
3.240184265999982
 31
0.0
  0
LINE
  5
713
330
1F
100
AcDbEntity
  8
TitleBlock&Notes
  6
Continuous
 62
     3
100
AcDbLine
 10
26.84307074051309
 20
1.814584265999979
 30
0.0
 11
26.84307074051309
 21
3.259984265999989
 31
0.0
  0
LINE
  5
714
330
1F
100
AcDbEntity
  8
TitleBlock&Notes
  6
Continuous
 62
     3
100
AcDbLine
 10
26.30847074051313
 20
1.972984265999983
 30
0.0
 11
26.30847074051313
 21
3.259984265999989
 31
0.0
  0
LINE
  5
715
330
1F
100
AcDbEntity
  8
TitleBlock&Notes
  6
Continuous
 62
     3
100
AcDbLine
 10
26.80347074051312
 20
3.220384265999985
 30
0.0
 11
26.80347074051312
 21
1.774984265999986
 31
0.0
  0
LINE
  5
716
330
1F
100
AcDbEntity
  8
TitleBlock&Notes
  6
Continuous
 62
     3
100
AcDbLine
 10
26.26887074051311
 20
3.220384265999985
 30
0.0
 11
26.26887074051311
 21
1.972984265999983
 31
0.0
  0
LINE
  5
717
330
1F
100
AcDbEntity
  8
TitleBlock&Notes
  6
Continuous
 62
     3
100
AcDbLine
 10
25.95207074051312
 20
1.97298422639999
 30
0.0
 11
25.95207074051312
 21
3.240184265999982
 31
0.0
  0
LINE
  5
718
330
1F
100
AcDbEntity
  8
TitleBlock&Notes
  6
Continuous
 62
     3
100
AcDbLine
 10
25.93227074051313
 20
3.259984265999989
 30
0.0
 11
25.93227074051313
 21
1.972984265999983
 31
0.0
  0
LINE
  5
719
330
1F
100
AcDbEntity
  8
TitleBlock&Notes
  6
Continuous
 62
     3
100
AcDbLine
 10
25.9718707405131
 20
3.220384265999985
 30
0.0
 11
25.9718707405131
 21
1.97298422639999
 31
0.0
  0
LINE
  5
71A
330
1F
100
AcDbEntity
  8
TitleBlock&Notes
  6
Continuous
 62
     3
100
AcDbLine
 10
26.48667074051307
 20
1.458184265999978
 30
0.0
 11
26.48667074051307
 21
3.240184265999982
 31
0.0
  0
LINE
  5
71B
330
1F
100
AcDbEntity
  8
TitleBlock&Notes
  6
Continuous
 62
     3
100
AcDbLine
 10
26.4668707405131
 20
3.259984265999989
 30
0.0
 11
26.4668707405131
 21
1.438384265999982
 31
0.0
  0
LINE
  5
71C
330
1F
100
AcDbEntity
  8
TitleBlock&Notes
  6
Continuous
 62
     3
100
AcDbLine
 10
26.50647074051311
 20
1.477984265999975
 30
0.0
 11
26.50647074051311
 21
3.220384265999985
 31
0.0
  0
LINE
  5
71D
330
1F
100
AcDbEntity
  8
TitleBlock&Notes
  6
Continuous
 62
     3
100
AcDbLine
 10
27.78357074051313
 20
2.903584265999988
 30
0.0
 11
27.78357074051313
 21
1.458184265999978
 31
0.0
  0
LINE
  5
71E
330
1F
100
AcDbEntity
  8
TitleBlock&Notes
  6
Continuous
 62
     3
100
AcDbLine
 10
27.76377074051309
 20
2.883784265999992
 30
0.0
 11
27.76377074051309
 21
1.438384265999982
 31
0.0
  0
LINE
  5
71F
330
1F
100
AcDbEntity
  8
TitleBlock&Notes
  6
Continuous
 62
     3
100
AcDbLine
 10
27.80337074051313
 20
2.923384265999985
 30
0.0
 11
27.80337074051313
 21
1.477984265999975
 31
0.0
  0
LINE
  5
720
330
1F
100
AcDbEntity
  8
TitleBlock&Notes
  6
Continuous
 62
     3
100
AcDbLine
 10
26.84307074051309
 20
2.71961573399999
 30
0.0
 11
27.76377074051309
 21
2.71961573399999
 31
0.0
  0
LINE
  5
721
330
1F
100
AcDbEntity
  8
TitleBlock&Notes
  6
Continuous
 62
     3
100
AcDbLine
 10
26.84307074051309
 20
2.739415733999987
 30
0.0
 11
27.76377074051309
 21
2.739415733999987
 31
0.0
  0
LINE
  5
722
330
1F
100
AcDbEntity
  8
TitleBlock&Notes
  6
Continuous
 62
     3
100
AcDbLine
 10
26.84307074051309
 20
2.759215733999994
 30
0.0
 11
27.76377074051309
 21
2.759215733999994
 31
0.0
  0
LINE
  5
723
330
1F
100
AcDbEntity
  8
TitleBlock&Notes
  6
Continuous
 62
     3
100
AcDbLine
 10
26.84307074051309
 20
2.439821815199987
 30
0.0
 11
27.76377074051309
 21
2.455892683199987
 31
0.0
  0
LINE
  5
724
330
1F
100
AcDbEntity
  8
TitleBlock&Notes
  6
Continuous
 62
     3
100
AcDbLine
 10
26.84307074051309
 20
2.455664230799982
 30
0.0
 11
27.76377074051309
 21
2.471735098799992
 31
0.0
  0
LINE
  5
725
330
1F
100
AcDbEntity
  8
TitleBlock&Notes
  6
Continuous
 62
     3
100
AcDbLine
 10
26.84307074051309
 20
2.471506646399987
 30
0.0
 11
27.76377074051309
 21
2.487577514399987
 31
0.0
  0
LINE
  5
726
330
1F
100
AcDbEntity
  8
TitleBlock&Notes
  6
Continuous
 62
     3
100
AcDbLine
 10
26.84307074051309
 20
2.487349061999992
 30
0.0
 11
27.76377074051309
 21
2.503419929999981
 31
0.0
  0
LINE
  5
727
330
1F
100
AcDbEntity
  8
TitleBlock&Notes
  6
Continuous
 62
     3
100
AcDbLine
 10
26.84307074051309
 20
2.503191477599987
 30
0.0
 11
27.76377074051309
 21
2.519262345599976
 31
0.0
  0
LINE
  5
728
330
1F
100
AcDbEntity
  8
TitleBlock&Notes
  6
Continuous
 62
     3
100
AcDbLine
 10
26.84307074051309
 20
2.519033893199981
 30
0.0
 11
27.76377074051309
 21
2.535104761199981
 31
0.0
  0
LINE
  5
729
330
1F
100
AcDbEntity
  8
TitleBlock&Notes
  6
Continuous
 62
     3
100
AcDbLine
 10
26.84307074051309
 20
2.534876308799976
 30
0.0
 11
27.76377074051309
 21
2.550947176799997
 31
0.0
  0
LINE
  5
72A
330
1F
100
AcDbEntity
  8
TitleBlock&Notes
  6
Continuous
 62
     3
100
AcDbLine
 10
26.84307074051309
 20
2.550718684799978
 30
0.0
 11
27.76377074051309
 21
2.566789592399992
 31
0.0
  0
LINE
  5
72B
330
1F
100
AcDbEntity
  8
TitleBlock&Notes
  6
Continuous
 62
     3
100
AcDbLine
 10
26.84307074051309
 20
2.566561100399994
 30
0.0
 11
27.76377074051309
 21
2.582632007999986
 31
0.0
  0
LINE
  5
72C
330
1F
100
AcDbEntity
  8
TitleBlock&Notes
  6
Continuous
 62
     3
100
AcDbLine
 10
26.84307074051309
 20
2.582403515999988
 30
0.0
 11
27.76377074051309
 21
2.598474423599991
 31
0.0
  0
LINE
  5
72D
330
1F
100
AcDbEntity
  8
TitleBlock&Notes
  6
Continuous
 62
     3
100
AcDbLine
 10
26.84307074051309
 20
2.598245931599983
 30
0.0
 11
27.76377074051309
 21
2.614316839199986
 31
0.0
  0
LINE
  5
72E
330
1F
100
AcDbEntity
  8
TitleBlock&Notes
  6
Continuous
 62
     3
100
AcDbLine
 10
26.84307074051309
 20
2.040247875599984
 30
0.0
 11
27.76377074051309
 21
2.056318743599984
 31
0.0
  0
LINE
  5
72F
330
1F
100
AcDbEntity
  8
TitleBlock&Notes
  6
Continuous
 62
     3
100
AcDbLine
 10
26.84307074051309
 20
2.056090291199989
 30
0.0
 11
27.76377074051309
 21
2.072161159199978
 31
0.0
  0
LINE
  5
730
330
1F
100
AcDbEntity
  8
TitleBlock&Notes
  6
Continuous
 62
     3
100
AcDbLine
 10
26.84307074051309
 20
2.071932706799984
 30
0.0
 11
27.76377074051309
 21
2.088003574799984
 31
0.0
  0
LINE
  5
731
330
1F
100
AcDbEntity
  8
TitleBlock&Notes
  6
Continuous
 62
     3
100
AcDbLine
 10
26.84307074051309
 20
2.087775122399978
 30
0.0
 11
27.76377074051309
 21
2.103845990399989
 31
0.0
  0
LINE
  5
732
330
1F
100
AcDbEntity
  8
TitleBlock&Notes
  6
Continuous
 62
     3
100
AcDbLine
 10
26.84307074051309
 20
2.10361749839998
 30
0.0
 11
27.76377074051309
 21
2.119688405999983
 31
0.0
  0
LINE
  5
733
330
1F
100
AcDbEntity
  8
TitleBlock&Notes
  6
Continuous
 62
     3
100
AcDbLine
 10
26.84307074051309
 20
2.119459913999985
 30
0.0
 11
27.76377074051309
 21
2.135530821599978
 31
0.0
  0
LINE
  5
734
330
1F
100
AcDbEntity
  8
TitleBlock&Notes
  6
Continuous
 62
     3
100
AcDbLine
 10
26.84307074051309
 20
2.13530232959998
 30
0.0
 11
27.76377074051309
 21
2.151373237199994
 31
0.0
  0
LINE
  5
735
330
1F
100
AcDbEntity
  8
TitleBlock&Notes
  6
Continuous
 62
     3
100
AcDbLine
 10
26.84307074051309
 20
2.151144745199975
 30
0.0
 11
27.76377074051309
 21
2.167215652799988
 31
0.0
  0
LINE
  5
736
330
1F
100
AcDbEntity
  8
TitleBlock&Notes
  6
Continuous
 62
     3
100
AcDbLine
 10
26.84307074051309
 20
2.16698716079999
 30
0.0
 11
27.76377074051309
 21
2.18305802879999
 31
0.0
  0
LINE
  5
737
330
1F
100
AcDbEntity
  8
TitleBlock&Notes
  6
Continuous
 62
     3
100
AcDbLine
 10
26.84307074051309
 20
2.182829576399985
 30
0.0
 11
27.76377074051309
 21
2.198900444399985
 31
0.0
  0
LINE
  5
738
330
1F
100
AcDbEntity
  8
TitleBlock&Notes
  6
Continuous
 62
     3
100
AcDbLine
 10
26.84307074051309
 20
2.19867199199999
 30
0.0
 11
27.76377074051309
 21
2.214742859999979
 31
0.0
  0
LINE
  5
739
330
1F
100
AcDbEntity
  8
TitleBlock&Notes
  6
Continuous
 62
     3
100
AcDbLine
 10
26.84307074051309
 20
2.214514407599985
 30
0.0
 11
27.76377074051309
 21
2.230585275599985
 31
0.0
  0
LINE
  5
73A
330
1F
100
AcDbEntity
  8
TitleBlock&Notes
  6
Continuous
 62
     3
100
AcDbLine
 10
26.84307074051309
 20
2.230356823199979
 30
0.0
 11
27.76377074051309
 21
2.24642769119999
 31
0.0
  0
LINE
  5
73B
330
1F
100
AcDbEntity
  8
TitleBlock&Notes
  6
Continuous
 62
     3
100
AcDbLine
 10
26.84307074051309
 20
2.246199238799984
 30
0.0
 11
27.76377074051309
 21
2.262270106799984
 31
0.0
  0
LINE
  5
73C
330
1F
100
AcDbEntity
  8
TitleBlock&Notes
  6
Continuous
 62
     3
100
AcDbLine
 10
26.84307074051309
 20
2.26204165439999
 30
0.0
 11
27.76377074051309
 21
2.278112522399979
 31
0.0
  0
LINE
  5
73D
330
1F
100
AcDbEntity
  8
TitleBlock&Notes
  6
Continuous
 62
     3
100
AcDbLine
 10
26.84307074051309
 20
2.277884069999984
 30
0.0
 11
27.76377074051309
 21
2.293954937999995
 31
0.0
  0
LINE
  5
73E
330
1F
100
AcDbEntity
  8
TitleBlock&Notes
  6
Continuous
 62
     3
100
AcDbLine
 10
26.84307074051309
 20
2.293726485599979
 30
0.0
 11
27.76377074051309
 21
2.309797353599989
 31
0.0
  0
LINE
  5
73F
330
1F
100
AcDbEntity
  8
TitleBlock&Notes
  6
Continuous
 62
     3
100
AcDbLine
 10
26.84307074051309
 20
2.309568901199995
 30
0.0
 11
27.76377074051309
 21
2.325639769199995
 31
0.0
  0
LINE
  5
740
330
1F
100
AcDbEntity
  8
TitleBlock&Notes
  6
Continuous
 62
     3
100
AcDbLine
 10
26.84307074051309
 20
2.325411277199986
 30
0.0
 11
27.76377074051309
 21
2.341482184799989
 31
0.0
  0
LINE
  5
741
330
1F
100
AcDbEntity
  8
TitleBlock&Notes
  6
Continuous
 62
     3
100
AcDbLine
 10
26.84307074051309
 20
2.77901573399998
 30
0.0
 11
27.76377074051309
 21
2.77901573399998
 31
0.0
  0
LINE
  5
742
330
1F
100
AcDbEntity
  8
TitleBlock&Notes
  6
Continuous
 62
     3
100
AcDbLine
 10
26.84307074051309
 20
2.701062975599977
 30
0.0
 11
27.76377074051309
 21
2.701062975599977
 31
0.0
  0
LINE
  5
743
330
1F
100
AcDbEntity
  8
TitleBlock&Notes
  6
Continuous
 62
     3
100
AcDbLine
 10
26.84307074051309
 20
2.623110217199986
 30
0.0
 11
27.76377074051309
 21
2.623110217199986
 31
0.0
  0
LINE
  5
744
330
1F
100
AcDbEntity
  8
TitleBlock&Notes
  6
Continuous
 62
     3
100
AcDbLine
 10
26.84307074051309
 20
2.428228360799984
 30
0.0
 11
27.76377074051309
 21
2.428228360799984
 31
0.0
  0
LINE
  5
745
330
1F
100
AcDbEntity
  8
TitleBlock&Notes
  6
Continuous
 62
     3
100
AcDbLine
 10
26.84307074051309
 20
2.350275602399982
 30
0.0
 11
27.76377074051309
 21
2.350275602399982
 31
0.0
  0
LINE
  5
746
330
1F
100
AcDbEntity
  8
TitleBlock&Notes
  6
Continuous
 62
     3
100
AcDbLine
 10
26.84307074051309
 20
2.038464568799984
 30
0.0
 11
27.76377074051309
 21
2.038464568799984
 31
0.0
  0
LINE
  5
747
330
1F
100
AcDbEntity
  8
TitleBlock&Notes
  6
Continuous
 62
     3
100
AcDbLine
 10
26.84307074051309
 20
2.614088347199988
 30
0.0
 11
27.35993394011314
 21
2.623110217199986
 31
0.0
  0
LINE
  5
748
330
1F
100
AcDbEntity
  8
TitleBlock&Notes
  6
Continuous
 62
     3
100
AcDbLine
 10
26.84307074051309
 20
2.341253692799991
 30
0.0
 11
27.35993394011314
 21
2.350275602399982
 31
0.0
  0
LINE
  5
749
330
1F
100
AcDbEntity
  8
TitleBlock&Notes
  6
Continuous
 62
     3
100
AcDbLine
 10
26.84307074051309
 20
3.032674009199983
 30
0.0
 11
27.31827074051312
 21
3.032674009199983
 31
0.0
  0
LINE
  5
74A
330
1F
100
AcDbEntity
  8
TitleBlock&Notes
  6
Continuous
 62
     3
100
AcDbLine
 10
26.84307074051309
 20
3.052474009199979
 30
0.0
 11
27.31827074051312
 21
3.052474009199979
 31
0.0
  0
LINE
  5
74B
330
1F
100
AcDbEntity
  8
TitleBlock&Notes
  6
Continuous
 62
     3
100
AcDbLine
 10
26.84307074051309
 20
3.072274009199997
 30
0.0
 11
27.31827074051312
 21
3.072274009199997
 31
0.0
  0
LINE
  5
74C
330
1F
100
AcDbEntity
  8
TitleBlock&Notes
  6
Continuous
 62
     3
100
AcDbLine
 10
26.84307074051309
 20
3.012874009199986
 30
0.0
 11
27.31827074051312
 21
3.012874009199986
 31
0.0
  0
LINE
  5
74D
330
1F
100
AcDbEntity
  8
TitleBlock&Notes
  6
Continuous
 62
     3
100
AcDbLine
 10
26.48667074051307
 20
3.240184265999982
 30
0.0
 11
26.82327074051312
 21
3.240184265999982
 31
0.0
  0
LINE
  5
74E
330
1F
100
AcDbEntity
  8
TitleBlock&Notes
  6
Continuous
 62
     3
100
AcDbLine
 10
26.4668707405131
 20
3.259984265999989
 30
0.0
 11
26.84307074051309
 21
3.259984265999989
 31
0.0
  0
LINE
  5
74F
330
1F
100
AcDbEntity
  8
TitleBlock&Notes
  6
Continuous
 62
     3
100
AcDbLine
 10
26.50647074051311
 20
3.220384265999985
 30
0.0
 11
26.80347074051312
 21
3.220384265999985
 31
0.0
  0
LINE
  5
750
330
1F
100
AcDbEntity
  8
TitleBlock&Notes
  6
Continuous
 62
     3
100
AcDbLine
 10
25.95207074051312
 20
3.240184265999982
 30
0.0
 11
26.28867074051315
 21
3.240184265999982
 31
0.0
  0
LINE
  5
751
330
1F
100
AcDbEntity
  8
TitleBlock&Notes
  6
Continuous
 62
     3
100
AcDbLine
 10
26.30847074051313
 20
3.259984265999989
 30
0.0
 11
25.93227074051313
 21
3.259984265999989
 31
0.0
  0
LINE
  5
752
330
1F
100
AcDbEntity
  8
TitleBlock&Notes
  6
Continuous
 62
     3
100
AcDbLine
 10
26.26887074051311
 20
3.220384265999985
 30
0.0
 11
25.9718707405131
 21
3.220384265999985
 31
0.0
  0
LINE
  5
753
330
1F
100
AcDbEntity
  8
TitleBlock&Notes
  6
Continuous
 62
     3
100
AcDbLine
 10
26.4668707405131
 20
2.739415733999987
 30
0.0
 11
26.30847074051313
 21
2.739415733999987
 31
0.0
  0
LINE
  5
754
330
1F
100
AcDbEntity
  8
TitleBlock&Notes
  6
Continuous
 62
     3
100
AcDbLine
 10
26.4668707405131
 20
2.759215733999994
 30
0.0
 11
26.30847074051313
 21
2.759215733999994
 31
0.0
  0
LINE
  5
755
330
1F
100
AcDbEntity
  8
TitleBlock&Notes
  6
Continuous
 62
     3
100
AcDbLine
 10
26.4668707405131
 20
3.032674009199983
 30
0.0
 11
26.30847074051313
 21
3.032674009199983
 31
0.0
  0
LINE
  5
756
330
1F
100
AcDbEntity
  8
TitleBlock&Notes
  6
Continuous
 62
     3
100
AcDbLine
 10
26.4668707405131
 20
3.052474009199979
 30
0.0
 11
26.30847074051313
 21
3.052474009199979
 31
0.0
  0
LINE
  5
757
330
1F
100
AcDbEntity
  8
TitleBlock&Notes
  6
Continuous
 62
     3
100
AcDbLine
 10
26.4668707405131
 20
3.072274009199997
 30
0.0
 11
26.30847074051313
 21
3.072274009199997
 31
0.0
  0
LINE
  5
758
330
1F
100
AcDbEntity
  8
TitleBlock&Notes
  6
Continuous
 62
     3
100
AcDbLine
 10
26.4668707405131
 20
3.012874009199986
 30
0.0
 11
26.30847074051313
 21
3.012874009199986
 31
0.0
  0
LINE
  5
759
330
1F
100
AcDbEntity
  8
TitleBlock&Notes
  6
Continuous
 62
     3
100
AcDbLine
 10
26.4668707405131
 20
2.77901573399998
 30
0.0
 11
26.30847074051313
 21
2.77901573399998
 31
0.0
  0
LINE
  5
75A
330
1F
100
AcDbEntity
  8
TitleBlock&Notes
  6
Continuous
 62
     3
100
AcDbLine
 10
26.4668707405131
 20
2.71961573399999
 30
0.0
 11
26.30847074051313
 21
2.71961573399999
 31
0.0
  0
LINE
  5
75B
330
1F
100
AcDbEntity
  8
TitleBlock&Notes
  6
Continuous
 62
     3
100
AcDbLine
 10
26.4668707405131
 20
2.701062975599977
 30
0.0
 11
26.30847074051313
 21
2.701062975599977
 31
0.0
  0
LINE
  5
75C
330
1F
100
AcDbEntity
  8
TitleBlock&Notes
  6
Continuous
 62
     3
100
AcDbLine
 10
26.30847074051313
 20
2.046758788799994
 30
0.0
 11
26.4668707405131
 21
2.049523700399987
 31
0.0
  0
LINE
  5
75D
330
1F
100
AcDbEntity
  8
TitleBlock&Notes
  6
Continuous
 62
     3
100
AcDbLine
 10
26.4668707405131
 20
2.038464568799984
 30
0.0
 11
26.30847074051313
 21
2.038464568799984
 31
0.0
  0
LINE
  5
75E
330
1F
100
AcDbEntity
  8
TitleBlock&Notes
  6
Continuous
 62
     3
100
AcDbLine
 10
26.30847074051313
 20
2.430490352399985
 30
0.0
 11
26.4668707405131
 21
2.433255224399985
 31
0.0
  0
LINE
  5
75F
330
1F
100
AcDbEntity
  8
TitleBlock&Notes
  6
Continuous
 62
     3
100
AcDbLine
 10
26.30847074051313
 20
2.44633276799998
 30
0.0
 11
26.4668707405131
 21
2.44909763999999
 31
0.0
  0
LINE
  5
760
330
1F
100
AcDbEntity
  8
TitleBlock&Notes
  6
Continuous
 62
     3
100
AcDbLine
 10
26.30847074051313
 20
2.462175143999992
 30
0.0
 11
26.4668707405131
 21
2.464940055599985
 31
0.0
  0
LINE
  5
761
330
1F
100
AcDbEntity
  8
TitleBlock&Notes
  6
Continuous
 62
     3
100
AcDbLine
 10
26.30847074051313
 20
2.478017559599987
 30
0.0
 11
26.4668707405131
 21
2.480782471199979
 31
0.0
  0
LINE
  5
762
330
1F
100
AcDbEntity
  8
TitleBlock&Notes
  6
Continuous
 62
     3
100
AcDbLine
 10
26.30847074051313
 20
2.493859975199992
 30
0.0
 11
26.4668707405131
 21
2.496624886799985
 31
0.0
  0
LINE
  5
763
330
1F
100
AcDbEntity
  8
TitleBlock&Notes
  6
Continuous
 62
     3
100
AcDbLine
 10
26.30847074051313
 20
2.509702390799986
 30
0.0
 11
26.4668707405131
 21
2.512467262799997
 31
0.0
  0
LINE
  5
764
330
1F
100
AcDbEntity
  8
TitleBlock&Notes
  6
Continuous
 62
     3
100
AcDbLine
 10
26.30847074051313
 20
2.525544806399981
 30
0.0
 11
26.4668707405131
 21
2.528309678399992
 31
0.0
  0
LINE
  5
765
330
1F
100
AcDbEntity
  8
TitleBlock&Notes
  6
Continuous
 62
     3
100
AcDbLine
 10
26.30847074051313
 20
2.541387221999986
 30
0.0
 11
26.4668707405131
 21
2.544152093999986
 31
0.0
  0
LINE
  5
766
330
1F
100
AcDbEntity
  8
TitleBlock&Notes
  6
Continuous
 62
     3
100
AcDbLine
 10
26.30847074051313
 20
2.557229637599991
 30
0.0
 11
26.4668707405131
 21
2.559994509599992
 31
0.0
  0
LINE
  5
767
330
1F
100
AcDbEntity
  8
TitleBlock&Notes
  6
Continuous
 62
     3
100
AcDbLine
 10
26.30847074051313
 20
2.573072053199986
 30
0.0
 11
26.4668707405131
 21
2.575836925199986
 31
0.0
  0
LINE
  5
768
330
1F
100
AcDbEntity
  8
TitleBlock&Notes
  6
Continuous
 62
     3
100
AcDbLine
 10
26.30847074051313
 20
2.58891446879998
 30
0.0
 11
26.4668707405131
 21
2.591679340799991
 31
0.0
  0
LINE
  5
769
330
1F
100
AcDbEntity
  8
TitleBlock&Notes
  6
Continuous
 62
     3
100
AcDbLine
 10
26.30847074051313
 20
2.604756884399975
 30
0.0
 11
26.4668707405131
 21
2.607521756399986
 31
0.0
  0
LINE
  5
76A
330
1F
100
AcDbEntity
  8
TitleBlock&Notes
  6
Continuous
 62
     3
100
AcDbLine
 10
26.30847074051313
 20
2.62059929999998
 30
0.0
 11
26.45232273011312
 21
2.623110217199986
 31
0.0
  0
LINE
  5
76B
330
1F
100
AcDbEntity
  8
TitleBlock&Notes
  6
Continuous
 62
     3
100
AcDbLine
 10
26.30847074051313
 20
2.062601204399989
 30
0.0
 11
26.4668707405131
 21
2.065366076399989
 31
0.0
  0
LINE
  5
76C
330
1F
100
AcDbEntity
  8
TitleBlock&Notes
  6
Continuous
 62
     3
100
AcDbLine
 10
26.30847074051313
 20
2.078443619999983
 30
0.0
 11
26.4668707405131
 21
2.081208491999984
 31
0.0
  0
LINE
  5
76D
330
1F
100
AcDbEntity
  8
TitleBlock&Notes
  6
Continuous
 62
     3
100
AcDbLine
 10
26.30847074051313
 20
2.094286035599989
 30
0.0
 11
26.4668707405131
 21
2.097050907599978
 31
0.0
  0
LINE
  5
76E
330
1F
100
AcDbEntity
  8
TitleBlock&Notes
  6
Continuous
 62
     3
100
AcDbLine
 10
26.30847074051313
 20
2.110128451199994
 30
0.0
 11
26.4668707405131
 21
2.112893323199994
 31
0.0
  0
LINE
  5
76F
330
1F
100
AcDbEntity
  8
TitleBlock&Notes
  6
Continuous
 62
     3
100
AcDbLine
 10
26.30847074051313
 20
2.125970866799988
 30
0.0
 11
26.4668707405131
 21
2.128735738799989
 31
0.0
  0
LINE
  5
770
330
1F
100
AcDbEntity
  8
TitleBlock&Notes
  6
Continuous
 62
     3
100
AcDbLine
 10
26.30847074051313
 20
2.141813282399983
 30
0.0
 11
26.4668707405131
 21
2.144578154399994
 31
0.0
  0
LINE
  5
771
330
1F
100
AcDbEntity
  8
TitleBlock&Notes
  6
Continuous
 62
     3
100
AcDbLine
 10
26.30847074051313
 20
2.157655697999977
 30
0.0
 11
26.4668707405131
 21
2.160420569999988
 31
0.0
  0
LINE
  5
772
330
1F
100
AcDbEntity
  8
TitleBlock&Notes
  6
Continuous
 62
     3
100
AcDbLine
 10
26.30847074051313
 20
2.173498113599983
 30
0.0
 11
26.4668707405131
 21
2.176262985599983
 31
0.0
  0
LINE
  5
773
330
1F
100
AcDbEntity
  8
TitleBlock&Notes
  6
Continuous
 62
     3
100
AcDbLine
 10
26.30847074051313
 20
2.189340529199998
 30
0.0
 11
26.4668707405131
 21
2.192105401199988
 31
0.0
  0
LINE
  5
774
330
1F
100
AcDbEntity
  8
TitleBlock&Notes
  6
Continuous
 62
     3
100
AcDbLine
 10
26.30847074051313
 20
2.205182944799982
 30
0.0
 11
26.4668707405131
 21
2.207947816799983
 31
0.0
  0
LINE
  5
775
330
1F
100
AcDbEntity
  8
TitleBlock&Notes
  6
Continuous
 62
     3
100
AcDbLine
 10
26.30847074051313
 20
2.221025360399977
 30
0.0
 11
26.4668707405131
 21
2.223790232399988
 31
0.0
  0
LINE
  5
776
330
1F
100
AcDbEntity
  8
TitleBlock&Notes
  6
Continuous
 62
     3
100
AcDbLine
 10
26.30847074051313
 20
2.23686773639999
 30
0.0
 11
26.4668707405131
 21
2.239632647999982
 31
0.0
  0
LINE
  5
777
330
1F
100
AcDbEntity
  8
TitleBlock&Notes
  6
Continuous
 62
     3
100
AcDbLine
 10
26.30847074051313
 20
2.252710151999995
 30
0.0
 11
26.4668707405131
 21
2.255475063599977
 31
0.0
  0
LINE
  5
778
330
1F
100
AcDbEntity
  8
TitleBlock&Notes
  6
Continuous
 62
     3
100
AcDbLine
 10
26.30847074051313
 20
2.268552567599989
 30
0.0
 11
26.4668707405131
 21
2.271317479199982
 31
0.0
  0
LINE
  5
779
330
1F
100
AcDbEntity
  8
TitleBlock&Notes
  6
Continuous
 62
     3
100
AcDbLine
 10
26.30847074051313
 20
2.284394983199984
 30
0.0
 11
26.4668707405131
 21
2.287159894799998
 31
0.0
  0
LINE
  5
77A
330
1F
100
AcDbEntity
  8
TitleBlock&Notes
  6
Continuous
 62
     3
100
AcDbLine
 10
26.30847074051313
 20
2.300237398799978
 30
0.0
 11
26.4668707405131
 21
2.303002270799989
 31
0.0
  0
LINE
  5
77B
330
1F
100
AcDbEntity
  8
TitleBlock&Notes
  6
Continuous
 62
     3
100
AcDbLine
 10
26.30847074051313
 20
2.316079814399984
 30
0.0
 11
26.4668707405131
 21
2.318844686399984
 31
0.0
  0
LINE
  5
77C
330
1F
100
AcDbEntity
  8
TitleBlock&Notes
  6
Continuous
 62
     3
100
AcDbLine
 10
26.30847074051313
 20
2.331922229999989
 30
0.0
 11
26.4668707405131
 21
2.334687101999989
 31
0.0
  0
LINE
  5
77D
330
1F
100
AcDbEntity
  8
TitleBlock&Notes
  6
Continuous
 62
     3
100
AcDbLine
 10
26.30847074051313
 20
2.347764645599983
 30
0.0
 11
26.45232273011312
 21
2.350275602399982
 31
0.0
  0
LINE
  5
77E
330
1F
100
AcDbEntity
  8
TitleBlock&Notes
  6
Continuous
 62
     3
100
AcDbLine
 10
26.4668707405131
 20
2.623110217199986
 30
0.0
 11
26.30847074051313
 21
2.623110217199986
 31
0.0
  0
LINE
  5
77F
330
1F
100
AcDbEntity
  8
TitleBlock&Notes
  6
Continuous
 62
     3
100
AcDbLine
 10
26.4668707405131
 20
2.428228360799984
 30
0.0
 11
26.30847074051313
 21
2.428228360799984
 31
0.0
  0
LINE
  5
780
330
1F
100
AcDbEntity
  8
TitleBlock&Notes
  6
Continuous
 62
     3
100
AcDbLine
 10
26.4668707405131
 20
2.350275602399982
 30
0.0
 11
26.30847074051313
 21
2.350275602399982
 31
0.0
  0
LINE
  5
781
330
1F
100
AcDbEntity
  8
TitleBlock&Notes
  6
Continuous
 62
     3
100
AcDbLine
 10
27.33807074051309
 20
2.903584265999988
 30
0.0
 11
27.78357074051313
 21
2.903584265999988
 31
0.0
  0
LINE
  5
782
330
1F
100
AcDbEntity
  8
TitleBlock&Notes
  6
Continuous
 62
     3
100
AcDbLine
 10
27.31827074051312
 20
2.883784265999992
 30
0.0
 11
27.76377074051309
 21
2.883784265999992
 31
0.0
  0
LINE
  5
783
330
1F
100
AcDbEntity
  8
TitleBlock&Notes
  6
Continuous
 62
     3
100
AcDbLine
 10
27.33807074051309
 20
3.240184265999982
 30
0.0
 11
27.33807074051309
 21
2.903584265999988
 31
0.0
  0
LINE
  5
784
330
1F
100
AcDbEntity
  8
TitleBlock&Notes
  6
Continuous
 62
     3
100
AcDbLine
 10
27.31827074051312
 20
3.259984265999989
 30
0.0
 11
27.31827074051312
 21
2.883784265999992
 31
0.0
  0
LINE
  5
785
330
1F
100
AcDbEntity
  8
TitleBlock&Notes
  6
Continuous
 62
     3
100
AcDbLine
 10
27.35787074051313
 20
2.923384265999985
 30
0.0
 11
27.35787074051313
 21
3.220384265999985
 31
0.0
  0
LINE
  5
786
330
1F
100
AcDbEntity
  8
TitleBlock&Notes
  6
Continuous
 62
     3
100
AcDbLine
 10
27.35787074051313
 20
2.923384265999985
 30
0.0
 11
27.80337074051313
 21
2.923384265999985
 31
0.0
  0
LINE
  5
787
330
1F
100
AcDbEntity
  8
TitleBlock&Notes
  6
Continuous
 62
     3
100
AcDbLine
 10
27.64851688091312
 20
2.038464568799984
 30
0.0
 11
27.76377074051309
 21
2.040476327999989
 31
0.0
  0
LINE
  5
788
330
1F
100
AcDbEntity
  8
TitleBlock&Notes
  6
Continuous
 62
     3
100
AcDbLine
 10
27.0864926533131
 20
2.428228360799984
 30
0.0
 11
27.76377074051309
 21
2.440050267599982
 31
0.0
  0
LINE
  5
789
330
1F
100
AcDbEntity
  8
TitleBlock&Notes
  6
Continuous
 62
     3
100
AcDbLine
 10
26.84307074051309
 20
1.817292628799982
 30
0.0
 11
27.76377074051309
 21
1.833363496799982
 31
0.0
  0
LINE
  5
78A
330
1F
100
AcDbEntity
  8
TitleBlock&Notes
  6
Continuous
 62
     3
100
AcDbLine
 10
26.84307074051309
 20
1.833135004799995
 30
0.0
 11
27.76377074051309
 21
1.849205912399977
 31
0.0
  0
LINE
  5
78B
330
1F
100
AcDbEntity
  8
TitleBlock&Notes
  6
Continuous
 62
     3
100
AcDbLine
 10
26.84307074051309
 20
1.84897742039999
 30
0.0
 11
27.76377074051309
 21
1.865048327999993
 31
0.0
  0
LINE
  5
78C
330
1F
100
AcDbEntity
  8
TitleBlock&Notes
  6
Continuous
 62
     3
100
AcDbLine
 10
26.84307074051309
 20
1.864819835999995
 30
0.0
 11
27.76377074051309
 21
1.880890743599987
 31
0.0
  0
LINE
  5
78D
330
1F
100
AcDbEntity
  8
TitleBlock&Notes
  6
Continuous
 62
     3
100
AcDbLine
 10
26.84307074051309
 20
1.880662251599989
 30
0.0
 11
27.76377074051309
 21
1.896733159199982
 31
0.0
  0
LINE
  5
78E
330
1F
100
AcDbEntity
  8
TitleBlock&Notes
  6
Continuous
 62
     3
100
AcDbLine
 10
26.84307074051309
 20
1.896504667199984
 30
0.0
 11
27.76377074051309
 21
1.912575535199984
 31
0.0
  0
LINE
  5
78F
330
1F
100
AcDbEntity
  8
TitleBlock&Notes
  6
Continuous
 62
     3
100
AcDbLine
 10
26.84307074051309
 20
1.912347082799989
 30
0.0
 11
27.76377074051309
 21
1.928417950799989
 31
0.0
  0
LINE
  5
790
330
1F
100
AcDbEntity
  8
TitleBlock&Notes
  6
Continuous
 62
     3
100
AcDbLine
 10
26.84307074051309
 20
1.928189498399984
 30
0.0
 11
27.76377074051309
 21
1.944260366399984
 31
0.0
  0
LINE
  5
791
330
1F
100
AcDbEntity
  8
TitleBlock&Notes
  6
Continuous
 62
     3
100
AcDbLine
 10
26.84307074051309
 20
1.944031913999989
 30
0.0
 11
27.76377074051309
 21
1.960102781999978
 31
0.0
  0
LINE
  5
792
330
1F
100
AcDbEntity
  8
TitleBlock&Notes
  6
Continuous
 62
     3
100
AcDbLine
 10
26.84307074051309
 20
1.960511810399992
 30
0.0
 11
27.76377074051309
 21
1.960511810399992
 31
0.0
  0
LINE
  5
793
330
1F
100
AcDbEntity
  8
TitleBlock&Notes
  6
Continuous
 62
     3
100
AcDbLine
 10
27.59547074051309
 20
1.814584265999979
 30
0.0
 11
26.84307074051309
 21
1.814584265999979
 31
0.0
  0
LINE
  5
794
330
1F
100
AcDbEntity
  8
TitleBlock&Notes
  6
Continuous
 62
     3
100
AcDbLine
 10
27.57567074051312
 20
1.794784265999982
 30
0.0
 11
26.82327074051312
 21
1.794784265999982
 31
0.0
  0
LINE
  5
795
330
1F
100
AcDbEntity
  8
TitleBlock&Notes
  6
Continuous
 62
     3
100
AcDbLine
 10
26.80347074051312
 20
1.774984265999986
 30
0.0
 11
27.55587074051312
 21
1.774984265999986
 31
0.0
  0
LINE
  5
796
330
1F
100
AcDbEntity
  8
TitleBlock&Notes
  6
Continuous
 62
     3
100
AcDbLine
 10
26.4668707405131
 20
1.438384265999982
 30
0.0
 11
27.59547074051309
 21
1.438384265999982
 31
0.0
  0
LINE
  5
797
330
1F
100
AcDbEntity
  8
TitleBlock&Notes
  6
Continuous
 62
     3
100
AcDbLine
 10
27.57567074051312
 20
1.458184265999978
 30
0.0
 11
26.48667074051307
 21
1.458184265999978
 31
0.0
  0
LINE
  5
798
330
1F
100
AcDbEntity
  8
TitleBlock&Notes
  6
Continuous
 62
     3
100
AcDbLine
 10
26.50647074051311
 20
1.477984265999975
 30
0.0
 11
27.55587074051312
 21
1.477984265999975
 31
0.0
  0
LINE
  5
799
330
1F
100
AcDbEntity
  8
TitleBlock&Notes
  6
Continuous
 62
     3
100
AcDbLine
 10
26.84307074051309
 20
1.959874329599983
 30
0.0
 11
26.8795922365131
 21
1.960511810399992
 31
0.0
  0
LINE
  5
79A
330
1F
100
AcDbEntity
  8
TitleBlock&Notes
  6
Continuous
 62
     3
100
AcDbLine
 10
26.24027855051311
 20
1.711716375599987
 30
0.0
 11
26.4668707405131
 21
1.715671544399981
 31
0.0
  0
LINE
  5
79B
330
1F
100
AcDbEntity
  8
TitleBlock&Notes
  6
Continuous
 62
     3
100
AcDbLine
 10
26.24888355131314
 20
1.727708954399989
 30
0.0
 11
26.4668707405131
 21
1.731513959999986
 31
0.0
  0
LINE
  5
79C
330
1F
100
AcDbEntity
  8
TitleBlock&Notes
  6
Continuous
 62
     3
100
AcDbLine
 10
26.25680042291312
 20
1.743689573999983
 30
0.0
 11
26.4668707405131
 21
1.747356375599991
 31
0.0
  0
LINE
  5
79D
330
1F
100
AcDbEntity
  8
TitleBlock&Notes
  6
Continuous
 62
     3
100
AcDbLine
 10
26.26406393411309
 20
1.759658788799981
 30
0.0
 11
26.4668707405131
 21
1.763198791199986
 31
0.0
  0
LINE
  5
79E
330
1F
100
AcDbEntity
  8
TitleBlock&Notes
  6
Continuous
 62
     3
100
AcDbLine
 10
26.27070406211314
 20
1.775617073999981
 30
0.0
 11
26.4668707405131
 21
1.779041206799981
 31
0.0
  0
LINE
  5
79F
330
1F
100
AcDbEntity
  8
TitleBlock&Notes
  6
Continuous
 62
     3
100
AcDbLine
 10
26.27674666571313
 20
1.791564983999986
 30
0.0
 11
26.4668707405131
 21
1.794883582799982
 31
0.0
  0
LINE
  5
7A0
330
1F
100
AcDbEntity
  8
TitleBlock&Notes
  6
Continuous
 62
     3
100
AcDbLine
 10
26.28221415851312
 20
1.807502835599979
 30
0.0
 11
26.4668707405131
 21
1.810725998399998
 31
0.0
  0
LINE
  5
7A1
330
1F
100
AcDbEntity
  8
TitleBlock&Notes
  6
Continuous
 62
     3
100
AcDbLine
 10
26.28712598411311
 20
1.823430985199991
 30
0.0
 11
26.4668707405131
 21
1.826568413999993
 31
0.0
  0
LINE
  5
7A2
330
1F
100
AcDbEntity
  8
TitleBlock&Notes
  6
Continuous
 62
     3
100
AcDbLine
 10
26.29149893291312
 20
1.839349709999989
 30
0.0
 11
26.4668707405131
 21
1.842410829599987
 31
0.0
  0
LINE
  5
7A3
330
1F
100
AcDbEntity
  8
TitleBlock&Notes
  6
Continuous
 62
     3
100
AcDbLine
 10
26.29534745891313
 20
1.855259287199977
 30
0.0
 11
26.4668707405131
 21
1.858253245199982
 31
0.0
  0
LINE
  5
7A4
330
1F
100
AcDbEntity
  8
TitleBlock&Notes
  6
Continuous
 62
     3
100
AcDbLine
 10
26.29868399651311
 20
1.871159954399985
 30
0.0
 11
26.4668707405131
 21
1.874095660799987
 31
0.0
  0
LINE
  5
7A5
330
1F
100
AcDbEntity
  8
TitleBlock&Notes
  6
Continuous
 62
     3
100
AcDbLine
 10
26.3015190793131
 20
1.887051869999993
 30
0.0
 11
26.4668707405131
 21
1.889938076399992
 31
0.0
  0
LINE
  5
7A6
330
1F
100
AcDbEntity
  8
TitleBlock&Notes
  6
Continuous
 62
     3
100
AcDbLine
 10
26.30386157771311
 20
1.90293515279999
 30
0.0
 11
26.4668707405131
 21
1.905780491999987
 31
0.0
  0
LINE
  5
7A7
330
1F
100
AcDbEntity
  8
TitleBlock&Notes
  6
Continuous
 62
     3
100
AcDbLine
 10
26.30571873851315
 20
1.918810000799993
 30
0.0
 11
26.4668707405131
 21
1.921622907599981
 31
0.0
  0
LINE
  5
7A8
330
1F
100
AcDbEntity
  8
TitleBlock&Notes
  6
Continuous
 62
     3
100
AcDbLine
 10
26.3070964621131
 20
1.934676453599983
 30
0.0
 11
26.4668707405131
 21
1.937465323199987
 31
0.0
  0
LINE
  5
7A9
330
1F
100
AcDbEntity
  8
TitleBlock&Notes
  6
Continuous
 62
     3
100
AcDbLine
 10
26.30799914411314
 20
1.950534629999982
 30
0.0
 11
26.4668707405131
 21
1.953307738799981
 31
0.0
  0
LINE
  5
7AA
330
1F
100
AcDbEntity
  8
TitleBlock&Notes
  6
Continuous
 62
     3
100
AcDbLine
 10
26.4668707405131
 20
1.960511810399992
 30
0.0
 11
26.30832521051311
 21
1.960511810399992
 31
0.0
  0
LINE
  5
7AB
330
1F
100
AcDbEntity
  8
TitleBlock&Notes
  6
Continuous
 62
     3
100
AcDbLine
 10
26.23094479091312
 20
1.695711005999992
 30
0.0
 11
26.4668707405131
 21
1.699829128799986
 31
0.0
  0
LINE
  5
7AC
330
1F
100
AcDbEntity
  8
TitleBlock&Notes
  6
Continuous
 62
     3
100
AcDbLine
 10
25.89464226611311
 20
1.452204665999985
 30
0.0
 11
26.4668707405131
 21
1.462192934399986
 31
0.0
  0
LINE
  5
7AD
330
1F
100
AcDbEntity
  8
TitleBlock&Notes
  6
Continuous
 62
     3
100
AcDbLine
 10
25.95234105011313
 20
1.469054188799994
 30
0.0
 11
26.4668707405131
 21
1.478035349999981
 31
0.0
  0
LINE
  5
7AE
330
1F
100
AcDbEntity
  8
TitleBlock&Notes
  6
Continuous
 62
     3
100
AcDbLine
 10
25.9935743521131
 20
1.485616334399981
 30
0.0
 11
26.4668707405131
 21
1.493877765599975
 31
0.0
  0
LINE
  5
7AF
330
1F
100
AcDbEntity
  8
TitleBlock&Notes
  6
Continuous
 62
     3
100
AcDbLine
 10
26.02686995291311
 20
1.502039919599994
 30
0.0
 11
26.4668707405131
 21
1.509720181199991
 31
0.0
  0
LINE
  5
7B0
330
1F
100
AcDbEntity
  8
TitleBlock&Notes
  6
Continuous
 62
     3
100
AcDbLine
 10
26.05516910291313
 20
1.518376305599986
 30
0.0
 11
26.4668707405131
 21
1.525562596799996
 31
0.0
  0
LINE
  5
7B1
330
1F
100
AcDbEntity
  8
TitleBlock&Notes
  6
Continuous
 62
     3
100
AcDbLine
 10
26.07991118291312
 20
1.534650598799988
 30
0.0
 11
26.4668707405131
 21
1.541405012399991
 31
0.0
  0
LINE
  5
7B2
330
1F
100
AcDbEntity
  8
TitleBlock&Notes
  6
Continuous
 62
     3
100
AcDbLine
 10
26.10193005011314
 20
1.550877332399988
 30
0.0
 11
26.4668707405131
 21
1.557247427999985
 31
0.0
  0
LINE
  5
7B3
330
1F
100
AcDbEntity
  8
TitleBlock&Notes
  6
Continuous
 62
     3
100
AcDbLine
 10
26.12176074011309
 20
1.567065891599984
 30
0.0
 11
26.4668707405131
 21
1.573089803999987
 31
0.0
  0
LINE
  5
7B4
330
1F
100
AcDbEntity
  8
TitleBlock&Notes
  6
Continuous
 62
     3
100
AcDbLine
 10
26.13977109731308
 20
1.583222691599985
 30
0.0
 11
26.4668707405131
 21
1.588932219599982
 31
0.0
  0
LINE
  5
7B5
330
1F
100
AcDbEntity
  8
TitleBlock&Notes
  6
Continuous
 62
     3
100
AcDbLine
 10
26.15622703571307
 20
1.599352325999987
 30
0.0
 11
26.4668707405131
 21
1.604774635199987
 31
0.0
  0
LINE
  5
7B6
330
1F
100
AcDbEntity
  8
TitleBlock&Notes
  6
Continuous
 62
     3
100
AcDbLine
 10
26.17132813931311
 20
1.615458358799987
 30
0.0
 11
26.4668707405131
 21
1.620617050799982
 31
0.0
  0
LINE
  5
7B7
330
1F
100
AcDbEntity
  8
TitleBlock&Notes
  6
Continuous
 62
     3
100
AcDbLine
 10
26.18522861051308
 20
1.631543403599977
 30
0.0
 11
26.4668707405131
 21
1.636459466399976
 31
0.0
  0
LINE
  5
7B8
330
1F
100
AcDbEntity
  8
TitleBlock&Notes
  6
Continuous
 62
     3
100
AcDbLine
 10
26.19805053611314
 20
1.647609598799984
 30
0.0
 11
26.4668707405131
 21
1.652301881999981
 31
0.0
  0
LINE
  5
7B9
330
1F
100
AcDbEntity
  8
TitleBlock&Notes
  6
Continuous
 62
     3
100
AcDbLine
 10
26.20989236171313
 20
1.663658726399987
 30
0.0
 11
26.4668707405131
 21
1.668144297599997
 31
0.0
  0
LINE
  5
7BA
330
1F
100
AcDbEntity
  8
TitleBlock&Notes
  6
Continuous
 62
     3
100
AcDbLine
 10
26.22083483171313
 20
1.679692132799988
 30
0.0
 11
26.4668707405131
 21
1.683986713199992
 31
0.0
  0
LINE
  5
7BB
330
1F
100
AcDbEntity
  8
TitleBlock&Notes
  6
Continuous
 62
     3
100
AcDbLine
 10
27.59547074051309
 20
1.687844069999982
 30
0.0
 11
27.76377074051309
 21
1.690781756399989
 31
0.0
  0
LINE
  5
7BC
330
1F
100
AcDbEntity
  8
TitleBlock&Notes
  6
Continuous
 62
     3
100
AcDbLine
 10
27.59547074051309
 20
1.703686485599977
 30
0.0
 11
27.76377074051309
 21
1.706624171999994
 31
0.0
  0
LINE
  5
7BD
330
1F
100
AcDbEntity
  8
TitleBlock&Notes
  6
Continuous
 62
     3
100
AcDbLine
 10
27.59547074051309
 20
1.719528901199982
 30
0.0
 11
27.76377074051309
 21
1.722466587599988
 31
0.0
  0
LINE
  5
7BE
330
1F
100
AcDbEntity
  8
TitleBlock&Notes
  6
Continuous
 62
     3
100
AcDbLine
 10
27.59547074051309
 20
1.735371316799998
 30
0.0
 11
27.76377074051309
 21
1.738309003199983
 31
0.0
  0
LINE
  5
7BF
330
1F
100
AcDbEntity
  8
TitleBlock&Notes
  6
Continuous
 62
     3
100
AcDbLine
 10
27.59547074051309
 20
1.751213732399993
 30
0.0
 11
27.76377074051309
 21
1.754151418799988
 31
0.0
  0
LINE
  5
7C0
330
1F
100
AcDbEntity
  8
TitleBlock&Notes
  6
Continuous
 62
     3
100
AcDbLine
 10
27.59547074051309
 20
1.767056147999987
 30
0.0
 11
27.76377074051309
 21
1.769993834399983
 31
0.0
  0
LINE
  5
7C1
330
1F
100
AcDbEntity
  8
TitleBlock&Notes
  6
Continuous
 62
     3
100
AcDbLine
 10
27.59547074051309
 20
1.782898563599982
 30
0.0
 11
27.76377074051309
 21
1.785836249999988
 31
0.0
  0
LINE
  5
7C2
330
1F
100
AcDbEntity
  8
TitleBlock&Notes
  6
Continuous
 62
     3
100
AcDbLine
 10
27.59547074051309
 20
1.798740979199987
 30
0.0
 11
27.76377074051309
 21
1.801678665599983
 31
0.0
  0
LINE
  5
7C3
330
1F
100
AcDbEntity
  8
TitleBlock&Notes
  6
Continuous
 62
     3
100
AcDbLine
 10
27.59547074051309
 20
1.814583394799992
 30
0.0
 11
27.76377074051309
 21
1.817521081199977
 31
0.0
  0
LINE
  5
7C4
330
1F
100
AcDbEntity
  8
TitleBlock&Notes
  6
Continuous
 62
     3
100
AcDbLine
 10
27.59547074051309
 20
1.450207875599993
 30
0.0
 11
27.76377074051309
 21
1.453145561999988
 31
0.0
  0
LINE
  5
7C5
330
1F
100
AcDbEntity
  8
TitleBlock&Notes
  6
Continuous
 62
     3
100
AcDbLine
 10
27.59547074051309
 20
1.466050291199987
 30
0.0
 11
27.76377074051309
 21
1.468987977599983
 31
0.0
  0
LINE
  5
7C6
330
1F
100
AcDbEntity
  8
TitleBlock&Notes
  6
Continuous
 62
     3
100
AcDbLine
 10
27.59547074051309
 20
1.481892706799982
 30
0.0
 11
27.76377074051309
 21
1.484830393199988
 31
0.0
  0
LINE
  5
7C7
330
1F
100
AcDbEntity
  8
TitleBlock&Notes
  6
Continuous
 62
     3
100
AcDbLine
 10
27.59547074051309
 20
1.497735122399987
 30
0.0
 11
27.76377074051309
 21
1.500672808799983
 31
0.0
  0
LINE
  5
7C8
330
1F
100
AcDbEntity
  8
TitleBlock&Notes
  6
Continuous
 62
     3
100
AcDbLine
 10
27.59547074051309
 20
1.513577537999982
 30
0.0
 11
27.76377074051309
 21
1.516515224399977
 31
0.0
  0
LINE
  5
7C9
330
1F
100
AcDbEntity
  8
TitleBlock&Notes
  6
Continuous
 62
     3
100
AcDbLine
 10
27.59547074051309
 20
1.529419953599987
 30
0.0
 11
27.76377074051309
 21
1.532357639999993
 31
0.0
  0
LINE
  5
7CA
330
1F
100
AcDbEntity
  8
TitleBlock&Notes
  6
Continuous
 62
     3
100
AcDbLine
 10
27.59547074051309
 20
1.545262369199981
 30
0.0
 11
27.76377074051309
 21
1.548200055599988
 31
0.0
  0
LINE
  5
7CB
330
1F
100
AcDbEntity
  8
TitleBlock&Notes
  6
Continuous
 62
     3
100
AcDbLine
 10
27.59547074051309
 20
1.561104784799976
 30
0.0
 11
27.76377074051309
 21
1.564042471199993
 31
0.0
  0
LINE
  5
7CC
330
1F
100
AcDbEntity
  8
TitleBlock&Notes
  6
Continuous
 62
     3
100
AcDbLine
 10
27.59547074051309
 20
1.576947200399992
 30
0.0
 11
27.76377074051309
 21
1.579884886799987
 31
0.0
  0
LINE
  5
7CD
330
1F
100
AcDbEntity
  8
TitleBlock&Notes
  6
Continuous
 62
     3
100
AcDbLine
 10
27.59547074051309
 20
1.592789615999997
 30
0.0
 11
27.76377074051309
 21
1.595727302399982
 31
0.0
  0
LINE
  5
7CE
330
1F
100
AcDbEntity
  8
TitleBlock&Notes
  6
Continuous
 62
     3
100
AcDbLine
 10
27.59547074051309
 20
1.608632031599992
 30
0.0
 11
27.76377074051309
 21
1.611569717999987
 31
0.0
  0
LINE
  5
7CF
330
1F
100
AcDbEntity
  8
TitleBlock&Notes
  6
Continuous
 62
     3
100
AcDbLine
 10
27.59547074051309
 20
1.624474447199986
 30
0.0
 11
27.76377074051309
 21
1.627412133599982
 31
0.0
  0
LINE
  5
7D0
330
1F
100
AcDbEntity
  8
TitleBlock&Notes
  6
Continuous
 62
     3
100
AcDbLine
 10
27.59547074051309
 20
1.640316862799981
 30
0.0
 11
27.76377074051309
 21
1.643254549199987
 31
0.0
  0
LINE
  5
7D1
330
1F
100
AcDbEntity
  8
TitleBlock&Notes
  6
Continuous
 62
     3
100
AcDbLine
 10
27.59547074051309
 20
1.656159278399986
 30
0.0
 11
27.76377074051309
 21
1.659096964799982
 31
0.0
  0
LINE
  5
7D2
330
1F
100
AcDbEntity
  8
TitleBlock&Notes
  6
Continuous
 62
     3
100
AcDbLine
 10
27.59547074051309
 20
1.672001654399988
 30
0.0
 11
27.76377074051309
 21
1.674939340799994
 31
0.0
  0
LINE
  5
7D3
330
1F
100
AcDbEntity
  8
TitleBlock&Notes
  6
Continuous
 62
     3
100
AcDbLine
 10
27.57567074051312
 20
1.794784265999982
 30
0.0
 11
27.57567074051312
 21
1.458184265999978
 31
0.0
  0
LINE
  5
7D4
330
1F
100
AcDbEntity
  8
TitleBlock&Notes
  6
Continuous
 62
     3
100
AcDbLine
 10
27.55587074051312
 20
1.477984265999975
 30
0.0
 11
27.55587074051312
 21
1.774984265999986
 31
0.0
  0
LINE
  5
7D5
330
1F
100
AcDbEntity
  8
TitleBlock&Notes
  6
Continuous
 62
     3
100
AcDbLine
 10
27.59547074051309
 20
1.438384265999982
 30
0.0
 11
27.59547074051309
 21
1.814584265999979
 31
0.0
  0
LINE
  5
7D6
330
1F
100
AcDbEntity
  8
TitleBlock&Notes
  6
Continuous
 62
     3
100
AcDbLine
 10
33.73526363051311
 20
4.454999999999991
 30
0.0
 11
33.73526363051311
 21
-0.0000000000000178
 31
0.0
  0
LINE
  5
7DE
330
1F
100
AcDbEntity
  8
TitleBlock&Notes
  6
Continuous
 62
     3
100
AcDbLine
 10
32.16927074051309
 20
2.739415733999987
 30
0.0
 11
31.84667872571312
 21
2.739415733999987
 31
0.0
  0
LINE
  5
7DF
330
1F
100
AcDbEntity
  8
TitleBlock&Notes
  6
Continuous
 62
     3
100
AcDbLine
 10
32.16927074051309
 20
2.759215733999994
 30
0.0
 11
31.85521323851315
 21
2.759215733999994
 31
0.0
  0
LINE
  5
7E0
330
1F
100
AcDbEntity
  8
TitleBlock&Notes
  6
Continuous
 62
     3
100
AcDbLine
 10
32.16927074051309
 20
2.77901573399998
 30
0.0
 11
31.86374771171313
 21
2.77901573399998
 31
0.0
  0
LINE
  5
7E1
330
1F
100
AcDbEntity
  8
TitleBlock&Notes
  6
Continuous
 62
     3
100
AcDbLine
 10
32.16927074051309
 20
3.032674009199983
 30
0.0
 11
31.97308315331308
 21
3.032674009199983
 31
0.0
  0
LINE
  5
7E2
330
1F
100
AcDbEntity
  8
TitleBlock&Notes
  6
Continuous
 62
     3
100
AcDbLine
 10
32.16927074051309
 20
3.052474009199979
 30
0.0
 11
31.98161766611311
 21
3.052474009199979
 31
0.0
  0
LINE
  5
7E3
330
1F
100
AcDbEntity
  8
TitleBlock&Notes
  6
Continuous
 62
     3
100
AcDbLine
 10
32.16927074051309
 20
3.072274009199997
 30
0.0
 11
31.99015213931313
 21
3.072274009199997
 31
0.0
  0
LINE
  5
7E4
330
1F
100
AcDbEntity
  8
TitleBlock&Notes
  6
Continuous
 62
     3
100
AcDbLine
 10
31.9645486801131
 20
3.012874009199986
 30
0.0
 11
32.16927074051309
 21
3.012874009199986
 31
0.0
  0
LINE
  5
7E5
330
1F
100
AcDbEntity
  8
TitleBlock&Notes
  6
Continuous
 62
     3
100
AcDbLine
 10
31.71321334091311
 20
2.42977600799999
 30
0.0
 11
32.16927074051309
 21
2.437736518799983
 31
0.0
  0
LINE
  5
7E6
330
1F
100
AcDbEntity
  8
TitleBlock&Notes
  6
Continuous
 62
     3
100
AcDbLine
 10
31.55547074051309
 20
2.04329105639999
 30
0.0
 11
32.16927074051309
 21
2.054004955199982
 31
0.0
  0
LINE
  5
7E7
330
1F
100
AcDbEntity
  8
TitleBlock&Notes
  6
Continuous
 62
     3
100
AcDbLine
 10
31.55547074051309
 20
2.059133471999984
 30
0.0
 11
32.16927074051309
 21
2.069847370799976
 31
0.0
  0
LINE
  5
7E8
330
1F
100
AcDbEntity
  8
TitleBlock&Notes
  6
Continuous
 62
     3
100
AcDbLine
 10
31.56031873091309
 20
2.075060512799989
 30
0.0
 11
32.16927074051309
 21
2.085689786399992
 31
0.0
  0
LINE
  5
7E9
330
1F
100
AcDbEntity
  8
TitleBlock&Notes
  6
Continuous
 62
     3
100
AcDbLine
 10
31.56719911211312
 20
2.091022995599995
 30
0.0
 11
32.16927074051309
 21
2.101532201999987
 31
0.0
  0
LINE
  5
7EA
330
1F
100
AcDbEntity
  8
TitleBlock&Notes
  6
Continuous
 62
     3
100
AcDbLine
 10
31.57407949331309
 20
2.106985517999994
 30
0.0
 11
32.16927074051309
 21
2.117374617599992
 31
0.0
  0
LINE
  5
7EB
330
1F
100
AcDbEntity
  8
TitleBlock&Notes
  6
Continuous
 62
     3
100
AcDbLine
 10
31.58095991411311
 20
2.122948040399993
 30
0.0
 11
32.16927074051309
 21
2.133217033199986
 31
0.0
  0
LINE
  5
7EC
330
1F
100
AcDbEntity
  8
TitleBlock&Notes
  6
Continuous
 62
     3
100
AcDbLine
 10
31.58784029531314
 20
2.138910523199989
 30
0.0
 11
32.16927074051309
 21
2.149059448799981
 31
0.0
  0
LINE
  5
7ED
330
1F
100
AcDbEntity
  8
TitleBlock&Notes
  6
Continuous
 62
     3
100
AcDbLine
 10
31.59472067651313
 20
2.154873045599988
 30
0.0
 11
32.16927074051309
 21
2.164901864399986
 31
0.0
  0
LINE
  5
7EE
330
1F
100
AcDbEntity
  8
TitleBlock&Notes
  6
Continuous
 62
     3
100
AcDbLine
 10
31.60160109731313
 20
2.170835567999986
 30
0.0
 11
32.16927074051309
 21
2.180744279999981
 31
0.0
  0
LINE
  5
7EF
330
1F
100
AcDbEntity
  8
TitleBlock&Notes
  6
Continuous
 62
     3
100
AcDbLine
 10
31.60848147851312
 20
2.186798050799982
 30
0.0
 11
32.16927074051309
 21
2.196586695599986
 31
0.0
  0
LINE
  5
7F0
330
1F
100
AcDbEntity
  8
TitleBlock&Notes
  6
Continuous
 62
     3
100
AcDbLine
 10
31.61536185971309
 20
2.202760573199981
 30
0.0
 11
32.16927074051309
 21
2.21242911119998
 31
0.0
  0
LINE
  5
7F1
330
1F
100
AcDbEntity
  8
TitleBlock&Notes
  6
Continuous
 62
     3
100
AcDbLine
 10
31.62224224091312
 20
2.21872309559998
 30
0.0
 11
32.16927074051309
 21
2.228271526799975
 31
0.0
  0
LINE
  5
7F2
330
1F
100
AcDbEntity
  8
TitleBlock&Notes
  6
Continuous
 62
     3
100
AcDbLine
 10
31.62912266171309
 20
2.234685617999979
 30
0.0
 11
32.16927074051309
 21
2.244113902799988
 31
0.0
  0
LINE
  5
7F3
330
1F
100
AcDbEntity
  8
TitleBlock&Notes
  6
Continuous
 62
     3
100
AcDbLine
 10
31.63600304291313
 20
2.250648100799974
 30
0.0
 11
32.16927074051309
 21
2.259956318399993
 31
0.0
  0
LINE
  5
7F4
330
1F
100
AcDbEntity
  8
TitleBlock&Notes
  6
Continuous
 62
     3
100
AcDbLine
 10
31.6428834241131
 20
2.266610623199994
 30
0.0
 11
32.16927074051309
 21
2.275798733999987
 31
0.0
  0
LINE
  5
7F5
330
1F
100
AcDbEntity
  8
TitleBlock&Notes
  6
Continuous
 62
     3
100
AcDbLine
 10
31.64976384491311
 20
2.282573145599993
 30
0.0
 11
32.16927074051309
 21
2.291641149599982
 31
0.0
  0
LINE
  5
7F6
330
1F
100
AcDbEntity
  8
TitleBlock&Notes
  6
Continuous
 62
     3
100
AcDbLine
 10
31.65664422611315
 20
2.298535628399989
 30
0.0
 11
32.16927074051309
 21
2.307483565199987
 31
0.0
  0
LINE
  5
7F7
330
1F
100
AcDbEntity
  8
TitleBlock&Notes
  6
Continuous
 62
     3
100
AcDbLine
 10
31.66352460731312
 20
2.314498150799987
 30
0.0
 11
32.16927074051309
 21
2.323325980799982
 31
0.0
  0
LINE
  5
7F8
330
1F
100
AcDbEntity
  8
TitleBlock&Notes
  6
Continuous
 62
     3
100
AcDbLine
 10
31.67040498851311
 20
2.330460673199986
 30
0.0
 11
32.16927074051309
 21
2.339168396399987
 31
0.0
  0
LINE
  5
7F9
330
1F
100
AcDbEntity
  8
TitleBlock&Notes
  6
Continuous
 62
     3
100
AcDbLine
 10
31.55547074051309
 20
1.693596484799979
 30
0.0
 11
32.16927074051309
 21
1.704310423199984
 31
0.0
  0
LINE
  5
7FA
330
1F
100
AcDbEntity
  8
TitleBlock&Notes
  6
Continuous
 62
     3
100
AcDbLine
 10
31.55547074051309
 20
1.709438900399995
 30
0.0
 11
32.16927074051309
 21
1.72015283879999
 31
0.0
  0
LINE
  5
7FB
330
1F
100
AcDbEntity
  8
TitleBlock&Notes
  6
Continuous
 62
     3
100
AcDbLine
 10
31.55547074051309
 20
1.725281315999978
 30
0.0
 11
32.16927074051309
 21
1.735995254399984
 31
0.0
  0
LINE
  5
7FC
330
1F
100
AcDbEntity
  8
TitleBlock&Notes
  6
Continuous
 62
     3
100
AcDbLine
 10
31.55547074051309
 20
1.741123731599973
 30
0.0
 11
32.16927074051309
 21
1.751837630399975
 31
0.0
  0
LINE
  5
7FD
330
1F
100
AcDbEntity
  8
TitleBlock&Notes
  6
Continuous
 62
     3
100
AcDbLine
 10
31.55547074051309
 20
1.756966147199989
 30
0.0
 11
32.16927074051309
 21
1.767680045999991
 31
0.0
  0
LINE
  5
7FE
330
1F
100
AcDbEntity
  8
TitleBlock&Notes
  6
Continuous
 62
     3
100
AcDbLine
 10
31.55547074051309
 20
1.772808562799994
 30
0.0
 11
32.16927074051309
 21
1.783522461599996
 31
0.0
  0
LINE
  5
7FF
330
1F
100
AcDbEntity
  8
TitleBlock&Notes
  6
Continuous
 62
     3
100
AcDbLine
 10
31.55547074051309
 20
1.788650978399989
 30
0.0
 11
32.16927074051309
 21
1.799364877199991
 31
0.0
  0
LINE
  5
800
330
1F
100
AcDbEntity
  8
TitleBlock&Notes
  6
Continuous
 62
     3
100
AcDbLine
 10
31.55547074051309
 20
1.804493393999983
 30
0.0
 11
32.16927074051309
 21
1.815207292799986
 31
0.0
  0
LINE
  5
801
330
1F
100
AcDbEntity
  8
TitleBlock&Notes
  6
Continuous
 62
     3
100
AcDbLine
 10
31.55547074051309
 20
1.820335809599988
 30
0.0
 11
32.16927074051309
 21
1.83104970839998
 31
0.0
  0
LINE
  5
802
330
1F
100
AcDbEntity
  8
TitleBlock&Notes
  6
Continuous
 62
     3
100
AcDbLine
 10
31.55547074051309
 20
1.836178225199983
 30
0.0
 11
32.16927074051309
 21
1.846892123999985
 31
0.0
  0
LINE
  5
803
330
1F
100
AcDbEntity
  8
TitleBlock&Notes
  6
Continuous
 62
     3
100
AcDbLine
 10
31.55547074051309
 20
1.852020601199985
 30
0.0
 11
32.16927074051309
 21
1.862734539599991
 31
0.0
  0
LINE
  5
804
330
1F
100
AcDbEntity
  8
TitleBlock&Notes
  6
Continuous
 62
     3
100
AcDbLine
 10
31.55547074051309
 20
1.867863016799979
 30
0.0
 11
32.16927074051309
 21
1.878576955199985
 31
0.0
  0
LINE
  5
805
330
1F
100
AcDbEntity
  8
TitleBlock&Notes
  6
Continuous
 62
     3
100
AcDbLine
 10
31.55547074051309
 20
1.883705432399974
 30
0.0
 11
32.16927074051309
 21
1.89441937079998
 31
0.0
  0
LINE
  5
806
330
1F
100
AcDbEntity
  8
TitleBlock&Notes
  6
Continuous
 62
     3
100
AcDbLine
 10
31.55547074051309
 20
1.89954784799999
 30
0.0
 11
32.16927074051309
 21
1.910261786399985
 31
0.0
  0
LINE
  5
807
330
1F
100
AcDbEntity
  8
TitleBlock&Notes
  6
Continuous
 62
     3
100
AcDbLine
 10
31.55547074051309
 20
1.915390263599995
 30
0.0
 11
32.16927074051309
 21
1.926104201999979
 31
0.0
  0
LINE
  5
808
330
1F
100
AcDbEntity
  8
TitleBlock&Notes
  6
Continuous
 62
     3
100
AcDbLine
 10
31.55547074051309
 20
1.93123267919999
 30
0.0
 11
32.16927074051309
 21
1.941946617599995
 31
0.0
  0
LINE
  5
809
330
1F
100
AcDbEntity
  8
TitleBlock&Notes
  6
Continuous
 62
     3
100
AcDbLine
 10
31.55547074051309
 20
1.947075094799984
 30
0.0
 11
32.16927074051309
 21
1.95778903319999
 31
0.0
  0
LINE
  5
80A
330
1F
100
AcDbEntity
  8
TitleBlock&Notes
  6
Continuous
 62
     3
100
AcDbLine
 10
31.71254623931313
 20
2.428228360799984
 30
0.0
 11
32.16927074051309
 21
2.428228360799984
 31
0.0
  0
LINE
  5
80B
330
1F
100
AcDbEntity
  8
TitleBlock&Notes
  6
Continuous
 62
     3
100
AcDbLine
 10
31.67894591651309
 20
2.350275602399982
 30
0.0
 11
32.16927074051309
 21
2.350275602399982
 31
0.0
  0
LINE
  5
80C
330
1F
100
AcDbEntity
  8
TitleBlock&Notes
  6
Continuous
 62
     3
100
AcDbLine
 10
31.55547074051309
 20
2.038464568799984
 30
0.0
 11
32.16927074051309
 21
2.038464568799984
 31
0.0
  0
LINE
  5
80D
330
1F
100
AcDbEntity
  8
TitleBlock&Notes
  6
Continuous
 62
     3
100
AcDbLine
 10
31.55547074051309
 20
1.960511810399992
 30
0.0
 11
32.16927074051309
 21
1.960511810399992
 31
0.0
  0
LINE
  5
80E
330
1F
100
AcDbEntity
  8
TitleBlock&Notes
  6
Continuous
 62
     3
100
AcDbLine
 10
32.16927074051309
 20
2.720862975599995
 30
0.0
 11
31.83868186211312
 21
2.720862975599995
 31
0.0
  0
LINE
  5
80F
330
1F
100
AcDbEntity
  8
TitleBlock&Notes
  6
Continuous
 62
     3
100
AcDbLine
 10
31.72009372211308
 20
2.445738490799985
 30
0.0
 11
32.16927074051309
 21
2.453578934399978
 31
0.0
  0
LINE
  5
810
330
1F
100
AcDbEntity
  8
TitleBlock&Notes
  6
Continuous
 62
     3
100
AcDbLine
 10
31.72697410331311
 20
2.461701013199984
 30
0.0
 11
32.16927074051309
 21
2.46942131039998
 31
0.0
  0
LINE
  5
811
330
1F
100
AcDbEntity
  8
TitleBlock&Notes
  6
Continuous
 62
     3
100
AcDbLine
 10
31.73385452411313
 20
2.477663535599994
 30
0.0
 11
32.16927074051309
 21
2.485263725999995
 31
0.0
  0
LINE
  5
812
330
1F
100
AcDbEntity
  8
TitleBlock&Notes
  6
Continuous
 62
     3
100
AcDbLine
 10
31.7407349053131
 20
2.493626018399989
 30
0.0
 11
32.16927074051309
 21
2.50110614159999
 31
0.0
  0
LINE
  5
813
330
1F
100
AcDbEntity
  8
TitleBlock&Notes
  6
Continuous
 62
     3
100
AcDbLine
 10
31.74761528651316
 20
2.509588540799988
 30
0.0
 11
32.16927074051309
 21
2.516948557199985
 31
0.0
  0
LINE
  5
814
330
1F
100
AcDbEntity
  8
TitleBlock&Notes
  6
Continuous
 62
     3
100
AcDbLine
 10
31.75449570731311
 20
2.525551063199987
 30
0.0
 11
32.16927074051309
 21
2.53279097279999
 31
0.0
  0
LINE
  5
815
330
1F
100
AcDbEntity
  8
TitleBlock&Notes
  6
Continuous
 62
     3
100
AcDbLine
 10
31.76137608851314
 20
2.541513545999983
 30
0.0
 11
32.16927074051309
 21
2.548633388399984
 31
0.0
  0
LINE
  5
816
330
1F
100
AcDbEntity
  8
TitleBlock&Notes
  6
Continuous
 62
     3
100
AcDbLine
 10
31.76825646971311
 20
2.557476068399981
 30
0.0
 11
32.16927074051309
 21
2.564475803999989
 31
0.0
  0
LINE
  5
817
330
1F
100
AcDbEntity
  8
TitleBlock&Notes
  6
Continuous
 62
     3
100
AcDbLine
 10
31.77513685091311
 20
2.57343859079998
 30
0.0
 11
32.16927074051309
 21
2.580318219599984
 31
0.0
  0
LINE
  5
818
330
1F
100
AcDbEntity
  8
TitleBlock&Notes
  6
Continuous
 62
     3
100
AcDbLine
 10
31.7820172717131
 20
2.589401113199979
 30
0.0
 11
32.16927074051309
 21
2.596160635199979
 31
0.0
  0
LINE
  5
819
330
1F
100
AcDbEntity
  8
TitleBlock&Notes
  6
Continuous
 62
     3
100
AcDbLine
 10
31.78889765291309
 20
2.605363595999975
 30
0.0
 11
32.16927074051309
 21
2.612003050799984
 31
0.0
  0
LINE
  5
81A
330
1F
100
AcDbEntity
  8
TitleBlock&Notes
  6
Continuous
 62
     3
100
AcDbLine
 10
31.83014738891314
 20
2.701062975599977
 30
0.0
 11
32.16927074051309
 21
2.701062975599977
 31
0.0
  0
LINE
  5
81B
330
1F
100
AcDbEntity
  8
TitleBlock&Notes
  6
Continuous
 62
     3
100
AcDbLine
 10
31.7965470661131
 20
2.623110217199986
 30
0.0
 11
32.16927074051309
 21
2.623110217199986
 31
0.0
  0
LINE
  5
81C
330
1F
100
AcDbEntity
  8
TitleBlock&Notes
  6
Continuous
 62
     3
100
AcDbLine
 10
31.55547074051309
 20
1.440117874799984
 30
0.0
 11
32.16927074051309
 21
1.450831813199979
 31
0.0
  0
LINE
  5
81D
330
1F
100
AcDbEntity
  8
TitleBlock&Notes
  6
Continuous
 62
     3
100
AcDbLine
 10
31.55547074051309
 20
1.455960290399989
 30
0.0
 11
32.16927074051309
 21
1.466674228799973
 31
0.0
  0
LINE
  5
81E
330
1F
100
AcDbEntity
  8
TitleBlock&Notes
  6
Continuous
 62
     3
100
AcDbLine
 10
31.55547074051309
 20
1.471802705999984
 30
0.0
 11
32.16927074051309
 21
1.482516644399989
 31
0.0
  0
LINE
  5
81F
330
1F
100
AcDbEntity
  8
TitleBlock&Notes
  6
Continuous
 62
     3
100
AcDbLine
 10
31.55547074051309
 20
1.487645121599989
 30
0.0
 11
32.16927074051309
 21
1.498359059999994
 31
0.0
  0
LINE
  5
820
330
1F
100
AcDbEntity
  8
TitleBlock&Notes
  6
Continuous
 62
     3
100
AcDbLine
 10
31.55547074051309
 20
1.503487537199983
 30
0.0
 11
32.16927074051309
 21
1.514201435999986
 31
0.0
  0
LINE
  5
821
330
1F
100
AcDbEntity
  8
TitleBlock&Notes
  6
Continuous
 62
     3
100
AcDbLine
 10
31.55547074051309
 20
1.519329952799978
 30
0.0
 11
32.16927074051309
 21
1.53004385159998
 31
0.0
  0
LINE
  5
822
330
1F
100
AcDbEntity
  8
TitleBlock&Notes
  6
Continuous
 62
     3
100
AcDbLine
 10
31.55547074051309
 20
1.535172368399983
 30
0.0
 11
32.16927074051309
 21
1.545886267199986
 31
0.0
  0
LINE
  5
823
330
1F
100
AcDbEntity
  8
TitleBlock&Notes
  6
Continuous
 62
     3
100
AcDbLine
 10
31.55547074051309
 20
1.551014783999978
 30
0.0
 11
32.16927074051309
 21
1.56172868279998
 31
0.0
  0
LINE
  5
824
330
1F
100
AcDbEntity
  8
TitleBlock&Notes
  6
Continuous
 62
     3
100
AcDbLine
 10
31.55547074051309
 20
1.566857199599994
 30
0.0
 11
32.16927074051309
 21
1.577571098399985
 31
0.0
  0
LINE
  5
825
330
1F
100
AcDbEntity
  8
TitleBlock&Notes
  6
Continuous
 62
     3
100
AcDbLine
 10
31.55547074051309
 20
1.582699615199988
 30
0.0
 11
32.16927074051309
 21
1.59341351399998
 31
0.0
  0
LINE
  5
826
330
1F
100
AcDbEntity
  8
TitleBlock&Notes
  6
Continuous
 62
     3
100
AcDbLine
 10
31.55547074051309
 20
1.598542030799983
 30
0.0
 11
32.16927074051309
 21
1.609255929599974
 31
0.0
  0
LINE
  5
827
330
1F
100
AcDbEntity
  8
TitleBlock&Notes
  6
Continuous
 62
     3
100
AcDbLine
 10
31.55547074051309
 20
1.614384406799985
 30
0.0
 11
32.16927074051309
 21
1.62509834519999
 31
0.0
  0
LINE
  5
828
330
1F
100
AcDbEntity
  8
TitleBlock&Notes
  6
Continuous
 62
     3
100
AcDbLine
 10
31.55547074051309
 20
1.63022682239999
 30
0.0
 11
32.16927074051309
 21
1.640940760799995
 31
0.0
  0
LINE
  5
829
330
1F
100
AcDbEntity
  8
TitleBlock&Notes
  6
Continuous
 62
     3
100
AcDbLine
 10
31.55547074051309
 20
1.646069237999984
 30
0.0
 11
32.16927074051309
 21
1.65678317639999
 31
0.0
  0
LINE
  5
82A
330
1F
100
AcDbEntity
  8
TitleBlock&Notes
  6
Continuous
 62
     3
100
AcDbLine
 10
31.55547074051309
 20
1.661911653599979
 30
0.0
 11
32.16927074051309
 21
1.672625591999985
 31
0.0
  0
LINE
  5
82B
330
1F
100
AcDbEntity
  8
TitleBlock&Notes
  6
Continuous
 62
     3
100
AcDbLine
 10
32.13910567811312
 20
1.180984265999995
 30
0.0
 11
33.73526363051311
 21
1.208845281599977
 31
0.0
  0
LINE
  5
82C
330
1F
100
AcDbEntity
  8
TitleBlock&Notes
  6
Continuous
 62
     3
100
AcDbLine
 10
31.2314944681131
 20
1.180984265999995
 30
0.0
 11
33.73526363051311
 21
1.224687697199982
 31
0.0
  0
LINE
  5
82D
330
1F
100
AcDbEntity
  8
TitleBlock&Notes
  6
Continuous
 62
     3
100
AcDbLine
 10
30.32388321851312
 20
1.180984265999995
 30
0.0
 11
33.73526363051311
 21
1.240530112799998
 31
0.0
  0
LINE
  5
82E
330
1F
100
AcDbEntity
  8
TitleBlock&Notes
  6
Continuous
 62
     3
100
AcDbLine
 10
29.4162720085131
 20
1.180984265999995
 30
0.0
 11
33.73526363051311
 21
1.256372528399992
 31
0.0
  0
LINE
  5
82F
330
1F
100
AcDbEntity
  8
TitleBlock&Notes
  6
Continuous
 62
     3
100
AcDbLine
 10
28.50866079851314
 20
1.180984265999995
 30
0.0
 11
33.73526363051311
 21
1.272214943999976
 31
0.0
  0
TEXT
  5
830
330
1F
100
AcDbEntity
  8
TitleBlock&Notes
  6
Continuous
 62
     3
100
AcDbText
 10
30.28568961251311
 20
0.515764418399995
 30
0.0
 40
0.2772
  1
 HYDRAULICS
 41
0.8
 51
11.0
100
AcDbText
  0
LINE
  5
831
330
1F
100
AcDbEntity
  8
TitleBlock&Notes
  6
Continuous
 62
     3
100
AcDbLine
 10
31.55547074051309
 20
1.677754069199984
 30
0.0
 11
32.16927074051309
 21
1.68846800759999
 31
0.0
  0
TEXT
  5
832
330
1F
100
AcDbEntity
  8
TitleBlock&Notes
  6
Continuous
 62
     3
100
AcDbText
 10
28.46985826331314
 20
0.515764418399995
 30
0.0
 40
0.2772
  1
 POWER
 41
0.8
 51
11.0
100
AcDbText
  0
TEXT
  5
833
330
1F
100
AcDbEntity
  8
TitleBlock&Notes
  6
Continuous
 62
     3
100
AcDbText
 10
29.66330227331313
 20
0.515764418399995
 30
0.0
 40
0.2772
  1
 of
 41
0.8
 51
11.0
100
AcDbText
  0
LINE
  5
834
330
1F
100
AcDbEntity
  8
TitleBlock&Notes
  6
Continuous
 62
     3
100
AcDbLine
 10
29.94920651171314
 20
1.823983167599987
 30
0.0
 11
30.1246925257131
 21
1.827046306799982
 31
0.0
  0
ARC
  5
835
330
1F
100
AcDbEntity
  8
TitleBlock&Notes
  6
Continuous
 62
     3
100
AcDbCircle
 10
30.03087074051313
 20
2.522274559199998
 30
0.0
 40
0.7179135876000001
100
AcDbArc
 50
5.15538982000007
 51
173.2499419800004
  0
ARC
  5
836
330
1F
100
AcDbEntity
  8
TitleBlock&Notes
  6
Continuous
 62
     3
100
AcDbCircle
 10
30.03087074051313
 20
2.522274559199998
 30
0.0
 40
0.4011096672000001
100
AcDbArc
 50
12.13355042000009
 51
170.8448616600005
  0
ARC
  5
837
330
1F
100
AcDbEntity
  8
TitleBlock&Notes
  6
Continuous
 62
     3
100
AcDbCircle
 10
30.03087074051313
 20
2.522274559199998
 30
0.0
 40
0.7377135876000001
100
AcDbArc
 50
3.474582379999952
 51
173.2499419800004
  0
ARC
  5
838
330
1F
100
AcDbEntity
  8
TitleBlock&Notes
  6
Continuous
 62
     3
100
AcDbCircle
 10
30.03087074051313
 20
2.522274559199998
 30
0.0
 40
0.6981096672
100
AcDbArc
 50
6.936458519999994
 51
173.0635414800004
  0
ARC
  5
839
330
1F
100
AcDbEntity
  8
TitleBlock&Notes
  6
Continuous
 62
     3
100
AcDbCircle
 10
30.03087074051313
 20
2.173768621199981
 30
0.0
 40
0.3987843948
100
AcDbArc
 50
186.7746279100004
 51
351.0289824700008
  0
ARC
  5
83A
330
1F
100
AcDbEntity
  8
TitleBlock&Notes
  6
Continuous
 62
     3
100
AcDbCircle
 10
30.03087074051313
 20
2.522274559199998
 30
0.0
 40
0.3827223972
100
AcDbArc
 50
9.703799320000049
 51
166.2342647900004
  0
ARC
  5
83B
330
1F
100
AcDbEntity
  8
TitleBlock&Notes
  6
Continuous
 62
     3
100
AcDbCircle
 10
30.03087074051313
 20
2.522274559199998
 30
0.0
 40
0.3629223972
100
AcDbArc
 50
7.076443859999911
 51
166.2342647900004
  0
LINE
  5
83C
330
1F
100
AcDbEntity
  8
TitleBlock&Notes
  6
Continuous
 62
     3
100
AcDbLine
 10
29.80932632291312
 20
2.428228360799984
 30
0.0
 11
31.0131380485131
 21
2.449240952399986
 31
0.0
  0
LINE
  5
83D
330
1F
100
AcDbEntity
  8
TitleBlock&Notes
  6
Continuous
 62
     3
100
AcDbLine
 10
29.67701488211309
 20
2.441761264799989
 30
0.0
 11
31.00636042931311
 21
2.464965082799988
 31
0.0
  0
LINE
  5
83E
330
1F
100
AcDbEntity
  8
TitleBlock&Notes
  6
Continuous
 62
     3
100
AcDbLine
 10
29.67714381971312
 20
2.457605897999986
 30
0.0
 11
30.99958277051313
 21
2.480689173599987
 31
0.0
  0
LINE
  5
83F
330
1F
100
AcDbEntity
  8
TitleBlock&Notes
  6
Continuous
 62
     3
100
AcDbLine
 10
29.67727271771313
 20
2.473450570799975
 30
0.0
 11
30.99280515131312
 21
2.496413303999979
 31
0.0
  0
LINE
  5
840
330
1F
100
AcDbEntity
  8
TitleBlock&Notes
  6
Continuous
 62
     3
100
AcDbLine
 10
29.6774016553131
 20
2.489295243599997
 30
0.0
 11
30.98602749251314
 21
2.512137394799989
 31
0.0
  0
LINE
  5
841
330
1F
100
AcDbEntity
  8
TitleBlock&Notes
  6
Continuous
 62
     3
100
AcDbLine
 10
29.6775305533131
 20
2.505139916399986
 30
0.0
 11
30.97924987331309
 21
2.527861485599988
 31
0.0
  0
LINE
  5
842
330
1F
100
AcDbEntity
  8
TitleBlock&Notes
  6
Continuous
 62
     3
100
AcDbLine
 10
29.67765949091313
 20
2.520984589199986
 30
0.0
 11
30.97247225411313
 21
2.54358561599999
 31
0.0
  0
LINE
  5
843
330
1F
100
AcDbEntity
  8
TitleBlock&Notes
  6
Continuous
 62
     3
100
AcDbLine
 10
29.67778838891314
 20
2.536829222399983
 30
0.0
 11
30.96569459531311
 21
2.559309706799979
 31
0.0
  0
LINE
  5
844
330
1F
100
AcDbEntity
  8
TitleBlock&Notes
  6
Continuous
 62
     3
100
AcDbLine
 10
29.67466577051313
 20
2.153043208799996
 30
0.0
 11
31.12986098891314
 21
2.178443717999986
 31
0.0
  0
LINE
  5
845
330
1F
100
AcDbEntity
  8
TitleBlock&Notes
  6
Continuous
 62
     3
100
AcDbLine
 10
29.67479470811309
 20
2.168887841999993
 30
0.0
 11
31.12308336971308
 21
2.194167808799996
 31
0.0
  0
LINE
  5
846
330
1F
100
AcDbEntity
  8
TitleBlock&Notes
  6
Continuous
 62
     3
100
AcDbLine
 10
29.6749236061131
 20
2.184732514799982
 30
0.0
 11
31.11630571091311
 21
2.209891939199987
 31
0.0
  0
LINE
  5
847
330
1F
100
AcDbEntity
  8
TitleBlock&Notes
  6
Continuous
 62
     3
100
AcDbLine
 10
29.67505254371313
 20
2.200577187599982
 30
0.0
 11
31.10952809171311
 21
2.225616029999986
 31
0.0
  0
LINE
  5
848
330
1F
100
AcDbEntity
  8
TitleBlock&Notes
  6
Continuous
 62
     3
100
AcDbLine
 10
29.67518144171314
 20
2.216421860399982
 30
0.0
 11
31.1027504725131
 21
2.241340160399989
 31
0.0
  0
LINE
  5
849
330
1F
100
AcDbEntity
  8
TitleBlock&Notes
  6
Continuous
 62
     3
100
AcDbLine
 10
29.67531037931311
 20
2.23226649359999
 30
0.0
 11
31.09597281371312
 21
2.257064251199977
 31
0.0
  0
LINE
  5
84A
330
1F
100
AcDbEntity
  8
TitleBlock&Notes
  6
Continuous
 62
     3
100
AcDbLine
 10
29.67543927731311
 20
2.24811116639999
 30
0.0
 11
31.08919519451313
 21
2.27278838159998
 31
0.0
  0
LINE
  5
84B
330
1F
100
AcDbEntity
  8
TitleBlock&Notes
  6
Continuous
 62
     3
100
AcDbLine
 10
29.67556821491315
 20
2.26395583919999
 30
0.0
 11
31.08241757531311
 21
2.28851247239999
 31
0.0
  0
LINE
  5
84C
330
1F
100
AcDbEntity
  8
TitleBlock&Notes
  6
Continuous
 62
     3
100
AcDbLine
 10
29.67569711291309
 20
2.27980051199999
 30
0.0
 11
31.07563991651314
 21
2.304236602799992
 31
0.0
  0
LINE
  5
84D
330
1F
100
AcDbEntity
  8
TitleBlock&Notes
  6
Continuous
 62
     3
100
AcDbLine
 10
29.67582605051312
 20
2.295645145199976
 30
0.0
 11
31.06886229731308
 21
2.319960693599981
 31
0.0
  0
LINE
  5
84E
330
1F
100
AcDbEntity
  8
TitleBlock&Notes
  6
Continuous
 62
     3
100
AcDbLine
 10
29.67595494851313
 20
2.311489817999998
 30
0.0
 11
31.06208467811315
 21
2.335684823999983
 31
0.0
  0
LINE
  5
84F
330
1F
100
AcDbEntity
  8
TitleBlock&Notes
  6
Continuous
 62
     3
100
AcDbLine
 10
29.6760838861131
 20
2.327334490799977
 30
0.0
 11
30.9903788593131
 21
2.350275602399982
 31
0.0
  0
LINE
  5
850
330
1F
100
AcDbEntity
  8
TitleBlock&Notes
  6
Continuous
 62
     3
100
AcDbLine
 10
29.6769047941131
 20
2.428228360799984
 30
0.0
 11
31.02219520211314
 21
2.428228360799984
 31
0.0
  0
LINE
  5
851
330
1F
100
AcDbEntity
  8
TitleBlock&Notes
  6
Continuous
 62
     3
100
AcDbLine
 10
29.67627052091314
 20
2.350275602399982
 30
0.0
 11
31.05579552491311
 21
2.350275602399982
 31
0.0
  0
ARC
  5
852
330
1F
100
AcDbEntity
  8
TitleBlock&Notes
  6
Continuous
 62
     3
100
AcDbCircle
 10
30.03087074051313
 20
2.173768621199981
 30
0.0
 40
0.3789920376
100
AcDbArc
 50
187.1485089300005
 51
353.5789239900008
  0
LINE
  5
853
330
1F
100
AcDbEntity
  8
TitleBlock&Notes
  6
Continuous
 62
     3
100
AcDbLine
 10
29.69075477531315
 20
2.058269558399988
 30
0.0
 11
30.37481036291311
 21
2.070209789999992
 31
0.0
  0
ARC
  5
854
330
1F
100
AcDbEntity
  8
TitleBlock&Notes
  6
Continuous
 62
     3
100
AcDbCircle
 10
30.03087074051313
 20
2.173768621199981
 30
0.0
 40
0.3591920376
100
AcDbArc
 50
187.1485089300005
 51
356.3951218200007
  0
LINE
  5
855
330
1F
100
AcDbEntity
  8
TitleBlock&Notes
  6
Continuous
 62
     3
100
AcDbLine
 10
29.6965135657131
 20
2.042527647599985
 30
0.0
 11
30.36960446771312
 21
2.054276492399981
 31
0.0
  0
LINE
  5
856
330
1F
100
AcDbEntity
  8
TitleBlock&Notes
  6
Continuous
 62
     3
100
AcDbLine
 10
29.90073555731312
 20
1.838979529199981
 30
0.0
 11
30.17261058491311
 21
1.843725113999987
 31
0.0
  0
LINE
  5
857
330
1F
100
AcDbEntity
  8
TitleBlock&Notes
  6
Continuous
 62
     3
100
AcDbLine
 10
29.8668161773131
 20
1.854229885199973
 30
0.0
 11
30.20597706971313
 21
1.860149926799984
 31
0.0
  0
LINE
  5
858
330
1F
100
AcDbEntity
  8
TitleBlock&Notes
  6
Continuous
 62
     3
100
AcDbLine
 10
29.83981840211307
 20
1.869601021199994
 30
0.0
 11
30.23242194971309
 21
1.876453959599995
 31
0.0
  0
LINE
  5
859
330
1F
100
AcDbEntity
  8
TitleBlock&Notes
  6
Continuous
 62
     3
100
AcDbLine
 10
29.8171896949131
 20
1.885048466399986
 30
0.0
 11
30.25449776171309
 21
1.892681722799995
 31
0.0
  0
LINE
  5
85A
330
1F
100
AcDbEntity
  8
TitleBlock&Notes
  6
Continuous
 62
     3
100
AcDbLine
 10
29.7976952089131
 20
1.900550599199995
 30
0.0
 11
30.27343935251315
 21
1.908854758799986
 31
0.0
  0
LINE
  5
85B
330
1F
100
AcDbEntity
  8
TitleBlock&Notes
  6
Continuous
 62
     3
100
AcDbLine
 10
29.78062440131312
 20
1.916095024799975
 30
0.0
 11
30.28995730451309
 21
1.92498546239998
 31
0.0
  0
LINE
  5
85C
330
1F
100
AcDbEntity
  8
TitleBlock&Notes
  6
Continuous
 62
     3
100
AcDbLine
 10
29.76552369371313
 20
1.931673862799989
 30
0.0
 11
30.30450507731311
 21
1.941081832799991
 31
0.0
  0
LINE
  5
85D
330
1F
100
AcDbEntity
  8
TitleBlock&Notes
  6
Continuous
 62
     3
100
AcDbLine
 10
29.7520830577131
 20
1.947281687999982
 30
0.0
 11
30.31739285771313
 21
1.957149176399987
 31
0.0
  0
LINE
  5
85E
330
1F
100
AcDbEntity
  8
TitleBlock&Notes
  6
Continuous
 62
     3
100
AcDbLine
 10
29.69813700731315
 20
2.038464568799984
 30
0.0
 11
30.36360443411313
 21
2.038464568799984
 31
0.0
  0
LINE
  5
85F
330
1F
100
AcDbEntity
  8
TitleBlock&Notes
  6
Continuous
 62
     3
100
AcDbLine
 10
29.74183711211313
 20
1.960511810399992
 30
0.0
 11
30.31990436891312
 21
1.960511810399992
 31
0.0
  0
LINE
  5
860
330
1F
100
AcDbEntity
  8
TitleBlock&Notes
  6
Continuous
 62
     3
100
AcDbLine
 10
29.72629046891313
 20
2.71961573399999
 30
0.0
 11
30.33545097251314
 21
2.71961573399999
 31
0.0
  0
LINE
  5
861
330
1F
100
AcDbEntity
  8
TitleBlock&Notes
  6
Continuous
 62
     3
100
AcDbLine
 10
29.74007459531311
 20
2.739415733999987
 30
0.0
 11
30.3216668461131
 21
2.739415733999987
 31
0.0
  0
LINE
  5
862
330
1F
100
AcDbEntity
  8
TitleBlock&Notes
  6
Continuous
 62
     3
100
AcDbLine
 10
29.67791732651311
 20
2.552673895199983
 30
0.0
 11
30.4977570373131
 21
2.566984265999984
 31
0.0
  0
LINE
  5
863
330
1F
100
AcDbEntity
  8
TitleBlock&Notes
  6
Continuous
 62
     3
100
AcDbLine
 10
29.67804622451311
 20
2.568518567999994
 30
0.0
 11
30.3890220505131
 21
2.580928693199986
 31
0.0
  0
LINE
  5
864
330
1F
100
AcDbEntity
  8
TitleBlock&Notes
  6
Continuous
 62
     3
100
AcDbLine
 10
29.67817516211308
 20
2.584363240799973
 30
0.0
 11
30.3860757313131
 21
2.596719668399988
 31
0.0
  0
LINE
  5
865
330
1F
100
AcDbEntity
  8
TitleBlock&Notes
  6
Continuous
 62
     3
100
AcDbLine
 10
29.67830406011313
 20
2.60020787399998
 30
0.0
 11
30.3823994257131
 21
2.612497931999982
 31
0.0
  0
LINE
  5
866
330
1F
100
AcDbEntity
  8
TitleBlock&Notes
  6
Continuous
 62
     3
100
AcDbLine
 10
29.68580517131313
 20
2.074025566799985
 30
0.0
 11
30.37920703211311
 21
2.086128950399984
 31
0.0
  0
LINE
  5
867
330
1F
100
AcDbEntity
  8
TitleBlock&Notes
  6
Continuous
 62
     3
100
AcDbLine
 10
29.6816324797131
 20
2.089795157999976
 30
0.0
 11
30.38282686811312
 21
2.102034527999983
 31
0.0
  0
LINE
  5
868
330
1F
100
AcDbEntity
  8
TitleBlock&Notes
  6
Continuous
 62
     3
100
AcDbLine
 10
29.6782109209131
 20
2.105577817199982
 30
0.0
 11
30.3856954921131
 21
2.117927037599987
 31
0.0
  0
LINE
  5
869
330
1F
100
AcDbEntity
  8
TitleBlock&Notes
  6
Continuous
 62
     3
100
AcDbLine
 10
29.6755206949131
 20
2.121373306799995
 30
0.0
 11
30.38783286251312
 21
2.133806756399987
 31
0.0
  0
LINE
  5
86A
330
1F
100
AcDbEntity
  8
TitleBlock&Notes
  6
Continuous
 62
     3
100
AcDbLine
 10
29.67453687251312
 20
2.137198535999985
 30
0.0
 11
30.38925371051309
 21
2.149673961599976
 31
0.0
  0
LINE
  5
86B
330
1F
100
AcDbEntity
  8
TitleBlock&Notes
  6
Continuous
 62
     3
100
AcDbLine
 10
30.37950355691311
 20
2.623110217199986
 30
0.0
 11
29.68223788451309
 21
2.623110217199986
 31
0.0
  0
LINE
  5
86C
330
1F
100
AcDbEntity
  8
TitleBlock&Notes
  6
Continuous
 62
     3
100
AcDbLine
 10
29.71504264331311
 20
2.701062975599977
 30
0.0
 11
30.34669879811312
 21
2.701062975599977
 31
0.0
  0
LINE
  5
86D
330
1F
100
AcDbEntity
  8
TitleBlock&Notes
  6
Continuous
 62
     3
100
AcDbLine
 10
29.68028219891307
 20
2.616084820799997
 30
0.0
 11
30.0827676097131
 21
2.623110217199986
 31
0.0
  0
LINE
  5
86E
330
1F
100
AcDbEntity
  8
TitleBlock&Notes
  6
Continuous
 62
     3
100
AcDbLine
 10
29.6762127841131
 20
2.343179163599987
 30
0.0
 11
30.0827676097131
 21
2.350275602399982
 31
0.0
  0
LINE
  5
86F
330
1F
100
AcDbEntity
  8
TitleBlock&Notes
  6
Continuous
 62
     3
100
AcDbLine
 10
29.75596789691314
 20
2.759215733999994
 30
0.0
 11
30.30577354451313
 21
2.759215733999994
 31
0.0
  0
LINE
  5
870
330
1F
100
AcDbEntity
  8
TitleBlock&Notes
  6
Continuous
 62
     3
100
AcDbLine
 10
29.77436213651311
 20
2.77901573399998
 30
0.0
 11
30.2873793049131
 21
2.77901573399998
 31
0.0
  0
ARC
  5
871
330
1F
100
AcDbEntity
  8
TitleBlock&Notes
  6
Continuous
 62
     3
100
AcDbCircle
 10
30.03087074051313
 20
2.173768621199981
 30
0.0
 40
0.7155843948000001
100
AcDbArc
 50
184.9874829000004
 51
356.6043585300008
  0
ARC
  5
872
330
1F
100
AcDbEntity
  8
TitleBlock&Notes
  6
Continuous
 62
     3
100
AcDbCircle
 10
30.03087074051313
 20
2.173768621199981
 30
0.0
 40
0.7353843948
100
AcDbArc
 50
184.9874829000004
 51
358.2401137300008
  0
ARC
  5
873
330
1F
100
AcDbEntity
  8
TitleBlock&Notes
  6
Continuous
 62
     3
100
AcDbCircle
 10
30.03087074051313
 20
2.173768621199981
 30
0.0
 40
0.6957843948000001
100
AcDbArc
 50
185.1275404200005
 51
354.872459580001
  0
LINE
  5
874
330
1F
100
AcDbEntity
  8
TitleBlock&Notes
  6
Continuous
 62
     3
100
AcDbLine
 10
28.12017074051311
 20
2.903584265999988
 30
0.0
 11
28.12017074051311
 21
1.458184265999978
 31
0.0
  0
LINE
  5
875
330
1F
100
AcDbEntity
  8
TitleBlock&Notes
  6
Continuous
 62
     3
100
AcDbLine
 10
28.72407074051313
 20
3.240184265999982
 30
0.0
 11
28.72407074051313
 21
1.458184265999978
 31
0.0
  0
LINE
  5
876
330
1F
100
AcDbEntity
  8
TitleBlock&Notes
  6
Continuous
 62
     3
100
AcDbLine
 10
29.06067074051311
 20
3.240184265999982
 30
0.0
 11
29.06067074051311
 21
1.458184265999978
 31
0.0
  0
LINE
  5
877
330
1F
100
AcDbEntity
  8
TitleBlock&Notes
  6
Continuous
 62
     3
100
AcDbLine
 10
29.08047074051308
 20
1.438384265999982
 30
0.0
 11
29.08047074051308
 21
3.259984265999989
 31
0.0
  0
LINE
  5
878
330
1F
100
AcDbEntity
  8
TitleBlock&Notes
  6
Continuous
 62
     3
100
AcDbLine
 10
28.70427074051308
 20
3.259984265999989
 30
0.0
 11
28.70427074051308
 21
1.438384265999982
 31
0.0
  0
LINE
  5
879
330
1F
100
AcDbEntity
  8
TitleBlock&Notes
  6
Continuous
 62
     3
100
AcDbLine
 10
28.13997074051309
 20
1.438384265999982
 30
0.0
 11
28.13997074051309
 21
2.883784265999992
 31
0.0
  0
LINE
  5
87A
330
1F
100
AcDbEntity
  8
TitleBlock&Notes
  6
Continuous
 62
     3
100
AcDbLine
 10
29.04087074051311
 20
3.220384265999985
 30
0.0
 11
29.04087074051311
 21
1.477984265999975
 31
0.0
  0
LINE
  5
87B
330
1F
100
AcDbEntity
  8
TitleBlock&Notes
  6
Continuous
 62
     3
100
AcDbLine
 10
28.7438707405131
 20
3.220384265999985
 30
0.0
 11
28.7438707405131
 21
1.477984265999975
 31
0.0
  0
LINE
  5
87C
330
1F
100
AcDbEntity
  8
TitleBlock&Notes
  6
Continuous
 62
     3
100
AcDbLine
 10
28.10037074051314
 20
2.923384265999985
 30
0.0
 11
28.10037074051314
 21
1.477984265999975
 31
0.0
  0
LINE
  5
87D
330
1F
100
AcDbEntity
  8
TitleBlock&Notes
  6
Continuous
 62
     3
100
AcDbLine
 10
28.72407074051313
 20
3.240184265999982
 30
0.0
 11
29.06067074051311
 21
3.240184265999982
 31
0.0
  0
LINE
  5
87E
330
1F
100
AcDbEntity
  8
TitleBlock&Notes
  6
Continuous
 62
     3
100
AcDbLine
 10
28.70427074051308
 20
3.259984265999989
 30
0.0
 11
29.08047074051308
 21
3.259984265999989
 31
0.0
  0
LINE
  5
87F
330
1F
100
AcDbEntity
  8
TitleBlock&Notes
  6
Continuous
 62
     3
100
AcDbLine
 10
28.7438707405131
 20
3.220384265999985
 30
0.0
 11
29.04087074051311
 21
3.220384265999985
 31
0.0
  0
LINE
  5
880
330
1F
100
AcDbEntity
  8
TitleBlock&Notes
  6
Continuous
 62
     3
100
AcDbLine
 10
28.58547074051308
 20
3.052474009199979
 30
0.0
 11
28.70427074051308
 21
3.052474009199979
 31
0.0
  0
LINE
  5
881
330
1F
100
AcDbEntity
  8
TitleBlock&Notes
  6
Continuous
 62
     3
100
AcDbLine
 10
28.58547074051308
 20
3.032674009199983
 30
0.0
 11
28.70427074051308
 21
3.032674009199983
 31
0.0
  0
LINE
  5
882
330
1F
100
AcDbEntity
  8
TitleBlock&Notes
  6
Continuous
 62
     3
100
AcDbLine
 10
28.58547074051308
 20
3.072274009199997
 30
0.0
 11
28.70427074051308
 21
3.072274009199997
 31
0.0
  0
LINE
  5
883
330
1F
100
AcDbEntity
  8
TitleBlock&Notes
  6
Continuous
 62
     3
100
AcDbLine
 10
28.58547074051308
 20
3.012874009199986
 30
0.0
 11
28.70427074051308
 21
3.012874009199986
 31
0.0
  0
LINE
  5
884
330
1F
100
AcDbEntity
  8
TitleBlock&Notes
  6
Continuous
 62
     3
100
AcDbLine
 10
28.56567074051311
 20
2.903584265999988
 30
0.0
 11
28.56567074051311
 21
3.240184265999982
 31
0.0
  0
LINE
  5
885
330
1F
100
AcDbEntity
  8
TitleBlock&Notes
  6
Continuous
 62
     3
100
AcDbLine
 10
28.58547074051308
 20
2.883784265999992
 30
0.0
 11
28.58547074051308
 21
3.259984265999989
 31
0.0
  0
LINE
  5
886
330
1F
100
AcDbEntity
  8
TitleBlock&Notes
  6
Continuous
 62
     3
100
AcDbLine
 10
28.54587074051311
 20
3.220384265999985
 30
0.0
 11
28.54587074051311
 21
2.923384265999985
 31
0.0
  0
LINE
  5
887
330
1F
100
AcDbEntity
  8
TitleBlock&Notes
  6
Continuous
 62
     3
100
AcDbLine
 10
28.13997074051309
 20
2.71961573399999
 30
0.0
 11
28.70427074051308
 21
2.71961573399999
 31
0.0
  0
LINE
  5
888
330
1F
100
AcDbEntity
  8
TitleBlock&Notes
  6
Continuous
 62
     3
100
AcDbLine
 10
28.13997074051309
 20
2.739415733999987
 30
0.0
 11
28.70427074051308
 21
2.739415733999987
 31
0.0
  0
LINE
  5
889
330
1F
100
AcDbEntity
  8
TitleBlock&Notes
  6
Continuous
 62
     3
100
AcDbLine
 10
28.13997074051309
 20
2.701062975599977
 30
0.0
 11
28.70427074051308
 21
2.701062975599977
 31
0.0
  0
LINE
  5
88A
330
1F
100
AcDbEntity
  8
TitleBlock&Notes
  6
Continuous
 62
     3
100
AcDbLine
 10
28.13997074051309
 20
2.759215733999994
 30
0.0
 11
28.70427074051308
 21
2.759215733999994
 31
0.0
  0
LINE
  5
88B
330
1F
100
AcDbEntity
  8
TitleBlock&Notes
  6
Continuous
 62
     3
100
AcDbLine
 10
28.13997074051309
 20
2.77901573399998
 30
0.0
 11
28.70427074051308
 21
2.77901573399998
 31
0.0
  0
LINE
  5
88C
330
1F
100
AcDbEntity
  8
TitleBlock&Notes
  6
Continuous
 62
     3
100
AcDbLine
 10
28.54587074051311
 20
2.923384265999985
 30
0.0
 11
28.10037074051314
 21
2.923384265999985
 31
0.0
  0
LINE
  5
88D
330
1F
100
AcDbEntity
  8
TitleBlock&Notes
  6
Continuous
 62
     3
100
AcDbLine
 10
28.12017074051311
 20
2.903584265999988
 30
0.0
 11
28.56567074051311
 21
2.903584265999988
 31
0.0
  0
LINE
  5
88E
330
1F
100
AcDbEntity
  8
TitleBlock&Notes
  6
Continuous
 62
     3
100
AcDbLine
 10
28.13997074051309
 20
2.883784265999992
 30
0.0
 11
28.58547074051308
 21
2.883784265999992
 31
0.0
  0
LINE
  5
88F
330
1F
100
AcDbEntity
  8
TitleBlock&Notes
  6
Continuous
 62
     3
100
AcDbLine
 10
28.55612809091308
 20
2.038464568799984
 30
0.0
 11
28.70427074051308
 21
2.041050409199996
 31
0.0
  0
LINE
  5
890
330
1F
100
AcDbEntity
  8
TitleBlock&Notes
  6
Continuous
 62
     3
100
AcDbLine
 10
28.13997074051309
 20
2.620883429999988
 30
0.0
 11
28.2675451501131
 21
2.623110217199986
 31
0.0
  0
LINE
  5
891
330
1F
100
AcDbEntity
  8
TitleBlock&Notes
  6
Continuous
 62
     3
100
AcDbLine
 10
28.13997074051309
 20
2.348048775599991
 30
0.0
 11
28.2675451501131
 21
2.350275602399982
 31
0.0
  0
LINE
  5
892
330
1F
100
AcDbEntity
  8
TitleBlock&Notes
  6
Continuous
 62
     3
100
AcDbLine
 10
28.13997074051309
 20
2.430774442799989
 30
0.0
 11
28.70427074051308
 21
2.440624348799978
 31
0.0
  0
LINE
  5
893
330
1F
100
AcDbEntity
  8
TitleBlock&Notes
  6
Continuous
 62
     3
100
AcDbLine
 10
28.13997074051309
 20
2.446616858399995
 30
0.0
 11
28.70427074051308
 21
2.456466764399994
 31
0.0
  0
LINE
  5
894
330
1F
100
AcDbEntity
  8
TitleBlock&Notes
  6
Continuous
 62
     3
100
AcDbLine
 10
28.13997074051309
 20
2.462459273999989
 30
0.0
 11
28.70427074051308
 21
2.472309179999989
 31
0.0
  0
LINE
  5
895
330
1F
100
AcDbEntity
  8
TitleBlock&Notes
  6
Continuous
 62
     3
100
AcDbLine
 10
28.13997074051309
 20
2.478301689599984
 30
0.0
 11
28.70427074051308
 21
2.488151595599994
 31
0.0
  0
LINE
  5
896
330
1F
100
AcDbEntity
  8
TitleBlock&Notes
  6
Continuous
 62
     3
100
AcDbLine
 10
28.13997074051309
 20
2.494144105199989
 30
0.0
 11
28.70427074051308
 21
2.503994011199988
 31
0.0
  0
LINE
  5
897
330
1F
100
AcDbEntity
  8
TitleBlock&Notes
  6
Continuous
 62
     3
100
AcDbLine
 10
28.13997074051309
 20
2.509986520799984
 30
0.0
 11
28.70427074051308
 21
2.519836426799983
 31
0.0
  0
LINE
  5
898
330
1F
100
AcDbEntity
  8
TitleBlock&Notes
  6
Continuous
 62
     3
100
AcDbLine
 10
28.13997074051309
 20
2.525828936399989
 30
0.0
 11
28.70427074051308
 21
2.535678842399988
 31
0.0
  0
LINE
  5
899
330
1F
100
AcDbEntity
  8
TitleBlock&Notes
  6
Continuous
 62
     3
100
AcDbLine
 10
28.13997074051309
 20
2.541671351999983
 30
0.0
 11
28.70427074051308
 21
2.551521257999983
 31
0.0
  0
LINE
  5
89A
330
1F
100
AcDbEntity
  8
TitleBlock&Notes
  6
Continuous
 62
     3
100
AcDbLine
 10
28.13997074051309
 20
2.557513767599978
 30
0.0
 11
28.70427074051308
 21
2.567363673599988
 31
0.0
  0
LINE
  5
89B
330
1F
100
AcDbEntity
  8
TitleBlock&Notes
  6
Continuous
 62
     3
100
AcDbLine
 10
28.13997074051309
 20
2.573356183199994
 30
0.0
 11
28.70427074051308
 21
2.583206089199983
 31
0.0
  0
LINE
  5
89C
330
1F
100
AcDbEntity
  8
TitleBlock&Notes
  6
Continuous
 62
     3
100
AcDbLine
 10
28.13997074051309
 20
2.589198598799988
 30
0.0
 11
28.70427074051308
 21
2.599048465199995
 31
0.0
  0
LINE
  5
89D
330
1F
100
AcDbEntity
  8
TitleBlock&Notes
  6
Continuous
 62
     3
100
AcDbLine
 10
28.13997074051309
 20
2.605041014399994
 30
0.0
 11
28.70427074051308
 21
2.61489088079999
 31
0.0
  0
LINE
  5
89E
330
1F
100
AcDbEntity
  8
TitleBlock&Notes
  6
Continuous
 62
     3
100
AcDbLine
 10
28.13997074051309
 20
2.047042918799991
 30
0.0
 11
28.70427074051308
 21
2.056892824799991
 31
0.0
  0
LINE
  5
89F
330
1F
100
AcDbEntity
  8
TitleBlock&Notes
  6
Continuous
 62
     3
100
AcDbLine
 10
28.13997074051309
 20
2.062885334399986
 30
0.0
 11
28.70427074051308
 21
2.072735240399985
 31
0.0
  0
LINE
  5
8A0
330
1F
100
AcDbEntity
  8
TitleBlock&Notes
  6
Continuous
 62
     3
100
AcDbLine
 10
28.13997074051309
 20
2.078727749999991
 30
0.0
 11
28.70427074051308
 21
2.088577655999991
 31
0.0
  0
LINE
  5
8A1
330
1F
100
AcDbEntity
  8
TitleBlock&Notes
  6
Continuous
 62
     3
100
AcDbLine
 10
28.13997074051309
 20
2.094570165599986
 30
0.0
 11
28.70427074051308
 21
2.104420071599985
 31
0.0
  0
LINE
  5
8A2
330
1F
100
AcDbEntity
  8
TitleBlock&Notes
  6
Continuous
 62
     3
100
AcDbLine
 10
28.13997074051309
 20
2.11041258119998
 30
0.0
 11
28.70427074051308
 21
2.12026248719999
 31
0.0
  0
LINE
  5
8A3
330
1F
100
AcDbEntity
  8
TitleBlock&Notes
  6
Continuous
 62
     3
100
AcDbLine
 10
28.13997074051309
 20
2.126254996799985
 30
0.0
 11
28.70427074051308
 21
2.136104902799985
 31
0.0
  0
LINE
  5
8A4
330
1F
100
AcDbEntity
  8
TitleBlock&Notes
  6
Continuous
 62
     3
100
AcDbLine
 10
28.13997074051309
 20
2.14209741239998
 30
0.0
 11
28.70427074051308
 21
2.151947278799987
 31
0.0
  0
LINE
  5
8A5
330
1F
100
AcDbEntity
  8
TitleBlock&Notes
  6
Continuous
 62
     3
100
AcDbLine
 10
28.13997074051309
 20
2.157939827999996
 30
0.0
 11
28.70427074051308
 21
2.167789694399981
 31
0.0
  0
LINE
  5
8A6
330
1F
100
AcDbEntity
  8
TitleBlock&Notes
  6
Continuous
 62
     3
100
AcDbLine
 10
28.13997074051309
 20
2.17378224359998
 30
0.0
 11
28.70427074051308
 21
2.183632109999997
 31
0.0
  0
LINE
  5
8A7
330
1F
100
AcDbEntity
  8
TitleBlock&Notes
  6
Continuous
 62
     3
100
AcDbLine
 10
28.13997074051309
 20
2.189624659199974
 30
0.0
 11
28.70427074051308
 21
2.199474525599981
 31
0.0
  0
LINE
  5
8A8
330
1F
100
AcDbEntity
  8
TitleBlock&Notes
  6
Continuous
 62
     3
100
AcDbLine
 10
28.13997074051309
 20
2.205467035199987
 30
0.0
 11
28.70427074051308
 21
2.215316941199976
 31
0.0
  0
LINE
  5
8A9
330
1F
100
AcDbEntity
  8
TitleBlock&Notes
  6
Continuous
 62
     3
100
AcDbLine
 10
28.13997074051309
 20
2.221309450799992
 30
0.0
 11
28.70427074051308
 21
2.231159356799992
 31
0.0
  0
LINE
  5
8AA
330
1F
100
AcDbEntity
  8
TitleBlock&Notes
  6
Continuous
 62
     3
100
AcDbLine
 10
28.13997074051309
 20
2.237151866399987
 30
0.0
 11
28.70427074051308
 21
2.247001772399986
 31
0.0
  0
LINE
  5
8AB
330
1F
100
AcDbEntity
  8
TitleBlock&Notes
  6
Continuous
 62
     3
100
AcDbLine
 10
28.13997074051309
 20
2.252994281999981
 30
0.0
 11
28.70427074051308
 21
2.262844187999991
 31
0.0
  0
LINE
  5
8AC
330
1F
100
AcDbEntity
  8
TitleBlock&Notes
  6
Continuous
 62
     3
100
AcDbLine
 10
28.13997074051309
 20
2.268836697599986
 30
0.0
 11
28.70427074051308
 21
2.278686603599986
 31
0.0
  0
LINE
  5
8AD
330
1F
100
AcDbEntity
  8
TitleBlock&Notes
  6
Continuous
 62
     3
100
AcDbLine
 10
28.13997074051309
 20
2.284679113199981
 30
0.0
 11
28.70427074051308
 21
2.29452901919998
 31
0.0
  0
LINE
  5
8AE
330
1F
100
AcDbEntity
  8
TitleBlock&Notes
  6
Continuous
 62
     3
100
AcDbLine
 10
28.13997074051309
 20
2.300521528799986
 30
0.0
 11
28.70427074051308
 21
2.310371434799986
 31
0.0
  0
LINE
  5
8AF
330
1F
100
AcDbEntity
  8
TitleBlock&Notes
  6
Continuous
 62
     3
100
AcDbLine
 10
28.13997074051309
 20
2.316363944399981
 30
0.0
 11
28.70427074051308
 21
2.32621385039998
 31
0.0
  0
LINE
  5
8B0
330
1F
100
AcDbEntity
  8
TitleBlock&Notes
  6
Continuous
 62
     3
100
AcDbLine
 10
28.13997074051309
 20
2.332206359999975
 30
0.0
 11
28.70427074051308
 21
2.342056265999985
 31
0.0
  0
LINE
  5
8B1
330
1F
100
AcDbEntity
  8
TitleBlock&Notes
  6
Continuous
 62
     3
100
AcDbLine
 10
28.13997074051309
 20
2.038464568799984
 30
0.0
 11
28.70427074051308
 21
2.038464568799984
 31
0.0
  0
LINE
  5
8B2
330
1F
100
AcDbEntity
  8
TitleBlock&Notes
  6
Continuous
 62
     3
100
AcDbLine
 10
28.13997074051309
 20
2.350275602399982
 30
0.0
 11
28.70427074051308
 21
2.350275602399982
 31
0.0
  0
LINE
  5
8B3
330
1F
100
AcDbEntity
  8
TitleBlock&Notes
  6
Continuous
 62
     3
100
AcDbLine
 10
28.13997074051309
 20
2.428228360799984
 30
0.0
 11
28.70427074051308
 21
2.428228360799984
 31
0.0
  0
LINE
  5
8B4
330
1F
100
AcDbEntity
  8
TitleBlock&Notes
  6
Continuous
 62
     3
100
AcDbLine
 10
28.13997074051309
 20
2.623110217199986
 30
0.0
 11
28.70427074051308
 21
2.623110217199986
 31
0.0
  0
LINE
  5
8B5
330
1F
100
AcDbEntity
  8
TitleBlock&Notes
  6
Continuous
 62
     3
100
AcDbLine
 10
29.08047074051308
 20
2.739415733999987
 30
0.0
 11
29.32583808251314
 21
2.739415733999987
 31
0.0
  0
LINE
  5
8B6
330
1F
100
AcDbEntity
  8
TitleBlock&Notes
  6
Continuous
 62
     3
100
AcDbLine
 10
29.08047074051308
 20
2.759215733999994
 30
0.0
 11
29.33224334291314
 21
2.759215733999994
 31
0.0
  0
LINE
  5
8B7
330
1F
100
AcDbEntity
  8
TitleBlock&Notes
  6
Continuous
 62
     3
100
AcDbLine
 10
29.08047074051308
 20
3.032674009199983
 30
0.0
 11
29.49822286211312
 21
3.032674009199983
 31
0.0
  0
LINE
  5
8B8
330
1F
100
AcDbEntity
  8
TitleBlock&Notes
  6
Continuous
 62
     3
100
AcDbLine
 10
29.08047074051308
 20
3.052474009199979
 30
0.0
 11
29.51792833691312
 21
3.052474009199979
 31
0.0
  0
LINE
  5
8B9
330
1F
100
AcDbEntity
  8
TitleBlock&Notes
  6
Continuous
 62
     3
100
AcDbLine
 10
29.08047074051308
 20
3.072274009199997
 30
0.0
 11
29.5392184849131
 21
3.072274009199997
 31
0.0
  0
LINE
  5
8BA
330
1F
100
AcDbEntity
  8
TitleBlock&Notes
  6
Continuous
 62
     3
100
AcDbLine
 10
29.08047074051308
 20
2.77901573399998
 30
0.0
 11
29.3392745209131
 21
2.77901573399998
 31
0.0
  0
LINE
  5
8BB
330
1F
100
AcDbEntity
  8
TitleBlock&Notes
  6
Continuous
 62
     3
100
AcDbLine
 10
29.08047074051308
 20
3.012874009199986
 30
0.0
 11
29.47993197851314
 21
3.012874009199986
 31
0.0
  0
LINE
  5
8BC
330
1F
100
AcDbEntity
  8
TitleBlock&Notes
  6
Continuous
 62
     3
100
AcDbLine
 10
29.08047074051308
 20
2.71961573399999
 30
0.0
 11
29.3200417909131
 21
2.71961573399999
 31
0.0
  0
LINE
  5
8BD
330
1F
100
AcDbEntity
  8
TitleBlock&Notes
  6
Continuous
 62
     3
100
AcDbLine
 10
29.08047074051308
 20
2.701062975599977
 30
0.0
 11
29.31515008211313
 21
2.701062975599977
 31
0.0
  0
LINE
  5
8BE
330
1F
100
AcDbEntity
  8
TitleBlock&Notes
  6
Continuous
 62
     3
100
AcDbLine
 10
29.3180707405131
 20
2.109835688399986
 30
0.0
 11
29.3180707405131
 21
2.608984263599992
 31
0.0
  0
LINE
  5
8BF
330
1F
100
AcDbEntity
  8
TitleBlock&Notes
  6
Continuous
 62
     3
100
AcDbLine
 10
29.63487074051313
 20
2.126726315999984
 30
0.0
 11
29.63487074051313
 21
2.586094433999978
 31
0.0
  0
LINE
  5
8C0
330
1F
100
AcDbEntity
  8
TitleBlock&Notes
  6
Continuous
 62
     3
100
AcDbLine
 10
29.29827074051311
 20
2.109835688399986
 30
0.0
 11
29.29827074051311
 21
2.608984263599992
 31
0.0
  0
LINE
  5
8C1
330
1F
100
AcDbEntity
  8
TitleBlock&Notes
  6
Continuous
 62
     3
100
AcDbLine
 10
29.33787074051312
 20
2.11158426599999
 30
0.0
 11
29.33787074051312
 21
2.606584265999988
 31
0.0
  0
LINE
  5
8C2
330
1F
100
AcDbEntity
  8
TitleBlock&Notes
  6
Continuous
 62
     3
100
AcDbLine
 10
29.65857328091315
 20
2.608794025199994
 30
0.0
 11
29.65467137411312
 21
2.129231293199989
 31
0.0
  0
LINE
  5
8C3
330
1F
100
AcDbEntity
  8
TitleBlock&Notes
  6
Continuous
 62
     3
100
AcDbLine
 10
29.67837260771311
 20
2.608632932399988
 30
0.0
 11
29.6744707405131
 21
2.129070200399983
 31
0.0
  0
LINE
  5
8C4
330
1F
100
AcDbEntity
  8
TitleBlock&Notes
  6
Continuous
 62
     3
100
AcDbLine
 10
29.08047074051308
 20
2.621457511199984
 30
0.0
 11
29.17515639971314
 21
2.623110217199986
 31
0.0
  0
LINE
  5
8C5
330
1F
100
AcDbEntity
  8
TitleBlock&Notes
  6
Continuous
 62
     3
100
AcDbLine
 10
29.08047074051308
 20
2.348622856799977
 30
0.0
 11
29.17515639971314
 21
2.350275602399982
 31
0.0
  0
LINE
  5
8C6
330
1F
100
AcDbEntity
  8
TitleBlock&Notes
  6
Continuous
 62
     3
100
AcDbLine
 10
29.08047074051308
 20
2.047616999999977
 30
0.0
 11
29.30571387731315
 21
2.051548646399986
 31
0.0
  0
LINE
  5
8C7
330
1F
100
AcDbEntity
  8
TitleBlock&Notes
  6
Continuous
 62
     3
100
AcDbLine
 10
29.08047074051308
 20
2.038464568799984
 30
0.0
 11
29.30804089211307
 21
2.038464568799984
 31
0.0
  0
LINE
  5
8C8
330
1F
100
AcDbEntity
  8
TitleBlock&Notes
  6
Continuous
 62
     3
100
AcDbLine
 10
29.08047074051308
 20
2.431348523999986
 30
0.0
 11
29.29827074051311
 21
2.435150242799977
 31
0.0
  0
LINE
  5
8C9
330
1F
100
AcDbEntity
  8
TitleBlock&Notes
  6
Continuous
 62
     3
100
AcDbLine
 10
29.08047074051308
 20
2.44719093959998
 30
0.0
 11
29.29827074051311
 21
2.450992658399993
 31
0.0
  0
LINE
  5
8CA
330
1F
100
AcDbEntity
  8
TitleBlock&Notes
  6
Continuous
 62
     3
100
AcDbLine
 10
29.08047074051308
 20
2.463033355199996
 30
0.0
 11
29.29827074051311
 21
2.466835073999988
 31
0.0
  0
LINE
  5
8CB
330
1F
100
AcDbEntity
  8
TitleBlock&Notes
  6
Continuous
 62
     3
100
AcDbLine
 10
29.08047074051308
 20
2.47887577079998
 30
0.0
 11
29.29827074051311
 21
2.482677489599993
 31
0.0
  0
LINE
  5
8CC
330
1F
100
AcDbEntity
  8
TitleBlock&Notes
  6
Continuous
 62
     3
100
AcDbLine
 10
29.08047074051308
 20
2.494718186399975
 30
0.0
 11
29.29827074051311
 21
2.498519905199987
 31
0.0
  0
LINE
  5
8CD
330
1F
100
AcDbEntity
  8
TitleBlock&Notes
  6
Continuous
 62
     3
100
AcDbLine
 10
29.08047074051308
 20
2.510560601999991
 30
0.0
 11
29.29827074051311
 21
2.514362320799982
 31
0.0
  0
LINE
  5
8CE
330
1F
100
AcDbEntity
  8
TitleBlock&Notes
  6
Continuous
 62
     3
100
AcDbLine
 10
29.08047074051308
 20
2.526403017599985
 30
0.0
 11
29.29827074051311
 21
2.530204736399987
 31
0.0
  0
LINE
  5
8CF
330
1F
100
AcDbEntity
  8
TitleBlock&Notes
  6
Continuous
 62
     3
100
AcDbLine
 10
29.08047074051308
 20
2.54224543319999
 30
0.0
 11
29.29827074051311
 21
2.546047151999982
 31
0.0
  0
LINE
  5
8D0
330
1F
100
AcDbEntity
  8
TitleBlock&Notes
  6
Continuous
 62
     3
100
AcDbLine
 10
29.08047074051308
 20
2.558087848799985
 30
0.0
 11
29.29827074051311
 21
2.561889567599987
 31
0.0
  0
LINE
  5
8D1
330
1F
100
AcDbEntity
  8
TitleBlock&Notes
  6
Continuous
 62
     3
100
AcDbLine
 10
29.08047074051308
 20
2.573930264399979
 30
0.0
 11
29.29827074051311
 21
2.577731983199981
 31
0.0
  0
LINE
  5
8D2
330
1F
100
AcDbEntity
  8
TitleBlock&Notes
  6
Continuous
 62
     3
100
AcDbLine
 10
29.08047074051308
 20
2.589772679999985
 30
0.0
 11
29.29827074051311
 21
2.593574398799976
 31
0.0
  0
LINE
  5
8D3
330
1F
100
AcDbEntity
  8
TitleBlock&Notes
  6
Continuous
 62
     3
100
AcDbLine
 10
29.08047074051308
 20
2.60561509559999
 30
0.0
 11
29.29832214131314
 21
2.609417685599989
 31
0.0
  0
LINE
  5
8D4
330
1F
100
AcDbEntity
  8
TitleBlock&Notes
  6
Continuous
 62
     3
100
AcDbLine
 10
29.08047074051308
 20
2.063459415599993
 30
0.0
 11
29.30322743291312
 21
2.067347660399992
 31
0.0
  0
LINE
  5
8D5
330
1F
100
AcDbEntity
  8
TitleBlock&Notes
  6
Continuous
 62
     3
100
AcDbLine
 10
29.08047074051308
 20
2.079301831199977
 30
0.0
 11
29.30109065651312
 21
2.08315277279998
 31
0.0
  0
LINE
  5
8D6
330
1F
100
AcDbEntity
  8
TitleBlock&Notes
  6
Continuous
 62
     3
100
AcDbLine
 10
29.08047074051308
 20
2.095144246799993
 30
0.0
 11
29.2993008949131
 21
2.09896394399999
 31
0.0
  0
LINE
  5
8D7
330
1F
100
AcDbEntity
  8
TitleBlock&Notes
  6
Continuous
 62
     3
100
AcDbLine
 10
29.08047074051308
 20
2.110986662399987
 30
0.0
 11
29.29827074051311
 21
2.114788381199989
 31
0.0
  0
LINE
  5
8D8
330
1F
100
AcDbEntity
  8
TitleBlock&Notes
  6
Continuous
 62
     3
100
AcDbLine
 10
29.08047074051308
 20
2.126829077999982
 30
0.0
 11
29.29827074051311
 21
2.130630796799984
 31
0.0
  0
LINE
  5
8D9
330
1F
100
AcDbEntity
  8
TitleBlock&Notes
  6
Continuous
 62
     3
100
AcDbLine
 10
29.08047074051308
 20
2.142671493599987
 30
0.0
 11
29.29827074051311
 21
2.146473172799986
 31
0.0
  0
LINE
  5
8DA
330
1F
100
AcDbEntity
  8
TitleBlock&Notes
  6
Continuous
 62
     3
100
AcDbLine
 10
29.08047074051308
 20
2.158513909199992
 30
0.0
 11
29.29827074051311
 21
2.16231558839998
 31
0.0
  0
LINE
  5
8DB
330
1F
100
AcDbEntity
  8
TitleBlock&Notes
  6
Continuous
 62
     3
100
AcDbLine
 10
29.08047074051308
 20
2.174356285199984
 30
0.0
 11
29.29827074051311
 21
2.178158003999996
 31
0.0
  0
LINE
  5
8DC
330
1F
100
AcDbEntity
  8
TitleBlock&Notes
  6
Continuous
 62
     3
100
AcDbLine
 10
29.08047074051308
 20
2.190198700799978
 30
0.0
 11
29.29827074051311
 21
2.194000419599991
 31
0.0
  0
LINE
  5
8DD
330
1F
100
AcDbEntity
  8
TitleBlock&Notes
  6
Continuous
 62
     3
100
AcDbLine
 10
29.08047074051308
 20
2.206041116399983
 30
0.0
 11
29.29827074051311
 21
2.209842835199985
 31
0.0
  0
LINE
  5
8DE
330
1F
100
AcDbEntity
  8
TitleBlock&Notes
  6
Continuous
 62
     3
100
AcDbLine
 10
29.08047074051308
 20
2.221883531999978
 30
0.0
 11
29.29827074051311
 21
2.22568525079999
 31
0.0
  0
LINE
  5
8DF
330
1F
100
AcDbEntity
  8
TitleBlock&Notes
  6
Continuous
 62
     3
100
AcDbLine
 10
29.08047074051308
 20
2.237725947599994
 30
0.0
 11
29.29827074051311
 21
2.241527666399985
 31
0.0
  0
LINE
  5
8E0
330
1F
100
AcDbEntity
  8
TitleBlock&Notes
  6
Continuous
 62
     3
100
AcDbLine
 10
29.08047074051308
 20
2.253568363199988
 30
0.0
 11
29.29827074051311
 21
2.25737008199999
 31
0.0
  0
LINE
  5
8E1
330
1F
100
AcDbEntity
  8
TitleBlock&Notes
  6
Continuous
 62
     3
100
AcDbLine
 10
29.08047074051308
 20
2.269410778799983
 30
0.0
 11
29.29827074051311
 21
2.273212497599985
 31
0.0
  0
LINE
  5
8E2
330
1F
100
AcDbEntity
  8
TitleBlock&Notes
  6
Continuous
 62
     3
100
AcDbLine
 10
29.08047074051308
 20
2.285253194399988
 30
0.0
 11
29.29827074051311
 21
2.289054913199979
 31
0.0
  0
LINE
  5
8E3
330
1F
100
AcDbEntity
  8
TitleBlock&Notes
  6
Continuous
 62
     3
100
AcDbLine
 10
29.08047074051308
 20
2.301095609999993
 30
0.0
 11
29.29827074051311
 21
2.304897328799984
 31
0.0
  0
LINE
  5
8E4
330
1F
100
AcDbEntity
  8
TitleBlock&Notes
  6
Continuous
 62
     3
100
AcDbLine
 10
29.08047074051308
 20
2.316938025599988
 30
0.0
 11
29.29827074051311
 21
2.320739744399979
 31
0.0
  0
LINE
  5
8E5
330
1F
100
AcDbEntity
  8
TitleBlock&Notes
  6
Continuous
 62
     3
100
AcDbLine
 10
29.08047074051308
 20
2.332780441199982
 30
0.0
 11
29.29827074051311
 21
2.336582159999984
 31
0.0
  0
LINE
  5
8E6
330
1F
100
AcDbEntity
  8
TitleBlock&Notes
  6
Continuous
 62
     3
100
AcDbLine
 10
29.08047074051308
 20
2.350275602399982
 30
0.0
 11
29.29827074051311
 21
2.350275602399982
 31
0.0
  0
LINE
  5
8E7
330
1F
100
AcDbEntity
  8
TitleBlock&Notes
  6
Continuous
 62
     3
100
AcDbLine
 10
29.08047074051308
 20
2.428228360799984
 30
0.0
 11
29.29827074051311
 21
2.428228360799984
 31
0.0
  0
LINE
  5
8E8
330
1F
100
AcDbEntity
  8
TitleBlock&Notes
  6
Continuous
 62
     3
100
AcDbLine
 10
29.08047074051308
 20
2.623110217199986
 30
0.0
 11
29.30008109411311
 21
2.623110217199986
 31
0.0
  0
LINE
  5
8E9
330
1F
100
AcDbEntity
  8
TitleBlock&Notes
  6
Continuous
 62
     3
100
AcDbLine
 10
29.06067074051311
 20
1.458184265999978
 30
0.0
 11
28.72407074051313
 21
1.458184265999978
 31
0.0
  0
LINE
  5
8EA
330
1F
100
AcDbEntity
  8
TitleBlock&Notes
  6
Continuous
 62
     3
100
AcDbLine
 10
28.70427074051308
 20
1.438384265999982
 30
0.0
 11
29.08047074051308
 21
1.438384265999982
 31
0.0
  0
LINE
  5
8EB
330
1F
100
AcDbEntity
  8
TitleBlock&Notes
  6
Continuous
 62
     3
100
AcDbLine
 10
28.7438707405131
 20
1.477984265999975
 30
0.0
 11
29.04087074051311
 21
1.477984265999975
 31
0.0
  0
LINE
  5
8EC
330
1F
100
AcDbEntity
  8
TitleBlock&Notes
  6
Continuous
 62
     3
100
AcDbLine
 10
28.13997074051309
 20
1.681505971199989
 30
0.0
 11
28.70427074051308
 21
1.691355837599985
 31
0.0
  0
LINE
  5
8ED
330
1F
100
AcDbEntity
  8
TitleBlock&Notes
  6
Continuous
 62
     3
100
AcDbLine
 10
28.13997074051309
 20
1.697348386799983
 30
0.0
 11
28.70427074051308
 21
1.70719825319998
 31
0.0
  0
LINE
  5
8EE
330
1F
100
AcDbEntity
  8
TitleBlock&Notes
  6
Continuous
 62
     3
100
AcDbLine
 10
28.13997074051309
 20
1.713190762799975
 30
0.0
 11
28.70427074051308
 21
1.723040668799985
 31
0.0
  0
LINE
  5
8EF
330
1F
100
AcDbEntity
  8
TitleBlock&Notes
  6
Continuous
 62
     3
100
AcDbLine
 10
28.13997074051309
 20
1.729033178399991
 30
0.0
 11
28.70427074051308
 21
1.738883084399979
 31
0.0
  0
LINE
  5
8F0
330
1F
100
AcDbEntity
  8
TitleBlock&Notes
  6
Continuous
 62
     3
100
AcDbLine
 10
28.13997074051309
 20
1.744875593999985
 30
0.0
 11
28.70427074051308
 21
1.754725499999974
 31
0.0
  0
LINE
  5
8F1
330
1F
100
AcDbEntity
  8
TitleBlock&Notes
  6
Continuous
 62
     3
100
AcDbLine
 10
28.13997074051309
 20
1.76071800959999
 30
0.0
 11
28.70427074051308
 21
1.77056791559999
 31
0.0
  0
LINE
  5
8F2
330
1F
100
AcDbEntity
  8
TitleBlock&Notes
  6
Continuous
 62
     3
100
AcDbLine
 10
28.13997074051309
 20
1.776560425199985
 30
0.0
 11
28.70427074051308
 21
1.786410331199995
 31
0.0
  0
LINE
  5
8F3
330
1F
100
AcDbEntity
  8
TitleBlock&Notes
  6
Continuous
 62
     3
100
AcDbLine
 10
28.13997074051309
 20
1.792402840799979
 30
0.0
 11
28.70427074051308
 21
1.80225274679999
 31
0.0
  0
LINE
  5
8F4
330
1F
100
AcDbEntity
  8
TitleBlock&Notes
  6
Continuous
 62
     3
100
AcDbLine
 10
28.13997074051309
 20
1.808245256399985
 30
0.0
 11
28.70427074051308
 21
1.818095162399984
 31
0.0
  0
LINE
  5
8F5
330
1F
100
AcDbEntity
  8
TitleBlock&Notes
  6
Continuous
 62
     3
100
AcDbLine
 10
28.13997074051309
 20
1.82408767199999
 30
0.0
 11
28.70427074051308
 21
1.833937577999989
 31
0.0
  0
LINE
  5
8F6
330
1F
100
AcDbEntity
  8
TitleBlock&Notes
  6
Continuous
 62
     3
100
AcDbLine
 10
28.13997074051309
 20
1.839930087599984
 30
0.0
 11
28.70427074051308
 21
1.849779993599984
 31
0.0
  0
LINE
  5
8F7
330
1F
100
AcDbEntity
  8
TitleBlock&Notes
  6
Continuous
 62
     3
100
AcDbLine
 10
28.13997074051309
 20
1.855772503199979
 30
0.0
 11
28.70427074051308
 21
1.865622409199989
 31
0.0
  0
LINE
  5
8F8
330
1F
100
AcDbEntity
  8
TitleBlock&Notes
  6
Continuous
 62
     3
100
AcDbLine
 10
28.13997074051309
 20
1.871614918799995
 30
0.0
 11
28.70427074051308
 21
1.88146478519998
 31
0.0
  0
LINE
  5
8F9
330
1F
100
AcDbEntity
  8
TitleBlock&Notes
  6
Continuous
 62
     3
100
AcDbLine
 10
28.13997074051309
 20
1.887457334399989
 30
0.0
 11
28.70427074051308
 21
1.897307200799975
 31
0.0
  0
LINE
  5
8FA
330
1F
100
AcDbEntity
  8
TitleBlock&Notes
  6
Continuous
 62
     3
100
AcDbLine
 10
28.13997074051309
 20
1.903299749999995
 30
0.0
 11
28.70427074051308
 21
1.913149616399991
 31
0.0
  0
LINE
  5
8FB
330
1F
100
AcDbEntity
  8
TitleBlock&Notes
  6
Continuous
 62
     3
100
AcDbLine
 10
28.13997074051309
 20
1.919142165599989
 30
0.0
 11
28.70427074051308
 21
1.928992031999996
 31
0.0
  0
LINE
  5
8FC
330
1F
100
AcDbEntity
  8
TitleBlock&Notes
  6
Continuous
 62
     3
100
AcDbLine
 10
28.13997074051309
 20
1.93498454159998
 30
0.0
 11
28.70427074051308
 21
1.944834447599991
 31
0.0
  0
LINE
  5
8FD
330
1F
100
AcDbEntity
  8
TitleBlock&Notes
  6
Continuous
 62
     3
100
AcDbLine
 10
28.13997074051309
 20
1.950826957199986
 30
0.0
 11
28.69481465651308
 21
1.960511810399992
 31
0.0
  0
LINE
  5
8FE
330
1F
100
AcDbEntity
  8
TitleBlock&Notes
  6
Continuous
 62
     3
100
AcDbLine
 10
28.13997074051309
 20
1.960511810399992
 30
0.0
 11
28.70427074051308
 21
1.960511810399992
 31
0.0
  0
LINE
  5
8FF
330
1F
100
AcDbEntity
  8
TitleBlock&Notes
  6
Continuous
 62
     3
100
AcDbLine
 10
28.13997074051309
 20
1.443869776799989
 30
0.0
 11
28.70427074051308
 21
1.453719643199985
 31
0.0
  0
LINE
  5
900
330
1F
100
AcDbEntity
  8
TitleBlock&Notes
  6
Continuous
 62
     3
100
AcDbLine
 10
28.13997074051309
 20
1.459712192399983
 30
0.0
 11
28.70427074051308
 21
1.46956205879999
 31
0.0
  0
LINE
  5
901
330
1F
100
AcDbEntity
  8
TitleBlock&Notes
  6
Continuous
 62
     3
100
AcDbLine
 10
28.13997074051309
 20
1.475554568399985
 30
0.0
 11
28.70427074051308
 21
1.485404474399985
 31
0.0
  0
LINE
  5
902
330
1F
100
AcDbEntity
  8
TitleBlock&Notes
  6
Continuous
 62
     3
100
AcDbLine
 10
28.13997074051309
 20
1.49139698399998
 30
0.0
 11
28.70427074051308
 21
1.50124688999999
 31
0.0
  0
LINE
  5
903
330
1F
100
AcDbEntity
  8
TitleBlock&Notes
  6
Continuous
 62
     3
100
AcDbLine
 10
28.13997074051309
 20
1.507239399599985
 30
0.0
 11
28.70427074051308
 21
1.517089305599984
 31
0.0
  0
LINE
  5
904
330
1F
100
AcDbEntity
  8
TitleBlock&Notes
  6
Continuous
 62
     3
100
AcDbLine
 10
28.13997074051309
 20
1.523081815199979
 30
0.0
 11
28.70427074051308
 21
1.532931721199979
 31
0.0
  0
LINE
  5
905
330
1F
100
AcDbEntity
  8
TitleBlock&Notes
  6
Continuous
 62
     3
100
AcDbLine
 10
28.13997074051309
 20
1.538924230799995
 30
0.0
 11
28.70427074051308
 21
1.548774136799984
 31
0.0
  0
LINE
  5
906
330
1F
100
AcDbEntity
  8
TitleBlock&Notes
  6
Continuous
 62
     3
100
AcDbLine
 10
28.13997074051309
 20
1.55476664639999
 30
0.0
 11
28.70427074051308
 21
1.564616552399979
 31
0.0
  0
LINE
  5
907
330
1F
100
AcDbEntity
  8
TitleBlock&Notes
  6
Continuous
 62
     3
100
AcDbLine
 10
28.13997074051309
 20
1.570609061999974
 30
0.0
 11
28.70427074051308
 21
1.580458967999994
 31
0.0
  0
LINE
  5
908
330
1F
100
AcDbEntity
  8
TitleBlock&Notes
  6
Continuous
 62
     3
100
AcDbLine
 10
28.13997074051309
 20
1.58645147759999
 30
0.0
 11
28.70427074051308
 21
1.596301383599978
 31
0.0
  0
LINE
  5
909
330
1F
100
AcDbEntity
  8
TitleBlock&Notes
  6
Continuous
 62
     3
100
AcDbLine
 10
28.13997074051309
 20
1.602293893199984
 30
0.0
 11
28.70427074051308
 21
1.612143799199973
 31
0.0
  0
LINE
  5
90A
330
1F
100
AcDbEntity
  8
TitleBlock&Notes
  6
Continuous
 62
     3
100
AcDbLine
 10
28.13997074051309
 20
1.618136308799989
 30
0.0
 11
28.70427074051308
 21
1.627986214799989
 31
0.0
  0
LINE
  5
90B
330
1F
100
AcDbEntity
  8
TitleBlock&Notes
  6
Continuous
 62
     3
100
AcDbLine
 10
28.13997074051309
 20
1.633978724399984
 30
0.0
 11
28.70427074051308
 21
1.643828590799991
 31
0.0
  0
LINE
  5
90C
330
1F
100
AcDbEntity
  8
TitleBlock&Notes
  6
Continuous
 62
     3
100
AcDbLine
 10
28.13997074051309
 20
1.649821139999978
 30
0.0
 11
28.70427074051308
 21
1.659671006399985
 31
0.0
  0
LINE
  5
90D
330
1F
100
AcDbEntity
  8
TitleBlock&Notes
  6
Continuous
 62
     3
100
AcDbLine
 10
28.13997074051309
 20
1.665663555599984
 30
0.0
 11
28.70427074051308
 21
1.67551342199998
 31
0.0
  0
LINE
  5
90E
330
1F
100
AcDbEntity
  8
TitleBlock&Notes
  6
Continuous
 62
     3
100
AcDbLine
 10
29.08047074051308
 20
1.682080012799993
 30
0.0
 11
29.47787364971313
 21
1.689016705199986
 31
0.0
  0
LINE
  5
90F
330
1F
100
AcDbEntity
  8
TitleBlock&Notes
  6
Continuous
 62
     3
100
AcDbLine
 10
29.08047074051308
 20
1.697922428399987
 30
0.0
 11
29.46457022771311
 21
1.704626906399994
 31
0.0
  0
LINE
  5
910
330
1F
100
AcDbEntity
  8
TitleBlock&Notes
  6
Continuous
 62
     3
100
AcDbLine
 10
29.08047074051308
 20
1.713764843999982
 30
0.0
 11
29.45198324891311
 21
1.720249621199982
 31
0.0
  0
LINE
  5
911
330
1F
100
AcDbEntity
  8
TitleBlock&Notes
  6
Continuous
 62
     3
100
AcDbLine
 10
29.08047074051308
 20
1.729607259599976
 30
0.0
 11
29.44006848011311
 21
1.735884057599992
 31
0.0
  0
LINE
  5
912
330
1F
100
AcDbEntity
  8
TitleBlock&Notes
  6
Continuous
 62
     3
100
AcDbLine
 10
29.08047074051308
 20
1.745449675199981
 30
0.0
 11
29.42878739051315
 21
1.751529581999982
 31
0.0
  0
LINE
  5
913
330
1F
100
AcDbEntity
  8
TitleBlock&Notes
  6
Continuous
 62
     3
100
AcDbLine
 10
29.08047074051308
 20
1.761292090799997
 30
0.0
 11
29.41810620131313
 21
1.767185560799983
 31
0.0
  0
LINE
  5
914
330
1F
100
AcDbEntity
  8
TitleBlock&Notes
  6
Continuous
 62
     3
100
AcDbLine
 10
29.08047074051308
 20
1.777134506399992
 30
0.0
 11
29.4079951729131
 21
1.782851479199997
 31
0.0
  0
LINE
  5
915
330
1F
100
AcDbEntity
  8
TitleBlock&Notes
  6
Continuous
 62
     3
100
AcDbLine
 10
29.08047074051308
 20
1.792976921999986
 30
0.0
 11
29.39842797131313
 21
1.798526901599988
 31
0.0
  0
LINE
  5
916
330
1F
100
AcDbEntity
  8
TitleBlock&Notes
  6
Continuous
 62
     3
100
AcDbLine
 10
29.08047074051308
 20
1.808819337599992
 30
0.0
 11
29.3893812325131
 21
1.814211392399982
 31
0.0
  0
LINE
  5
917
330
1F
100
AcDbEntity
  8
TitleBlock&Notes
  6
Continuous
 62
     3
100
AcDbLine
 10
29.08047074051308
 20
1.824661753199986
 30
0.0
 11
29.38083400811313
 21
1.829904595199984
 31
0.0
  0
LINE
  5
918
330
1F
100
AcDbEntity
  8
TitleBlock&Notes
  6
Continuous
 62
     3
100
AcDbLine
 10
29.08047074051308
 20
1.840504168799991
 30
0.0
 11
29.37276768611311
 21
1.84560623279999
 31
0.0
  0
LINE
  5
919
330
1F
100
AcDbEntity
  8
TitleBlock&Notes
  6
Continuous
 62
     3
100
AcDbLine
 10
29.08047074051308
 20
1.856346584399986
 30
0.0
 11
29.3651654761131
 21
1.861315948799983
 31
0.0
  0
LINE
  5
91A
330
1F
100
AcDbEntity
  8
TitleBlock&Notes
  6
Continuous
 62
     3
100
AcDbLine
 10
29.08047074051308
 20
1.872188999999981
 30
0.0
 11
29.35801233011314
 21
1.877033505599985
 31
0.0
  0
LINE
  5
91B
330
1F
100
AcDbEntity
  8
TitleBlock&Notes
  6
Continuous
 62
     3
100
AcDbLine
 10
29.08047074051308
 20
1.888031415599986
 30
0.0
 11
29.3512947049131
 21
1.892758665599988
 31
0.0
  0
LINE
  5
91C
330
1F
100
AcDbEntity
  8
TitleBlock&Notes
  6
Continuous
 62
     3
100
AcDbLine
 10
29.08047074051308
 20
1.903873791599998
 30
0.0
 11
29.34500044331309
 21
1.908491191199992
 31
0.0
  0
LINE
  5
91D
330
1F
100
AcDbEntity
  8
TitleBlock&Notes
  6
Continuous
 62
     3
100
AcDbLine
 10
29.08047074051308
 20
1.919716207199982
 30
0.0
 11
29.33911849691313
 21
1.924230923999985
 31
0.0
  0
LINE
  5
91E
330
1F
100
AcDbEntity
  8
TitleBlock&Notes
  6
Continuous
 62
     3
100
AcDbLine
 10
29.08047074051308
 20
1.935558622799977
 30
0.0
 11
29.33363908451309
 21
1.939977705599986
 31
0.0
  0
LINE
  5
91F
330
1F
100
AcDbEntity
  8
TitleBlock&Notes
  6
Continuous
 62
     3
100
AcDbLine
 10
29.08047074051308
 20
1.951401038399993
 30
0.0
 11
29.32855317731311
 21
1.955731337999988
 31
0.0
  0
LINE
  5
920
330
1F
100
AcDbEntity
  8
TitleBlock&Notes
  6
Continuous
 62
     3
100
AcDbLine
 10
29.08047074051308
 20
1.960511810399992
 30
0.0
 11
29.32708686851312
 21
1.960511810399992
 31
0.0
  0
LINE
  5
921
330
1F
100
AcDbEntity
  8
TitleBlock&Notes
  6
Continuous
 62
     3
100
AcDbLine
 10
29.08047074051308
 20
1.444443818399992
 30
0.0
 11
29.86180574771312
 21
1.458082097999987
 31
0.0
  0
LINE
  5
922
330
1F
100
AcDbEntity
  8
TitleBlock&Notes
  6
Continuous
 62
     3
100
AcDbLine
 10
29.08047074051308
 20
1.460286233999976
 30
0.0
 11
29.80795410371309
 21
1.47298452839999
 31
0.0
  0
LINE
  5
923
330
1F
100
AcDbEntity
  8
TitleBlock&Notes
  6
Continuous
 62
     3
100
AcDbLine
 10
29.08047074051308
 20
1.476128649599992
 30
0.0
 11
29.76512571371312
 21
1.488079375199991
 31
0.0
  0
LINE
  5
924
330
1F
100
AcDbEntity
  8
TitleBlock&Notes
  6
Continuous
 62
     3
100
AcDbLine
 10
29.08047074051308
 20
1.491971065199987
 30
0.0
 11
29.72880194051314
 21
1.503287755199984
 31
0.0
  0
LINE
  5
925
330
1F
100
AcDbEntity
  8
TitleBlock&Notes
  6
Continuous
 62
     3
100
AcDbLine
 10
29.08047074051308
 20
1.507813480799981
 30
0.0
 11
29.69693934491309
 21
1.518573988799982
 31
0.0
  0
LINE
  5
926
330
1F
100
AcDbEntity
  8
TitleBlock&Notes
  6
Continuous
 62
     3
100
AcDbLine
 10
29.08047074051308
 20
1.523655896399986
 30
0.0
 11
29.66840449571309
 21
1.533918315599979
 31
0.0
  0
LINE
  5
927
330
1F
100
AcDbEntity
  8
TitleBlock&Notes
  6
Continuous
 62
     3
100
AcDbLine
 10
29.08047074051308
 20
1.539498311999992
 30
0.0
 11
29.64248997851308
 21
1.549308380399988
 31
0.0
  0
LINE
  5
928
330
1F
100
AcDbEntity
  8
TitleBlock&Notes
  6
Continuous
 62
     3
100
AcDbLine
 10
29.08047074051308
 20
1.555340727599986
 30
0.0
 11
29.61871869251313
 21
1.564735867199992
 31
0.0
  0
LINE
  5
929
330
1F
100
AcDbEntity
  8
TitleBlock&Notes
  6
Continuous
 62
     3
100
AcDbLine
 10
29.08047074051308
 20
1.571183143199981
 30
0.0
 11
29.59675055291308
 21
1.580194835999989
 31
0.0
  0
LINE
  5
92A
330
1F
100
AcDbEntity
  8
TitleBlock&Notes
  6
Continuous
 62
     3
100
AcDbLine
 10
29.08047074051308
 20
1.587025558799986
 30
0.0
 11
29.57633283251311
 21
1.595680851599986
 31
0.0
  0
LINE
  5
92B
330
1F
100
AcDbEntity
  8
TitleBlock&Notes
  6
Continuous
 62
     3
100
AcDbLine
 10
29.08047074051308
 20
1.60286797439998
 30
0.0
 11
29.55727164971312
 21
1.611190547999992
 31
0.0
  0
LINE
  5
92C
330
1F
100
AcDbEntity
  8
TitleBlock&Notes
  6
Continuous
 62
     3
100
AcDbLine
 10
29.08047074051308
 20
1.618710389999996
 30
0.0
 11
29.5394143465131
 21
1.626721271999979
 31
0.0
  0
LINE
  5
92D
330
1F
100
AcDbEntity
  8
TitleBlock&Notes
  6
Continuous
 62
     3
100
AcDbLine
 10
29.08047074051308
 20
1.634552805599991
 30
0.0
 11
29.52263820251311
 21
1.642270845599991
 31
0.0
  0
LINE
  5
92E
330
1F
100
AcDbEntity
  8
TitleBlock&Notes
  6
Continuous
 62
     3
100
AcDbLine
 10
29.08047074051308
 20
1.650395221199985
 30
0.0
 11
29.50684275251309
 21
1.657837565999994
 31
0.0
  0
LINE
  5
92F
330
1F
100
AcDbEntity
  8
TitleBlock&Notes
  6
Continuous
 62
     3
100
AcDbLine
 10
29.08047074051308
 20
1.666237636799991
 30
0.0
 11
29.49194459891311
 21
1.673419928399979
 31
0.0
  0
LINE
  5
930
330
1F
100
AcDbEntity
  8
TitleBlock&Notes
  6
Continuous
 62
     3
100
AcDbLine
 10
31.19907074051313
 20
1.458184265999978
 30
0.0
 11
31.19907074051313
 21
2.067898694399989
 31
0.0
  0
LINE
  5
931
330
1F
100
AcDbEntity
  8
TitleBlock&Notes
  6
Continuous
 62
     3
100
AcDbLine
 10
31.53567074051309
 20
2.067898694399989
 30
0.0
 11
31.53567074051309
 21
1.458184265999978
 31
0.0
  0
LINE
  5
932
330
1F
100
AcDbEntity
  8
TitleBlock&Notes
  6
Continuous
 62
     3
100
AcDbLine
 10
31.55547074051309
 20
1.438384265999982
 30
0.0
 11
31.55547074051309
 21
2.063813122799992
 31
0.0
  0
LINE
  5
933
330
1F
100
AcDbEntity
  8
TitleBlock&Notes
  6
Continuous
 62
     3
100
AcDbLine
 10
31.17927074051309
 20
2.063813122799992
 30
0.0
 11
31.17927074051309
 21
1.438384265999982
 31
0.0
  0
LINE
  5
934
330
1F
100
AcDbEntity
  8
TitleBlock&Notes
  6
Continuous
 62
     3
100
AcDbLine
 10
31.51587074051312
 20
1.477984265999975
 30
0.0
 11
31.51587074051312
 21
2.071984265999986
 31
0.0
  0
LINE
  5
935
330
1F
100
AcDbEntity
  8
TitleBlock&Notes
  6
Continuous
 62
     3
100
AcDbLine
 10
31.21887074051311
 20
1.477984265999975
 30
0.0
 11
31.21887074051311
 21
2.071984265999986
 31
0.0
  0
LINE
  5
936
330
1F
100
AcDbEntity
  8
TitleBlock&Notes
  6
Continuous
 62
     3
100
AcDbLine
 10
30.75756483611308
 20
2.06104836959998
 30
0.0
 11
31.17730444211309
 21
2.068374963599993
 31
0.0
  0
LINE
  5
937
330
1F
100
AcDbEntity
  8
TitleBlock&Notes
  6
Continuous
 62
     3
100
AcDbLine
 10
30.7549218133131
 20
2.045159819999994
 30
0.0
 11
31.17927074051309
 21
2.052566881199993
 31
0.0
  0
LINE
  5
938
330
1F
100
AcDbEntity
  8
TitleBlock&Notes
  6
Continuous
 62
     3
100
AcDbLine
 10
30.75370058891312
 20
2.038464568799984
 30
0.0
 11
31.17927074051309
 21
2.038464568799984
 31
0.0
  0
LINE
  5
939
330
1F
100
AcDbEntity
  8
TitleBlock&Notes
  6
Continuous
 62
     3
100
AcDbLine
 10
30.75985126091312
 20
2.076930701999984
 30
0.0
 11
31.17052678331311
 21
2.084099054399981
 31
0.0
  0
LINE
  5
93A
330
1F
100
AcDbEntity
  8
TitleBlock&Notes
  6
Continuous
 62
     3
100
AcDbLine
 10
30.7617847705131
 20
2.092806856799978
 30
0.0
 11
31.16374916411312
 21
2.099823184799983
 31
0.0
  0
LINE
  5
93B
330
1F
100
AcDbEntity
  8
TitleBlock&Notes
  6
Continuous
 62
     3
100
AcDbLine
 10
30.7633686913131
 20
2.108676913199989
 30
0.0
 11
31.15697150531312
 21
2.115547275599983
 31
0.0
  0
LINE
  5
93C
330
1F
100
AcDbEntity
  8
TitleBlock&Notes
  6
Continuous
 62
     3
100
AcDbLine
 10
30.76460555771312
 20
2.124540910799989
 30
0.0
 11
31.15019388611313
 21
2.131271405999974
 31
0.0
  0
LINE
  5
93D
330
1F
100
AcDbEntity
  8
TitleBlock&Notes
  6
Continuous
 62
     3
100
AcDbLine
 10
30.76549758731311
 20
2.140398889199982
 30
0.0
 11
31.14341626691313
 21
2.146995496799984
 31
0.0
  0
LINE
  5
93E
330
1F
100
AcDbEntity
  8
TitleBlock&Notes
  6
Continuous
 62
     3
100
AcDbLine
 10
30.47577840371312
 20
2.151184265999983
 30
0.0
 11
31.13663860811309
 21
2.162719627199987
 31
0.0
  0
LINE
  5
93F
330
1F
100
AcDbEntity
  8
TitleBlock&Notes
  6
Continuous
 62
     3
100
AcDbLine
 10
30.6937752157131
 20
3.240184265999982
 30
0.0
 11
31.19907074051313
 21
2.067898694399989
 31
0.0
  0
LINE
  5
940
330
1F
100
AcDbEntity
  8
TitleBlock&Notes
  6
Continuous
 62
     3
100
AcDbLine
 10
30.66367973051307
 20
3.259984265999989
 30
0.0
 11
31.17927074051309
 21
2.063813122799992
 31
0.0
  0
LINE
  5
941
330
1F
100
AcDbEntity
  8
TitleBlock&Notes
  6
Continuous
 62
     3
100
AcDbLine
 10
31.21887074051311
 20
2.071984265999986
 30
0.0
 11
30.72387074051311
 21
3.220384265999985
 31
0.0
  0
LINE
  5
942
330
1F
100
AcDbEntity
  8
TitleBlock&Notes
  6
Continuous
 62
     3
100
AcDbLine
 10
31.36737074051314
 20
2.527809134399994
 30
0.0
 11
31.06031249891311
 21
3.240184265999982
 31
0.0
  0
LINE
  5
943
330
1F
100
AcDbEntity
  8
TitleBlock&Notes
  6
Continuous
 62
     3
100
AcDbLine
 10
31.36737074051314
 20
2.577830705999996
 30
0.0
 11
31.07333903771312
 21
3.259984265999989
 31
0.0
  0
LINE
  5
944
330
1F
100
AcDbEntity
  8
TitleBlock&Notes
  6
Continuous
 62
     3
100
AcDbLine
 10
31.36737074051314
 20
2.477787602399985
 30
0.0
 11
31.04728596011308
 21
3.220384265999985
 31
0.0
  0
LINE
  5
945
330
1F
100
AcDbEntity
  8
TitleBlock&Notes
  6
Continuous
 62
     3
100
AcDbLine
 10
30.73590335891314
 20
2.739415733999987
 30
0.0
 11
30.88806271571312
 21
2.739415733999987
 31
0.0
  0
LINE
  5
946
330
1F
100
AcDbEntity
  8
TitleBlock&Notes
  6
Continuous
 62
     3
100
AcDbLine
 10
30.66367973051307
 20
3.259984265999989
 30
0.0
 11
31.07333903771312
 21
3.259984265999989
 31
0.0
  0
LINE
  5
947
330
1F
100
AcDbEntity
  8
TitleBlock&Notes
  6
Continuous
 62
     3
100
AcDbLine
 10
30.87952820291312
 20
2.759215733999994
 30
0.0
 11
30.72949809851313
 21
2.759215733999994
 31
0.0
  0
LINE
  5
948
330
1F
100
AcDbEntity
  8
TitleBlock&Notes
  6
Continuous
 62
     3
100
AcDbLine
 10
31.06031249891311
 20
3.240184265999982
 30
0.0
 11
30.6937752157131
 21
3.240184265999982
 31
0.0
  0
LINE
  5
949
330
1F
100
AcDbEntity
  8
TitleBlock&Notes
  6
Continuous
 62
     3
100
AcDbLine
 10
30.87099372971307
 20
2.77901573399998
 30
0.0
 11
30.72246692051311
 21
2.77901573399998
 31
0.0
  0
LINE
  5
94A
330
1F
100
AcDbEntity
  8
TitleBlock&Notes
  6
Continuous
 62
     3
100
AcDbLine
 10
30.72387074051311
 20
3.220384265999985
 30
0.0
 11
31.04728596011308
 21
3.220384265999985
 31
0.0
  0
LINE
  5
94B
330
1F
100
AcDbEntity
  8
TitleBlock&Notes
  6
Continuous
 62
     3
100
AcDbLine
 10
30.76165828811312
 20
3.032674009199983
 30
0.0
 11
30.56351857931311
 21
3.032674009199983
 31
0.0
  0
LINE
  5
94C
330
1F
100
AcDbEntity
  8
TitleBlock&Notes
  6
Continuous
 62
     3
100
AcDbLine
 10
30.7531237753131
 20
3.052474009199979
 30
0.0
 11
30.54381310451309
 21
3.052474009199979
 31
0.0
  0
LINE
  5
94D
330
1F
100
AcDbEntity
  8
TitleBlock&Notes
  6
Continuous
 62
     3
100
AcDbLine
 10
30.52252299611314
 20
3.072274009199997
 30
0.0
 11
30.74458930211312
 21
3.072274009199997
 31
0.0
  0
LINE
  5
94E
330
1F
100
AcDbEntity
  8
TitleBlock&Notes
  6
Continuous
 62
     3
100
AcDbLine
 10
30.77019276131308
 20
3.012874009199986
 30
0.0
 11
30.58180950251309
 21
3.012874009199986
 31
0.0
  0
LINE
  5
94F
330
1F
100
AcDbEntity
  8
TitleBlock&Notes
  6
Continuous
 62
     3
100
AcDbLine
 10
30.8965971889131
 20
2.71961573399999
 30
0.0
 11
30.74169965051311
 21
2.71961573399999
 31
0.0
  0
LINE
  5
950
330
1F
100
AcDbEntity
  8
TitleBlock&Notes
  6
Continuous
 62
     3
100
AcDbLine
 10
30.90459405251311
 20
2.701062975599977
 30
0.0
 11
30.74659135931314
 21
2.701062975599977
 31
0.0
  0
LINE
  5
951
330
1F
100
AcDbEntity
  8
TitleBlock&Notes
  6
Continuous
 62
     3
100
AcDbLine
 10
30.71693757251312
 20
2.428228360799984
 30
0.0
 11
31.01991566771312
 21
2.433516861599976
 31
0.0
  0
LINE
  5
952
330
1F
100
AcDbEntity
  8
TitleBlock&Notes
  6
Continuous
 62
     3
100
AcDbLine
 10
30.76692789971313
 20
2.571682647599985
 30
0.0
 11
30.9589169761131
 21
2.575033837199981
 31
0.0
  0
LINE
  5
953
330
1F
100
AcDbEntity
  8
TitleBlock&Notes
  6
Continuous
 62
     3
100
AcDbLine
 10
30.7656948745131
 20
2.587503520799987
 30
0.0
 11
30.9521393569131
 21
2.59075792799998
 31
0.0
  0
LINE
  5
954
330
1F
100
AcDbEntity
  8
TitleBlock&Notes
  6
Continuous
 62
     3
100
AcDbLine
 10
30.76411911131312
 20
2.603318453999978
 30
0.0
 11
30.94536169811313
 21
2.606482058399972
 31
0.0
  0
LINE
  5
955
330
1F
100
AcDbEntity
  8
TitleBlock&Notes
  6
Continuous
 62
     3
100
AcDbLine
 10
30.76219886771313
 20
2.61912732839999
 30
0.0
 11
30.93858407891311
 21
2.622206149199982
 31
0.0
  0
LINE
  5
956
330
1F
100
AcDbEntity
  8
TitleBlock&Notes
  6
Continuous
 62
     3
100
AcDbLine
 10
30.9381943753131
 20
2.623110217199986
 30
0.0
 11
30.76166034731312
 21
2.623110217199986
 31
0.0
  0
LINE
  5
957
330
1F
100
AcDbEntity
  8
TitleBlock&Notes
  6
Continuous
 62
     3
100
AcDbLine
 10
30.40748527331308
 20
2.131384265999987
 30
0.0
 11
30.74519878571311
 21
2.131384265999987
 31
0.0
  0
LINE
  5
958
330
1F
100
AcDbEntity
  8
TitleBlock&Notes
  6
Continuous
 62
     3
100
AcDbLine
 10
30.40811724971312
 20
2.58678426599998
 30
0.0
 11
30.74588010371313
 21
2.58678426599998
 31
0.0
  0
LINE
  5
959
330
1F
100
AcDbEntity
  8
TitleBlock&Notes
  6
Continuous
 62
     3
100
AcDbLine
 10
30.38935203731308
 20
2.151184265999983
 30
0.0
 11
30.76590823931315
 21
2.151184265999983
 31
0.0
  0
LINE
  5
95A
330
1F
100
AcDbEntity
  8
TitleBlock&Notes
  6
Continuous
 62
     3
100
AcDbLine
 10
30.7672282261131
 20
2.566984265999984
 30
0.0
 11
30.3910286221131
 21
2.566984265999984
 31
0.0
  0
LINE
  5
95B
330
1F
100
AcDbEntity
  8
TitleBlock&Notes
  6
Continuous
 62
     3
100
AcDbLine
 10
30.72387074051311
 20
2.11158426599999
 30
0.0
 11
30.42477689051309
 21
2.11158426599999
 31
0.0
  0
LINE
  5
95C
330
1F
100
AcDbEntity
  8
TitleBlock&Notes
  6
Continuous
 62
     3
100
AcDbLine
 10
30.42301975931312
 20
2.606584265999988
 30
0.0
 11
30.72387074051311
 21
2.606584265999988
 31
0.0
  0
LINE
  5
95D
330
1F
100
AcDbEntity
  8
TitleBlock&Notes
  6
Continuous
 62
     3
100
AcDbLine
 10
31.53567074051309
 20
2.067898694399989
 30
0.0
 11
32.0409662257131
 21
3.240184265999982
 31
0.0
  0
LINE
  5
95E
330
1F
100
AcDbEntity
  8
TitleBlock&Notes
  6
Continuous
 62
     3
100
AcDbLine
 10
31.55547074051309
 20
2.063813122799992
 30
0.0
 11
32.07106171091311
 21
3.259984265999989
 31
0.0
  0
LINE
  5
95F
330
1F
100
AcDbEntity
  8
TitleBlock&Notes
  6
Continuous
 62
     3
100
AcDbLine
 10
31.51587074051312
 20
2.071984265999986
 30
0.0
 11
32.01087074051311
 21
3.220384265999985
 31
0.0
  0
LINE
  5
960
330
1F
100
AcDbEntity
  8
TitleBlock&Notes
  6
Continuous
 62
     3
100
AcDbLine
 10
31.36737074051314
 20
2.527809134399994
 30
0.0
 11
31.67442894251309
 21
3.240184265999982
 31
0.0
  0
LINE
  5
961
330
1F
100
AcDbEntity
  8
TitleBlock&Notes
  6
Continuous
 62
     3
100
AcDbLine
 10
31.66140244331311
 20
3.259984265999989
 30
0.0
 11
31.36737074051314
 21
2.577830705999996
 31
0.0
  0
LINE
  5
962
330
1F
100
AcDbEntity
  8
TitleBlock&Notes
  6
Continuous
 62
     3
100
AcDbLine
 10
31.36737074051314
 20
2.477787602399985
 30
0.0
 11
31.68745548131312
 21
3.220384265999985
 31
0.0
  0
LINE
  5
963
330
1F
100
AcDbEntity
  8
TitleBlock&Notes
  6
Continuous
 62
     3
100
AcDbLine
 10
31.68745548131312
 20
3.220384265999985
 30
0.0
 11
32.01087074051311
 21
3.220384265999985
 31
0.0
  0
LINE
  5
964
330
1F
100
AcDbEntity
  8
TitleBlock&Notes
  6
Continuous
 62
     3
100
AcDbLine
 10
31.67442894251309
 20
3.240184265999982
 30
0.0
 11
32.0409662257131
 21
3.240184265999982
 31
0.0
  0
LINE
  5
965
330
1F
100
AcDbEntity
  8
TitleBlock&Notes
  6
Continuous
 62
     3
100
AcDbLine
 10
32.07106171091311
 20
3.259984265999989
 30
0.0
 11
31.66140244331311
 21
3.259984265999989
 31
0.0
  0
LINE
  5
966
330
1F
100
AcDbEntity
  8
TitleBlock&Notes
  6
Continuous
 62
     3
100
AcDbLine
 10
31.31479096931313
 20
2.699815733999994
 30
0.0
 11
31.41995047211314
 21
2.699815733999994
 31
0.0
  0
LINE
  5
967
330
1F
100
AcDbEntity
  8
TitleBlock&Notes
  6
Continuous
 62
     3
100
AcDbLine
 10
31.30625649611315
 20
2.71961573399999
 30
0.0
 11
31.42848498491314
 21
2.71961573399999
 31
0.0
  0
LINE
  5
968
330
1F
100
AcDbEntity
  8
TitleBlock&Notes
  6
Continuous
 62
     3
100
AcDbLine
 10
31.29772198331308
 20
2.739415733999987
 30
0.0
 11
31.43701945811312
 21
2.739415733999987
 31
0.0
  0
LINE
  5
969
330
1F
100
AcDbEntity
  8
TitleBlock&Notes
  6
Continuous
 62
     3
100
AcDbLine
 10
31.56342388571308
 20
3.032674009199983
 30
0.0
 11
31.17131755571312
 21
3.032674009199983
 31
0.0
  0
LINE
  5
96A
330
1F
100
AcDbEntity
  8
TitleBlock&Notes
  6
Continuous
 62
     3
100
AcDbLine
 10
31.57195835891311
 20
3.052474009199979
 30
0.0
 11
31.16278308251314
 21
3.052474009199979
 31
0.0
  0
LINE
  5
96B
330
1F
100
AcDbEntity
  8
TitleBlock&Notes
  6
Continuous
 62
     3
100
AcDbLine
 10
31.1542486093131
 20
3.072274009199997
 30
0.0
 11
31.5804928321131
 21
3.072274009199997
 31
0.0
  0
LINE
  5
96C
330
1F
100
AcDbEntity
  8
TitleBlock&Notes
  6
Continuous
 62
     3
100
AcDbLine
 10
31.17985206851312
 20
3.012874009199986
 30
0.0
 11
31.55488937291312
 21
3.012874009199986
 31
0.0
  0
LINE
  5
96D
330
1F
100
AcDbEntity
  8
TitleBlock&Notes
  6
Continuous
 62
     3
100
AcDbLine
 10
31.44555393131311
 20
2.759215733999994
 30
0.0
 11
31.2891875101131
 21
2.759215733999994
 31
0.0
  0
LINE
  5
96E
330
1F
100
AcDbEntity
  8
TitleBlock&Notes
  6
Continuous
 62
     3
100
AcDbLine
 10
31.28065303691312
 20
2.77901573399998
 30
0.0
 11
31.45408840451313
 21
2.77901573399998
 31
0.0
  0
LINE
  5
96F
330
1F
100
AcDbEntity
  8
TitleBlock&Notes
  6
Continuous
 62
     3
100
AcDbLine
 10
31.67728540931312
 20
2.346423195599985
 30
0.0
 11
31.89799006931312
 21
2.350275602399982
 31
0.0
  0
LINE
  5
970
330
1F
100
AcDbEntity
  8
TitleBlock&Notes
  6
Continuous
 62
     3
100
AcDbLine
 10
31.36551714371312
 20
2.582131067999977
 30
0.0
 11
31.36925241371309
 21
2.582196249599988
 31
0.0
  0
LINE
  5
971
330
1F
100
AcDbEntity
  8
TitleBlock&Notes
  6
Continuous
 62
     3
100
AcDbLine
 10
31.3587394849131
 20
2.597855158799987
 30
0.0
 11
31.3761328345131
 21
2.598158771999987
 31
0.0
  0
LINE
  5
972
330
1F
100
AcDbEntity
  8
TitleBlock&Notes
  6
Continuous
 62
     3
100
AcDbLine
 10
31.35196186571315
 20
2.613579289199989
 30
0.0
 11
31.38301321571308
 21
2.614121294399986
 31
0.0
  0
LINE
  5
973
330
1F
100
AcDbEntity
  8
TitleBlock&Notes
  6
Continuous
 62
     3
100
AcDbLine
 10
31.38688775891312
 20
2.623110217199986
 30
0.0
 11
31.34785368251314
 21
2.623110217199986
 31
0.0
  0
LINE
  5
974
330
1F
100
AcDbEntity
  8
TitleBlock&Notes
  6
Continuous
 62
     3
100
AcDbLine
 10
31.79577803411312
 20
2.621326118399974
 30
0.0
 11
31.89799006931312
 21
2.623110217199986
 31
0.0
  0
LINE
  5
975
330
1F
100
AcDbEntity
  8
TitleBlock&Notes
  6
Continuous
 62
     3
100
AcDbLine
 10
30.6252331201131
 20
1.740728800799985
 30
0.0
 11
31.17927074051309
 21
1.750399556399987
 31
0.0
  0
LINE
  5
976
330
1F
100
AcDbEntity
  8
TitleBlock&Notes
  6
Continuous
 62
     3
100
AcDbLine
 10
30.63659503331314
 20
1.756769533199985
 30
0.0
 11
31.17927074051309
 21
1.766241971999981
 31
0.0
  0
LINE
  5
977
330
1F
100
AcDbEntity
  8
TitleBlock&Notes
  6
Continuous
 62
     3
100
AcDbLine
 10
30.64732322771312
 20
1.772799177599974
 30
0.0
 11
31.17927074051309
 21
1.782084387599986
 31
0.0
  0
LINE
  5
978
330
1F
100
AcDbEntity
  8
TitleBlock&Notes
  6
Continuous
 62
     3
100
AcDbLine
 10
30.65745152171311
 20
1.788818407199986
 30
0.0
 11
31.17927074051309
 21
1.797926803199981
 31
0.0
  0
LINE
  5
979
330
1F
100
AcDbEntity
  8
TitleBlock&Notes
  6
Continuous
 62
     3
100
AcDbLine
 10
30.6670096549131
 20
1.804827657599982
 30
0.0
 11
31.17927074051309
 21
1.813769179199983
 31
0.0
  0
LINE
  5
97A
330
1F
100
AcDbEntity
  8
TitleBlock&Notes
  6
Continuous
 62
     3
100
AcDbLine
 10
30.67602392171311
 20
1.820827403999992
 30
0.0
 11
31.17927074051309
 21
1.829611594799978
 31
0.0
  0
LINE
  5
97B
330
1F
100
AcDbEntity
  8
TitleBlock&Notes
  6
Continuous
 62
     3
100
AcDbLine
 10
30.68451780491314
 20
1.836818081999986
 30
0.0
 11
31.17927074051309
 21
1.845454010399993
 31
0.0
  0
LINE
  5
97C
330
1F
100
AcDbEntity
  8
TitleBlock&Notes
  6
Continuous
 62
     3
100
AcDbLine
 10
30.69251213411311
 20
1.852800047999995
 30
0.0
 11
31.17927074051309
 21
1.861296425999988
 31
0.0
  0
LINE
  5
97D
330
1F
100
AcDbEntity
  8
TitleBlock&Notes
  6
Continuous
 62
     3
100
AcDbLine
 10
30.70002556091312
 20
1.868773579199988
 30
0.0
 11
31.17927074051309
 21
1.877138841599993
 31
0.0
  0
LINE
  5
97E
330
1F
100
AcDbEntity
  8
TitleBlock&Notes
  6
Continuous
 62
     3
100
AcDbLine
 10
30.70707491531311
 20
1.884739071599987
 30
0.0
 11
31.17927074051309
 21
1.892981257199988
 31
0.0
  0
LINE
  5
97F
330
1F
100
AcDbEntity
  8
TitleBlock&Notes
  6
Continuous
 62
     3
100
AcDbLine
 10
30.71367516611314
 20
1.900696683599974
 30
0.0
 11
31.17927074051309
 21
1.908823672799982
 31
0.0
  0
LINE
  5
980
330
1F
100
AcDbEntity
  8
TitleBlock&Notes
  6
Continuous
 62
     3
100
AcDbLine
 10
30.71983985651309
 20
1.916646692399982
 30
0.0
 11
31.17927074051309
 21
1.924666088399987
 31
0.0
  0
LINE
  5
981
330
1F
100
AcDbEntity
  8
TitleBlock&Notes
  6
Continuous
 62
     3
100
AcDbLine
 10
30.72558126251308
 20
1.932589335599988
 30
0.0
 11
31.17927074051309
 21
1.940508503999982
 31
0.0
  0
LINE
  5
982
330
1F
100
AcDbEntity
  8
TitleBlock&Notes
  6
Continuous
 62
     3
100
AcDbLine
 10
30.73091027411312
 20
1.948524771599984
 30
0.0
 11
31.17927074051309
 21
1.956350919599987
 31
0.0
  0
LINE
  5
983
330
1F
100
AcDbEntity
  8
TitleBlock&Notes
  6
Continuous
 62
     3
100
AcDbLine
 10
30.73465457291311
 20
1.960511810399992
 30
0.0
 11
31.17927074051309
 21
1.960511810399992
 31
0.0
  0
LINE
  5
984
330
1F
100
AcDbEntity
  8
TitleBlock&Notes
  6
Continuous
 62
     3
100
AcDbLine
 10
30.58693045571308
 20
1.692532987199989
 30
0.0
 11
31.17927074051309
 21
1.702872309599992
 31
0.0
  0
LINE
  5
985
330
1F
100
AcDbEntity
  8
TitleBlock&Notes
  6
Continuous
 62
     3
100
AcDbLine
 10
30.60044854931311
 20
1.70861133959999
 30
0.0
 11
31.17927074051309
 21
1.718714725199987
 31
0.0
  0
LINE
  5
986
330
1F
100
AcDbEntity
  8
TitleBlock&Notes
  6
Continuous
 62
     3
100
AcDbLine
 10
30.6131990365131
 20
1.724676307199981
 30
0.0
 11
31.17927074051309
 21
1.734557140799992
 31
0.0
  0
LINE
  5
987
330
1F
100
AcDbEntity
  8
TitleBlock&Notes
  6
Continuous
 62
     3
100
AcDbLine
 10
30.1441973869131
 20
1.447168852799979
 30
0.0
 11
31.17927074051309
 21
1.465236115199981
 31
0.0
  0
LINE
  5
988
330
1F
100
AcDbEntity
  8
TitleBlock&Notes
  6
Continuous
 62
     3
100
AcDbLine
 10
30.2248098001131
 20
1.464418335599987
 30
0.0
 11
31.17927074051309
 21
1.481078530799987
 31
0.0
  0
LINE
  5
989
330
1F
100
AcDbEntity
  8
TitleBlock&Notes
  6
Continuous
 62
     3
100
AcDbLine
 10
30.27810854891312
 20
1.481191113599976
 30
0.0
 11
31.17927074051309
 21
1.496920946399981
 31
0.0
  0
LINE
  5
98A
330
1F
100
AcDbEntity
  8
TitleBlock&Notes
  6
Continuous
 62
     3
100
AcDbLine
 10
30.32038404371309
 20
1.497771435599986
 30
0.0
 11
31.17927074051309
 21
1.512763361999986
 31
0.0
  0
LINE
  5
98B
330
1F
100
AcDbEntity
  8
TitleBlock&Notes
  6
Continuous
 62
     3
100
AcDbLine
 10
30.35615496131313
 20
1.514238224399992
 30
0.0
 11
31.17927074051309
 21
1.528605777599981
 31
0.0
  0
LINE
  5
98C
330
1F
100
AcDbEntity
  8
TitleBlock&Notes
  6
Continuous
 62
     3
100
AcDbLine
 10
30.38746466171312
 20
1.530627159599983
 30
0.0
 11
31.17927074051309
 21
1.544448193199976
 31
0.0
  0
LINE
  5
98D
330
1F
100
AcDbEntity
  8
TitleBlock&Notes
  6
Continuous
 62
     3
100
AcDbLine
 10
30.41544661571311
 20
1.546958001599985
 30
0.0
 11
31.17927074051309
 21
1.560290608799991
 31
0.0
  0
LINE
  5
98E
330
1F
100
AcDbEntity
  8
TitleBlock&Notes
  6
Continuous
 62
     3
100
AcDbLine
 10
30.44080823771313
 20
1.563243105599987
 30
0.0
 11
31.17927074051309
 21
1.576133024399986
 31
0.0
  0
LINE
  5
98F
330
1F
100
AcDbEntity
  8
TitleBlock&Notes
  6
Continuous
 62
     3
100
AcDbLine
 10
30.46402662851309
 20
1.579490787599993
 30
0.0
 11
31.17927074051309
 21
1.591975400399988
 31
0.0
  0
LINE
  5
990
330
1F
100
AcDbEntity
  8
TitleBlock&Notes
  6
Continuous
 62
     3
100
AcDbLine
 10
30.48544187291315
 20
1.595706987599985
 30
0.0
 11
31.17927074051309
 21
1.607817815999982
 31
0.0
  0
LINE
  5
991
330
1F
100
AcDbEntity
  8
TitleBlock&Notes
  6
Continuous
 62
     3
100
AcDbLine
 10
30.50530669811311
 20
1.611896140799988
 30
0.0
 11
31.17927074051309
 21
1.623660231599988
 31
0.0
  0
LINE
  5
992
330
1F
100
AcDbEntity
  8
TitleBlock&Notes
  6
Continuous
 62
     3
100
AcDbLine
 10
30.52381498571311
 20
1.628061652799985
 30
0.0
 11
31.17927074051309
 21
1.639502647199982
 31
0.0
  0
LINE
  5
993
330
1F
100
AcDbEntity
  8
TitleBlock&Notes
  6
Continuous
 62
     3
100
AcDbLine
 10
30.54111939371309
 20
1.644206097599997
 30
0.0
 11
31.17927074051309
 21
1.655345062799987
 31
0.0
  0
LINE
  5
994
330
1F
100
AcDbEntity
  8
TitleBlock&Notes
  6
Continuous
 62
     3
100
AcDbLine
 10
30.55734264251315
 20
1.660331692799974
 30
0.0
 11
31.17927074051309
 21
1.671187478399982
 31
0.0
  0
LINE
  5
995
330
1F
100
AcDbEntity
  8
TitleBlock&Notes
  6
Continuous
 62
     3
100
AcDbLine
 10
30.5725851973131
 20
1.676440141199982
 30
0.0
 11
31.17927074051309
 21
1.687029893999977
 31
0.0
  0
LINE
  5
996
330
1F
100
AcDbEntity
  8
TitleBlock&Notes
  6
Continuous
 62
     3
100
AcDbLine
 10
31.53567074051309
 20
1.458184265999978
 30
0.0
 11
31.19907074051313
 21
1.458184265999978
 31
0.0
  0
LINE
  5
997
330
1F
100
AcDbEntity
  8
TitleBlock&Notes
  6
Continuous
 62
     3
100
AcDbLine
 10
31.17927074051309
 20
1.438384265999982
 30
0.0
 11
31.55547074051309
 21
1.438384265999982
 31
0.0
  0
LINE
  5
998
330
1F
100
AcDbEntity
  8
TitleBlock&Notes
  6
Continuous
 62
     3
100
AcDbLine
 10
31.21887074051311
 20
1.477984265999975
 30
0.0
 11
31.51587074051312
 21
1.477984265999975
 31
0.0
  0
LINE
  5
999
330
1F
100
AcDbEntity
  8
TitleBlock&Notes
  6
Continuous
 62
     3
100
AcDbLine
 10
32.52567074051311
 20
1.794784265999982
 30
0.0
 11
32.52567074051311
 21
3.240184265999982
 31
0.0
  0
LINE
  5
99A
330
1F
100
AcDbEntity
  8
TitleBlock&Notes
  6
Continuous
 62
     3
100
AcDbLine
 10
32.54547074051309
 20
1.814584265999979
 30
0.0
 11
32.54547074051309
 21
3.259984265999989
 31
0.0
  0
LINE
  5
99B
330
1F
100
AcDbEntity
  8
TitleBlock&Notes
  6
Continuous
 62
     3
100
AcDbLine
 10
32.50587074051312
 20
3.220384265999985
 30
0.0
 11
32.50587074051312
 21
1.774984265999986
 31
0.0
  0
LINE
  5
99C
330
1F
100
AcDbEntity
  8
TitleBlock&Notes
  6
Continuous
 62
     3
100
AcDbLine
 10
32.18907074051313
 20
3.240184265999982
 30
0.0
 11
32.18907074051313
 21
1.458184265999978
 31
0.0
  0
LINE
  5
99D
330
1F
100
AcDbEntity
  8
TitleBlock&Notes
  6
Continuous
 62
     3
100
AcDbLine
 10
32.16927074051309
 20
3.259984265999989
 30
0.0
 11
32.16927074051309
 21
1.438384265999982
 31
0.0
  0
LINE
  5
99E
330
1F
100
AcDbEntity
  8
TitleBlock&Notes
  6
Continuous
 62
     3
100
AcDbLine
 10
32.2088707405131
 20
1.477984265999975
 30
0.0
 11
32.2088707405131
 21
3.220384265999985
 31
0.0
  0
LINE
  5
99F
330
1F
100
AcDbEntity
  8
TitleBlock&Notes
  6
Continuous
 62
     3
100
AcDbLine
 10
33.73526363051311
 20
2.739415733999987
 30
0.0
 11
33.12505396451312
 21
2.739415733999987
 31
0.0
  0
LINE
  5
9A0
330
1F
100
AcDbEntity
  8
TitleBlock&Notes
  6
Continuous
 62
     3
100
AcDbLine
 10
33.73526363051311
 20
2.759215733999994
 30
0.0
 11
33.15935786051309
 21
2.759215733999994
 31
0.0
  0
LINE
  5
9A1
330
1F
100
AcDbEntity
  8
TitleBlock&Notes
  6
Continuous
 62
     3
100
AcDbLine
 10
33.73526363051311
 20
2.77901573399998
 30
0.0
 11
33.18444303491312
 21
2.77901573399998
 31
0.0
  0
LINE
  5
9A2
330
1F
100
AcDbEntity
  8
TitleBlock&Notes
  6
Continuous
 62
     3
100
AcDbLine
 10
33.09418422011312
 20
2.038464568799984
 30
0.0
 11
33.73526363051311
 21
2.049654657599994
 31
0.0
  0
LINE
  5
9A3
330
1F
100
AcDbEntity
  8
TitleBlock&Notes
  6
Continuous
 62
     3
100
AcDbLine
 10
33.73526363051311
 20
2.71961573399999
 30
0.0
 11
33.06391136651309
 21
2.71961573399999
 31
0.0
  0
CIRCLE
  5
9A4
330
1F
100
AcDbEntity
  8
TitleBlock&Notes
  6
Continuous
 62
     3
100
AcDbCircle
 10
33.0188778109131
 20
2.962984265999975
 30
0.0
 40
0.2475
  0
LINE
  5
9A5
330
1F
100
AcDbEntity
  8
TitleBlock&Notes
  6
Continuous
 62
     3
100
AcDbLine
 10
32.54547074051309
 20
2.42846069399998
 30
0.0
 11
33.73526363051311
 21
2.449228597199997
 31
0.0
  0
LINE
  5
9A6
330
1F
100
AcDbEntity
  8
TitleBlock&Notes
  6
Continuous
 62
     3
100
AcDbLine
 10
32.54547074051309
 20
2.444303109599985
 30
0.0
 11
33.73526363051311
 21
2.465071012799992
 31
0.0
  0
LINE
  5
9A7
330
1F
100
AcDbEntity
  8
TitleBlock&Notes
  6
Continuous
 62
     3
100
AcDbLine
 10
32.54547074051309
 20
2.46014552519998
 30
0.0
 11
33.73526363051311
 21
2.480913428399986
 31
0.0
  0
LINE
  5
9A8
330
1F
100
AcDbEntity
  8
TitleBlock&Notes
  6
Continuous
 62
     3
100
AcDbLine
 10
32.54547074051309
 20
2.475987940799985
 30
0.0
 11
33.73526363051311
 21
2.496755843999991
 31
0.0
  0
LINE
  5
9A9
330
1F
100
AcDbEntity
  8
TitleBlock&Notes
  6
Continuous
 62
     3
100
AcDbLine
 10
32.54547074051309
 20
2.491830356399979
 30
0.0
 11
33.73526363051311
 21
2.512598259599986
 31
0.0
  0
LINE
  5
9AA
330
1F
100
AcDbEntity
  8
TitleBlock&Notes
  6
Continuous
 62
     3
100
AcDbLine
 10
32.54547074051309
 20
2.507672732399992
 30
0.0
 11
33.73526363051311
 21
2.528440675199991
 31
0.0
  0
LINE
  5
9AB
330
1F
100
AcDbEntity
  8
TitleBlock&Notes
  6
Continuous
 62
     3
100
AcDbLine
 10
32.54547074051309
 20
2.523515147999987
 30
0.0
 11
33.73526363051311
 21
2.544283090799986
 31
0.0
  0
LINE
  5
9AC
330
1F
100
AcDbEntity
  8
TitleBlock&Notes
  6
Continuous
 62
     3
100
AcDbLine
 10
32.54547074051309
 20
2.539357563599992
 30
0.0
 11
33.73526363051311
 21
2.56012550639998
 31
0.0
  0
LINE
  5
9AD
330
1F
100
AcDbEntity
  8
TitleBlock&Notes
  6
Continuous
 62
     3
100
AcDbLine
 10
32.54547074051309
 20
2.555199979199986
 30
0.0
 11
33.73526363051311
 21
2.575967882399982
 31
0.0
  0
LINE
  5
9AE
330
1F
100
AcDbEntity
  8
TitleBlock&Notes
  6
Continuous
 62
     3
100
AcDbLine
 10
32.54547074051309
 20
2.571042394799981
 30
0.0
 11
33.73526363051311
 21
2.591810297999998
 31
0.0
  0
LINE
  5
9AF
330
1F
100
AcDbEntity
  8
TitleBlock&Notes
  6
Continuous
 62
     3
100
AcDbLine
 10
32.54547074051309
 20
2.586884810399986
 30
0.0
 11
33.73526363051311
 21
2.607652713599993
 31
0.0
  0
LINE
  5
9B0
330
1F
100
AcDbEntity
  8
TitleBlock&Notes
  6
Continuous
 62
     3
100
AcDbLine
 10
32.54547074051309
 20
2.602727225999991
 30
0.0
 11
33.71321252891308
 21
2.623110217199986
 31
0.0
  0
LINE
  5
9B1
330
1F
100
AcDbEntity
  8
TitleBlock&Notes
  6
Continuous
 62
     3
100
AcDbLine
 10
32.54547074051309
 20
2.044729130399979
 30
0.0
 11
33.73526363051311
 21
2.065497073199988
 31
0.0
  0
LINE
  5
9B2
330
1F
100
AcDbEntity
  8
TitleBlock&Notes
  6
Continuous
 62
     3
100
AcDbLine
 10
32.54547074051309
 20
2.060571545999984
 30
0.0
 11
33.73526363051311
 21
2.081339488799994
 31
0.0
  0
LINE
  5
9B3
330
1F
100
AcDbEntity
  8
TitleBlock&Notes
  6
Continuous
 62
     3
100
AcDbLine
 10
32.54547074051309
 20
2.076413961599978
 30
0.0
 11
33.73526363051311
 21
2.097181904399988
 31
0.0
  0
LINE
  5
9B4
330
1F
100
AcDbEntity
  8
TitleBlock&Notes
  6
Continuous
 62
     3
100
AcDbLine
 10
32.54547074051309
 20
2.092256377199994
 30
0.0
 11
33.73526363051311
 21
2.113024319999983
 31
0.0
  0
LINE
  5
9B5
330
1F
100
AcDbEntity
  8
TitleBlock&Notes
  6
Continuous
 62
     3
100
AcDbLine
 10
32.54547074051309
 20
2.108098792799989
 30
0.0
 11
33.73526363051311
 21
2.128866695999985
 31
0.0
  0
LINE
  5
9B6
330
1F
100
AcDbEntity
  8
TitleBlock&Notes
  6
Continuous
 62
     3
100
AcDbLine
 10
32.54547074051309
 20
2.123941208399983
 30
0.0
 11
33.73526363051311
 21
2.14470911159999
 31
0.0
  0
LINE
  5
9B7
330
1F
100
AcDbEntity
  8
TitleBlock&Notes
  6
Continuous
 62
     3
100
AcDbLine
 10
32.54547074051309
 20
2.139783623999989
 30
0.0
 11
33.73526363051311
 21
2.160551527199984
 31
0.0
  0
LINE
  5
9B8
330
1F
100
AcDbEntity
  8
TitleBlock&Notes
  6
Continuous
 62
     3
100
AcDbLine
 10
32.54547074051309
 20
2.155626039599994
 30
0.0
 11
33.73526363051311
 21
2.176393942799979
 31
0.0
  0
LINE
  5
9B9
330
1F
100
AcDbEntity
  8
TitleBlock&Notes
  6
Continuous
 62
     3
100
AcDbLine
 10
32.54547074051309
 20
2.171468455199988
 30
0.0
 11
33.73526363051311
 21
2.192236358399995
 31
0.0
  0
LINE
  5
9BA
330
1F
100
AcDbEntity
  8
TitleBlock&Notes
  6
Continuous
 62
     3
100
AcDbLine
 10
32.54547074051309
 20
2.187310870799983
 30
0.0
 11
33.73526363051311
 21
2.208078773999979
 31
0.0
  0
LINE
  5
9BB
330
1F
100
AcDbEntity
  8
TitleBlock&Notes
  6
Continuous
 62
     3
100
AcDbLine
 10
32.54547074051309
 20
2.203153286399977
 30
0.0
 11
33.73526363051311
 21
2.223921189599995
 31
0.0
  0
LINE
  5
9BC
330
1F
100
AcDbEntity
  8
TitleBlock&Notes
  6
Continuous
 62
     3
100
AcDbLine
 10
32.54547074051309
 20
2.218995701999983
 30
0.0
 11
33.73526363051311
 21
2.239763605199989
 31
0.0
  0
LINE
  5
9BD
330
1F
100
AcDbEntity
  8
TitleBlock&Notes
  6
Continuous
 62
     3
100
AcDbLine
 10
32.54547074051309
 20
2.234838117599998
 30
0.0
 11
33.73526363051311
 21
2.255606020799984
 31
0.0
  0
LINE
  5
9BE
330
1F
100
AcDbEntity
  8
TitleBlock&Notes
  6
Continuous
 62
     3
100
AcDbLine
 10
32.54547074051309
 20
2.250680533199982
 30
0.0
 11
33.73526363051311
 21
2.271448436399989
 31
0.0
  0
LINE
  5
9BF
330
1F
100
AcDbEntity
  8
TitleBlock&Notes
  6
Continuous
 62
     3
100
AcDbLine
 10
32.54547074051309
 20
2.266522948799977
 30
0.0
 11
33.73526363051311
 21
2.287290851999983
 31
0.0
  0
LINE
  5
9C0
330
1F
100
AcDbEntity
  8
TitleBlock&Notes
  6
Continuous
 62
     3
100
AcDbLine
 10
32.54547074051309
 20
2.282365324799989
 30
0.0
 11
33.73526363051311
 21
2.303133267599989
 31
0.0
  0
LINE
  5
9C1
330
1F
100
AcDbEntity
  8
TitleBlock&Notes
  6
Continuous
 62
     3
100
AcDbLine
 10
32.54547074051309
 20
2.298207740399984
 30
0.0
 11
33.73526363051311
 21
2.318975683199983
 31
0.0
  0
LINE
  5
9C2
330
1F
100
AcDbEntity
  8
TitleBlock&Notes
  6
Continuous
 62
     3
100
AcDbLine
 10
32.54547074051309
 20
2.314050155999989
 30
0.0
 11
33.73526363051311
 21
2.334818098799978
 31
0.0
  0
LINE
  5
9C3
330
1F
100
AcDbEntity
  8
TitleBlock&Notes
  6
Continuous
 62
     3
100
AcDbLine
 10
32.54547074051309
 20
2.329892571599984
 30
0.0
 11
33.71321252891308
 21
2.350275602399982
 31
0.0
  0
LINE
  5
9C4
330
1F
100
AcDbEntity
  8
TitleBlock&Notes
  6
Continuous
 62
     3
100
AcDbLine
 10
33.73526363051311
 20
2.038464568799984
 30
0.0
 11
32.54547074051309
 21
2.038464568799984
 31
0.0
  0
LINE
  5
9C5
330
1F
100
AcDbEntity
  8
TitleBlock&Notes
  6
Continuous
 62
     3
100
AcDbLine
 10
33.73526363051311
 20
2.350275602399982
 30
0.0
 11
32.54547074051309
 21
2.350275602399982
 31
0.0
  0
LINE
  5
9C6
330
1F
100
AcDbEntity
  8
TitleBlock&Notes
  6
Continuous
 62
     3
100
AcDbLine
 10
33.73526363051311
 20
2.428228360799984
 30
0.0
 11
32.54547074051309
 21
2.428228360799984
 31
0.0
  0
LINE
  5
9C7
330
1F
100
AcDbEntity
  8
TitleBlock&Notes
  6
Continuous
 62
     3
100
AcDbLine
 10
33.73526363051311
 20
2.623110217199986
 30
0.0
 11
32.54547074051309
 21
2.623110217199986
 31
0.0
  0
LINE
  5
9C8
330
1F
100
AcDbEntity
  8
TitleBlock&Notes
  6
Continuous
 62
     3
100
AcDbLine
 10
33.73526363051311
 20
2.701062975599977
 30
0.0
 11
32.54547074051309
 21
2.701062975599977
 31
0.0
  0
TEXT
  5
9C9
330
1F
100
AcDbEntity
  8
TitleBlock&Notes
  6
Continuous
 62
     3
100
AcDbText
 10
32.89520590211315
 20
2.809545947999983
 30
0.0
 40
0.297
  1
R
 41
1.1965812
100
AcDbText
  0
LINE
  5
9CA
330
1F
100
AcDbEntity
  8
TitleBlock&Notes
  6
Continuous
 62
     3
100
AcDbLine
 10
32.18907074051313
 20
3.240184265999982
 30
0.0
 11
32.52567074051311
 21
3.240184265999982
 31
0.0
  0
LINE
  5
9CB
330
1F
100
AcDbEntity
  8
TitleBlock&Notes
  6
Continuous
 62
     3
100
AcDbLine
 10
32.16927074051309
 20
3.259984265999989
 30
0.0
 11
32.54547074051309
 21
3.259984265999989
 31
0.0
  0
LINE
  5
9CC
330
1F
100
AcDbEntity
  8
TitleBlock&Notes
  6
Continuous
 62
     3
100
AcDbLine
 10
32.2088707405131
 20
3.220384265999985
 30
0.0
 11
32.50587074051312
 21
3.220384265999985
 31
0.0
  0
LINE
  5
9CD
330
1F
100
AcDbEntity
  8
TitleBlock&Notes
  6
Continuous
 62
     3
100
AcDbLine
 10
32.54547074051309
 20
2.71961573399999
 30
0.0
 11
32.97384425531312
 21
2.71961573399999
 31
0.0
  0
LINE
  5
9CE
330
1F
100
AcDbEntity
  8
TitleBlock&Notes
  6
Continuous
 62
     3
100
AcDbLine
 10
32.54547074051309
 20
2.739415733999987
 30
0.0
 11
32.91270165731313
 21
2.739415733999987
 31
0.0
  0
LINE
  5
9CF
330
1F
100
AcDbEntity
  8
TitleBlock&Notes
  6
Continuous
 62
     3
100
AcDbLine
 10
32.54547074051309
 20
2.759215733999994
 30
0.0
 11
32.87839776131309
 21
2.759215733999994
 31
0.0
  0
LINE
  5
9D0
330
1F
100
AcDbEntity
  8
TitleBlock&Notes
  6
Continuous
 62
     3
100
AcDbLine
 10
32.54547074051309
 20
3.032674009199983
 30
0.0
 11
32.78139181931309
 21
3.032674009199983
 31
0.0
  0
LINE
  5
9D1
330
1F
100
AcDbEntity
  8
TitleBlock&Notes
  6
Continuous
 62
     3
100
AcDbLine
 10
32.54547074051309
 20
3.052474009199979
 30
0.0
 11
32.78812290851311
 21
3.052474009199979
 31
0.0
  0
LINE
  5
9D2
330
1F
100
AcDbEntity
  8
TitleBlock&Notes
  6
Continuous
 62
     3
100
AcDbLine
 10
32.54547074051309
 20
3.072274009199997
 30
0.0
 11
32.79681475211311
 21
3.072274009199997
 31
0.0
  0
LINE
  5
9D3
330
1F
100
AcDbEntity
  8
TitleBlock&Notes
  6
Continuous
 62
     3
100
AcDbLine
 10
32.54547074051309
 20
3.012874009199986
 30
0.0
 11
32.77645821371311
 21
3.012874009199986
 31
0.0
  0
LINE
  5
9D4
330
1F
100
AcDbEntity
  8
TitleBlock&Notes
  6
Continuous
 62
     3
100
AcDbLine
 10
32.54547074051309
 20
2.77901573399998
 30
0.0
 11
32.85331258691313
 21
2.77901573399998
 31
0.0
  0
LINE
  5
9D5
330
1F
100
AcDbEntity
  8
TitleBlock&Notes
  6
Continuous
 62
     3
100
AcDbLine
 10
32.54547074051309
 20
2.618569641599986
 30
0.0
 11
32.80560127931314
 21
2.623110217199986
 31
0.0
  0
LINE
  5
9D6
330
1F
100
AcDbEntity
  8
TitleBlock&Notes
  6
Continuous
 62
     3
100
AcDbLine
 10
32.54547074051309
 20
2.345734987199978
 30
0.0
 11
32.80560127931314
 21
2.350275602399982
 31
0.0
  0
LINE
  5
9D7
330
1F
100
AcDbEntity
  8
TitleBlock&Notes
  6
Continuous
 62
     3
100
AcDbLine
 10
33.73526363051311
 20
3.032674009199983
 30
0.0
 11
33.25636380251309
 21
3.032674009199983
 31
0.0
  0
LINE
  5
9D8
330
1F
100
AcDbEntity
  8
TitleBlock&Notes
  6
Continuous
 62
     3
100
AcDbLine
 10
33.73526363051311
 20
3.052474009199979
 30
0.0
 11
33.24963271331309
 21
3.052474009199979
 31
0.0
  0
LINE
  5
9D9
330
1F
100
AcDbEntity
  8
TitleBlock&Notes
  6
Continuous
 62
     3
100
AcDbLine
 10
33.73526363051311
 20
3.072274009199997
 30
0.0
 11
33.24094086971316
 21
3.072274009199997
 31
0.0
  0
LINE
  5
9DA
330
1F
100
AcDbEntity
  8
TitleBlock&Notes
  6
Continuous
 62
     3
100
AcDbLine
 10
33.73526363051311
 20
3.012874009199986
 30
0.0
 11
33.26129740811309
 21
3.012874009199986
 31
0.0
  0
TEXT
  5
9DB
330
1F
100
AcDbEntity
  8
TitleBlock&Notes
  6
Continuous
 62
     3
100
AcDbText
 10
33.34596216851314
 20
2.842012522799991
 30
0.0
 40
0.099
  1
INC.
 41
1.282051279999999
100
AcDbText
  0
LINE
  5
9DC
330
1F
100
AcDbEntity
  8
TitleBlock&Notes
  6
Continuous
 62
     3
100
AcDbLine
 10
33.4397712421131
 20
2.428228360799984
 30
0.0
 11
33.73526363051311
 21
2.433386181599981
 31
0.0
  0
LINE
  5
9DD
330
1F
100
AcDbEntity
  8
TitleBlock&Notes
  6
Continuous
 62
     3
100
AcDbLine
 10
33.04118757971314
 20
1.814584265999979
 30
0.0
 11
33.73526363051311
 21
1.826699410799992
 31
0.0
  0
LINE
  5
9DE
330
1F
100
AcDbEntity
  8
TitleBlock&Notes
  6
Continuous
 62
     3
100
AcDbLine
 10
33.2780707405131
 20
1.794784265999982
 30
0.0
 11
32.52567074051311
 21
1.794784265999982
 31
0.0
  0
LINE
  5
9DF
330
1F
100
AcDbEntity
  8
TitleBlock&Notes
  6
Continuous
 62
     3
100
AcDbLine
 10
32.54547074051309
 20
1.821773883599988
 30
0.0
 11
33.73526363051311
 21
1.842541826399987
 31
0.0
  0
LINE
  5
9E0
330
1F
100
AcDbEntity
  8
TitleBlock&Notes
  6
Continuous
 62
     3
100
AcDbLine
 10
32.54547074051309
 20
1.837616299199993
 30
0.0
 11
33.73526363051311
 21
1.858384202399978
 31
0.0
  0
LINE
  5
9E1
330
1F
100
AcDbEntity
  8
TitleBlock&Notes
  6
Continuous
 62
     3
100
AcDbLine
 10
32.54547074051309
 20
1.853458714799987
 30
0.0
 11
33.73526363051311
 21
1.874226617999983
 31
0.0
  0
LINE
  5
9E2
330
1F
100
AcDbEntity
  8
TitleBlock&Notes
  6
Continuous
 62
     3
100
AcDbLine
 10
32.54547074051309
 20
1.869301130399982
 30
0.0
 11
33.73526363051311
 21
1.890069033599978
 31
0.0
  0
LINE
  5
9E3
330
1F
100
AcDbEntity
  8
TitleBlock&Notes
  6
Continuous
 62
     3
100
AcDbLine
 10
32.54547074051309
 20
1.885143545999987
 30
0.0
 11
33.73526363051311
 21
1.905911449199994
 31
0.0
  0
LINE
  5
9E4
330
1F
100
AcDbEntity
  8
TitleBlock&Notes
  6
Continuous
 62
     3
100
AcDbLine
 10
32.54547074051309
 20
1.900985961599982
 30
0.0
 11
33.73526363051311
 21
1.921753864799988
 31
0.0
  0
LINE
  5
9E5
330
1F
100
AcDbEntity
  8
TitleBlock&Notes
  6
Continuous
 62
     3
100
AcDbLine
 10
32.54547074051309
 20
1.916828377199987
 30
0.0
 11
33.73526363051311
 21
1.937596280399983
 31
0.0
  0
LINE
  5
9E6
330
1F
100
AcDbEntity
  8
TitleBlock&Notes
  6
Continuous
 62
     3
100
AcDbLine
 10
32.54547074051309
 20
1.932670792799981
 30
0.0
 11
33.73526363051311
 21
1.953438695999988
 31
0.0
  0
LINE
  5
9E7
330
1F
100
AcDbEntity
  8
TitleBlock&Notes
  6
Continuous
 62
     3
100
AcDbLine
 10
32.54547074051309
 20
1.948513208399976
 30
0.0
 11
33.23287078571312
 21
1.960511810399982
 31
0.0
  0
LINE
  5
9E8
330
1F
100
AcDbEntity
  8
TitleBlock&Notes
  6
Continuous
 62
     3
100
AcDbLine
 10
33.73526363051311
 20
1.960511810399982
 30
0.0
 11
32.54547074051309
 21
1.960511810399992
 31
0.0
  0
LINE
  5
9E9
330
1F
100
AcDbEntity
  8
TitleBlock&Notes
  6
Continuous
 62
     3
100
AcDbLine
 10
33.29787074051314
 20
1.814584265999979
 30
0.0
 11
32.54547074051309
 21
1.814584265999979
 31
0.0
  0
LINE
  5
9EA
330
1F
100
AcDbEntity
  8
TitleBlock&Notes
  6
Continuous
 62
     3
100
AcDbLine
 10
32.50587074051312
 20
1.774984265999986
 30
0.0
 11
33.25827074051311
 21
1.774984265999986
 31
0.0
  0
LINE
  5
9EB
330
1F
100
AcDbEntity
  8
TitleBlock&Notes
  6
Continuous
 62
     3
100
AcDbLine
 10
33.04671692771313
 20
1.180984265999995
 30
0.0
 11
33.73526363051311
 21
1.193002865999982
 31
0.0
  0
LINE
  5
9EC
330
1F
100
AcDbEntity
  8
TitleBlock&Notes
  6
Continuous
 62
     3
100
AcDbLine
 10
32.18907074051313
 20
1.458184265999978
 30
0.0
 11
33.2780707405131
 21
1.458184265999978
 31
0.0
  0
LINE
  5
9ED
330
1F
100
AcDbEntity
  8
TitleBlock&Notes
  6
Continuous
 62
     3
100
AcDbLine
 10
32.16927074051309
 20
1.438384265999982
 30
0.0
 11
33.29787074051314
 21
1.438384265999982
 31
0.0
  0
LINE
  5
9EE
330
1F
100
AcDbEntity
  8
TitleBlock&Notes
  6
Continuous
 62
     3
100
AcDbLine
 10
32.2088707405131
 20
1.477984265999975
 30
0.0
 11
33.25827074051311
 21
1.477984265999975
 31
0.0
  0
LINE
  5
9EF
330
1F
100
AcDbEntity
  8
TitleBlock&Notes
  6
Continuous
 62
     3
100
AcDbLine
 10
33.29787074051314
 20
1.692325364399991
 30
0.0
 11
33.73526363051311
 21
1.699960085999983
 31
0.0
  0
LINE
  5
9F0
330
1F
100
AcDbEntity
  8
TitleBlock&Notes
  6
Continuous
 62
     3
100
AcDbLine
 10
33.29787074051314
 20
1.708167779999996
 30
0.0
 11
33.73526363051311
 21
1.715802501599977
 31
0.0
  0
LINE
  5
9F1
330
1F
100
AcDbEntity
  8
TitleBlock&Notes
  6
Continuous
 62
     3
100
AcDbLine
 10
33.29787074051314
 20
1.724010195599991
 30
0.0
 11
33.73526363051311
 21
1.731644917199982
 31
0.0
  0
LINE
  5
9F2
330
1F
100
AcDbEntity
  8
TitleBlock&Notes
  6
Continuous
 62
     3
100
AcDbLine
 10
33.29787074051314
 20
1.739852611199985
 30
0.0
 11
33.73526363051311
 21
1.747487332799977
 31
0.0
  0
LINE
  5
9F3
330
1F
100
AcDbEntity
  8
TitleBlock&Notes
  6
Continuous
 62
     3
100
AcDbLine
 10
33.29787074051314
 20
1.75569502679998
 30
0.0
 11
33.73526363051311
 21
1.763329748399993
 31
0.0
  0
LINE
  5
9F4
330
1F
100
AcDbEntity
  8
TitleBlock&Notes
  6
Continuous
 62
     3
100
AcDbLine
 10
33.29787074051314
 20
1.771537442399985
 30
0.0
 11
33.73526363051311
 21
1.779172163999987
 31
0.0
  0
LINE
  5
9F5
330
1F
100
AcDbEntity
  8
TitleBlock&Notes
  6
Continuous
 62
     3
100
AcDbLine
 10
33.29787074051314
 20
1.78737985799999
 30
0.0
 11
33.73526363051311
 21
1.795014579599982
 31
0.0
  0
LINE
  5
9F6
330
1F
100
AcDbEntity
  8
TitleBlock&Notes
  6
Continuous
 62
     3
100
AcDbLine
 10
33.29787074051314
 20
1.803222273599985
 30
0.0
 11
33.73526363051311
 21
1.810856995199987
 31
0.0
  0
LINE
  5
9F7
330
1F
100
AcDbEntity
  8
TitleBlock&Notes
  6
Continuous
 62
     3
100
AcDbLine
 10
33.29787074051314
 20
1.438846754399985
 30
0.0
 11
33.73526363051311
 21
1.446481475999988
 31
0.0
  0
LINE
  5
9F8
330
1F
100
AcDbEntity
  8
TitleBlock&Notes
  6
Continuous
 62
     3
100
AcDbLine
 10
33.29787074051314
 20
1.45468916999998
 30
0.0
 11
33.73526363051311
 21
1.462323891599993
 31
0.0
  0
LINE
  5
9F9
330
1F
100
AcDbEntity
  8
TitleBlock&Notes
  6
Continuous
 62
     3
100
AcDbLine
 10
33.29787074051314
 20
1.470531585599985
 30
0.0
 11
33.73526363051311
 21
1.478166307199987
 31
0.0
  0
LINE
  5
9FA
330
1F
100
AcDbEntity
  8
TitleBlock&Notes
  6
Continuous
 62
     3
100
AcDbLine
 10
33.29787074051314
 20
1.48637400119998
 30
0.0
 11
33.73526363051311
 21
1.494008722799982
 31
0.0
  0
LINE
  5
9FB
330
1F
100
AcDbEntity
  8
TitleBlock&Notes
  6
Continuous
 62
     3
100
AcDbLine
 10
33.29787074051314
 20
1.502216416799985
 30
0.0
 11
33.73526363051311
 21
1.509851138399987
 31
0.0
  0
LINE
  5
9FC
330
1F
100
AcDbEntity
  8
TitleBlock&Notes
  6
Continuous
 62
     3
100
AcDbLine
 10
33.29787074051314
 20
1.518058832399979
 30
0.0
 11
33.73526363051311
 21
1.525693553999982
 31
0.0
  0
LINE
  5
9FD
330
1F
100
AcDbEntity
  8
TitleBlock&Notes
  6
Continuous
 62
     3
100
AcDbLine
 10
33.29787074051314
 20
1.533901247999974
 30
0.0
 11
33.73526363051311
 21
1.541535969599987
 31
0.0
  0
LINE
  5
9FE
330
1F
100
AcDbEntity
  8
TitleBlock&Notes
  6
Continuous
 62
     3
100
AcDbLine
 10
33.29787074051314
 20
1.54974366359999
 30
0.0
 11
33.73526363051311
 21
1.557378385199982
 31
0.0
  0
LINE
  5
9FF
330
1F
100
AcDbEntity
  8
TitleBlock&Notes
  6
Continuous
 62
     3
100
AcDbLine
 10
33.29787074051314
 20
1.565586079199995
 30
0.0
 11
33.73526363051311
 21
1.573220800799976
 31
0.0
  0
LINE
  5
A00
330
1F
100
AcDbEntity
  8
TitleBlock&Notes
  6
Continuous
 62
     3
100
AcDbLine
 10
33.29787074051314
 20
1.58142849479999
 30
0.0
 11
33.73526363051311
 21
1.589063216399992
 31
0.0
  0
LINE
  5
A01
330
1F
100
AcDbEntity
  8
TitleBlock&Notes
  6
Continuous
 62
     3
100
AcDbLine
 10
33.29787074051314
 20
1.597270910399984
 30
0.0
 11
33.73526363051311
 21
1.604905631999976
 31
0.0
  0
LINE
  5
A02
330
1F
100
AcDbEntity
  8
TitleBlock&Notes
  6
Continuous
 62
     3
100
AcDbLine
 10
33.29787074051314
 20
1.613113286399986
 30
0.0
 11
33.73526363051311
 21
1.620748007999988
 31
0.0
  0
LINE
  5
A03
330
1F
100
AcDbEntity
  8
TitleBlock&Notes
  6
Continuous
 62
     3
100
AcDbLine
 10
33.29787074051314
 20
1.628955701999981
 30
0.0
 11
33.73526363051311
 21
1.636590423599983
 31
0.0
  0
LINE
  5
A04
330
1F
100
AcDbEntity
  8
TitleBlock&Notes
  6
Continuous
 62
     3
100
AcDbLine
 10
33.29787074051314
 20
1.644798117599986
 30
0.0
 11
33.73526363051311
 21
1.652432839199988
 31
0.0
  0
LINE
  5
A05
330
1F
100
AcDbEntity
  8
TitleBlock&Notes
  6
Continuous
 62
     3
100
AcDbLine
 10
33.29787074051314
 20
1.66064053319998
 30
0.0
 11
33.73526363051311
 21
1.668275254799983
 31
0.0
  0
LINE
  5
A06
330
1F
100
AcDbEntity
  8
TitleBlock&Notes
  6
Continuous
 62
     3
100
AcDbLine
 10
33.25827074051311
 20
1.477984265999975
 30
0.0
 11
33.25827074051311
 21
1.774984265999986
 31
0.0
  0
LINE
  5
A07
330
1F
100
AcDbEntity
  8
TitleBlock&Notes
  6
Continuous
 62
     3
100
AcDbLine
 10
33.2780707405131
 20
1.458184265999978
 30
0.0
 11
33.2780707405131
 21
1.794784265999982
 31
0.0
  0
LINE
  5
A08
330
1F
100
AcDbEntity
  8
TitleBlock&Notes
  6
Continuous
 62
     3
100
AcDbLine
 10
33.29787074051314
 20
1.676482948799975
 30
0.0
 11
33.73526363051311
 21
1.684117670399988
 31
0.0
  0
LINE
  5
A09
330
1F
100
AcDbEntity
  8
TitleBlock&Notes
  6
Continuous
 62
     3
100
AcDbLine
 10
33.29787074051314
 20
1.438384265999982
 30
0.0
 11
33.29787074051314
 21
1.814584265999979
 31
0.0
  0
TEXT
  5
A0C
330
1F
100
AcDbEntity
  8
TitleBlock&Notes
  6
Continuous
 62
     3
100
AcDbText
 10
38.86847014898786
 20
3.578873728836335
 30
0.0
 40
0.2178
  1
R
 41
1.165501169999999
100
AcDbText
  0
CIRCLE
  5
A0D
330
1F
100
AcDbEntity
  8
TitleBlock&Notes
  6
Continuous
 62
     3
100
AcDbCircle
 10
38.95121284418787
 20
3.687279837636336
 30
0.0
 40
0.1782
  0
TEXT
  5
A0E
330
1F
100
AcDbEntity
  8
TitleBlock&Notes
  6
Continuous
 62
     3
100
AcDbText
 10
36.17880030300568
 20
2.205671516397122
 30
0.0
 40
0.3168
  1
 Bolton, Ontario
 41
0.7000000000000001
100
AcDbText
  0
LINE
  5
AD1
330
1F
100
AcDbEntity
  8
5159FlameCuts
  6
Continuous
 62
   255
100
AcDbLine
 10
21.96844123263045
 20
18.34699707466579
 30
0.0
 11
24.83584323263045
 21
21.45334907466579
 31
0.0
  0
LINE
  5
AD2
330
1F
100
AcDbEntity
  8
5159FlameCuts
  6
Continuous
 62
   255
100
AcDbLine
 10
19.81887023263045
 20
25.38287407466579
 30
0.0
 11
24.65227023263045
 21
23.47199507466579
 31
0.0
  0
LINE
  5
AD3
330
1F
100
AcDbEntity
  8
5159FlameCuts
  6
Continuous
 62
   255
100
AcDbLine
 10
19.21844123263045
 20
28.97199707466579
 30
0.0
 11
24.83326623263045
 21
28.97199707466579
 31
0.0
  0
LINE
  5
AD5
330
1F
100
AcDbEntity
  8
5834BasePlate
100
AcDbLine
 10
17.96844123263045
 20
16.34699707466579
 30
0.0
 11
28.96844123263045
 21
16.34699707466579
 31
0.0
  0
LINE
  5
AD6
330
1F
100
AcDbEntity
  8
5834BasePlate
100
AcDbLine
 10
17.96844123263045
 20
16.84699707466579
 30
0.0
 11
20.46844123263045
 21
16.84699707466579
 31
0.0
  0
LINE
  5
AD7
330
1F
100
AcDbEntity
  8
5833SupportPlate
  6
Continuous
 62
   255
100
AcDbLine
 10
19.04725223263045
 20
18.84699707466579
 30
0.0
 11
22.42997971893207
 21
18.84699707466579
 31
0.0
  0
LINE
  5
AD8
330
1F
100
AcDbEntity
  8
5833SupportPlate
  6
Continuous
 62
   255
100
AcDbLine
 10
19.04725223263045
 20
18.09699707466579
 30
0.0
 11
19.46844123263046
 21
18.09699707466579
 31
0.0
  0
LINE
  5
AD9
330
1F
100
AcDbEntity
  8
5159FlameCuts
  6
Continuous
 62
   255
100
AcDbLine
 10
13.01071823263045
 20
28.97199707466579
 30
0.0
 11
13.01071823263045
 21
16.59699707466579
 31
0.0
  0
LINE
  5
ADA
330
1F
100
AcDbEntity
  8
5159FlameCuts
  6
Continuous
 62
   255
100
AcDbLine
 10
13.76071823263045
 20
28.97199707466579
 30
0.0
 11
13.76071823263045
 21
16.59699707466579
 31
0.0
  0
LINE
  5
ADB
330
1F
100
AcDbEntity
  8
5159FlameCuts
  6
Continuous
 62
   255
100
AcDbLine
 10
9.010718232630452
 20
28.97199707466579
 30
0.0
 11
9.010718232630452
 21
16.59699707466579
 31
0.0
  0
LINE
  5
ADC
330
1F
100
AcDbEntity
  8
5159FlameCuts
  6
Continuous
 62
   255
100
AcDbLine
 10
8.260718232630452
 20
28.97199707466579
 30
0.0
 11
8.260718232630452
 21
16.59699707466579
 31
0.0
  0
LINE
  5
ADD
330
1F
100
AcDbEntity
  8
5159FlameCuts
  6
Continuous
 62
   255
100
AcDbLine
 10
13.76071823263045
 20
17.29707408210487
 30
0.0
 11
13.01071823263045
 21
17.29707408210487
 31
0.0
  0
LINE
  5
ADE
330
1F
100
AcDbEntity
  8
5159FlameCuts
  6
Continuous
 48
0.33
100
AcDbLine
 10
13.76071823263045
 20
16.59699707466579
 30
0.0
 11
13.01071823263045
 21
16.59699707466579
 31
0.0
  0
LINE
  5
ADF
330
1F
100
AcDbEntity
  8
5159FlameCuts
  6
Continuous
 62
   255
100
AcDbLine
 10
13.76071823263045
 20
18.34699707466579
 30
0.0
 11
13.01071823263045
 21
18.34699707466579
 31
0.0
  0
LINE
  5
AE0
330
1F
100
AcDbEntity
  8
5834BasePlate
  6
Continuous
 48
0.33
100
AcDbLine
 10
13.01071823263045
 20
16.84699707466579
 30
0.0
 11
9.010718232630452
 21
16.84699707466579
 31
0.0
  0
LINE
  5
AE1
330
1F
100
AcDbEntity
  8
5834BasePlate
  6
Continuous
 48
0.33
100
AcDbLine
 10
13.01071823263045
 20
16.34699707466579
 30
0.0
 11
9.010718232630452
 21
16.34699707466579
 31
0.0
  0
LINE
  5
AE2
330
1F
100
AcDbEntity
  8
5159FlameCuts
  6
Continuous
 48
0.33
100
AcDbLine
 10
9.010718232630452
 20
16.59699707466579
 30
0.0
 11
8.260718232630452
 21
16.59699707466579
 31
0.0
  0
LINE
  5
AE3
330
1F
100
AcDbEntity
  8
5834BasePlate
  6
Continuous
 48
0.33
100
AcDbLine
 10
9.010718232630452
 20
16.84699707466579
 30
0.0
 11
9.010718232630452
 21
16.34699707466579
 31
0.0
  0
LINE
  5
AE4
330
1F
100
AcDbEntity
  8
5834BasePlate
  6
HIDDEN
100
AcDbLine
 10
11.19821823263045
 20
16.84699707466579
 30
0.0
 11
11.19821823263045
 21
16.34699707466579
 31
0.0
  0
LINE
  5
AE5
330
1F
100
AcDbEntity
  8
5834BasePlate
  6
HIDDEN
100
AcDbLine
 10
10.82321823263045
 20
16.84699707466579
 30
0.0
 11
10.82321823263045
 21
16.34699707466579
 31
0.0
  0
LINE
  5
AE6
330
1F
100
AcDbEntity
  8
5834BasePlate
  6
Continuous
 48
0.33
100
AcDbLine
 10
13.01071823263045
 20
16.84699707466579
 30
0.0
 11
13.01071823263045
 21
16.34699707466579
 31
0.0
  0
LINE
  5
AE7
330
1F
100
AcDbEntity
  8
5833SupportPlate
  6
Continuous
 48
0.33
100
AcDbLine
 10
13.01071823263045
 20
18.84699707466579
 30
0.0
 11
9.01071823263045
 21
18.84699707466579
 31
0.0
  0
LINE
  5
AE8
330
1F
100
AcDbEntity
  8
5833SupportPlate
  6
Continuous
 48
0.33
100
AcDbLine
 10
13.01071823263045
 20
18.09699707466579
 30
0.0
 11
9.01071823263045
 21
18.09699707466579
 31
0.0
  0
LINE
  5
AE9
330
1F
100
AcDbEntity
  8
5833SupportPlate
  6
CENTER
 48
0.33
100
AcDbLine
 10
9.010718232630452
 20
18.84699707466579
 30
0.0
 11
9.010718232630452
 21
18.09699707466579
 31
0.0
  0
LINE
  5
AEA
330
1F
100
AcDbEntity
  8
5159FlameCuts
  6
Continuous
 62
   255
100
AcDbLine
 10
9.010718232630452
 20
17.29707408210487
 30
0.0
 11
8.260718232630452
 21
17.29707408210487
 31
0.0
  0
LINE
  5
AEB
330
1F
100
AcDbEntity
  8
5159FlameCuts
  6
Continuous
 62
   255
100
AcDbLine
 10
9.010718232630452
 20
18.34699707466579
 30
0.0
 11
8.260718232630452
 21
18.34699707466579
 31
0.0
  0
LINE
  5
AEC
330
1F
100
AcDbEntity
  8
5833SupportPlate
  6
HIDDEN
100
AcDbLine
 10
10.87321823263045
 20
18.84699707466579
 30
0.0
 11
10.87321823263045
 21
18.09699707466579
 31
0.0
  0
LINE
  5
AED
330
1F
100
AcDbEntity
  8
5833SupportPlate
  6
HIDDEN
100
AcDbLine
 10
10.82321823263045
 20
18.84699707466579
 30
0.0
 11
10.82321823263046
 21
18.09699707466579
 31
0.0
  0
LINE
  5
AEE
330
1F
100
AcDbEntity
  8
5833SupportPlate
  6
HIDDEN
100
AcDbLine
 10
11.14821823263045
 20
18.84699707466579
 30
0.0
 11
11.14821823263046
 21
18.09699707466579
 31
0.0
  0
LINE
  5
AEF
330
1F
100
AcDbEntity
  8
5833SupportPlate
  6
HIDDEN
100
AcDbLine
 10
11.19821823263045
 20
18.84699707466579
 30
0.0
 11
11.19821823263045
 21
18.09699707466579
 31
0.0
  0
LINE
  5
AF0
330
1F
100
AcDbEntity
  8
5833SupportPlate
  6
CENTER
 48
0.33
100
AcDbLine
 10
13.01071823263045
 20
18.84699707466579
 30
0.0
 11
13.01071823263045
 21
18.09699707466579
 31
0.0
  0
LINE
  5
AF1
330
1F
100
AcDbEntity
  8
5834BasePlate
100
AcDbLine
 10
17.96844123263045
 20
16.34699707466579
 30
0.0
 11
17.96844123263045
 21
16.84699707466579
 31
0.0
  0
LINE
  5
AF2
330
1F
100
AcDbEntity
  8
5834BasePlate
  6
HIDDEN
100
AcDbLine
 10
18.26544123263045
 20
16.84699707466579
 30
0.0
 11
18.26544123263045
 21
16.34699707466579
 31
0.0
  0
LINE
  5
AF3
330
1F
100
AcDbEntity
  8
5159FlameCuts
  6
Continuous
 62
   255
100
AcDbLine
 10
20.46844123263045
 20
17.22199707466579
 30
0.0
 11
20.46844123263045
 21
16.59699707466579
 31
0.0
  0
LINE
  5
AF4
330
1F
100
AcDbEntity
  8
5834BasePlate
  6
HIDDEN
100
AcDbLine
 10
18.67144123263045
 20
16.84699707466579
 30
0.0
 11
18.67144123263045
 21
16.34699707466579
 31
0.0
  0
LINE
  5
AF5
330
1F
100
AcDbEntity
  8
5834BasePlate
  6
HIDDEN
100
AcDbLine
 10
20.78094123263045
 20
16.84699707466579
 30
0.0
 11
20.78094123263045
 21
16.34699707466579
 31
0.0
  0
LINE
  5
AF6
330
1F
100
AcDbEntity
  8
5834BasePlate
  6
HIDDEN
100
AcDbLine
 10
21.15594123263045
 20
16.84699707466579
 30
0.0
 11
21.15594123263045
 21
16.34699707466579
 31
0.0
  0
LINE
  5
AF7
330
1F
100
AcDbEntity
  8
5834BasePlate
  6
HIDDEN
100
AcDbLine
 10
22.28094123263045
 20
16.84699707466579
 30
0.0
 11
22.28094123263045
 21
16.34699707466579
 31
0.0
  0
LINE
  5
AF8
330
1F
100
AcDbEntity
  8
5834BasePlate
  6
HIDDEN
100
AcDbLine
 10
22.65594123263045
 20
16.84699707466579
 30
0.0
 11
22.65594123263045
 21
16.34699707466579
 31
0.0
  0
LINE
  5
AF9
330
1F
100
AcDbEntity
  8
5159FlameCuts
  6
Continuous
 62
   255
100
AcDbLine
 10
19.46844123263045
 20
18.34699707466579
 30
0.0
 11
21.96844123263045
 21
18.34699707466579
 31
0.0
  0
LINE
  5
AFA
330
1F
100
AcDbEntity
  8
5159FlameCuts
  6
Continuous
 62
   255
100
AcDbLine
 10
19.46844123263045
 20
18.09699707466579
 30
0.0
 11
20.46844123263045
 21
17.22199707466579
 31
0.0
  0
LINE
  5
AFB
330
1F
100
AcDbEntity
  8
5159FlameCuts
  6
Continuous
 62
   255
100
AcDbLine
 10
19.46844123263045
 20
18.09699707466579
 30
0.0
 11
19.46844123263045
 21
18.34699707466579
 31
0.0
  0
LINE
  5
AFC
330
1F
100
AcDbEntity
  8
5833SupportPlate
  6
Continuous
 62
   255
100
AcDbLine
 10
19.04725223263045
 20
18.09699707466579
 30
0.0
 11
19.04725223263045
 21
18.84699707466579
 31
0.0
  0
LINE
  5
AFD
330
1F
100
AcDbEntity
  8
5833SupportPlate
  6
HIDDEN
100
AcDbLine
 10
20.78023023263046
 20
18.84699707466579
 30
0.0
 11
20.78023023263046
 21
18.09699707466579
 31
0.0
  0
LINE
  5
AFE
330
1F
100
AcDbEntity
  8
5833SupportPlate
  6
HIDDEN
100
AcDbLine
 10
21.15665223263045
 20
18.84699707466579
 30
0.0
 11
21.15665223263045
 21
18.09699707466579
 31
0.0
  0
LINE
  5
AFF
330
1F
100
AcDbEntity
  8
5833SupportPlate
  6
HIDDEN
100
AcDbLine
 10
22.28165223263045
 20
18.84699707466579
 30
0.0
 11
22.28165223263045
 21
18.09699707466579
 31
0.0
  0
LINE
  5
B00
330
1F
100
AcDbEntity
  8
5833SupportPlate
  6
HIDDEN
100
AcDbLine
 10
22.65665223263045
 20
18.84699707466579
 30
0.0
 11
22.65665223263045
 21
18.09699707466579
 31
0.0
  0
LINE
  5
B01
330
1F
100
AcDbEntity
  8
5159FlameCuts
  6
Continuous
 62
   255
100
AcDbLine
 10
13.01071823263045
 20
28.97199707466579
 30
0.0
 11
13.76071823263045
 21
28.97199707466579
 31
0.0
  0
LINE
  5
B02
330
1F
100
AcDbEntity
  8
5159FlameCuts
  6
Continuous
 62
   255
100
AcDbLine
 10
13.76071823263045
 20
26.56979410646755
 30
0.0
 11
13.01071823263045
 21
26.56979410646755
 31
0.0
  0
LINE
  5
B03
330
1F
100
AcDbEntity
  8
5159FlameCuts
  6
Continuous
 62
   255
100
AcDbLine
 10
13.76071823263045
 20
23.37447485716507
 30
0.0
 11
13.01071823263045
 21
23.37447485716507
 31
0.0
  0
LINE
  5
B04
330
1F
100
AcDbEntity
  8
5159FlameCuts
  6
Continuous
 62
   255
100
AcDbLine
 10
13.76071823263045
 20
21.48206226741844
 30
0.0
 11
13.01071823263045
 21
21.48206226741844
 31
0.0
  0
LINE
  5
B05
330
1F
100
AcDbEntity
  8
5159FlameCuts
  6
CENTER
 48
0.33
100
AcDbLine
 10
13.76071823263045
 20
28.97199707466579
 30
0.0
 11
13.01071823263045
 21
28.97199707466579
 31
0.0
  0
LINE
  5
B06
330
1F
100
AcDbEntity
  8
5159FlameCuts
  6
Continuous
 62
   255
100
AcDbLine
 10
9.010718232630452
 20
21.48206226741844
 30
0.0
 11
8.260718232630452
 21
21.48206226741844
 31
0.0
  0
LINE
  5
B07
330
1F
100
AcDbEntity
  8
5159FlameCuts
  6
Continuous
 62
   255
100
AcDbLine
 10
9.010718232630452
 20
23.37447485716507
 30
0.0
 11
8.260718232630452
 21
23.37447485716507
 31
0.0
  0
LINE
  5
B08
330
1F
100
AcDbEntity
  8
5159FlameCuts
  6
Continuous
 62
   255
100
AcDbLine
 10
9.010718232630452
 20
26.56979410646755
 30
0.0
 11
8.260718232630452
 21
26.56979410646755
 31
0.0
  0
LINE
  5
B0C
330
1F
100
AcDbEntity
  8
5159FlameCuts
  6
Continuous
 62
   255
100
AcDbLine
 10
8.260718232630452
 20
28.97199707466579
 30
0.0
 11
9.010718232630452
 21
28.97199707466579
 31
0.0
  0
LINE
  5
B0D
330
1F
100
AcDbEntity
  8
5159FlameCuts
  6
CENTER
 48
0.33
100
AcDbLine
 10
9.010718232630452
 20
28.97199707466579
 30
0.0
 11
8.260718232630452
 21
28.97199707466579
 31
0.0
  0
LINE
  5
B13
330
1F
100
AcDbEntity
  8
5159FlameCuts
  6
Continuous
 62
   255
100
AcDbLine
 10
19.21844123263045
 20
28.97199707466579
 30
0.0
 11
19.21844123263045
 21
26.72199707466579
 31
0.0
  0
LINE
  5
B14
330
1F
100
AcDbEntity
  8
5159FlameCuts
  6
Continuous
 62
   255
100
AcDbLine
 10
19.21844123263045
 20
26.72199707466579
 30
0.0
 11
19.52378623263045
 21
25.70418007466579
 31
0.0
  0
ARC
  5
B15
330
1F
100
AcDbEntity
  8
5159FlameCuts
  6
Continuous
 62
   255
100
AcDbCircle
 10
20.00269923263045
 20
25.84785407466579
 30
0.0
 40
0.5
100
AcDbArc
 50
196.699244
 51
248.428693
  0
LINE
  5
B16
330
1F
100
AcDbEntity
  8
5832MountPlate
100
AcDbLine
 10
19.21844123263045
 20
29.97199707466579
 30
0.0
 11
22.71844123263045
 21
29.97199707466579
 31
0.0
  0
LINE
  5
B17
330
1F
100
AcDbEntity
  8
5832MountPlate
100
AcDbLine
 10
19.21844123263045
 20
28.97199707466579
 30
0.0
 11
22.84344123263045
 21
28.97199707466579
 31
0.0
  0
LINE
  5
B18
330
1F
100
AcDbEntity
  8
5832MountPlate
100
AcDbLine
 10
19.21844123263045
 20
29.97199707466579
 30
0.0
 11
19.21844123263045
 21
28.97199707466579
 31
0.0
  0
LINE
  5
B19
330
1F
100
AcDbEntity
  8
5832MountPlate
  6
HIDDEN
100
AcDbLine
 10
19.71844123263045
 20
29.97199707466579
 30
0.0
 11
19.71844123263045
 21
28.97199707466579
 31
0.0
  0
LINE
  5
B1A
330
1F
100
AcDbEntity
  8
5832MountPlate
  6
HIDDEN
100
AcDbLine
 10
19.78094123263045
 20
29.97199707466579
 30
0.0
 11
19.78094123263045
 21
28.97199707466579
 31
0.0
  0
LINE
  5
B1B
330
1F
100
AcDbEntity
  8
5832MountPlate
100
AcDbLine
 10
22.71844123263045
 20
29.97199707466579
 30
0.0
 11
22.71844123263045
 21
28.97199707466579
 31
0.0
  0
LINE
  5
B1C
330
1F
100
AcDbEntity
  8
5832MountPlate
  6
HIDDEN
100
AcDbLine
 10
22.15594123263045
 20
29.97199707466579
 30
0.0
 11
22.15594123263045
 21
28.97199707466579
 31
0.0
  0
LINE
  5
B1D
330
1F
100
AcDbEntity
  8
5832MountPlate
  6
HIDDEN
100
AcDbLine
 10
22.21844123263045
 20
29.97199707466579
 30
0.0
 11
22.21844123263045
 21
28.97199707466579
 31
0.0
  0
LINE
  5
B1E
330
1F
100
AcDbEntity
  8
5159FlameCuts
  6
Continuous
 62
   255
100
AcDbLine
 10
30.96844123263045
 20
24.89762707466579
 30
0.0
 11
30.96844123263045
 21
19.97199707466579
 31
0.0
  0
LINE
  5
B1F
330
1F
100
AcDbEntity
  8
5833SupportPlate
  6
HIDDEN
100
AcDbLine
 10
23.65665223263045
 20
18.84699707466579
 30
0.0
 11
23.65665223263045
 21
18.09699707466579
 31
0.0
  0
LINE
  5
B20
330
1F
100
AcDbEntity
  8
5833SupportPlate
  6
HIDDEN
100
AcDbLine
 10
23.60665223263045
 20
18.84699707466579
 30
0.0
 11
23.60665223263045
 21
18.09699707466579
 31
0.0
  0
LINE
  5
B21
330
1F
100
AcDbEntity
  8
5833SupportPlate
  6
HIDDEN
100
AcDbLine
 10
23.28165223263045
 20
18.84699707466579
 30
0.0
 11
23.28165223263045
 21
18.09699707466579
 31
0.0
  0
LINE
  5
B22
330
1F
100
AcDbEntity
  8
5833SupportPlate
  6
HIDDEN
100
AcDbLine
 10
23.33165223263045
 20
18.84699707466579
 30
0.0
 11
23.33165223263045
 21
18.09699707466579
 31
0.0
  0
LINE
  5
B23
330
1F
100
AcDbEntity
  8
5833SupportPlate
  6
HIDDEN
100
AcDbLine
 10
26.04727723263045
 20
18.84699707466579
 30
0.0
 11
26.04727723263045
 21
18.09699707466579
 31
0.0
  0
LINE
  5
B24
330
1F
100
AcDbEntity
  8
5159FlameCuts
  6
Continuous
 62
   255
100
AcDbLine
 10
27.96844123263045
 20
17.22199707466579
 30
0.0
 11
27.96844123263045
 21
16.59699707466579
 31
0.0
  0
LINE
  5
B25
330
1F
100
AcDbEntity
  8
5834BasePlate
  6
HIDDEN
100
AcDbLine
 10
28.26544123263045
 20
16.84699707466579
 30
0.0
 11
28.26544123263045
 21
16.34699707466579
 31
0.0
  0
LINE
  5
B26
330
1F
100
AcDbEntity
  8
5834BasePlate
  6
HIDDEN
100
AcDbLine
 10
28.67144123263045
 20
16.84699707466579
 30
0.0
 11
28.67144123263045
 21
16.34699707466579
 31
0.0
  0
LINE
  5
B27
330
1F
100
AcDbEntity
  8
5834BasePlate
100
AcDbLine
 10
28.96844123263045
 20
16.84699707466579
 30
0.0
 11
28.96844123263045
 21
16.34699707466579
 31
0.0
  0
LINE
  5
B28
330
1F
100
AcDbEntity
  8
5159FlameCuts
  6
Continuous
 62
   255
100
AcDbLine
 10
30.56844123263045
 20
19.17199707466579
 30
0.0
 11
27.96844123263045
 21
17.22199707466579
 31
0.0
  0
ARC
  5
B29
330
1F
100
AcDbEntity
  8
5159FlameCuts
  6
Continuous
 62
   255
100
AcDbCircle
 10
29.96844123263045
 20
19.97199707466579
 30
0.0
 40
1.0
100
AcDbArc
 50
306.8698979999999
 51
0.0
  0
LINE
  5
B2A
330
1F
100
AcDbEntity
  8
5159FlameCuts
  6
Continuous
 62
   255
100
AcDbLine
 10
25.08520223263045
 20
28.90388607466579
 30
0.0
 11
30.47231223263045
 21
25.76140607466579
 31
0.0
  0
LINE
  5
B2B
330
1F
100
AcDbEntity
  8
5159FlameCuts
  6
Continuous
 62
   255
100
AcDbLine
 10
24.96844123263045
 20
21.79248907466579
 30
0.0
 11
24.96844123263045
 21
23.00701407466579
 31
0.0
  0
LINE
  5
B2C
330
1F
100
AcDbEntity
  8
5159FlameCuts
  6
Continuous
 62
   255
100
AcDbLine
 10
24.96844123263045
 20
21.79248907466579
 30
0.0
 11
24.96844123263045
 21
23.00701407466579
 31
0.0
  0
ARC
  5
B2D
330
1F
100
AcDbEntity
  8
5159FlameCuts
  6
Continuous
 62
   255
100
AcDbCircle
 10
24.46844123263045
 20
21.79248907466579
 30
0.0
 40
0.5
100
AcDbArc
 50
317.2906099999999
 51
0.0
  0
ARC
  5
B2E
330
1F
100
AcDbEntity
  8
5159FlameCuts
  6
Continuous
 62
   255
100
AcDbCircle
 10
24.46844123263045
 20
23.00701407466579
 30
0.0
 40
0.5
100
AcDbArc
 50
0.0
 51
68.42869300000001
  0
ARC
  5
B2F
330
1F
100
AcDbEntity
  8
5159FlameCuts
  6
Continuous
 62
   255
100
AcDbCircle
 10
29.96844123263045
 20
24.89762707466579
 30
0.0
 40
1.0
100
AcDbArc
 50
0.0
 51
59.74356299999993
  0
ARC
  5
B30
330
1F
100
AcDbEntity
  8
5159FlameCuts
  6
Continuous
 62
   255
100
AcDbCircle
 10
24.83326623263045
 20
28.47199707466579
 30
0.0
 40
0.5
100
AcDbArc
 50
59.74356299999993
 51
90.0
  0
LINE
  5
B31
330
1F
100
AcDbEntity
  8
5833SupportPlate
  6
Continuous
 62
   255
100
AcDbLine
 10
8.064309151517022
 20
10.79481699796236
 30
0.0
 11
15.06433415151702
 21
10.79481699796236
 31
0.0
  0
LINE
  5
B32
330
1F
100
AcDbEntity
  8
5833SupportPlate
  6
Continuous
 62
   255
100
AcDbLine
 10
8.064309151517022
 20
6.794816997962364
 30
0.0
 11
15.06433415151702
 21
6.794816997962366
 31
0.0
  0
LINE
  5
B35
330
1F
100
AcDbEntity
  8
5833SupportPlate
  6
Continuous
 62
   255
100
AcDbLine
 10
8.064309151517022
 20
10.79481699796236
 30
0.0
 11
8.064309151517022
 21
6.794816997962364
 31
0.0
  0
CIRCLE
  5
B38
330
1F
100
AcDbEntity
  8
5833SupportPlate
  6
Continuous
 62
   255
100
AcDbCircle
 10
9.985498151517024
 20
8.794816997962364
 30
0.0
 40
0.188211
  0
CIRCLE
  5
B39
330
1F
100
AcDbEntity
  8
5833SupportPlate
  6
Continuous
 62
   255
100
AcDbCircle
 10
12.48550915151702
 20
8.794816997962364
 30
0.0
 40
0.1375
  0
CIRCLE
  5
B3A
330
1F
100
AcDbEntity
  8
5833SupportPlate
  6
HIDDEN
 62
   255
100
AcDbCircle
 10
12.48550915151702
 20
8.794816997962364
 30
0.0
 40
0.1875
  0
CIRCLE
  5
B3B
330
1F
100
AcDbEntity
  8
5833SupportPlate
  6
Continuous
 62
   255
100
AcDbCircle
 10
11.48550915151702
 20
8.794816997962364
 30
0.0
 40
0.1875
  0
LINE
  5
B3C
330
1F
100
AcDbEntity
  8
5833SupportPlate
100
AcDbLine
 10
15.06433415151702
 20
10.79481699796236
 30
0.0
 11
15.06433415151702
 21
6.794816997962366
 31
0.0
  0
LINE
  5
BB5
330
1F
100
AcDbEntity
  8
centre
  6
CENTERX2
100
AcDbLine
 10
11.01071823263045
 20
30.84592117777041
 30
0.0
 11
11.01071823263045
 21
15.47941770250341
 31
0.0
  0
LINE
  5
BB6
330
1F
100
AcDbEntity
  8
centre
  6
CENTERX2
100
AcDbLine
 10
20.96844123263045
 20
30.84592117777041
 30
0.0
 11
20.96844123263045
 21
15.47941770250341
 31
0.0
  0
LINE
  5
BC2
330
1F
100
AcDbEntity
  8
centre
  6
CENTERX2
 48
0.33
100
AcDbLine
 10
22.46915223263046
 20
17.75241160000821
 30
0.0
 11
22.46915223263045
 21
19.17815548553896
 31
0.0
  0
LINE
  5
BC6
330
1F
100
AcDbEntity
  8
centre
  6
CENTERX2
 48
0.33
100
AcDbLine
 10
23.46915223263045
 20
17.75241160000821
 30
0.0
 11
23.46915223263045
 21
19.17815548553896
 31
0.0
  0
LINE
  5
BC8
330
1F
100
AcDbEntity
  8
centre
  6
CENTERX2
 48
0.33
100
AcDbLine
 10
22.46844123263045
 20
15.88412513190042
 30
0.0
 11
22.46844123263045
 21
17.30986901743117
 31
0.0
  0
LINE
  5
BC9
330
1F
100
AcDbEntity
  8
centre
  6
CENTERX2
 48
0.33
100
AcDbLine
 10
28.46844123263045
 20
15.88412513190042
 30
0.0
 11
28.46844123263045
 21
17.30986901743117
 31
0.0
  0
LINE
  5
BCA
330
1F
100
AcDbEntity
  8
5834BasePlate
  6
HIDDEN
100
AcDbLine
 10
28.28094123263045
 20
16.84699707466579
 30
0.0
 11
28.28094123263045
 21
16.34699707466579
 31
0.0
  0
LINE
  5
BCB
330
1F
100
AcDbEntity
  8
5834BasePlate
  6
HIDDEN
100
AcDbLine
 10
28.65594123263045
 20
16.84699707466579
 30
0.0
 11
28.65594123263045
 21
16.34699707466579
 31
0.0
  0
LINE
  5
BCD
330
1F
100
AcDbEntity
  8
centre
  6
CENTERX2
 48
0.33
100
AcDbLine
 10
18.46844123263045
 20
15.88412513190042
 30
0.0
 11
18.46844123263045
 21
17.30986901743117
 31
0.0
  0
LINE
  5
BD0
330
1F
100
AcDbEntity
  8
5833SupportPlate
  6
HIDDEN
100
AcDbLine
 10
22.42997971893207
 20
18.84699707466579
 30
0.0
 11
26.04727723263045
 21
18.84699707466579
 31
0.0
  0
LINE
  5
BD1
330
1F
100
AcDbEntity
  8
5833SupportPlate
  6
HIDDEN
100
AcDbLine
 10
26.04727723263045
 20
18.09699707466579
 30
0.0
 11
19.46844123263046
 21
18.09699707466579
 31
0.0
  0
LINE
  5
BD2
330
1F
100
AcDbEntity
  8
5159FlameCuts
  6
Continuous
100
AcDbLine
 10
27.96844123263045
 20
16.59699707466579
 30
0.0
 11
20.46844123263045
 21
16.59699707466579
 31
0.0
  0
LINE
  5
BD3
330
1F
100
AcDbEntity
  8
5834BasePlate
100
AcDbLine
 10
27.96844123263045
 20
16.84699707466579
 30
0.0
 11
28.96844123263045
 21
16.84699707466579
 31
0.0
  0
LINE
  5
BD4
330
1F
100
AcDbEntity
  8
5834BasePlate
  6
HIDDEN
100
AcDbLine
 10
27.96844123263045
 20
16.84699707466579
 30
0.0
 11
20.46844123263045
 21
16.84699707466579
 31
0.0
  0
DIMENSION
  5
C03
330
1F
100
AcDbEntity
  8
Dimensions
100
AcDbDimension
  2
*D1
 10
15.91008955689205
 20
29.97199707466579
 30
0.0
 11
15.91008955689204
 21
23.39393264389987
 31
0.0
 70
   160
 71
     5
 42
13.625
  3
Standard
100
AcDbAlignedDimension
 13
17.96844123263045
 23
16.34699707466579
 33
0.0
 14
19.21844123263045
 24
29.97199707466579
 34
0.0
 50
90.0
100
AcDbRotatedDimension
1001
ACAD
1000
DSTYLE
1002
{
1070
    41
1040
0.3
1070
    42
1040
0.1
1070
    43
1040
0.5
1070
    44
1040
0.3
1070
   140
1040
0.3
1070
   141
1040
0.15
1070
   147
1040
0.15
1070
   277
1070
     5
1070
   288
1070
     1
1002
}
  0
DIMENSION
  5
C11
330
1F
100
AcDbEntity
  8
Dimensions
100
AcDbDimension
  2
*D2
 10
24.96844123263045
 20
22.32335836279357
 30
0.0
 11
22.91328234200446
 21
22.32335836279357
 31
0.0
 70
   160
 71
     5
 42
4.0
  3
Standard
100
AcDbAlignedDimension
 13
20.96844123263045
 23
23.16266944013691
 33
0.0
 14
24.96844123263045
 24
22.39975157466579
 34
0.0
100
AcDbRotatedDimension
1001
ACAD
1000
DSTYLE
1002
{
1070
    76
1070
     1
1070
    75
1070
     1
1070
    41
1040
0.3
1070
    42
1040
0.1
1070
    43
1040
0.5
1070
    44
1040
0.3
1070
   140
1040
0.3
1070
   141
1040
0.15
1070
   147
1040
0.15
1070
   277
1070
     5
1070
   288
1070
     1
1002
}
  0
LINE
  5
D4C
330
1F
100
AcDbEntity
  8
centre
  6
CENTERX2
 62
     2
 48
0.125
100
AcDbLine
 10
9.985498151517024
 20
8.490769270384106
 30
0.0
 11
9.985498151517024
 21
9.098864725540622
 31
0.0
  0
LINE
  5
D4D
330
1F
100
AcDbEntity
  8
centre
  6
CENTERX2
 62
     2
 48
0.125
100
AcDbLine
 10
9.681450423938766
 20
8.794816997962364
 30
0.0
 11
10.28954587909528
 21
8.794816997962364
 31
0.0
  0
LINE
  5
D51
330
1F
100
AcDbEntity
  8
centre
  6
CENTERX2
 62
     2
 48
0.125
100
AcDbLine
 10
11.18146142393876
 20
8.794816997962364
 30
0.0
 11
11.78955687909528
 21
8.794816997962364
 31
0.0
  0
LINE
  5
D52
330
1F
100
AcDbEntity
  8
centre
  6
CENTERX2
 62
     2
 48
0.125
100
AcDbLine
 10
11.48550915151702
 20
8.490769270384106
 30
0.0
 11
11.48550915151702
 21
9.098864725540622
 31
0.0
  0
LINE
  5
D53
330
1F
100
AcDbEntity
  8
centre
  6
CENTERX2
 62
     2
 48
0.125
100
AcDbLine
 10
12.18146142393876
 20
8.794816997962364
 30
0.0
 11
12.78955687909528
 21
8.794816997962364
 31
0.0
  0
LINE
  5
D54
330
1F
100
AcDbEntity
  8
centre
  6
CENTERX2
 62
     2
 48
0.125
100
AcDbLine
 10
12.48550915151702
 20
8.490769270384106
 30
0.0
 11
12.48550915151702
 21
9.098864725540622
 31
0.0
  0
DIMENSION
  5
D56
330
1F
100
AcDbEntity
  8
Dimensions
100
AcDbDimension
  2
*D4
 10
15.06433415151702
 20
11.62082404208315
 30
0.0
 11
11.4754378306811
 21
11.62082404208315
 31
0.0
 70
   160
 71
     5
 42
7.000024999999997
  3
Standard
100
AcDbAlignedDimension
 13
8.064309151517024
 23
10.79481699796236
 33
0.0
 14
15.06433415151702
 24
10.79481699796236
 34
0.0
100
AcDbRotatedDimension
1001
ACAD
1000
DSTYLE
1002
{
1070
    41
1040
0.3
1070
    42
1040
0.1
1070
    43
1040
0.5
1070
    44
1040
0.3
1070
   140
1040
0.3
1070
  4237
1040
0.15
1070
   147
1040
0.15
1070
   277
1070
     5
1070
   288
1070
     1
1002
}
  0
TEXT
  5
DB9
330
1F
100
AcDbEntity
  8
0
100
AcDbText
 10
7.280125354291598
 20
4.118473735809883
 30
0.0
 40
0.35
  1
SUPPORT PLATE HOLE PATERN
100
AcDbText
  0
TEXT
  5
E75
330
1F
100
AcDbEntity
  8
0
100
AcDbText
 10
15.685118260791
 20
32.34001898046599
 30
0.0
 40
0.5
  1
UN4 C-FRAME CAGE
100
AcDbText
  0
LINE
  5
E76
330
1F
100
AcDbEntity
  8
0
100
AcDbLine
 10
15.55982062032896
 20
32.08954154345141
 30
0.0
 11
23.82945366378467
 21
32.08954154345141
 31
0.0
  0
LINE
  5
E9F
330
1F
100
AcDbEntity
  8
5832MountPlate
100
AcDbLine
 10
13.38571821896638
 20
28.97199709349666
 30
0.0
 11
8.635718218966388
 21
28.97199709349666
 31
0.0
  0
LINE
  5
EA0
330
1F
100
AcDbEntity
  8
5832MountPlate
100
AcDbLine
 10
13.38571821896638
 20
29.97199709349666
 30
0.0
 11
8.635718218966388
 21
29.97199709349666
 31
0.0
  0
LINE
  5
EA1
330
1F
100
AcDbEntity
  8
5832MountPlate
100
AcDbLine
 10
8.635718218966388
 20
29.97199709349666
 30
0.0
 11
8.635718218966388
 21
28.97199709349666
 31
0.0
  0
LINE
  5
EA2
330
1F
100
AcDbEntity
  8
5832MountPlate
  6
HIDDEN
100
AcDbLine
 10
9.760718218966388
 20
29.97199709349666
 30
0.0
 11
9.760718218966388
 21
28.97199709349666
 31
0.0
  0
LINE
  5
EA3
330
1F
100
AcDbEntity
  8
5832MountPlate
  6
HIDDEN
100
AcDbLine
 10
9.791968218966388
 20
29.97199709349666
 30
0.0
 11
9.791968218966388
 21
28.97199709349666
 31
0.0
  0
LINE
  5
EA4
330
1F
100
AcDbEntity
  8
5832MountPlate
  6
HIDDEN
100
AcDbLine
 10
12.22946821896639
 20
29.97199709349666
 30
0.0
 11
12.22946821896639
 21
28.97199709349666
 31
0.0
  0
LINE
  5
EA5
330
1F
100
AcDbEntity
  8
5832MountPlate
  6
HIDDEN
100
AcDbLine
 10
12.26071821896638
 20
29.97199709349666
 30
0.0
 11
12.26071821896638
 21
28.97199709349666
 31
0.0
  0
LINE
  5
EA6
330
1F
100
AcDbEntity
  8
5832MountPlate
100
AcDbLine
 10
13.38571821896638
 20
29.97199709349666
 30
0.0
 11
13.38571821896638
 21
28.97199709349666
 31
0.0
  0
DIMENSION
  5
ED0
330
1F
100
AcDbEntity
  8
Dimensions
100
AcDbDimension
  2
*D5
 10
15.76254672902348
 20
6.794816997962366
 30
0.0
 11
15.76254672902348
 21
8.826161940594701
 31
0.0
 70
   160
 71
     5
 42
3.999999999999996
  3
Standard
100
AcDbAlignedDimension
 13
15.06433415151702
 23
10.79481699796236
 33
0.0
 14
15.06433415151702
 24
6.794816997962366
 34
0.0
 50
90.0
100
AcDbRotatedDimension
1001
ACAD
1000
DSTYLE
1002
{
1070
    41
1040
0.3
1070
    42
1040
0.1
1070
    43
1040
0.5
1070
    44
1040
0.3
1070
   140
1040
0.3
1070
   141
1040
0.15
1070
   147
1040
0.15
1070
   271
1070
     3
1070
   272
1070
     3
1070
   277
1070
     5
1070
   288
1070
     1
1002
}
  0
DIMENSION
  5
EE8
330
1F
100
AcDbEntity
  8
Dimensions
100
AcDbDimension
  2
*D6
 10
9.985498151517024
 20
6.249112500237401
 30
0.0
 11
9.121083265226701
 21
6.249112500237401
 31
0.0
 70
   160
  1
2
 71
     5
 42
1.921189000000001
  3
Standard
100
AcDbAlignedDimension
 13
8.064309151517022
 23
6.794816997962364
 33
0.0
 14
9.985498151517024
 24
8.490769270384106
 34
0.0
100
AcDbRotatedDimension
1001
ACAD
1000
DSTYLE
1002
{
1070
    41
1040
0.3
1070
    42
1040
0.1
1070
    43
1040
0.5
1070
    44
1040
0.3
1070
   140
1040
0.3
1070
   141
1040
0.15
1070
   147
1040
0.15
1070
   271
1070
     3
1070
   272
1070
     3
1070
   277
1070
     5
1070
   288
1070
     1
1002
}
  0
DIMENSION
  5
F58
330
1F
100
AcDbEntity
  8
Dimensions
100
AcDbDimension
  2
*D7
 10
13.01071823263045
 20
22.69784854385727
 30
0.0
 11
6.663898249477171
 21
22.69784854385727
 31
0.0
 70
   160
 71
     5
 42
4.0
  3
Standard
100
AcDbAlignedDimension
 13
9.010718232630452
 23
22.78449707466579
 33
0.0
 14
13.01071823263045
 24
22.78449707466579
 34
0.0
100
AcDbRotatedDimension
1001
ACAD
1000
DSTYLE
1002
{
1070
    76
1070
     1
1070
    75
1070
     1
1070
    41
1040
0.3
1070
    42
1040
0.1
1070
    43
1040
0.5
1070
    44
1040
0.3
1070
   140
1040
0.3
1070
   141
1040
0.15
1070
   147
1040
0.15
1070
   271
1070
     3
1070
   272
1070
     3
1070
   277
1070
     5
1070
   288
1070
     1
1002
}
  0
DIMENSION
  5
F81
330
1F
100
AcDbEntity
  8
Dimensions
100
AcDbDimension
  2
*D8
 10
8.260718232630452
 20
14.74531168172744
 30
0.0
 11
11.04924269552611
 21
14.74531168172744
 31
0.0
 70
   160
 71
     5
 42
5.5
  3
Standard
100
AcDbAlignedDimension
 13
13.76071823263045
 23
16.59699707466579
 33
0.0
 14
8.260718232630452
 24
16.59699707466579
 34
0.0
100
AcDbRotatedDimension
1001
ACAD
1000
DSTYLE
1002
{
1070
    41
1040
0.3
1070
    42
1040
0.1
1070
    43
1040
0.5
1070
    44
1040
0.3
1070
   140
1040
0.3
1070
   141
1040
0.15
1070
   147
1040
0.15
1070
   271
1070
     3
1070
   272
1070
     3
1070
   277
1070
     5
1070
   288
1070
     1
1002
}
  0
SOLID
  5
F99
330
1F
100
AcDbEntity
  8
Dimensions
100
AcDbTrace
 10
10.8536594992193
 20
30.2324439375002
 30
0.0
 11
10.77767991304231
 21
30.16742776655501
 31
0.0
 12
11.01071821896638
 22
29.97199709349666
 32
0.0
 13
11.01071821896638
 23
29.97199709349666
 33
0.0
  0
LINE
  5
F9A
330
1F
100
AcDbEntity
  8
Dimensions
100
AcDbLine
 10
10.81566970613081
 20
30.1999358520276
 30
0.0
 11
9.733639343137184
 21
31.46442464021677
 31
0.0
  0
LINE
  5
F9B
330
1F
100
AcDbEntity
  8
Dimensions
100
AcDbLine
 10
9.733639343137184
 20
31.46442464021677
 30
0.0
 11
9.433639343137183
 21
31.46442464021677
 31
0.0
  0
MTEXT
  5
F9C
330
1F
100
AcDbEntity
  8
Dimensions
100
AcDbMText
 10
9.283639343137183
 20
31.61442464021677
 30
0.0
 40
0.3
 41
0.0
 71
     3
 72
     1
  1
\A1;2 1/2-16 TPI
 73
     1
 44
1.0
  0
DIMENSION
  5
F9D
330
1F
100
AcDbEntity
  8
Dimensions
100
AcDbDimension
  2
*D9
 10
12.48550915151702
 20
5.485880397738924
 30
0.0
 11
12.0031165975231
 21
5.485880397738924
 31
0.0
 70
   160
 71
     5
  3
Standard
100
AcDbAlignedDimension
 13
11.48550915151702
 23
8.607316997962364
 33
0.0
 14
12.48550915151702
 24
8.490769270384106
 34
0.0
100
AcDbRotatedDimension
1001
ACAD
1000
DSTYLE
1002
{
1070
    41
1040
0.3
1070
    42
1040
0.1
1070
    43
1040
0.5
1070
    44
1040
0.3
1070
   140
1040
0.3
1070
   141
1040
0.15
1070
   147
1040
0.15
1070
   271
1070
     3
1070
   272
1070
     3
1070
   277
1070
     5
1070
   288
1070
     1
1002
}
  0
SOLID
  5
FAB
330
1F
100
AcDbEntity
  8
Dimensions
100
AcDbTrace
 10
9.618082961306084
 20
9.040552339764966
 30
0.0
 11
9.548071725597724
 21
8.969149070409926
 31
0.0
 12
9.797287151517023
 22
8.794816997962364
 32
0.0
 13
9.797287151517023
 23
8.794816997962364
 33
0.0
  0
LINE
  5
FAC
330
1F
100
AcDbEntity
  8
Dimensions
100
AcDbLine
 10
9.583077343451904
 20
9.004850705087447
 30
0.0
 11
6.908385667643045
 21
11.62739825863343
 31
0.0
  0
LINE
  5
FAD
330
1F
100
AcDbEntity
  8
Dimensions
100
AcDbLine
 10
6.908385667643045
 20
11.62739825863343
 30
0.0
 11
6.608385667643045
 21
11.62739825863343
 31
0.0
  0
MTEXT
  5
FAE
330
1F
100
AcDbEntity
  8
Dimensions
100
AcDbMText
 10
6.458385667643045
 20
11.77739825863343
 30
0.0
 40
0.3
 41
0.0
 71
     3
 72
     1
  1
3/8 REAM, 2 PLCS
 73
     1
 44
1.0
  0
SOLID
  5
FB9
330
1F
100
AcDbEntity
  8
Dimensions
100
AcDbTrace
 10
12.84269087118244
 20
8.542412334749924
 30
0.0
 11
12.91537985818835
 21
8.611087739139382
 31
0.0
 12
12.67300915151702
 22
8.794816997962364
 32
0.0
 13
12.67300915151702
 23
8.794816997962364
 33
0.0
  0
LINE
  5
FBA
330
1F
100
AcDbEntity
  8
Dimensions
100
AcDbLine
 10
12.87903536468539
 20
8.576750036944652
 30
0.0
 11
15.48494289039703
 21
5.818545990546382
 31
0.0
  0
LINE
  5
FBB
330
1F
100
AcDbEntity
  8
Dimensions
100
AcDbLine
 10
15.48494289039703
 20
5.818545990546382
 30
0.0
 11
15.78494289039703
 21
5.818545990546382
 31
0.0
  0
MTEXT
  5
FBC
330
1F
100
AcDbEntity
  8
Dimensions
100
AcDbMText
 10
15.93494289039703
 20
5.968545990546383
 30
0.0
 40
0.3
 41
0.0
 71
     1
 72
     1
  1
\A1;3/8-16 TPI
 73
     1
 44
1.0
  0
DIMENSION
  5
FC7
330
1F
100
AcDbEntity
  8
Dimensions
100
AcDbDimension
  2
*D10
 10
17.12302178443717
 20
18.84699707466579
 30
0.0
 11
17.12302178443717
 21
17.72001407419784
 31
0.0
 70
   160
 71
     5
 42
2.5
  3
Standard
100
AcDbAlignedDimension
 13
17.96844123263045
 23
16.34699707466579
 33
0.0
 14
19.04725223263045
 24
18.84699707466579
 34
0.0
 50
90.0
100
AcDbRotatedDimension
1001
ACAD
1000
DSTYLE
1002
{
1070
    41
1040
0.3
1070
    42
1040
0.1
1070
    43
1040
0.5
1070
    44
1040
0.3
1070
   140
1040
0.3
1070
   141
1040
0.15
1070
   147
1040
0.15
1070
   271
1070
     3
1070
   272
1070
     3
1070
   277
1070
     5
1070
   288
1070
     1
1002
}
  0
DIMENSION
  5
FD5
330
1F
100
AcDbEntity
  8
Dimensions
100
AcDbDimension
  2
*D11
 10
28.96844123263045
 20
15.29053342114809
 30
0.0
 11
23.21562934526999
 21
15.29053342114809
 31
0.0
 70
   160
 71
     5
 42
11.0
  3
Standard
100
AcDbAlignedDimension
 13
17.96844123263045
 23
16.34699707466579
 33
0.0
 14
28.96844123263045
 24
16.34699707466579
 34
0.0
100
AcDbRotatedDimension
1001
ACAD
1000
DSTYLE
1002
{
1070
    41
1040
0.3
1070
    42
1040
0.1
1070
    43
1040
0.5
1070
    44
1040
0.3
1070
   140
1040
0.3
1070
   141
1040
0.15
1070
   147
1040
0.15
1070
   271
1070
     3
1070
   272
1070
     3
1070
   277
1070
     5
1070
   288
1070
     1
1002
}
  0
DIMENSION
  5
FE3
330
1F
100
AcDbEntity
  8
Dimensions
100
AcDbDimension
  2
*D12
 10
30.96844123263045
 20
14.28634805848169
 30
0.0
 11
23.83137163602722
 21
14.28634805848169
 31
0.0
 70
   160
 71
     5
 42
13.0
  3
Standard
100
AcDbAlignedDimension
 13
17.96844123263045
 23
16.24699707466579
 33
0.0
 14
30.96844123263045
 24
19.97199707466579
 34
0.0
100
AcDbRotatedDimension
1001
ACAD
1000
DSTYLE
1002
{
1070
    41
1040
0.3
1070
    42
1040
0.1
1070
    43
1040
0.5
1070
    44
1040
0.3
1070
   140
1040
0.3
1070
   141
1040
0.15
1070
   147
1040
0.15
1070
   271
1070
     3
1070
   272
1070
     3
1070
   277
1070
     5
1070
   288
1070
     1
1002
}
  0
LINE
  5
1026
330
1F
100
AcDbEntity
  8
6083FlameCut
100
AcDbLine
 10
8.385718218966388
 20
28.97199709349666
 30
0.0
 11
8.635718218966388
 21
29.22199709349666
 31
0.0
  0
LINE
  5
1027
330
1F
100
AcDbEntity
  8
6083FlameCut
100
AcDbLine
 10
13.63571821896639
 20
28.97199709349666
 30
0.0
 11
13.38571821896638
 21
29.22199709349666
 31
0.0
  0
LINE
  5
1028
330
1F
100
AcDbEntity
  8
6083FlameCut
100
AcDbLine
 10
9.010718232630452
 20
28.72199707466579
 30
0.0
 11
9.260718232630452
 21
28.97199707466579
 31
0.0
  0
LINE
  5
1029
330
1F
100
AcDbEntity
  8
6083FlameCut
100
AcDbLine
 10
12.76071823263045
 20
28.97199707466579
 30
0.0
 11
13.01071823263045
 21
28.72199707466579
 31
0.0
  0
LINE
  5
102A
330
1F
100
AcDbEntity
  8
6083FlameCut
100
AcDbLine
 10
12.76071823263045
 20
18.09699707466579
 30
0.0
 11
13.01071823263045
 21
17.84699707466579
 31
0.0
  0
LINE
  5
102C
330
1F
100
AcDbEntity
  8
6083FlameCut
100
AcDbLine
 10
9.01071823263045
 20
17.84699707466579
 30
0.0
 11
9.26071823263045
 21
18.09699707466579
 31
0.0
  0
LINE
  5
102D
330
1F
100
AcDbEntity
  8
6083FlameCut
100
AcDbLine
 10
9.010718232630452
 20
16.34699707466579
 30
0.0
 11
8.760718232630452
 21
16.59699707466579
 31
0.0
  0
LINE
  5
102E
330
1F
100
AcDbEntity
  8
6083FlameCut
100
AcDbLine
 10
13.01071823263045
 20
16.34699707466579
 30
0.0
 11
13.26071823263045
 21
16.59699707466579
 31
0.0
  0
DIMENSION
  5
103E
330
1F
100
AcDbEntity
  8
Dimensions
100
AcDbDimension
  2
*D13
 10
11.48550915151702
 20
6.249293875556205
 30
0.0
 11
10.66672488354336
 21
6.249293875556205
 31
0.0
 70
   160
 71
     5
 42
1.500011
  3
Standard
100
AcDbAlignedDimension
 13
9.985498151517024
 23
8.490769270384106
 33
0.0
 14
11.48550915151702
 24
8.507316997962364
 34
0.0
100
AcDbRotatedDimension
1001
ACAD
1000
DSTYLE
1002
{
1070
    41
1040
0.3
1070
    42
1040
0.1
1070
    43
1040
0.5
1070
    44
1040
0.3
1070
   140
1040
0.3
1070
   141
1040
0.15
1070
   147
1040
0.15
1070
   271
1070
     3
1070
   272
1070
     3
1070
   277
1070
     5
1070
   288
1070
     1
1002
}
  0
ENDSEC
  0
SECTION
  2
OBJECTS
  0
DICTIONARY
  5
C
330
0
100
AcDbDictionary
281
     1
  3
ACAD_GROUP
350
D
  3
ACAD_LAYOUT
350
1A
  3
ACAD_MLINESTYLE
350
17
  3
ACAD_PLOTSETTINGS
350
19
  3
ACAD_PLOTSTYLENAME
350
E
  0
DICTIONARY
  5
D
102
{ACAD_REACTORS
330
C
102
}
330
C
100
AcDbDictionary
281
     1
  0
DICTIONARY
  5
1A
102
{ACAD_REACTORS
330
C
102
}
330
C
100
AcDbDictionary
281
     1
  3
Layout1
350
1E
  3
Layout2
350
26
  3
Model
350
22
  0
DICTIONARY
  5
17
102
{ACAD_REACTORS
330
C
102
}
330
C
100
AcDbDictionary
281
     1
  3
Standard
350
18
  0
DICTIONARY
  5
19
102
{ACAD_REACTORS
330
C
102
}
330
C
100
AcDbDictionary
281
     1
  0
ACDBDICTIONARYWDFLT
  5
E
102
{ACAD_REACTORS
330
C
102
}
330
C
100
AcDbDictionary
281
     1
  3
Normal
350
F
100
AcDbDictionaryWithDefault
340
F
  0
LAYOUT
  5
1E
102
{ACAD_REACTORS
330
1A
102
}
330
1A
100
AcDbPlotSettings
  1

  2
HP LaserJet III
  4

  6

 40
0.0
 41
0.0
 42
0.0
 43
0.0
 44
0.0
 45
0.0
 46
0.0
 47
0.0
 48
0.0
 49
0.0
140
0.0
141
0.0
142
1.0
143
1.0
 70
   688
 72
     0
 73
     0
 74
     5
  7

 75
    16
147
1.0
148
0.0
149
0.0
100
AcDbLayout
  1
Layout1
 70
     1
 71
     1
 10
0.0
 20
0.0
 11
12.0
 21
9.0
 12
0.0
 22
0.0
 32
0.0
 14
1.000000000000000E+20
 24
1.000000000000000E+20
 34
1.000000000000000E+20
 15
-1.000000000000000E+20
 25
-1.000000000000000E+20
 35
-1.000000000000000E+20
146
0.0
 13
0.0
 23
0.0
 33
0.0
 16
1.0
 26
0.0
 36
0.0
 17
0.0
 27
1.0
 37
0.0
 76
     0
330
1B
  0
LAYOUT
  5
26
102
{ACAD_REACTORS
330
1A
102
}
330
1A
100
AcDbPlotSettings
  1

  2
HP LaserJet III
  4

  6

 40
0.0
 41
0.0
 42
0.0
 43
0.0
 44
0.0
 45
0.0
 46
0.0
 47
0.0
 48
0.0
 49
0.0
140
0.0
141
0.0
142
1.0
143
1.0
 70
   688
 72
     0
 73
     0
 74
     5
  7

 75
    16
147
1.0
148
0.0
149
0.0
100
AcDbLayout
  1
Layout2
 70
     1
 71
     2
 10
0.0
 20
0.0
 11
12.0
 21
9.0
 12
0.0
 22
0.0
 32
0.0
 14
0.0
 24
0.0
 34
0.0
 15
0.0
 25
0.0
 35
0.0
146
0.0
 13
0.0
 23
0.0
 33
0.0
 16
1.0
 26
0.0
 36
0.0
 17
0.0
 27
1.0
 37
0.0
 76
     0
330
23
  0
LAYOUT
  5
22
102
{ACAD_REACTORS
330
1A
102
}
330
1A
100
AcDbPlotSettings
  1

  2
HP LaserJet III
  4
Letter
  6

 40
7.143749713897705
 41
7.143741130828857
 42
7.14373779296875
 43
5.365753173828125
 44
215.8999938964843
 45
279.3999938964843
 46
0.0
 47
0.0
 48
-2.36812218908684
 49
-0.0000000000000071
140
41.63187781091315
141
34.0
142
1.0
143
4.283464431175145
 70
 11952
 72
     0
 73
     1
 74
     4
  7

 75
     0
147
0.2334558897517576
148
60.15030360280573
149
0.0000000000001805
100
AcDbLayout
  1
Model
 70
     1
 71
     0
 10
0.0
 20
0.0
 11
12.0
 21
9.0
 12
0.0
 22
0.0
 32
0.0
 14
0.0
 24
0.0
 34
0.0
 15
0.0
 25
0.0
 35
0.0
146
0.0
 13
0.0
 23
0.0
 33
0.0
 16
1.0
 26
0.0
 36
0.0
 17
0.0
 27
1.0
 37
0.0
 76
     0
330
1F
  0
MLINESTYLE
  5
18
102
{ACAD_REACTORS
330
17
102
}
330
17
100
AcDbMlineStyle
  2
STANDARD
 70
     0
  3

 62
   256
 51
90.0
 52
90.0
 71
     2
 49
0.5
 62
   256
  6
BYLAYER
 49
-0.5
 62
   256
  6
BYLAYER
  0
ACDBPLACEHOLDER
  5
F
102
{ACAD_REACTORS
330
E
102
}
330
E
  0
ENDSEC
  0
EOF
