  0
SECTION
  2
HEADER
  9
$ACADVER
  1
AC1015
  9
$ACADMAINTVER
 70
     6
  9
$DWGCODEPAGE
  3
ANSI_1252
  9
$INSBASE
 10
0.0
 20
0.0
 30
0.0
  9
$EXTMIN
 10
-24.16058908726067
 20
-10.63953974933941
 30
0.0
  9
$EXTMAX
 10
30.2373201943006
 20
31.39924413516114
 30
0.0
  9
$LIMMIN
 10
0.0
 20
0.0
  9
$LIMMAX
 10
17.0
 20
11.0
  9
$ORTHOMODE
 70
     0
  9
$REGENMODE
 70
     1
  9
$FILLMODE
 70
     1
  9
$QTEXTMODE
 70
     0
  9
$MIRRTEXT
 70
     1
  9
$LTSCALE
 40
1.0
  9
$ATTMODE
 70
     1
  9
$TEXTSIZE
 40
0.35
  9
$TRACEWID
 40
0.05
  9
$TEXTSTYLE
  7
STANDARD
  9
$CLAYER
  8
0
  9
$CELTYPE
  6
CONTINUOUS
  9
$CECOLOR
 62
     7
  9
$CELTSCALE
 40
1.0
  9
$DISPSILH
 70
     0
  9
$DIMSCALE
 40
1.0
  9
$DIMASZ
 40
0.25
  9
$DIMEXO
 40
0.1
  9
$DIMDLI
 40
0.3
  9
$DIMRND
 40
0.000001
  9
$DIMDLE
 40
0.0
  9
$DIMEXE
 40
0.1
  9
$DIMTP
 40
0.0
  9
$DIMTM
 40
0.0
  9
$DIMTXT
 40
0.35
  9
$DIMCEN
 40
0.09
  9
$DIMTSZ
 40
0.0
  9
$DIMTOL
 70
     0
  9
$DIMLIM
 70
     0
  9
$DIMTIH
 70
     1
  9
$DIMTOH
 70
     1
  9
$DIMSE1
 70
     0
  9
$DIMSE2
 70
     0
  9
$DIMTAD
 70
     0
  9
$DIMZIN
 70
     0
  9
$DIMBLK
  1

  9
$DIMASO
 70
     1
  9
$DIMSHO
 70
     1
  9
$DIMPOST
  1

  9
$DIMAPOST
  1

  9
$DIMALT
 70
     0
  9
$DIMALTD
 70
     6
  9
$DIMALTF
 40
25.4
  9
$DIMLFAC
 40
1.0
  9
$DIMTOFL
 70
     0
  9
$DIMTVP
 40
0.0
  9
$DIMTIX
 70
     0
  9
$DIMSOXD
 70
     0
  9
$DIMSAH
 70
     0
  9
$DIMBLK1
  1

  9
$DIMBLK2
  1

  9
$DIMSTYLE
  2
STANDARD
  9
$DIMCLRD
 70
     1
  9
$DIMCLRE
 70
     1
  9
$DIMCLRT
 70
     1
  9
$DIMTFAC
 40
1.0
  9
$DIMGAP
 40
0.09
  9
$DIMJUST
 70
     0
  9
$DIMSD1
 70
     0
  9
$DIMSD2
 70
     0
  9
$DIMTOLJ
 70
     1
  9
$DIMTZIN
 70
     0
  9
$DIMALTZ
 70
     0
  9
$DIMALTTZ
 70
     0
  9
$DIMUPT
 70
     0
  9
$DIMDEC
 70
     1
  9
$DIMTDEC
 70
     1
  9
$DIMALTU
 70
     2
  9
$DIMALTTD
 70
     6
  9
$DIMTXSTY
  7
STANDARD
  9
$DIMAUNIT
 70
     0
  9
$DIMADEC
 70
     0
  9
$DIMALTRND
 40
0.0
  9
$DIMAZIN
 70
     0
  9
$DIMDSEP
 70
    46
  9
$DIMATFIT
 70
     3
  9
$DIMFRAC
 70
     0
  9
$DIMLDRBLK
  1

  9
$DIMLUNIT
 70
     5
  9
$DIMLWD
 70
    -2
  9
$DIMLWE
 70
    -2
  9
$DIMTMOVE
 70
     0
  9
$LUNITS
 70
     2
  9
$LUPREC
 70
     6
  9
$SKETCHINC
 40
0.1
  9
$FILLETRAD
 40
1.0
  9
$AUNITS
 70
     0
  9
$AUPREC
 70
     2
  9
$MENU
  1
.
  9
$ELEVATION
 40
0.0
  9
$PELEVATION
 40
0.0
  9
$THICKNESS
 40
0.0
  9
$LIMCHECK
 70
     0
  9
$CHAMFERA
 40
1.0
  9
$CHAMFERB
 40
1.0
  9
$CHAMFERC
 40
0.0
  9
$CHAMFERD
 40
0.0
  9
$SKPOLY
 70
     1
  9
$TDCREATE
 40
2451477.452768866
  9
$TDUCREATE
 40
2451477.661102199
  9
$TDUPDATE
 40
2452345.642446990
  9
$TDUUPDATE
 40
2452345.850780324
  9
$TDINDWG
 40
0.0525684028
  9
$TDUSRTIMER
 40
0.0525684028
  9
$USRTIMER
 70
     1
  9
$ANGBASE
 50
0.0
  9
$ANGDIR
 70
     0
  9
$PDMODE
 70
     2
  9
$PDSIZE
 40
-1.0
  9
$PLINEWID
 40
0.0
  9
$SPLFRAME
 70
     0
  9
$SPLINETYPE
 70
     6
  9
$SPLINESEGS
 70
     8
  9
$HANDSEED
  5
E72
  9
$SURFTAB1
 70
     6
  9
$SURFTAB2
 70
     6
  9
$SURFTYPE
 70
     6
  9
$SURFU
 70
     6
  9
$SURFV
 70
     6
  9
$UCSBASE
  2

  9
$UCSNAME
  2

  9
$UCSORG
 10
0.0
 20
0.0
 30
0.0
  9
$UCSXDIR
 10
1.0
 20
0.0
 30
0.0
  9
$UCSYDIR
 10
0.0
 20
1.0
 30
0.0
  9
$UCSORTHOREF
  2

  9
$UCSORTHOVIEW
 70
     0
  9
$UCSORGTOP
 10
0.0
 20
0.0
 30
0.0
  9
$UCSORGBOTTOM
 10
0.0
 20
0.0
 30
0.0
  9
$UCSORGLEFT
 10
0.0
 20
0.0
 30
0.0
  9
$UCSORGRIGHT
 10
0.0
 20
0.0
 30
0.0
  9
$UCSORGFRONT
 10
0.0
 20
0.0
 30
0.0
  9
$UCSORGBACK
 10
0.0
 20
0.0
 30
0.0
  9
$PUCSBASE
  2

  9
$PUCSNAME
  2

  9
$PUCSORG
 10
0.0
 20
0.0
 30
0.0
  9
$PUCSXDIR
 10
1.0
 20
0.0
 30
0.0
  9
$PUCSYDIR
 10
0.0
 20
1.0
 30
0.0
  9
$PUCSORTHOREF
  2

  9
$PUCSORTHOVIEW
 70
     0
  9
$PUCSORGTOP
 10
0.0
 20
0.0
 30
0.0
  9
$PUCSORGBOTTOM
 10
0.0
 20
0.0
 30
0.0
  9
$PUCSORGLEFT
 10
0.0
 20
0.0
 30
0.0
  9
$PUCSORGRIGHT
 10
0.0
 20
0.0
 30
0.0
  9
$PUCSORGFRONT
 10
0.0
 20
0.0
 30
0.0
  9
$PUCSORGBACK
 10
0.0
 20
0.0
 30
0.0
  9
$USERI1
 70
     0
  9
$USERI2
 70
     0
  9
$USERI3
 70
     0
  9
$USERI4
 70
     0
  9
$USERI5
 70
     0
  9
$USERR1
 40
0.0
  9
$USERR2
 40
0.0
  9
$USERR3
 40
0.0
  9
$USERR4
 40
0.0
  9
$USERR5
 40
0.0
  9
$WORLDVIEW
 70
     1
  9
$SHADEDGE
 70
     3
  9
$SHADEDIF
 70
    70
  9
$TILEMODE
 70
     1
  9
$MAXACTVP
 70
    16
  9
$PINSBASE
 10
0.0
 20
0.0
 30
0.0
  9
$PLIMCHECK
 70
     0
  9
$PEXTMIN
 10
1.000000000000000E+20
 20
1.000000000000000E+20
 30
1.000000000000000E+20
  9
$PEXTMAX
 10
-1.000000000000000E+20
 20
-1.000000000000000E+20
 30
-1.000000000000000E+20
  9
$PLIMMIN
 10
0.0
 20
0.0
  9
$PLIMMAX
 10
12.0
 20
9.0
  9
$UNITMODE
 70
     1
  9
$VISRETAIN
 70
     0
  9
$PLINEGEN
 70
     1
  9
$PSLTSCALE
 70
     1
  9
$TREEDEPTH
 70
  3020
  9
$CMLSTYLE
  2
STANDARD
  9
$CMLJUST
 70
     0
  9
$CMLSCALE
 40
1.0
  9
$PROXYGRAPHICS
 70
     1
  9
$MEASUREMENT
 70
     0
  9
$CELWEIGHT
370
    -1
  9
$ENDCAPS
280
     0
  9
$JOINSTYLE
280
     0
  9
$LWDISPLAY
290
     0
  9
$INSUNITS
 70
     0
  9
$HYPERLINKBASE
  1

  9
$STYLESHEET
  1

  9
$XEDIT
290
     1
  9
$CEPSNTYPE
380
     0
  9
$PSTYLEMODE
290
     1
  9
$FINGERPRINTGUID
  2
{A2C9094D-42CD-11D4-8360-004F4908EF25}
  9
$VERSIONGUID
  2
{EFCA0AE9-4D13-11D4-8360-004F4908EF25}
  9
$EXTNAMES
290
     1
  9
$PSVPSCALE
 40
0.0
  9
$OLESTARTUP
290
     0
  0
ENDSEC
  0
SECTION
  2
CLASSES
  0
CLASS
  1
ACDBDICTIONARYWDFLT
  2
AcDbDictionaryWithDefault
  3
AutoCAD 2000
 90
        0
280
     0
281
     0
  0
CLASS
  1
ACDBPLACEHOLDER
  2
AcDbPlaceHolder
  3
AutoCAD 2000
 90
        0
280
     0
281
     0
  0
CLASS
  1
LAYOUT
  2
AcDbLayout
  3
AutoCAD 2000
 90
        0
280
     0
281
     0
  0
ENDSEC
  0
SECTION
  2
TABLES
  0
TABLE
  2
VPORT
  5
8
330
0
100
AcDbSymbolTable
 70
     2
  0
VPORT
  5
E71
330
8
100
AcDbSymbolTableRecord
100
AcDbViewportTableRecord
  2
*Active
 70
     0
 10
0.0
 20
0.0
 11
1.0
 21
1.0
 12
3.21916504624572
 22
10.38001157517085
 13
0.0
 23
0.0
 14
1.0
 24
1.0
 15
0.0
 25
0.0
 16
0.0
 26
0.0
 36
1.0
 17
0.0
 27
0.0
 37
0.0
 40
42.52345125091684
 41
1.378947368421052
 42
50.0
 43
0.0
 44
0.0
 50
0.0
 51
0.0
 71
     0
 72
   100
 73
     1
 74
     1
 75
     0
 76
     0
 77
     0
 78
     0
281
     0
 65
     1
110
0.0
120
0.0
130
0.0
111
1.0
121
0.0
131
0.0
112
0.0
122
1.0
132
0.0
 79
     0
146
0.0
  0
ENDTAB
  0
TABLE
  2
LTYPE
  5
5
330
0
100
AcDbSymbolTable
 70
     6
  0
LTYPE
  5
13
330
5
100
AcDbSymbolTableRecord
100
AcDbLinetypeTableRecord
  2
BYBLOCK
 70
     0
  3

 72
    65
 73
     0
 40
0.0
  0
LTYPE
  5
14
330
5
100
AcDbSymbolTableRecord
100
AcDbLinetypeTableRecord
  2
BYLAYER
 70
     0
  3

 72
    65
 73
     0
 40
0.0
  0
LTYPE
  5
15
330
5
100
AcDbSymbolTableRecord
100
AcDbLinetypeTableRecord
  2
CONTINUOUS
 70
     0
  3
Solid line
 72
    65
 73
     0
 40
0.0
  0
LTYPE
  5
1E
330
5
100
AcDbSymbolTableRecord
100
AcDbLinetypeTableRecord
  2
HIDDEN
 70
     0
  3
_____________________                     _____________________
 72
    65
 73
     2
 40
0.2
 49
0.133333
 74
     0
 49
-0.066667
 74
     0
  0
LTYPE
  5
1F
330
5
100
AcDbSymbolTableRecord
100
AcDbLinetypeTableRecord
  2
CENTER
 70
     0
  3
__________________________  _____  __________________________
 72
    65
 73
     4
 40
1.25
 49
1.065574
 74
     0
 49
-0.040984
 74
     0
 49
0.102459
 74
     0
 49
-0.040984
 74
     0
  0
LTYPE
  5
20
330
5
100
AcDbSymbolTableRecord
100
AcDbLinetypeTableRecord
  2
PHANTOM
 70
     0
  3
_____________________  _____  _____  _____________________
 72
    65
 73
     6
 40
1.25
 49
0.9051719999999999
 74
     0
 49
-0.043103
 74
     0
 49
0.107759
 74
     0
 49
-0.043103
 74
     0
 49
0.107759
 74
     0
 49
-0.043103
 74
     0
  0
LTYPE
  5
21
330
5
100
AcDbSymbolTableRecord
100
AcDbLinetypeTableRecord
  2
STITCH
 70
     0
  3
___    ______    ______    ______    ___
 72
    65
 73
     8
 40
0.5
 49
0.075
 74
     0
 49
-0.05
 74
     0
 49
0.075
 74
     0
 49
-0.05
 74
     0
 49
0.075
 74
     0
 49
-0.05
 74
     0
 49
0.075
 74
     0
 49
-0.05
 74
     0
  0
LTYPE
  5
22
330
5
100
AcDbSymbolTableRecord
100
AcDbLinetypeTableRecord
  2
DASHED
 70
     0
  3
______    ______    ____________    ______    ______
 72
    65
 73
     8
 40
1.0
 49
0.230769
 74
     0
 49
-0.076923
 74
     0
 49
0.115385
 74
     0
 49
-0.076923
 74
     0
 49
0.230769
 74
     0
 49
-0.076923
 74
     0
 49
0.115385
 74
     0
 49
-0.076923
 74
     0
  0
ENDTAB
  0
TABLE
  2
LAYER
  5
2
330
0
100
AcDbSymbolTable
 70
     3
  0
LAYER
  5
F
330
2
100
AcDbSymbolTableRecord
100
AcDbLayerTableRecord
  2
0
 70
     0
 62
   255
  6
CONTINUOUS
370
    -3
390
3C6
  0
LAYER
  5
3DC
330
2
100
AcDbSymbolTableRecord
100
AcDbLayerTableRecord
  2
TitleBlock&Notes
 70
     0
 62
     3
  6
CONTINUOUS
370
    -3
390
3C6
  0
LAYER
  5
D6A
330
2
100
AcDbSymbolTableRecord
100
AcDbLayerTableRecord
  2
Defpoints
 70
     0
 62
     7
  6
CONTINUOUS
290
     0
370
    -3
390
3C6
  0
ENDTAB
  0
TABLE
  2
STYLE
  5
3
330
0
100
AcDbSymbolTable
 70
     2
  0
STYLE
  5
10
330
3
100
AcDbSymbolTableRecord
100
AcDbTextStyleTableRecord
  2
STANDARD
 70
     0
 40
0.0
 41
1.0
 50
0.0
 71
     0
 42
0.35
  3
simplex.shx
  4

  0
STYLE
  5
23
330
3
100
AcDbSymbolTableRecord
100
AcDbTextStyleTableRecord
  2
SAS_____
 70
     0
 40
0.0
 41
1.0
 50
0.0
 71
     0
 42
0.35
  3
SAS_____
  4

  0
ENDTAB
  0
TABLE
  2
VIEW
  5
6
330
0
100
AcDbSymbolTable
 70
     0
  0
ENDTAB
  0
TABLE
  2
UCS
  5
7
330
0
100
AcDbSymbolTable
 70
     0
  0
ENDTAB
  0
TABLE
  2
APPID
  5
9
330
0
100
AcDbSymbolTable
 70
     2
  0
APPID
  5
11
330
9
100
AcDbSymbolTableRecord
100
AcDbRegAppTableRecord
  2
ACAD
 70
     0
  0
APPID
  5
3D6
330
9
100
AcDbSymbolTableRecord
100
AcDbRegAppTableRecord
  2
DCO15
 70
     0
  0
ENDTAB
  0
TABLE
  2
DIMSTYLE
  5
A
330
0
100
AcDbSymbolTable
 70
     1
100
AcDbDimStyleTable
 71
     1
340
3BE
  0
DIMSTYLE
105
3BE
102
{ACAD_REACTORS
330
D8A
330
D8B
330
DEC
330
E45
102
}
330
A
100
AcDbSymbolTableRecord
100
AcDbDimStyleTableRecord
  2
STANDARD
 70
     0
340
10
  0
ENDTAB
  0
TABLE
  2
BLOCK_RECORD
  5
1
330
0
100
AcDbSymbolTable
 70
    22
  0
BLOCK_RECORD
  5
19
330
1
100
AcDbSymbolTableRecord
100
AcDbBlockTableRecord
  2
*MODEL_SPACE
340
3C9
  0
BLOCK_RECORD
  5
16
330
1
100
AcDbSymbolTableRecord
100
AcDbBlockTableRecord
  2
*PAPER_SPACE
340
3CA
  0
BLOCK_RECORD
  5
26
330
1
100
AcDbSymbolTableRecord
100
AcDbBlockTableRecord
  2
DCDIM23424
340
0
  0
BLOCK_RECORD
  5
30
330
1
100
AcDbSymbolTableRecord
100
AcDbBlockTableRecord
  2
DCDIM23431
340
0
  0
BLOCK_RECORD
  5
37
330
1
100
AcDbSymbolTableRecord
100
AcDbBlockTableRecord
  2
DCDIM33709
340
0
  0
BLOCK_RECORD
  5
41
330
1
100
AcDbSymbolTableRecord
100
AcDbBlockTableRecord
  2
DCDIM33710
340
0
  0
BLOCK_RECORD
  5
4B
330
1
100
AcDbSymbolTableRecord
100
AcDbBlockTableRecord
  2
DCDIM33711
340
0
  0
BLOCK_RECORD
  5
55
330
1
100
AcDbSymbolTableRecord
100
AcDbBlockTableRecord
  2
DCDIM33713
340
0
  0
BLOCK_RECORD
  5
61
330
1
100
AcDbSymbolTableRecord
100
AcDbBlockTableRecord
  2
DCDIM33714
340
0
  0
BLOCK_RECORD
  5
6E
330
1
100
AcDbSymbolTableRecord
100
AcDbBlockTableRecord
  2
DCDIM33719
340
0
  0
BLOCK_RECORD
  5
7B
330
1
100
AcDbSymbolTableRecord
100
AcDbBlockTableRecord
  2
DCDIM33728
340
0
  0
BLOCK_RECORD
  5
85
330
1
100
AcDbSymbolTableRecord
100
AcDbBlockTableRecord
  2
DCDIM34179
340
0
  0
BLOCK_RECORD
  5
8F
330
1
100
AcDbSymbolTableRecord
100
AcDbBlockTableRecord
  2
DCDIM34180
340
0
  0
BLOCK_RECORD
  5
96
330
1
100
AcDbSymbolTableRecord
100
AcDbBlockTableRecord
  2
DCDIM34181
340
0
  0
BLOCK_RECORD
  5
9D
330
1
100
AcDbSymbolTableRecord
100
AcDbBlockTableRecord
  2
DCDIM34182
340
0
  0
BLOCK_RECORD
  5
A7
330
1
100
AcDbSymbolTableRecord
100
AcDbBlockTableRecord
  2
DCDIM172971
340
0
  0
BLOCK_RECORD
  5
B2
330
1
100
AcDbSymbolTableRecord
100
AcDbBlockTableRecord
  2
DCDIM172972
340
0
  0
BLOCK_RECORD
  5
D9F
330
1
100
AcDbSymbolTableRecord
100
AcDbBlockTableRecord
  2
*D17
340
0
  0
BLOCK_RECORD
  5
DAC
330
1
100
AcDbSymbolTableRecord
100
AcDbBlockTableRecord
  2
*D18
340
0
  0
BLOCK_RECORD
  5
DF8
330
1
100
AcDbSymbolTableRecord
100
AcDbBlockTableRecord
  2
*D20
340
0
  0
BLOCK_RECORD
  5
E46
330
1
100
AcDbSymbolTableRecord
100
AcDbBlockTableRecord
  2
*D21
340
0
  0
ENDTAB
  0
ENDSEC
  0
SECTION
  2
BLOCKS
  0
BLOCK
  5
1A
330
19
100
AcDbEntity
  8
0
100
AcDbBlockBegin
  2
*MODEL_SPACE
 70
     0
 10
0.0
 20
0.0
 30
0.0
  3
*MODEL_SPACE
  1

  0
ENDBLK
  5
1B
330
19
100
AcDbEntity
  8
0
100
AcDbBlockEnd
  0
BLOCK
  5
17
330
16
100
AcDbEntity
 67
     1
  8
0
100
AcDbBlockBegin
  2
*PAPER_SPACE
 70
     0
 10
0.0
 20
0.0
 30
0.0
  3
*PAPER_SPACE
  1

  0
ENDBLK
  5
18
330
16
100
AcDbEntity
 67
     1
  8
0
100
AcDbBlockEnd
  0
BLOCK
  5
27
330
26
100
AcDbEntity
  8
0
100
AcDbBlockBegin
  2
DCDIM23424
 70
     0
 10
0.0
 20
0.0
 30
0.0
  3
DCDIM23424
  1

  0
LINE
  5
28
330
26
100
AcDbEntity
  8
0
  6
Continuous
 62
     5
100
AcDbLine
 10
0.01
 20
22.61
 30
0.0
 11
0.01
 21
24.206939
 31
0.0
  0
LINE
  5
29
330
26
100
AcDbEntity
  8
0
  6
Continuous
 62
     5
100
AcDbLine
 10
5.009999999999999
 20
22.61
 30
0.0
 11
5.009999999999999
 21
24.206939
 31
0.0
  0
LINE
  5
2A
330
26
100
AcDbEntity
  8
0
  6
Continuous
 62
     5
100
AcDbLine
 10
0.01
 20
24.106939
 30
0.0
 11
1.904152
 21
24.106939
 31
0.0
  0
LINE
  5
2B
330
26
100
AcDbEntity
  8
0
  6
Continuous
 62
     5
100
AcDbLine
 10
5.009999999999999
 20
24.106939
 30
0.0
 11
3.115848
 21
24.106939
 31
0.0
  0
SOLID
  5
2C
330
26
100
AcDbEntity
  8
0
  6
Continuous
 62
     5
100
AcDbTrace
 10
0.01
 20
24.106939
 30
0.0
 11
0.26
 21
24.148606
 31
0.0
 12
0.01
 22
24.106939
 32
0.0
 13
0.26
 23
24.065272
 33
0.0
  0
SOLID
  5
2D
330
26
100
AcDbEntity
  8
0
  6
Continuous
 62
     5
100
AcDbTrace
 10
5.009999999999999
 20
24.106939
 30
0.0
 11
4.759999999999999
 21
24.065272
 31
0.0
 12
5.009999999999999
 22
24.106939
 32
0.0
 13
4.759999999999999
 23
24.148606
 33
0.0
  0
TEXT
  5
2E
330
26
100
AcDbEntity
  8
0
  6
Continuous
 62
     5
100
AcDbText
 10
2.079152
 20
23.976199
 30
0.0
 40
0.311018368898163
  1
4.75
 41
0.9090909999999999
 72
     3
 11
2.940847999999999
 21
23.976199
 31
0.0
100
AcDbText
  0
ENDBLK
  5
2F
330
26
100
AcDbEntity
  8
0
100
AcDbBlockEnd
  0
BLOCK
  5
31
330
30
100
AcDbEntity
  8
0
100
AcDbBlockBegin
  2
DCDIM23431
 70
     0
 10
0.0
 20
0.0
 30
0.0
  3
DCDIM23431
  1

  0
LWPOLYLINE
  5
32
330
30
100
AcDbEntity
  8
0
  6
Continuous
 62
     5
100
AcDbPolyline
 90
        2
 70
     0
 43
0.0
 10
4.171237999999999
 20
4.358712
 10
4.171237999999999
 20
4.608712
  0
ENDBLK
  5
36
330
30
100
AcDbEntity
  8
0
100
AcDbBlockEnd
  0
BLOCK
  5
38
330
37
100
AcDbEntity
  8
0
100
AcDbBlockBegin
  2
DCDIM33709
 70
     0
 10
0.0
 20
0.0
 30
0.0
  3
DCDIM33709
  1

  0
LINE
  5
39
330
37
100
AcDbEntity
  8
0
  6
Continuous
 62
     5
100
AcDbLine
 10
5.11
 20
22.51
 30
0.0
 11
7.197503999999999
 21
22.51
 31
0.0
  0
LINE
  5
3A
330
37
100
AcDbEntity
  8
0
  6
Continuous
 62
     5
100
AcDbLine
 10
3.435
 20
0.01
 30
0.0
 11
7.197503999999999
 21
0.01
 31
0.0
  0
LINE
  5
3B
330
37
100
AcDbEntity
  8
0
  6
Continuous
 62
     5
100
AcDbLine
 10
7.097503999999998
 20
22.51
 30
0.0
 11
7.097503999999998
 21
11.586648
 31
0.0
  0
LINE
  5
3C
330
37
100
AcDbEntity
  8
0
  6
Continuous
 62
     5
100
AcDbLine
 10
7.097503999999998
 20
0.01
 30
0.0
 11
7.097503999999998
 21
10.92169299999999
 31
0.0
  0
SOLID
  5
3D
330
37
100
AcDbEntity
  8
0
  6
Continuous
 62
     5
100
AcDbTrace
 10
7.097503999999998
 20
22.51
 30
0.0
 11
7.13917
 21
22.26
 31
0.0
 12
7.097503999999998
 22
22.51
 32
0.0
 13
7.055836999999999
 23
22.26
 33
0.0
  0
SOLID
  5
3E
330
37
100
AcDbEntity
  8
0
  6
Continuous
 62
     5
100
AcDbTrace
 10
7.097503999999998
 20
0.01
 30
0.0
 11
7.055836999999999
 21
0.26
 31
0.0
 12
7.097503999999998
 22
0.01
 32
0.0
 13
7.13917
 23
0.26
 33
0.0
  0
TEXT
  5
3F
330
37
100
AcDbEntity
  8
0
  6
Continuous
 62
     5
100
AcDbText
 10
7.228244
 20
11.09669299999999
 30
0.0
 40
0.4547162357783757
  1
A
 50
90.0
 41
0.9090909999999999
 72
     3
 11
7.228244
 21
11.411648
 31
0.0
100
AcDbText
  0
ENDBLK
  5
40
330
37
100
AcDbEntity
  8
0
100
AcDbBlockEnd
  0
BLOCK
  5
42
330
41
100
AcDbEntity
  8
0
100
AcDbBlockBegin
  2
DCDIM33710
 70
     0
 10
0.0
 20
0.0
 30
0.0
  3
DCDIM33710
  1

  0
SOLID
  5
43
330
41
100
AcDbEntity
  8
0
  6
Continuous
 62
     5
100
AcDbTrace
 10
2.509999999999999
 20
22.51
 30
0.0
 11
2.727593999999999
 21
22.639957
 31
0.0
 12
2.509999999999999
 22
22.51
 32
0.0
 13
2.757981
 23
22.562361
 33
0.0
  0
LWPOLYLINE
  5
44
330
41
100
AcDbEntity
  8
0
  6
Continuous
 62
     5
100
AcDbPolyline
 90
        3
 70
     0
 43
0.02
 10
2.509999999999999
 20
22.51
 10
5.764495
 20
23.78445099999999
 10
6.014495
 20
23.78445099999999
  0
TEXT
  5
49
330
41
100
AcDbEntity
  8
0
  6
Continuous
 62
     5
100
AcDbText
 10
6.189494999999999
 20
23.60945099999999
 30
0.0
 40
0.284477390302261
  1
3/8 N P T
 41
0.9090909999999999
 72
     3
 11
8.356942
 21
23.60945099999999
 31
0.0
100
AcDbText
  0
ENDBLK
  5
4A
330
41
100
AcDbEntity
  8
0
100
AcDbBlockEnd
  0
BLOCK
  5
4C
330
4B
100
AcDbEntity
  8
0
100
AcDbBlockBegin
  2
DCDIM33711
 70
     0
 10
0.0
 20
0.0
 30
0.0
  3
DCDIM33711
  1

  0
LINE
  5
4D
330
4B
100
AcDbEntity
  8
0
  6
Continuous
 62
     5
100
AcDbLine
 10
4.086377999999999
 20
6.106233999999999
 30
0.0
 11
6.149333
 21
6.106233999999999
 31
0.0
  0
LINE
  5
4E
330
4B
100
AcDbEntity
  8
0
  6
Continuous
 62
     5
100
AcDbLine
 10
4.053154
 20
1.135
 30
0.0
 11
6.149333
 21
1.135
 31
0.0
  0
LINE
  5
4F
330
4B
100
AcDbEntity
  8
0
  6
Continuous
 62
     5
100
AcDbLine
 10
6.049332999999999
 20
6.106233999999999
 30
0.0
 11
6.049332999999999
 21
4.294103999999999
 31
0.0
  0
LINE
  5
50
330
4B
100
AcDbEntity
  8
0
  6
Continuous
 62
     5
100
AcDbLine
 10
6.049332999999999
 20
1.135
 30
0.0
 11
6.049332999999999
 21
3.033571999999999
 31
0.0
  0
SOLID
  5
51
330
4B
100
AcDbEntity
  8
0
  6
Continuous
 62
     5
100
AcDbTrace
 10
6.049332999999999
 20
6.106233999999999
 30
0.0
 11
6.091
 21
5.856233999999999
 31
0.0
 12
6.049332999999999
 22
6.106233999999999
 32
0.0
 13
6.007666999999999
 23
5.856233999999999
 33
0.0
  0
SOLID
  5
52
330
4B
100
AcDbEntity
  8
0
  6
Continuous
 62
     5
100
AcDbTrace
 10
6.049332999999999
 20
1.135
 30
0.0
 11
6.007666999999999
 21
1.385
 31
0.0
 12
6.049332999999999
 22
1.135
 32
0.0
 13
6.091
 23
1.385
 33
0.0
  0
TEXT
  5
53
330
4B
100
AcDbEntity
  8
0
  6
Continuous
 62
     5
100
AcDbText
 10
6.180073
 20
3.208572
 30
0.0
 40
0.3286451108854889
  1
5.00
 50
90.0
 41
0.9090909999999999
 72
     3
 11
6.180073
 21
4.119104
 31
0.0
100
AcDbText
  0
ENDBLK
  5
54
330
4B
100
AcDbEntity
  8
0
100
AcDbBlockEnd
  0
BLOCK
  5
56
330
55
100
AcDbEntity
  8
0
100
AcDbBlockBegin
  2
DCDIM33713
 70
     0
 10
0.0
 20
0.0
 30
0.0
  3
DCDIM33713
  1

  0
LINE
  5
57
330
55
100
AcDbEntity
  8
0
  6
Continuous
 62
     5
100
AcDbLine
 10
3.797499999999999
 20
1.135
 30
0.0
 11
5.184080999999999
 21
1.135
 31
0.0
  0
LINE
  5
58
330
55
100
AcDbEntity
  8
0
  6
Continuous
 62
     5
100
AcDbLine
 10
3.7675
 20
0.8849999999999999
 30
0.0
 11
5.184080999999999
 21
0.8849999999999999
 31
0.0
  0
LINE
  5
59
330
55
100
AcDbEntity
  8
0
  6
Continuous
 62
     5
100
AcDbLine
 10
5.084080999999999
 20
1.135
 30
0.0
 11
5.084080999999999
 21
0.8849999999999999
 31
0.0
  0
LINE
  5
5A
330
55
100
AcDbEntity
  8
0
  6
Continuous
 62
     5
100
AcDbLine
 10
5.084080999999999
 20
1.135
 30
0.0
 11
5.084080999999999
 21
1.735
 31
0.0
  0
LINE
  5
5B
330
55
100
AcDbEntity
  8
0
  6
Continuous
 62
     5
100
AcDbLine
 10
5.084080999999999
 20
0.8849999999999999
 30
0.0
 11
5.084080999999999
 21
0.285
 31
0.0
  0
LINE
  5
5C
330
55
100
AcDbEntity
  8
0
  6
Continuous
 62
     5
100
AcDbLine
 10
5.084080999999999
 20
1.735
 30
0.0
 11
5.084080999999999
 21
1.735
 31
0.0
  0
SOLID
  5
5D
330
55
100
AcDbEntity
  8
0
  6
Continuous
 62
     5
100
AcDbTrace
 10
5.084080999999999
 20
1.135
 30
0.0
 11
5.042413999999999
 21
1.385
 31
0.0
 12
5.084080999999999
 22
1.135
 32
0.0
 13
5.125747
 23
1.385
 33
0.0
  0
SOLID
  5
5E
330
55
100
AcDbEntity
  8
0
  6
Continuous
 62
     5
100
AcDbTrace
 10
5.084080999999999
 20
0.8849999999999999
 30
0.0
 11
5.125747
 21
0.635
 31
0.0
 12
5.084080999999999
 22
0.8849999999999999
 32
0.0
 13
5.042413999999999
 23
0.635
 33
0.0
  0
TEXT
  5
5F
330
55
100
AcDbEntity
  8
0
  6
Continuous
 62
     5
100
AcDbText
 10
5.259081
 20
1.909999999999999
 30
0.0
 40
0.3245152644234737
  1
0.25
 50
90.0
 41
0.9090909999999999
 72
     3
 11
5.259081
 21
2.80909
 31
0.0
100
AcDbText
  0
ENDBLK
  5
60
330
55
100
AcDbEntity
  8
0
100
AcDbBlockEnd
  0
BLOCK
  5
62
330
61
100
AcDbEntity
  8
0
100
AcDbBlockBegin
  2
DCDIM33714
 70
     0
 10
0.0
 20
0.0
 30
0.0
  3
DCDIM33714
  1

  0
LINE
  5
63
330
61
100
AcDbEntity
  8
0
  6
Continuous
 62
     5
100
AcDbLine
 10
3.484999999999999
 20
0.8849999999999999
 30
0.0
 11
7.209442
 21
0.8849999999999999
 31
0.0
  0
LINE
  5
64
330
61
100
AcDbEntity
  8
0
  6
Continuous
 62
     5
100
AcDbLine
 10
3.435
 20
0.01
 30
0.0
 11
7.209442
 21
0.01
 31
0.0
  0
LINE
  5
65
330
61
100
AcDbEntity
  8
0
  6
Continuous
 62
     5
100
AcDbLine
 10
7.109441999999999
 20
0.8849999999999999
 30
0.0
 11
7.109441999999999
 21
0.01
 31
0.0
  0
LINE
  5
66
330
61
100
AcDbEntity
  8
0
  6
Continuous
 62
     5
100
AcDbLine
 10
7.109441999999999
 20
0.8849999999999999
 30
0.0
 11
7.109441999999999
 21
1.485
 31
0.0
  0
LINE
  5
67
330
61
100
AcDbEntity
  8
0
  6
Continuous
 62
     5
100
AcDbLine
 10
7.109441999999999
 20
0.01
 30
0.0
 11
7.109441999999999
 21
-0.59
 31
0.0
  0
LINE
  5
68
330
61
100
AcDbEntity
  8
0
  6
Continuous
 62
     5
100
AcDbLine
 10
7.109441999999999
 20
-0.59
 30
0.0
 11
6.759441999999999
 21
-0.59
 31
0.0
  0
LINE
  5
69
330
61
100
AcDbEntity
  8
0
  6
Continuous
 62
     5
100
AcDbLine
 10
6.759441999999999
 20
-0.59
 30
0.0
 11
6.759441999999999
 21
-0.59
 31
0.0
  0
SOLID
  5
6A
330
61
100
AcDbEntity
  8
0
  6
Continuous
 62
     5
100
AcDbTrace
 10
7.109441999999999
 20
0.8849999999999999
 30
0.0
 11
7.067775
 21
1.135
 31
0.0
 12
7.109441999999999
 22
0.8849999999999999
 32
0.0
 13
7.151108999999999
 23
1.135
 33
0.0
  0
SOLID
  5
6B
330
61
100
AcDbEntity
  8
0
  6
Continuous
 62
     5
100
AcDbTrace
 10
7.109441999999999
 20
0.01
 30
0.0
 11
7.151108999999999
 21
-0.24
 31
0.0
 12
7.109441999999999
 22
0.01
 32
0.0
 13
7.067775
 23
-0.24
 33
0.0
  0
TEXT
  5
6C
330
61
100
AcDbEntity
  8
0
  6
Continuous
 62
     5
100
AcDbText
 10
5.442717
 20
-0.7650000000000001
 30
0.0
 40
0.3139743436025657
  1
0.875
 41
0.9090909999999999
 72
     3
 11
6.584442
 21
-0.7650000000000001
 31
0.0
100
AcDbText
  0
ENDBLK
  5
6D
330
61
100
AcDbEntity
  8
0
100
AcDbBlockEnd
  0
BLOCK
  5
6F
330
6E
100
AcDbEntity
  8
0
100
AcDbBlockBegin
  2
DCDIM33719
 70
     0
 10
0.0
 20
0.0
 30
0.0
  3
DCDIM33719
  1

  0
LINE
  5
70
330
6E
100
AcDbEntity
  8
0
  6
Continuous
 62
     5
100
AcDbLine
 10
1.222499999999999
 20
1.135
 30
0.0
 11
-0.7373770000000001
 21
1.135
 31
0.0
  0
LINE
  5
71
330
6E
100
AcDbEntity
  8
0
  6
Continuous
 62
     5
100
AcDbLine
 10
1.584999999999999
 20
0.01
 30
0.0
 11
-0.7373770000000001
 21
0.01
 31
0.0
  0
LINE
  5
72
330
6E
100
AcDbEntity
  8
0
  6
Continuous
 62
     5
100
AcDbLine
 10
-0.6373770000000001
 20
1.135
 30
0.0
 11
-0.6373770000000001
 21
0.01
 31
0.0
  0
LINE
  5
73
330
6E
100
AcDbEntity
  8
0
  6
Continuous
 62
     5
100
AcDbLine
 10
-0.6373770000000001
 20
1.135
 30
0.0
 11
-0.6373770000000001
 21
1.735
 31
0.0
  0
LINE
  5
74
330
6E
100
AcDbEntity
  8
0
  6
Continuous
 62
     5
100
AcDbLine
 10
-0.6373770000000001
 20
0.01
 30
0.0
 11
-0.6373770000000001
 21
-0.59
 31
0.0
  0
LINE
  5
75
330
6E
100
AcDbEntity
  8
0
  6
Continuous
 62
     5
100
AcDbLine
 10
-0.6373770000000001
 20
-0.59
 30
0.0
 11
-0.287377
 21
-0.59
 31
0.0
  0
LINE
  5
76
330
6E
100
AcDbEntity
  8
0
  6
Continuous
 62
     5
100
AcDbLine
 10
-0.287377
 20
-0.59
 30
0.0
 11
-0.287377
 21
-0.59
 31
0.0
  0
SOLID
  5
77
330
6E
100
AcDbEntity
  8
0
  6
Continuous
 62
     5
100
AcDbTrace
 10
-0.6373770000000001
 20
1.135
 30
0.0
 11
-0.6790440000000001
 21
1.385
 31
0.0
 12
-0.6373770000000001
 22
1.135
 32
0.0
 13
-0.5957110000000001
 23
1.385
 33
0.0
  0
SOLID
  5
78
330
6E
100
AcDbEntity
  8
0
  6
Continuous
 62
     5
100
AcDbTrace
 10
-0.6373770000000001
 20
0.01
 30
0.0
 11
-0.5957110000000001
 21
-0.24
 31
0.0
 12
-0.6373770000000001
 22
0.01
 32
0.0
 13
-0.6790440000000001
 23
-0.24
 33
0.0
  0
TEXT
  5
79
330
6E
100
AcDbEntity
  8
0
  6
Continuous
 62
     5
100
AcDbText
 10
-0.112377
 20
-0.7650000000000001
 30
0.0
 40
0.300278969972103
  1
 2
 41
0.9090909999999999
 72
     3
 11
0.3165929999999999
 21
-0.7650000000000001
 31
0.0
100
AcDbText
  0
ENDBLK
  5
7A
330
6E
100
AcDbEntity
  8
0
100
AcDbBlockEnd
  0
BLOCK
  5
7C
330
7B
100
AcDbEntity
  8
0
100
AcDbBlockBegin
  2
DCDIM33728
 70
     0
 10
0.0
 20
0.0
 30
0.0
  3
DCDIM33728
  1

  0
LINE
  5
7D
330
7B
100
AcDbEntity
  8
0
  6
Continuous
 62
     5
100
AcDbLine
 10
5.11
 20
22.51
 30
0.0
 11
6.134201
 21
22.51
 31
0.0
  0
LINE
  5
7E
330
7B
100
AcDbEntity
  8
0
  6
Continuous
 62
     5
100
AcDbLine
 10
5.089999999999999
 20
10.135
 30
0.0
 11
6.134201
 21
10.135
 31
0.0
  0
LINE
  5
7F
330
7B
100
AcDbEntity
  8
0
  6
Continuous
 62
     5
100
AcDbLine
 10
6.034201
 20
22.51
 30
0.0
 11
6.034201
 21
16.44379599999999
 31
0.0
  0
LINE
  5
80
330
7B
100
AcDbEntity
  8
0
  6
Continuous
 62
     5
100
AcDbLine
 10
6.034201
 20
10.135
 30
0.0
 11
6.034201
 21
15.817554
 31
0.0
  0
SOLID
  5
81
330
7B
100
AcDbEntity
  8
0
  6
Continuous
 62
     5
100
AcDbTrace
 10
6.034201
 20
22.51
 30
0.0
 11
6.075866999999999
 21
22.26
 31
0.0
 12
6.034201
 22
22.51
 32
0.0
 13
5.992534
 23
22.26
 33
0.0
  0
SOLID
  5
82
330
7B
100
AcDbEntity
  8
0
  6
Continuous
 62
     5
100
AcDbTrace
 10
6.034201
 20
10.135
 30
0.0
 11
5.992534
 21
10.38499999999999
 31
0.0
 12
6.034201
 22
10.135
 32
0.0
 13
6.075866999999999
 23
10.38499999999999
 33
0.0
  0
TEXT
  5
83
330
7B
100
AcDbEntity
  8
0
  6
Continuous
 62
     5
100
AcDbText
 10
6.164941
 20
15.992554
 30
0.0
 40
0.4557992544200715
  1
B
 50
90.0
 41
0.9090909999999999
 72
     3
 11
6.164941
 21
16.26879599999999
 31
0.0
100
AcDbText
  0
ENDBLK
  5
84
330
7B
100
AcDbEntity
  8
0
100
AcDbBlockEnd
  0
BLOCK
  5
86
330
85
100
AcDbEntity
  8
0
100
AcDbBlockBegin
  2
DCDIM34179
 70
     0
 10
0.0
 20
0.0
 30
0.0
  3
DCDIM34179
  1

  0
SOLID
  5
87
330
85
100
AcDbEntity
  8
0
  6
Continuous
 62
     5
100
AcDbTrace
 10
0.4377670000000001
 20
2.584999999999999
 30
0.0
 11
0.3063280000000001
 21
2.801702
 31
0.0
 12
0.4377670000000001
 22
2.584999999999999
 32
0.0
 13
0.383715
 23
2.832618
 33
0.0
  0
LWPOLYLINE
  5
88
330
85
100
AcDbEntity
  8
0
  6
Continuous
 62
     5
100
AcDbPolyline
 90
        3
 70
     0
 43
0.02
 10
0.4377670000000001
 20
2.584999999999999
 10
-0.143319
 20
4.039569
 10
-0.143319
 20
4.289569
  0
TEXT
  5
8D
330
85
100
AcDbEntity
  8
0
  6
Continuous
 62
     5
100
AcDbText
 10
0.031681
 20
4.464569
 30
0.0
 40
0.4470967294838755
  1
LOCKING RING
 50
90.0
 41
0.9090909999999999
 72
     3
 11
0.031681
 21
8.664569
 31
0.0
100
AcDbText
  0
ENDBLK
  5
8E
330
85
100
AcDbEntity
  8
0
100
AcDbBlockEnd
  0
BLOCK
  5
90
330
8F
100
AcDbEntity
  8
0
100
AcDbBlockBegin
  2
DCDIM34180
 70
     0
 10
0.0
 20
0.0
 30
0.0
  3
DCDIM34180
  1

  0
LWPOLYLINE
  5
91
330
8F
100
AcDbEntity
  8
0
  6
Continuous
 62
   255
100
AcDbPolyline
 90
        2
 70
     0
 43
0.0
 10
3.801517
 20
6.103576
 10
3.801517
 20
6.353576
  0
ENDBLK
  5
95
330
8F
100
AcDbEntity
  8
0
100
AcDbBlockEnd
  0
BLOCK
  5
97
330
96
100
AcDbEntity
  8
0
100
AcDbBlockBegin
  2
DCDIM34181
 70
     0
 10
0.0
 20
0.0
 30
0.0
  3
DCDIM34181
  1

  0
LWPOLYLINE
  5
98
330
96
100
AcDbEntity
  8
0
  6
Continuous
 62
   255
100
AcDbPolyline
 90
        2
 70
     0
 43
0.0
 10
4.113215
 20
6.108058999999999
 10
4.113215
 20
6.358058999999999
  0
ENDBLK
  5
9C
330
96
100
AcDbEntity
  8
0
100
AcDbBlockEnd
  0
BLOCK
  5
9E
330
9D
100
AcDbEntity
  8
0
100
AcDbBlockBegin
  2
DCDIM34182
 70
     0
 10
0.0
 20
0.0
 30
0.0
  3
DCDIM34182
  1

  0
SOLID
  5
9F
330
9D
100
AcDbEntity
  8
0
  6
Continuous
 62
     5
100
AcDbTrace
 10
3.986377999999999
 20
6.106233999999999
 30
0.0
 11
4.090138999999999
 21
6.337469999999999
 31
0.0
 12
3.986377999999999
 22
6.106233999999999
 32
0.0
 13
4.159526
 23
6.291318
 33
0.0
  0
LWPOLYLINE
  5
A0
330
9D
100
AcDbEntity
  8
0
  6
Continuous
 62
     5
100
AcDbPolyline
 90
        4
 70
     0
 43
0.02
 10
3.986377999999999
 20
6.106233999999999
 10
4.645986999999999
 20
7.097922
 10
4.710293
 20
7.097922
 10
4.960293
 20
7.097922
  0
ENDBLK
  5
A6
330
9D
100
AcDbEntity
  8
0
100
AcDbBlockEnd
  0
BLOCK
  5
A8
330
A7
100
AcDbEntity
  8
0
100
AcDbBlockBegin
  2
DCDIM172971
 70
     0
 10
0.0
 20
0.0
 30
0.0
  3
DCDIM172971
  1

  0
SOLID
  5
A9
330
A7
100
AcDbEntity
  8
0
  6
Continuous
 62
     5
100
AcDbTrace
 10
2.509999999999999
 20
10.135
 30
0.0
 11
2.356800999999999
 21
9.933092999999999
 31
0.0
 12
2.509999999999999
 22
10.135
 32
0.0
 13
2.299599
 23
9.993692999999998
 33
0.0
  0
LWPOLYLINE
  5
AA
330
A7
100
AcDbEntity
  8
0
  6
Continuous
 62
     5
100
AcDbPolyline
 90
        4
 70
     0
 43
0.02
 10
2.509999999999999
 20
10.135
 10
0.6044570000000001
 20
8.336297
 10
0.6044570000000001
 20
8.310483999999998
 10
0.6044570000000001
 20
8.060483999999998
  0
TEXT
  5
B0
330
A7
100
AcDbEntity
  8
0
  6
Continuous
 62
     5
100
AcDbText
 10
0.779457
 20
3.685483999999999
 30
0.0
 40
0.3976229110573811
  1
MODEL NUMBER
 50
90.0
 41
0.9090909999999999
 72
     3
 11
0.779457
 21
7.885483999999999
 31
0.0
100
AcDbText
  0
ENDBLK
  5
B1
330
A7
100
AcDbEntity
  8
0
100
AcDbBlockEnd
  0
BLOCK
  5
B3
330
B2
100
AcDbEntity
  8
0
100
AcDbBlockBegin
  2
DCDIM172972
 70
     0
 10
0.0
 20
0.0
 30
0.0
  3
DCDIM172972
  1

  0
SOLID
  5
B4
330
B2
100
AcDbEntity
  8
0
  6
Continuous
 62
     5
100
AcDbTrace
 10
1.033622
 20
10.135
 30
0.0
 11
0.8550159999999999
 21
9.955178
 31
0.0
 12
1.033622
 22
10.135
 32
0.0
 13
0.8063499999999999
 23
10.02282499999999
 33
0.0
  0
LWPOLYLINE
  5
B5
330
B2
100
AcDbEntity
  8
0
  6
Continuous
 62
     5
100
AcDbPolyline
 90
        4
 70
     0
 43
0.02
 10
1.033622
 20
10.135
 10
-0.157003
 20
9.278441
 10
-0.672244
 20
10.316993
 10
-0.672244
 20
10.566993
  0
TEXT
  5
BB
330
B2
100
AcDbEntity
  8
0
  6
Continuous
 62
     5
100
AcDbText
 10
-0.497244
 20
10.74199299999999
 30
0.0
 40
0.428230889380301
  1
SERIAL NUMBER (REAR FLAT)
 50
90.0
 41
0.9090909999999999
 72
     3
 11
-0.497244
 21
19.491993
 31
0.0
100
AcDbText
  0
ENDBLK
  5
BC
330
B2
100
AcDbEntity
  8
0
100
AcDbBlockEnd
  0
BLOCK
  5
DAA
330
D9F
100
AcDbEntity
  8
0
 62
     7
100
AcDbBlockBegin
  2
*D17
 70
     1
 10
0.0
 20
0.0
 30
0.0
  3
*D17
  1

  0
LINE
  5
E25
330
D9F
100
AcDbEntity
  8
0
  6
Continuous
 62
     1
370
    -2
100
AcDbLine
 10
0.9335999999999998
 20
1.134999999999998
 30
0.0
 11
-0.1012553729661574
 21
1.134999999999998
 31
0.0
  0
LINE
  5
E26
330
D9F
100
AcDbEntity
  8
0
  6
Continuous
 62
     1
370
    -2
100
AcDbLine
 10
0.9300000000000011
 20
6.106234
 30
0.0
 11
-0.1012553729661562
 21
6.106234
 31
0.0
  0
LINE
  5
E27
330
D9F
100
AcDbEntity
  8
0
  6
Continuous
 62
     1
370
    -2
100
AcDbLine
 10
-0.0012553729661572
 20
1.384999999999998
 30
0.0
 11
-0.0012553729661568
 21
3.405616999999999
 31
0.0
  0
LINE
  5
E28
330
D9F
100
AcDbEntity
  8
0
  6
Continuous
 62
     1
370
    -2
100
AcDbLine
 10
-0.0012553729661562
 20
5.856234
 30
0.0
 11
-0.0012553729661567
 21
3.835616999999999
 31
0.0
  0
SOLID
  5
E29
330
D9F
100
AcDbEntity
  8
0
  6
Continuous
 62
     1
100
AcDbTrace
 10
-0.0429220396328239
 20
1.384999999999998
 30
0.0
 11
0.0404112937005094
 21
1.384999999999998
 31
0.0
 12
-0.0012553729661573
 22
1.134999999999998
 32
0.0
 13
-0.0012553729661573
 23
1.134999999999998
 33
0.0
  0
SOLID
  5
E2A
330
D9F
100
AcDbEntity
  8
0
  6
Continuous
 62
     1
100
AcDbTrace
 10
-0.0429220396328229
 20
5.856234
 30
0.0
 11
0.0404112937005104
 21
5.856234
 31
0.0
 12
-0.0012553729661562
 22
6.106234
 32
0.0
 13
-0.0012553729661562
 23
6.106234
 33
0.0
  0
MTEXT
  5
E2B
330
D9F
100
AcDbEntity
  8
0
  6
Continuous
 62
     1
100
AcDbMText
 10
-0.0012553729661573
 20
3.620616999999999
 30
0.0
 40
0.25
 41
0.0
 71
     5
 72
     1
  1
\A1;5
 73
     1
 44
1.0
  0
POINT
  5
E2C
330
D9F
100
AcDbEntity
  8
Defpoints
  6
Continuous
 62
     0
100
AcDbPoint
 10
1.033599999999999
 20
1.134999999999998
 30
0.0
  0
POINT
  5
E2D
330
D9F
100
AcDbEntity
  8
Defpoints
  6
Continuous
 62
     0
100
AcDbPoint
 10
1.030000000000001
 20
6.106234
 30
0.0
  0
POINT
  5
E2E
330
D9F
100
AcDbEntity
  8
Defpoints
  6
Continuous
 62
     0
100
AcDbPoint
 10
-0.0012553729661562
 20
6.106234
 30
0.0
  0
ENDBLK
  5
DAB
330
D9F
100
AcDbEntity
  8
0
 62
     7
100
AcDbBlockEnd
  0
BLOCK
  5
DB7
330
DAC
100
AcDbEntity
  8
0
 62
     7
100
AcDbBlockBegin
  2
*D18
 70
     1
 10
0.0
 20
0.0
 30
0.0
  3
*D18
  1

  0
LINE
  5
E2F
330
DAC
100
AcDbEntity
  8
0
  6
Continuous
 62
     1
370
    -2
100
AcDbLine
 10
1.584999999999998
 20
0.0099999999999996
 30
0.0
 11
0.2787944164167524
 21
0.01
 31
0.0
  0
LINE
  5
E30
330
DAC
100
AcDbEntity
  8
0
  6
Continuous
 62
     1
370
    -2
100
AcDbLine
 10
0.9335999999999998
 20
1.134999999999998
 30
0.0
 11
0.2787944164167528
 21
1.134999999999998
 31
0.0
  0
LINE
  5
E31
330
DAC
100
AcDbEntity
  8
0
  6
Continuous
 62
     1
370
    -2
100
AcDbLine
 10
0.3787944164167523
 20
-0.2400000000000001
 30
0.0
 11
0.3787944164167523
 21
-0.4900000000000002
 31
0.0
  0
LINE
  5
E32
330
DAC
100
AcDbEntity
  8
0
  6
Continuous
 62
     1
370
    -2
100
AcDbLine
 10
0.3787944164167527
 20
1.384999999999998
 30
0.0
 11
0.3787944164167528
 21
1.634999999999998
 31
0.0
  0
SOLID
  5
E33
330
DAC
100
AcDbEntity
  8
0
  6
Continuous
 62
     1
100
AcDbTrace
 10
0.3371277497500857
 20
-0.2400000000000001
 30
0.0
 11
0.4204610830834191
 21
-0.2400000000000001
 31
0.0
 12
0.3787944164167524
 22
0.0099999999999999
 32
0.0
 13
0.3787944164167524
 23
0.0099999999999999
 33
0.0
  0
SOLID
  5
E34
330
DAC
100
AcDbEntity
  8
0
  6
Continuous
 62
     1
100
AcDbTrace
 10
0.3371277497500861
 20
1.384999999999998
 30
0.0
 11
0.4204610830834195
 21
1.384999999999998
 31
0.0
 12
0.3787944164167527
 22
1.134999999999998
 32
0.0
 13
0.3787944164167527
 23
1.134999999999998
 33
0.0
  0
MTEXT
  5
E35
330
DAC
100
AcDbEntity
  8
0
  6
Continuous
 62
     1
100
AcDbMText
 10
0.3787944164167525
 20
0.5724999999999991
 30
0.0
 40
0.25
 41
0.0
 71
     5
 72
     1
  1
\A1;1{\H1.000000x;\S1/8;}
 73
     1
 44
1.0
  0
POINT
  5
E36
330
DAC
100
AcDbEntity
  8
Defpoints
  6
Continuous
 62
     0
100
AcDbPoint
 10
1.684999999999998
 20
0.0099999999999996
 30
0.0
  0
POINT
  5
E37
330
DAC
100
AcDbEntity
  8
Defpoints
  6
Continuous
 62
     0
100
AcDbPoint
 10
1.033599999999999
 20
1.134999999999998
 30
0.0
  0
POINT
  5
E38
330
DAC
100
AcDbEntity
  8
Defpoints
  6
Continuous
 62
     0
100
AcDbPoint
 10
0.3787944164167527
 20
1.134999999999998
 30
0.0
  0
ENDBLK
  5
DB8
330
DAC
100
AcDbEntity
  8
0
 62
     7
100
AcDbBlockEnd
  0
BLOCK
  5
E03
330
DF8
100
AcDbEntity
  8
0
 62
     7
100
AcDbBlockBegin
  2
*D20
 70
     1
 10
0.0
 20
0.0
 30
0.0
  3
*D20
  1

  0
LINE
  5
E62
330
DF8
100
AcDbEntity
  8
0
  6
Continuous
 62
     1
370
    -2
100
AcDbLine
 10
0.135
 20
22.61
 30
0.0
 11
0.135
 21
23.63753227581666
 31
0.0
  0
LINE
  5
E63
330
DF8
100
AcDbEntity
  8
0
  6
Continuous
 62
     1
370
    -2
100
AcDbLine
 10
4.884999999999999
 20
22.61
 30
0.0
 11
4.884999999999999
 21
23.63753227581666
 31
0.0
  0
LINE
  5
E64
330
DF8
100
AcDbEntity
  8
0
  6
Continuous
 62
     1
370
    -2
100
AcDbLine
 10
0.3850000000000001
 20
23.53753227581666
 30
0.0
 11
2.211666666666666
 21
23.53753227581666
 31
0.0
  0
LINE
  5
E65
330
DF8
100
AcDbEntity
  8
0
  6
Continuous
 62
     1
370
    -2
100
AcDbLine
 10
4.634999999999999
 20
23.53753227581666
 30
0.0
 11
2.808333333333333
 21
23.53753227581666
 31
0.0
  0
SOLID
  5
E66
330
DF8
100
AcDbEntity
  8
0
  6
Continuous
 62
     1
100
AcDbTrace
 10
0.3850000000000001
 20
23.57919894248333
 30
0.0
 11
0.3850000000000001
 21
23.49586560914999
 31
0.0
 12
0.135
 22
23.53753227581666
 32
0.0
 13
0.135
 23
23.53753227581666
 33
0.0
  0
SOLID
  5
E67
330
DF8
100
AcDbEntity
  8
0
  6
Continuous
 62
     1
100
AcDbTrace
 10
4.634999999999999
 20
23.57919894248333
 30
0.0
 11
4.634999999999999
 21
23.49586560914999
 31
0.0
 12
4.884999999999999
 22
23.53753227581666
 32
0.0
 13
4.884999999999999
 23
23.53753227581666
 33
0.0
  0
MTEXT
  5
E68
330
DF8
100
AcDbEntity
  8
0
  6
Continuous
 62
     1
100
AcDbMText
 10
2.509999999999999
 20
23.53753227581666
 30
0.0
 40
0.25
 41
0.0
 71
     5
 72
     1
  1
\A1;4{\H1.000000x;\S3/4;}
 73
     1
 44
1.0
  0
POINT
  5
E69
330
DF8
100
AcDbEntity
  8
Defpoints
  6
Continuous
 62
     0
100
AcDbPoint
 10
0.135
 20
22.51
 30
0.0
  0
POINT
  5
E6A
330
DF8
100
AcDbEntity
  8
Defpoints
  6
Continuous
 62
     0
100
AcDbPoint
 10
4.884999999999999
 20
22.51
 30
0.0
  0
POINT
  5
E6B
330
DF8
100
AcDbEntity
  8
Defpoints
  6
Continuous
 62
     0
100
AcDbPoint
 10
4.884999999999999
 20
23.53753227581666
 30
0.0
  0
ENDBLK
  5
E04
330
DF8
100
AcDbEntity
  8
0
 62
     7
100
AcDbBlockEnd
  0
BLOCK
  5
E51
330
E46
100
AcDbEntity
  8
0
 62
     7
100
AcDbBlockBegin
  2
*D21
 70
     1
 10
0.0
 20
0.0
 30
0.0
  3
*D21
  1

  0
LINE
  5
E47
330
E46
100
AcDbEntity
  8
0
  6
Continuous
 62
     1
370
    -2
100
AcDbLine
 10
1.584999999999998
 20
0.0099999999999998
 30
0.0
 11
-1.448192750472537
 21
0.0100000000000007
 31
0.0
  0
LINE
  5
E48
330
E46
100
AcDbEntity
  8
0
  6
Continuous
 62
     1
370
    -2
100
AcDbLine
 10
0.2425
 20
22.945
 30
0.0
 11
-1.448192750472532
 21
22.945
 31
0.0
  0
LINE
  5
E49
330
E46
100
AcDbEntity
  8
0
  6
Continuous
 62
     1
370
    -2
100
AcDbLine
 10
-1.348192750472537
 20
0.2600000000000006
 30
0.0
 11
-1.348192750472534
 21
11.2125
 31
0.0
  0
LINE
  5
E4A
330
E46
100
AcDbEntity
  8
0
  6
Continuous
 62
     1
370
    -2
100
AcDbLine
 10
-1.348192750472532
 20
22.695
 30
0.0
 11
-1.348192750472534
 21
11.7425
 31
0.0
  0
SOLID
  5
E4B
330
E46
100
AcDbEntity
  8
0
  6
Continuous
 62
     1
100
AcDbTrace
 10
-1.389859417139204
 20
0.2600000000000007
 30
0.0
 11
-1.30652608380587
 21
0.2600000000000006
 31
0.0
 12
-1.348192750472537
 22
0.0100000000000007
 32
0.0
 13
-1.348192750472537
 23
0.0100000000000007
 33
0.0
  0
SOLID
  5
E4C
330
E46
100
AcDbEntity
  8
0
  6
Continuous
 62
     1
100
AcDbTrace
 10
-1.389859417139198
 20
22.695
 30
0.0
 11
-1.306526083805865
 21
22.695
 31
0.0
 12
-1.348192750472532
 22
22.945
 32
0.0
 13
-1.348192750472532
 23
22.945
 33
0.0
  0
MTEXT
  5
E4D
330
E46
100
AcDbEntity
  8
0
  6
Continuous
 62
     1
100
AcDbMText
 10
-1.348192750472536
 20
11.4775
 30
0.0
 40
0.35
 41
0.0
 71
     5
 72
     1
  1
\A1;23
 73
     1
 44
1.0
  0
POINT
  5
E4E
330
E46
100
AcDbEntity
  8
Defpoints
  6
Continuous
 62
     0
100
AcDbPoint
 10
1.684999999999998
 20
0.0099999999999998
 30
0.0
  0
POINT
  5
E4F
330
E46
100
AcDbEntity
  8
Defpoints
  6
Continuous
 62
     0
100
AcDbPoint
 10
0.3425
 20
22.945
 30
0.0
  0
POINT
  5
E50
330
E46
100
AcDbEntity
  8
Defpoints
  6
Continuous
 62
     0
100
AcDbPoint
 10
-1.348192750472532
 20
22.945
 30
0.0
  0
ENDBLK
  5
E52
330
E46
100
AcDbEntity
  8
0
 62
     7
100
AcDbBlockEnd
  0
ENDSEC
  0
SECTION
  2
ENTITIES
  0
LINE
  5
CB
330
19
100
AcDbEntity
  8
0
  6
Continuous
 62
   255
100
AcDbLine
 10
0.135
 20
10.135
 30
0.0
 11
4.884999999999999
 21
10.135
 31
0.0
  0
LINE
  5
CC
330
19
100
AcDbEntity
  8
0
  6
Continuous
 62
   255
100
AcDbLine
 10
0.135
 20
11.26
 30
0.0
 11
4.885
 21
11.25999999999999
 31
0.0
  0
LINE
  5
CF
330
19
100
AcDbEntity
  8
0
  6
Continuous
 62
   255
100
AcDbLine
 10
0.135
 20
11.63499999999999
 30
0.0
 11
4.885
 21
11.63499999999999
 31
0.0
  0
LINE
  5
D6
330
19
100
AcDbEntity
  8
0
  6
Continuous
 62
   255
100
AcDbLine
 10
0.135
 20
22.135
 30
0.0
 11
4.884999999999999
 21
22.135
 31
0.0
  0
LINE
  5
D9
330
19
100
AcDbEntity
  8
0
  6
Continuous
 62
   255
100
AcDbLine
 10
0.135
 20
22.51
 30
0.0
 11
4.884999999999998
 21
22.51
 31
0.0
  0
LINE
  5
DA
330
19
100
AcDbEntity
  8
0
  6
Continuous
 62
   255
100
AcDbLine
 10
0.6975
 20
11.63499999999999
 30
0.0
 11
0.6975
 21
22.135
 31
0.0
  0
LINE
  5
DB
330
19
100
AcDbEntity
  8
0
  6
Continuous
 62
   255
100
AcDbLine
 10
0.3225
 20
11.63499999999999
 30
0.0
 11
0.3225
 21
22.135
 31
0.0
  0
LINE
  5
DC
330
19
100
AcDbEntity
  8
0
  6
Continuous
 62
   255
100
AcDbLine
 10
4.322499999999999
 20
11.63499999999999
 30
0.0
 11
4.322499999999999
 21
22.135
 31
0.0
  0
LINE
  5
DD
330
19
100
AcDbEntity
  8
0
  6
Continuous
 62
   255
100
AcDbLine
 10
4.697499999999999
 20
11.63499999999999
 30
0.0
 11
4.697499999999999
 21
22.135
 31
0.0
  0
LINE
  5
DE
330
19
100
AcDbEntity
  8
0
  6
Continuous
 62
   255
100
AcDbLine
 10
1.01
 20
11.26
 30
0.0
 11
1.01
 21
11.63499999999999
 31
0.0
  0
LINE
  5
DF
330
19
100
AcDbEntity
  8
0
  6
Continuous
 62
   255
100
AcDbLine
 10
4.009999999999999
 20
11.26
 30
0.0
 11
4.009999999999999
 21
11.63499999999999
 31
0.0
  0
LINE
  5
E0
330
19
100
AcDbEntity
  8
0
  6
Continuous
 62
   255
100
AcDbLine
 10
4.009999999999999
 20
22.135
 30
0.0
 11
4.009999999999999
 21
22.51
 31
0.0
  0
LINE
  5
E1
330
19
100
AcDbEntity
  8
0
  6
Continuous
 62
   255
100
AcDbLine
 10
1.01
 20
22.135
 30
0.0
 11
1.01
 21
22.51
 31
0.0
  0
LINE
  5
E2
330
19
100
AcDbEntity
  8
0
  6
Continuous
 62
   255
100
AcDbLine
 10
0.135
 20
16.135
 30
0.0
 11
0.3225
 21
16.135
 31
0.0
  0
LINE
  5
E3
330
19
100
AcDbEntity
  8
0
  6
Continuous
 62
   255
100
AcDbLine
 10
0.135
 20
16.01
 30
0.0
 11
0.3225
 21
16.01
 31
0.0
  0
LINE
  5
E4
330
19
100
AcDbEntity
  8
0
  6
Continuous
 62
   255
100
AcDbLine
 10
0.6975
 20
16.135
 30
0.0
 11
4.322499999999999
 21
16.135
 31
0.0
  0
LINE
  5
E5
330
19
100
AcDbEntity
  8
0
  6
Continuous
 62
   255
100
AcDbLine
 10
4.697499999999999
 20
16.135
 30
0.0
 11
4.884999999999999
 21
16.135
 31
0.0
  0
LINE
  5
E6
330
19
100
AcDbEntity
  8
0
  6
Continuous
 62
   255
100
AcDbLine
 10
0.6975
 20
16.01
 30
0.0
 11
4.322499999999999
 21
16.01
 31
0.0
  0
LINE
  5
E7
330
19
100
AcDbEntity
  8
0
  6
Continuous
 62
   255
100
AcDbLine
 10
4.697499999999999
 20
16.01
 30
0.0
 11
4.884999999999999
 21
16.01
 31
0.0
  0
LINE
  5
E8
330
19
100
AcDbEntity
  8
0
  6
Continuous
 62
   255
100
AcDbLine
 10
0.3225
 20
11.26
 30
0.0
 11
0.3225
 21
11.25
 31
0.0
  0
LINE
  5
E9
330
19
100
AcDbEntity
  8
0
  6
Continuous
 62
   255
100
AcDbLine
 10
0.3225
 20
11.25
 30
0.0
 11
0.3425
 21
11.22999999999999
 31
0.0
  0
LINE
  5
EA
330
19
100
AcDbEntity
  8
0
  6
Continuous
 62
   255
100
AcDbLine
 10
0.6975
 20
11.25
 30
0.0
 11
0.6775000000000001
 21
11.22999999999999
 31
0.0
  0
LINE
  5
EB
330
19
100
AcDbEntity
  8
0
  6
Continuous
 62
   255
100
AcDbLine
 10
0.3425
 20
11.22999999999999
 30
0.0
 11
0.6775000000000001
 21
11.22999999999999
 31
0.0
  0
LINE
  5
EC
330
19
100
AcDbEntity
  8
0
  6
Continuous
 62
   255
100
AcDbLine
 10
0.6975
 20
11.26
 30
0.0
 11
0.6975
 21
11.25
 31
0.0
  0
LINE
  5
ED
330
19
100
AcDbEntity
  8
0
  6
Continuous
 62
   255
100
AcDbLine
 10
4.697499999999999
 20
11.26
 30
0.0
 11
4.697499999999999
 21
11.25
 31
0.0
  0
LINE
  5
EE
330
19
100
AcDbEntity
  8
0
  6
Continuous
 62
   255
100
AcDbLine
 10
4.697499999999999
 20
11.25
 30
0.0
 11
4.6775
 21
11.22999999999999
 31
0.0
  0
LINE
  5
EF
330
19
100
AcDbEntity
  8
0
  6
Continuous
 62
   255
100
AcDbLine
 10
4.322499999999999
 20
11.25
 30
0.0
 11
4.3425
 21
11.22999999999999
 31
0.0
  0
LINE
  5
F0
330
19
100
AcDbEntity
  8
0
  6
Continuous
 62
   255
100
AcDbLine
 10
4.6775
 20
11.22999999999999
 30
0.0
 11
4.3425
 21
11.22999999999999
 31
0.0
  0
LINE
  5
F1
330
19
100
AcDbEntity
  8
0
  6
Continuous
 62
   255
100
AcDbLine
 10
4.322499999999999
 20
11.26
 30
0.0
 11
4.322499999999999
 21
11.25
 31
0.0
  0
LINE
  5
F2
330
19
100
AcDbEntity
  8
0
  6
Continuous
 62
   255
100
AcDbLine
 10
0.2175
 20
22.885
 30
0.0
 11
0.8025
 21
22.885
 31
0.0
  0
ARC
  5
F3
330
19
100
AcDbEntity
  8
0
  6
Continuous
 62
   255
100
AcDbCircle
 10
0.2175
 20
22.86499999999999
 30
0.0
 40
0.02
100
AcDbArc
 50
90.0
 51
180.0
  0
ARC
  5
F4
330
19
100
AcDbEntity
  8
0
  6
Continuous
 62
   255
100
AcDbCircle
 10
0.8025
 20
22.86499999999999
 30
0.0
 40
0.02
100
AcDbArc
 50
0.0
 51
90.0
  0
ARC
  5
F5
330
19
100
AcDbEntity
  8
0
  6
Continuous
 62
   255
100
AcDbCircle
 10
0.2475
 20
22.89499999999999
 30
0.0
 40
0.02
100
AcDbArc
 50
90.0
 51
180.0
  0
LINE
  5
F6
330
19
100
AcDbEntity
  8
0
  6
Continuous
 62
   255
100
AcDbLine
 10
0.2275
 20
22.89499999999999
 30
0.0
 11
0.2275
 21
22.885
 31
0.0
  0
LINE
  5
F7
330
19
100
AcDbEntity
  8
0
  6
Continuous
 62
   255
100
AcDbLine
 10
0.479941
 20
22.915
 30
0.0
 11
0.5300000000000001
 21
22.915
 31
0.0
  0
ARC
  5
F8
330
19
100
AcDbEntity
  8
0
  6
Continuous
 62
   255
100
AcDbCircle
 10
0.7725
 20
22.89499999999999
 30
0.0
 40
0.02
100
AcDbArc
 50
0.0
 51
90.0
  0
LINE
  5
F9
330
19
100
AcDbEntity
  8
0
  6
Continuous
 62
   255
100
AcDbLine
 10
0.7925
 20
22.89499999999999
 30
0.0
 11
0.7925
 21
22.885
 31
0.0
  0
LINE
  5
FA
330
19
100
AcDbEntity
  8
0
  6
Continuous
 62
   255
100
AcDbLine
 10
0.2475
 20
22.915
 30
0.0
 11
0.7725
 21
22.915
 31
0.0
  0
LINE
  5
FB
330
19
100
AcDbEntity
  8
0
  6
Continuous
 62
   255
100
AcDbLine
 10
0.1975
 20
22.53
 30
0.0
 11
0.1975
 21
22.86499999999999
 31
0.0
  0
ARC
  5
FC
330
19
100
AcDbEntity
  8
0
  6
Continuous
 62
   255
100
AcDbCircle
 10
0.2175
 20
22.53
 30
0.0
 40
0.02
100
AcDbArc
 50
180.0
 51
270.0
  0
ARC
  5
FD
330
19
100
AcDbEntity
  8
0
  6
Continuous
 62
   255
100
AcDbCircle
 10
0.28
 20
22.53
 30
0.0
 40
0.02
100
AcDbArc
 50
180.0
 51
270.0
  0
ARC
  5
FE
330
19
100
AcDbEntity
  8
0
  6
Continuous
 62
   255
100
AcDbCircle
 10
0.7400000000000001
 20
22.53
 30
0.0
 40
0.02
100
AcDbArc
 50
270.0
 51
0.0
  0
LINE
  5
FF
330
19
100
AcDbEntity
  8
0
  6
Continuous
 62
   255
100
AcDbLine
 10
0.8224999999999999
 20
22.53
 30
0.0
 11
0.8224999999999999
 21
22.86499999999999
 31
0.0
  0
ARC
  5
100
330
19
100
AcDbEntity
  8
0
  6
Continuous
 62
   255
100
AcDbCircle
 10
0.8025
 20
22.53
 30
0.0
 40
0.02
100
AcDbArc
 50
270.0
 51
0.0
  0
ARC
  5
101
330
19
100
AcDbEntity
  8
0
  6
Continuous
 62
   255
100
AcDbCircle
 10
0.28
 20
22.86499999999999
 30
0.0
 40
0.02
100
AcDbArc
 50
90.0
 51
180.0
  0
ARC
  5
102
330
19
100
AcDbEntity
  8
0
  6
Continuous
 62
   255
100
AcDbCircle
 10
0.7400000000000001
 20
22.86499999999999
 30
0.0
 40
0.02
100
AcDbArc
 50
0.0
 51
90.0
  0
LINE
  5
103
330
19
100
AcDbEntity
  8
0
  6
Continuous
 62
   255
100
AcDbLine
 10
0.76
 20
22.86499999999999
 30
0.0
 11
0.76
 21
22.53
 31
0.0
  0
LINE
  5
104
330
19
100
AcDbEntity
  8
0
  6
Continuous
 62
   255
100
AcDbLine
 10
0.26
 20
22.86499999999999
 30
0.0
 11
0.26
 21
22.53
 31
0.0
  0
LINE
  5
105
330
19
100
AcDbEntity
  8
0
  6
Continuous
 62
   255
100
AcDbLine
 10
0.3225
 20
22.92499999999999
 30
0.0
 11
0.3225
 21
22.915
 31
0.0
  0
LINE
  5
106
330
19
100
AcDbEntity
  8
0
  6
Continuous
 62
   255
100
AcDbLine
 10
0.6975
 20
22.92499999999999
 30
0.0
 11
0.6975
 21
22.915
 31
0.0
  0
LINE
  5
107
330
19
100
AcDbEntity
  8
0
  6
Continuous
 62
   255
100
AcDbLine
 10
0.3425
 20
22.945
 30
0.0
 11
0.6775000000000001
 21
22.945
 31
0.0
  0
LINE
  5
108
330
19
100
AcDbEntity
  8
0
  6
Continuous
 62
   255
100
AcDbLine
 10
0.6975
 20
22.92499999999999
 30
0.0
 11
0.6775000000000001
 21
22.945
 31
0.0
  0
LINE
  5
109
330
19
100
AcDbEntity
  8
0
  6
Continuous
 62
   255
100
AcDbLine
 10
0.3225
 20
22.92499999999999
 30
0.0
 11
0.3425
 21
22.945
 31
0.0
  0
LINE
  5
10A
330
19
100
AcDbEntity
  8
0
  6
Continuous
 62
   255
100
AcDbLine
 10
4.8025
 20
22.885
 30
0.0
 11
4.2175
 21
22.885
 31
0.0
  0
ARC
  5
10B
330
19
100
AcDbEntity
  8
0
  6
Continuous
 62
   255
100
AcDbCircle
 10
4.8025
 20
22.86499999999999
 30
0.0
 40
0.02
100
AcDbArc
 50
0.0
 51
90.0
  0
ARC
  5
10C
330
19
100
AcDbEntity
  8
0
  6
Continuous
 62
   255
100
AcDbCircle
 10
4.2175
 20
22.86499999999999
 30
0.0
 40
0.02
100
AcDbArc
 50
90.0
 51
180.0
  0
ARC
  5
10D
330
19
100
AcDbEntity
  8
0
  6
Continuous
 62
   255
100
AcDbCircle
 10
4.772499999999999
 20
22.89499999999999
 30
0.0
 40
0.02
100
AcDbArc
 50
0.0
 51
90.0
  0
LINE
  5
10E
330
19
100
AcDbEntity
  8
0
  6
Continuous
 62
   255
100
AcDbLine
 10
4.7925
 20
22.89499999999999
 30
0.0
 11
4.7925
 21
22.885
 31
0.0
  0
LINE
  5
10F
330
19
100
AcDbEntity
  8
0
  6
Continuous
 62
   255
100
AcDbLine
 10
4.540058999999999
 20
22.915
 30
0.0
 11
4.49
 21
22.915
 31
0.0
  0
ARC
  5
110
330
19
100
AcDbEntity
  8
0
  6
Continuous
 62
   255
100
AcDbCircle
 10
4.247499999999999
 20
22.89499999999999
 30
0.0
 40
0.02
100
AcDbArc
 50
90.0
 51
180.0
  0
LINE
  5
111
330
19
100
AcDbEntity
  8
0
  6
Continuous
 62
   255
100
AcDbLine
 10
4.2275
 20
22.89499999999999
 30
0.0
 11
4.2275
 21
22.885
 31
0.0
  0
LINE
  5
112
330
19
100
AcDbEntity
  8
0
  6
Continuous
 62
   255
100
AcDbLine
 10
4.772499999999999
 20
22.915
 30
0.0
 11
4.247499999999999
 21
22.915
 31
0.0
  0
LINE
  5
113
330
19
100
AcDbEntity
  8
0
  6
Continuous
 62
   255
100
AcDbLine
 10
4.822499999999999
 20
22.53
 30
0.0
 11
4.822499999999999
 21
22.86499999999999
 31
0.0
  0
ARC
  5
114
330
19
100
AcDbEntity
  8
0
  6
Continuous
 62
   255
100
AcDbCircle
 10
4.8025
 20
22.53
 30
0.0
 40
0.02
100
AcDbArc
 50
270.0
 51
0.0
  0
ARC
  5
115
330
19
100
AcDbEntity
  8
0
  6
Continuous
 62
   255
100
AcDbCircle
 10
4.74
 20
22.53
 30
0.0
 40
0.02
100
AcDbArc
 50
270.0
 51
0.0
  0
ARC
  5
116
330
19
100
AcDbEntity
  8
0
  6
Continuous
 62
   255
100
AcDbCircle
 10
4.28
 20
22.53
 30
0.0
 40
0.02
100
AcDbArc
 50
180.0
 51
270.0
  0
LINE
  5
117
330
19
100
AcDbEntity
  8
0
  6
Continuous
 62
   255
100
AcDbLine
 10
4.197499999999999
 20
22.53
 30
0.0
 11
4.197499999999999
 21
22.86499999999999
 31
0.0
  0
ARC
  5
118
330
19
100
AcDbEntity
  8
0
  6
Continuous
 62
   255
100
AcDbCircle
 10
4.2175
 20
22.53
 30
0.0
 40
0.02
100
AcDbArc
 50
180.0
 51
270.0
  0
ARC
  5
119
330
19
100
AcDbEntity
  8
0
  6
Continuous
 62
   255
100
AcDbCircle
 10
4.74
 20
22.86499999999999
 30
0.0
 40
0.02
100
AcDbArc
 50
0.0
 51
90.0
  0
ARC
  5
11A
330
19
100
AcDbEntity
  8
0
  6
Continuous
 62
   255
100
AcDbCircle
 10
4.28
 20
22.86499999999999
 30
0.0
 40
0.02
100
AcDbArc
 50
90.0
 51
180.0
  0
LINE
  5
11B
330
19
100
AcDbEntity
  8
0
  6
Continuous
 62
   255
100
AcDbLine
 10
4.259999999999999
 20
22.86499999999999
 30
0.0
 11
4.259999999999999
 21
22.53
 31
0.0
  0
LINE
  5
11C
330
19
100
AcDbEntity
  8
0
  6
Continuous
 62
   255
100
AcDbLine
 10
4.759999999999999
 20
22.86499999999999
 30
0.0
 11
4.759999999999999
 21
22.53
 31
0.0
  0
LINE
  5
11D
330
19
100
AcDbEntity
  8
0
  6
Continuous
 62
   255
100
AcDbLine
 10
4.697499999999999
 20
22.92499999999999
 30
0.0
 11
4.697499999999999
 21
22.915
 31
0.0
  0
LINE
  5
11E
330
19
100
AcDbEntity
  8
0
  6
Continuous
 62
   255
100
AcDbLine
 10
4.322499999999999
 20
22.92499999999999
 30
0.0
 11
4.322499999999999
 21
22.915
 31
0.0
  0
LINE
  5
11F
330
19
100
AcDbEntity
  8
0
  6
Continuous
 62
   255
100
AcDbLine
 10
4.6775
 20
22.945
 30
0.0
 11
4.3425
 21
22.945
 31
0.0
  0
LINE
  5
120
330
19
100
AcDbEntity
  8
0
  6
Continuous
 62
   255
100
AcDbLine
 10
4.322499999999999
 20
22.92499999999999
 30
0.0
 11
4.3425
 21
22.945
 31
0.0
  0
LINE
  5
121
330
19
100
AcDbEntity
  8
0
  6
Continuous
 62
   255
100
AcDbLine
 10
4.697499999999999
 20
22.92499999999999
 30
0.0
 11
4.6775
 21
22.945
 31
0.0
  0
CIRCLE
  5
122
330
19
100
AcDbEntity
  8
0
  6
Continuous
 62
   255
100
AcDbCircle
 10
2.509999999999999
 20
14.885
 30
0.0
 40
0.1875
  0
LINE
  5
123
330
19
100
AcDbEntity
  8
0
  6
Continuous
 62
   255
100
AcDbLine
 10
1.385
 20
15.1975
 30
0.0
 11
1.385
 21
14.5725
 31
0.0
  0
LINE
  5
124
330
19
100
AcDbEntity
  8
0
  6
Continuous
 62
   255
100
AcDbLine
 10
3.634999999999999
 20
15.1975
 30
0.0
 11
3.634999999999999
 21
14.5725
 31
0.0
  0
LINE
  5
125
330
19
100
AcDbEntity
  8
0
  6
Continuous
 62
   255
100
AcDbLine
 10
1.447499999999999
 20
14.51
 30
0.0
 11
3.572499999999999
 21
14.51
 31
0.0
  0
LINE
  5
126
330
19
100
AcDbEntity
  8
0
  6
Continuous
 62
   255
100
AcDbLine
 10
1.447499999999999
 20
15.25999999999999
 30
0.0
 11
3.572499999999999
 21
15.25999999999999
 31
0.0
  0
ARC
  5
127
330
19
100
AcDbEntity
  8
0
  6
Continuous
 62
   255
100
AcDbCircle
 10
3.572499999999999
 20
15.1975
 30
0.0
 40
0.0625
100
AcDbArc
 50
0.0
 51
90.0
  0
ARC
  5
128
330
19
100
AcDbEntity
  8
0
  6
Continuous
 62
   255
100
AcDbCircle
 10
3.572499999999999
 20
14.5725
 30
0.0
 40
0.0625
100
AcDbArc
 50
270.0
 51
0.0
  0
ARC
  5
129
330
19
100
AcDbEntity
  8
0
  6
Continuous
 62
   255
100
AcDbCircle
 10
1.447499999999999
 20
14.5725
 30
0.0
 40
0.0625
100
AcDbArc
 50
180.0
 51
270.0
  0
ARC
  5
12A
330
19
100
AcDbEntity
  8
0
  6
Continuous
 62
   255
100
AcDbCircle
 10
1.447499999999999
 20
15.1975
 30
0.0
 40
0.0625
100
AcDbArc
 50
90.0
 51
180.0
  0
TEXT
  5
12B
330
19
100
AcDbEntity
  8
0
  6
Continuous
 62
   255
100
AcDbText
 10
2.632749
 20
14.59877
 30
0.0
 40
0.0520014063383209
  1
O I L  L E V E L
 41
0.9090909999999999
 72
     3
 11
3.276575999999999
 21
14.59877
 31
0.0
100
AcDbText
  0
LINE
  5
12C
330
19
100
AcDbEntity
  8
0
  6
Continuous
 62
   255
100
AcDbLine
 10
3.317558
 20
14.62891899999999
 30
0.0
 11
3.634999999999999
 21
14.62891899999999
 31
0.0
  0
LINE
  5
12D
330
19
100
AcDbEntity
  8
0
  6
Continuous
 62
   255
100
AcDbLine
 10
1.385
 20
20.3225
 30
0.0
 11
1.385
 21
19.6975
 31
0.0
  0
LINE
  5
12E
330
19
100
AcDbEntity
  8
0
  6
Continuous
 62
   255
100
AcDbLine
 10
3.634999999999999
 20
20.3225
 30
0.0
 11
3.634999999999999
 21
19.6975
 31
0.0
  0
LINE
  5
12F
330
19
100
AcDbEntity
  8
0
  6
Continuous
 62
   255
100
AcDbLine
 10
1.447499999999999
 20
19.635
 30
0.0
 11
3.572499999999999
 21
19.635
 31
0.0
  0
LINE
  5
130
330
19
100
AcDbEntity
  8
0
  6
Continuous
 62
   255
100
AcDbLine
 10
1.447499999999999
 20
20.385
 30
0.0
 11
3.572499999999999
 21
20.385
 31
0.0
  0
ARC
  5
131
330
19
100
AcDbEntity
  8
0
  6
Continuous
 62
   255
100
AcDbCircle
 10
3.572499999999999
 20
20.3225
 30
0.0
 40
0.0625
100
AcDbArc
 50
0.0
 51
90.0
  0
ARC
  5
132
330
19
100
AcDbEntity
  8
0
  6
Continuous
 62
   255
100
AcDbCircle
 10
3.572499999999999
 20
19.6975
 30
0.0
 40
0.0625
100
AcDbArc
 50
270.0
 51
0.0
  0
ARC
  5
133
330
19
100
AcDbEntity
  8
0
  6
Continuous
 62
   255
100
AcDbCircle
 10
1.447499999999999
 20
19.6975
 30
0.0
 40
0.0625
100
AcDbArc
 50
180.0
 51
270.0
  0
ARC
  5
134
330
19
100
AcDbEntity
  8
0
  6
Continuous
 62
   255
100
AcDbCircle
 10
1.447499999999999
 20
20.3225
 30
0.0
 40
0.0625
100
AcDbArc
 50
90.0
 51
180.0
  0
TEXT
  5
135
330
19
100
AcDbEntity
  8
0
  6
Continuous
 62
   255
100
AcDbText
 10
1.602459
 20
19.850722
 30
0.0
 40
0.3225611352540914
  1
MULTICYL
 41
0.8474579999999999
  7
SAS_____
 72
     3
 11
3.456712
 21
19.850722
 31
0.0
100
AcDbText
  0
TEXT
  5
276
330
19
100
AcDbEntity
  8
0
  6
Continuous
 62
   255
100
AcDbText
 10
1.467104
 20
15.077262
 30
0.0
 40
0.075352780464722
  1
M U L T I C Y L
 41
0.9090909999999999
 72
     3
 11
2.364161
 21
15.077262
 31
0.0
100
AcDbText
  0
LWPOLYLINE
  5
277
330
19
100
AcDbEntity
  8
0
  6
Continuous
 62
   255
100
AcDbPolyline
 90
        8
 70
     1
 43
0.02
 10
2.572499999999999
 20
14.885
 10
2.554193999999999
 20
14.929194
 10
2.509999999999999
 20
14.94749999999999
 10
2.465806
 20
14.929194
 10
2.447499999999999
 20
14.885
 10
2.465806
 20
14.840806
 10
2.509999999999999
 20
14.8225
 10
2.554193999999999
 20
14.840806
  0
LINE
  5
3AF
330
19
100
AcDbEntity
  8
0
  6
Continuous
 62
   255
100
AcDbLine
 10
1.509999999999999
 20
10.635
 30
0.0
 11
3.509999999999999
 21
10.635
 31
0.0
  0
LINE
  5
3B0
330
19
100
AcDbEntity
  8
0
  6
Continuous
 62
   255
100
AcDbLine
 10
1.509999999999999
 20
10.635
 30
0.0
 11
1.509999999999999
 21
10.135
 31
0.0
  0
LINE
  5
3B1
330
19
100
AcDbEntity
  8
0
  6
Continuous
 62
   255
100
AcDbLine
 10
3.509999999999999
 20
10.635
 30
0.0
 11
3.509999999999999
 21
10.135
 31
0.0
  0
LWPOLYLINE
  5
898
330
19
100
AcDbEntity
  8
TitleBlock&Notes
100
AcDbPolyline
 90
        4
 70
     1
 43
0.0
 10
-24.16058908726067
 20
-10.63550394604527
 10
30.23732019430058
 20
-10.63550394604528
 10
30.2373201943006
 20
31.39924413516114
 10
-24.16058908726066
 20
31.39924413516114
  0
ARC
  5
899
330
19
100
AcDbEntity
  8
TitleBlock&Notes
  6
Continuous
 62
     3
100
AcDbCircle
 10
17.09001748200118
 20
-7.777035974075456
 30
0.0
 40
0.791160548852636
100
AcDbArc
 50
6.936458519999997
 51
173.0635414800004
  0
LINE
  5
89A
330
19
100
AcDbEntity
  8
TitleBlock&Notes
  6
Continuous
 62
     3
100
AcDbLine
 10
16.79931890345257
 20
-7.486073825416895
 30
0.0
 11
17.38071601567146
 21
-7.486073825416895
 31
0.0
  0
LINE
  5
89B
330
19
100
AcDbEntity
  8
TitleBlock&Notes
  6
Continuous
 62
     3
100
AcDbLine
 10
16.77847289976378
 20
-7.508512962995524
 30
0.0
 11
17.40156201936032
 21
-7.508512962995524
 31
0.0
  0
LINE
  5
89C
330
19
100
AcDbEntity
  8
TitleBlock&Notes
  6
Continuous
 62
     3
100
AcDbLine
 10
16.69269907197796
 20
-7.670721763654697
 30
0.0
 11
17.1488316733082
 21
-7.662759953737332
 31
0.0
  0
LINE
  5
89D
330
19
100
AcDbEntity
  8
TitleBlock&Notes
  6
Continuous
 62
     3
100
AcDbLine
 10
16.73209272825004
 20
-7.574416889577122
 30
0.0
 11
17.44794219087402
 21
-7.574416889577122
 31
0.0
  0
LINE
  5
89E
330
19
100
AcDbEntity
  8
TitleBlock&Notes
  6
Continuous
 62
     3
100
AcDbLine
 10
17.48511948864912
 20
-7.662759953737332
 30
0.0
 11
16.69491543047491
 21
-7.662759953737332
 31
0.0
  0
LINE
  5
89F
330
19
100
AcDbEntity
  8
TitleBlock&Notes
  6
Continuous
 62
     3
100
AcDbLine
 10
16.76046118354246
 20
-7.530952100574175
 30
0.0
 11
17.41957373558157
 21
-7.530952100574175
 31
0.0
  0
LINE
  5
8A0
330
19
100
AcDbEntity
  8
TitleBlock&Notes
  6
Continuous
 62
     3
100
AcDbLine
 10
16.74483977401264
 20
-7.553391238152812
 30
0.0
 11
17.43519514511146
 21
-7.553391238152812
 31
0.0
  0
LINE
  5
8A1
330
19
100
AcDbEntity
  8
TitleBlock&Notes
  6
Continuous
 62
     3
100
AcDbLine
 10
16.87349982007793
 20
-8.516704222212954
 30
0.0
 11
17.31843340686886
 21
-8.50893785718388
 31
0.0
  0
LINE
  5
8A2
330
19
100
AcDbEntity
  8
TitleBlock&Notes
  6
Continuous
 62
     3
100
AcDbLine
 10
16.01293887822621
 20
-8.998530533636216
 30
0.0
 11
16.89841785406321
 21
-8.983074410793779
 31
0.0
  0
ARC
  5
8A3
330
19
100
AcDbEntity
  8
TitleBlock&Notes
  6
Continuous
 62
     3
100
AcDbCircle
 10
17.09001748200118
 20
-8.171994190729837
 30
0.0
 40
0.7885253414136752
100
AcDbArc
 50
185.1275404200005
 51
354.872459580001
  0
ARC
  5
8A4
330
19
100
AcDbEntity
  8
TitleBlock&Notes
  6
Continuous
 62
     3
100
AcDbCircle
 10
17.09001748200118
 20
-8.171994190729837
 30
0.0
 40
0.8109644789923189
100
AcDbArc
 50
184.9874829000004
 51
356.6043585300008
  0
LINE
  5
8A5
330
19
100
AcDbEntity
  8
TitleBlock&Notes
  6
Continuous
 62
     3
100
AcDbLine
 10
16.6903111887134
 20
-7.70667150596947
 30
0.0
 11
17.49256766670731
 21
-7.69266809289385
 31
0.0
  0
LINE
  5
8A6
330
19
100
AcDbEntity
  8
TitleBlock&Notes
  6
Continuous
 62
     3
100
AcDbLine
 10
16.68808724578801
 20
-7.980002954962841
 30
0.0
 11
17.1488316733082
 21
-7.97196063341984
 31
0.0
  0
LINE
  5
8A7
330
19
100
AcDbEntity
  8
TitleBlock&Notes
  6
Continuous
 62
     3
100
AcDbLine
 10
16.68618795230509
 20
-8.213438694420009
 30
0.0
 11
17.49616923804523
 21
-8.199300422127567
 31
0.0
  0
LINE
  5
8A8
330
19
100
AcDbEntity
  8
TitleBlock&Notes
  6
Continuous
 62
     3
100
AcDbLine
 10
16.68730290817307
 20
-8.231373264886279
 30
0.0
 11
17.49455900553263
 21
-8.217282563565504
 31
0.0
  0
LINE
  5
8A9
330
19
100
AcDbEntity
  8
TitleBlock&Notes
  6
Continuous
 62
     3
100
AcDbLine
 10
16.69035171379589
 20
-8.249274131767933
 30
0.0
 11
17.49213674550926
 21
-8.235278886538402
 31
0.0
  0
LINE
  5
8AA
330
19
100
AcDbEntity
  8
TitleBlock&Notes
  6
Continuous
 62
     3
100
AcDbLine
 10
16.6942293314043
 20
-8.267160458088426
 30
0.0
 11
17.4888857632569
 21
-8.25328970519418
 31
0.0
  0
LINE
  5
8AB
330
19
100
AcDbEntity
  8
TitleBlock&Notes
  6
Continuous
 62
     3
100
AcDbLine
 10
16.69895820013594
 20
-8.285031974578103
 30
0.0
 11
17.48478344012475
 21
-8.271315333680753
 31
0.0
  0
LINE
  5
8AC
330
19
100
AcDbEntity
  8
TitleBlock&Notes
  6
Continuous
 62
     3
100
AcDbLine
 10
16.69016506504952
 20
-7.724628111668831
 30
0.0
 11
17.49590670013557
 21
-7.710563843652124
 31
0.0
  0
LINE
  5
8AD
330
19
100
AcDbEntity
  8
TitleBlock&Notes
  6
Continuous
 62
     3
100
AcDbLine
 10
16.69001898626388
 20
-7.742584717368227
 30
0.0
 11
17.61913494904553
 21
-7.726366920439811
 31
0.0
  0
LINE
  5
8AE
330
19
100
AcDbEntity
  8
TitleBlock&Notes
  6
Continuous
 62
     3
100
AcDbLine
 10
16.76245862581319
 20
-8.413675954220938
 30
0.0
 11
17.41757633818916
 21
-8.413675954220938
 31
0.0
  0
LINE
  5
8AF
330
19
100
AcDbEntity
  8
TitleBlock&Notes
  6
Continuous
 62
     3
100
AcDbLine
 10
16.71293374380268
 20
-8.325332890060725
 30
0.0
 11
17.46710117532141
 21
-8.325332890060725
 31
0.0
  0
LINE
  5
8B0
330
19
100
AcDbEntity
  8
TitleBlock&Notes
  6
Continuous
 62
     3
100
AcDbLine
 10
16.77407025121424
 20
-8.428669516681349
 30
0.0
 11
17.41473006822215
 21
-8.417486792955926
 31
0.0
  0
LINE
  5
8B1
330
19
100
AcDbEntity
  8
TitleBlock&Notes
  6
Continuous
 62
     3
100
AcDbLine
 10
16.78930238658542
 20
-8.446357705417007
 30
0.0
 11
17.40012447845047
 21
-8.435695749196515
 31
0.0
  0
LINE
  5
8B2
330
19
100
AcDbEntity
  8
TitleBlock&Notes
  6
Continuous
 62
     3
100
AcDbLine
 10
16.80641586412941
 20
-8.464013043255274
 30
0.0
 11
17.38363763626245
 21
-8.45393760121281
 31
0.0
  0
LINE
  5
8B3
330
19
100
AcDbEntity
  8
TitleBlock&Notes
  6
Continuous
 62
     3
100
AcDbLine
 10
16.82576203586247
 20
-8.481629381872394
 30
0.0
 11
17.36491801012891
 21
-8.472218362693649
 31
0.0
  0
LINE
  5
8B4
330
19
100
AcDbEntity
  8
TitleBlock&Notes
  6
Continuous
 62
     3
100
AcDbLine
 10
16.84785493754828
 20
-8.499197790491678
 30
0.0
 11
17.34345169892078
 21
-8.490547099050623
 31
0.0
  0
LINE
  5
8B5
330
19
100
AcDbEntity
  8
TitleBlock&Notes
  6
Continuous
 62
     3
100
AcDbLine
 10
16.71109391403428
 20
-8.320728244394757
 30
0.0
 11
17.47390095206014
 21
-8.307413398694897
 31
0.0
  0
ARC
  5
8B6
330
19
100
AcDbEntity
  8
TitleBlock&Notes
  6
Continuous
 62
     3
100
AcDbCircle
 10
17.09001748200118
 20
-8.171994190729837
 30
0.0
 40
0.4070686640838322
100
AcDbArc
 50
187.1485089300004
 51
356.3951218200007
  0
LINE
  5
8B7
330
19
100
AcDbEntity
  8
TitleBlock&Notes
  6
Continuous
 62
     3
100
AcDbLine
 10
16.70456753574787
 20
-8.302888097819405
 30
0.0
 11
17.47980073986886
 21
-8.289356355415701
 31
0.0
  0
ARC
  5
8B8
330
19
100
AcDbEntity
  8
TitleBlock&Notes
  6
Continuous
 62
     3
100
AcDbCircle
 10
17.09001748200118
 20
-8.171994190729837
 30
0.0
 40
0.4295078016624761
100
AcDbArc
 50
187.1485089300004
 51
353.5789239900008
  0
ARC
  5
8B9
330
19
100
AcDbEntity
  8
TitleBlock&Notes
  6
Continuous
 62
     3
100
AcDbCircle
 10
17.09001748200118
 20
-8.171994190729837
 30
0.0
 40
0.4519382777340148
100
AcDbArc
 50
186.7746279100004
 51
351.0289824700008
  0
ARC
  5
8BA
330
19
100
AcDbEntity
  8
TitleBlock&Notes
  6
Continuous
 62
     3
100
AcDbCircle
 10
17.09001748200118
 20
-7.777035974075456
 30
0.0
 40
0.8136041293805204
100
AcDbArc
 50
5.155389820000086
 51
173.2499419800004
  0
ARC
  5
8BB
330
19
100
AcDbEntity
  8
TitleBlock&Notes
  6
Continuous
 62
     3
100
AcDbCircle
 10
17.09001748200118
 20
-7.777035974075456
 30
0.0
 40
0.4112962424819238
100
AcDbArc
 50
7.076443859999923
 51
166.2342647900004
  0
LINE
  5
8BC
330
19
100
AcDbEntity
  8
TitleBlock&Notes
  6
Continuous
 62
     3
100
AcDbLine
 10
16.69045726749909
 20
-7.688714945148355
 30
0.0
 11
17.48840134715481
 21
-7.674786748061912
 31
0.0
  0
ARC
  5
8BD
330
19
100
AcDbEntity
  8
TitleBlock&Notes
  6
Continuous
 62
     3
100
AcDbCircle
 10
17.09001748200118
 20
-7.777035974075456
 30
0.0
 40
0.4337353800605678
100
AcDbArc
 50
9.703799320000051
 51
166.2342647900004
  0
ARC
  5
8BE
330
19
100
AcDbEntity
  8
TitleBlock&Notes
  6
Continuous
 62
     3
100
AcDbCircle
 10
17.09001748200118
 20
-7.777035974075456
 30
0.0
 40
0.4545734851729757
100
AcDbArc
 50
12.13355042000011
 51
170.8448616600005
  0
ARC
  5
8BF
330
19
100
AcDbEntity
  8
TitleBlock&Notes
  6
Continuous
 62
     3
100
AcDbCircle
 10
17.09001748200118
 20
-8.171994190729837
 30
0.0
 40
0.833403616570963
100
AcDbArc
 50
184.9874829000004
 51
358.2401137300008
  0
LINE
  5
8C0
330
19
100
AcDbEntity
  8
TitleBlock&Notes
  6
Continuous
 62
     3
100
AcDbLine
 10
16.68815267831323
 20
-7.97196063341984
 30
0.0
 11
18.25155426204731
 21
-7.97196063341984
 31
0.0
  0
LINE
  5
8C1
330
19
100
AcDbEntity
  8
TitleBlock&Notes
  6
Continuous
 62
     3
100
AcDbLine
 10
16.68887149364638
 20
-7.883617569259612
 30
0.0
 11
18.21347535972431
 21
-7.883617569259612
 31
0.0
  0
LINE
  5
8C2
330
19
100
AcDbEntity
  8
TitleBlock&Notes
  6
Continuous
 62
     3
100
AcDbLine
 10
16.68794116700236
 20
-7.997959560662241
 30
0.0
 11
18.17741822369706
 21
-7.97196063341984
 31
0.0
  0
LINE
  5
8C3
330
19
100
AcDbEntity
  8
TitleBlock&Notes
  6
Continuous
 62
     3
100
AcDbLine
 10
16.68779504333848
 20
-8.015916166361598
 30
0.0
 11
18.25868169507301
 21
-7.988496213414641
 31
0.0
  0
LINE
  5
8C4
330
19
100
AcDbEntity
  8
TitleBlock&Notes
  6
Continuous
 62
     3
100
AcDbLine
 10
16.68764896455283
 20
-8.033872772061009
 30
0.0
 11
18.26636270162264
 21
-8.006316209644449
 31
0.0
  0
LINE
  5
8C5
330
19
100
AcDbEntity
  8
TitleBlock&Notes
  6
Continuous
 62
     3
100
AcDbLine
 10
16.68750284088889
 20
-8.051829332882103
 30
0.0
 11
18.27404370817243
 21
-8.024136160995965
 31
0.0
  0
LINE
  5
8C6
330
19
100
AcDbEntity
  8
TitleBlock&Notes
  6
Continuous
 62
     3
100
AcDbLine
 10
16.68735676210332
 20
-8.069785938581485
 30
0.0
 11
18.2817247596004
 21
-8.041956157225772
 31
0.0
  0
LINE
  5
8C7
330
19
100
AcDbEntity
  8
TitleBlock&Notes
  6
Continuous
 62
     3
100
AcDbLine
 10
16.68721063843937
 20
-8.087742544280871
 30
0.0
 11
18.28940576615013
 21
-8.059776108577313
 31
0.0
  0
LINE
  5
8C8
330
19
100
AcDbEntity
  8
TitleBlock&Notes
  6
Continuous
 62
     3
100
AcDbLine
 10
16.68706455965372
 20
-8.105699149980253
 30
0.0
 11
18.29708677269985
 21
-8.07759610480712
 31
0.0
  0
LINE
  5
8C9
330
19
100
AcDbEntity
  8
TitleBlock&Notes
  6
Continuous
 62
     3
100
AcDbLine
 10
16.68691843598985
 20
-8.123655710801369
 30
0.0
 11
18.30476782412781
 21
-8.095416056158637
 31
0.0
  0
LINE
  5
8CA
330
19
100
AcDbEntity
  8
TitleBlock&Notes
  6
Continuous
 62
     3
100
AcDbLine
 10
16.6867723572042
 20
-8.141612316500754
 30
0.0
 11
18.31244883067756
 21
-8.113236052388444
 31
0.0
  0
LINE
  5
8CB
330
19
100
AcDbEntity
  8
TitleBlock&Notes
  6
Continuous
 62
     3
100
AcDbLine
 10
16.68662623354026
 20
-8.159568922200136
 30
0.0
 11
18.32012983722727
 21
-8.131056003739978
 31
0.0
  0
LINE
  5
8CC
330
19
100
AcDbEntity
  8
TitleBlock&Notes
  6
Continuous
 62
     3
100
AcDbLine
 10
16.68648015475461
 20
-8.177525527899508
 30
0.0
 11
18.32781088865524
 21
-8.148875999969771
 31
0.0
  0
LINE
  5
8CD
330
19
100
AcDbEntity
  8
TitleBlock&Notes
  6
Continuous
 62
     3
100
AcDbLine
 10
16.68633403109074
 20
-8.195482088720616
 30
0.0
 11
18.33549189520503
 21
-8.166695951321312
 31
0.0
  0
LINE
  5
8CE
330
19
100
AcDbEntity
  8
TitleBlock&Notes
  6
Continuous
 62
     3
100
AcDbLine
 10
16.6898728626
 20
-7.760541323067613
 30
0.0
 11
18.14944379966053
 21
-7.735064419921851
 31
0.0
  0
LINE
  5
8CF
330
19
100
AcDbEntity
  8
TitleBlock&Notes
  6
Continuous
 62
     3
100
AcDbLine
 10
16.68972678381435
 20
-7.778497883888714
 30
0.0
 11
18.15712485108856
 21
-7.752884371273367
 31
0.0
  0
LINE
  5
8D0
330
19
100
AcDbEntity
  8
TitleBlock&Notes
  6
Continuous
 62
     3
100
AcDbLine
 10
16.68958066015042
 20
-7.7964544895881
 30
0.0
 11
18.16480585763822
 21
-7.770704367503174
 31
0.0
  0
LINE
  5
8D1
330
19
100
AcDbEntity
  8
TitleBlock&Notes
  6
Continuous
 62
     3
100
AcDbLine
 10
16.68943458136477
 20
-7.814411095287471
 30
0.0
 11
18.17248686418801
 21
-7.788524318854705
 31
0.0
  0
LINE
  5
8D2
330
19
100
AcDbEntity
  8
TitleBlock&Notes
  6
Continuous
 62
     3
100
AcDbLine
 10
16.68928845770088
 20
-7.832367700986878
 30
0.0
 11
18.18016791561597
 21
-7.806344270206245
 31
0.0
  0
LINE
  5
8D3
330
19
100
AcDbEntity
  8
TitleBlock&Notes
  6
Continuous
 62
     3
100
AcDbLine
 10
16.68914237891524
 20
-7.85032430668625
 30
0.0
 11
18.18784892216571
 21
-7.824164266436039
 31
0.0
  0
LINE
  5
8D4
330
19
100
AcDbEntity
  8
TitleBlock&Notes
  6
Continuous
 62
     3
100
AcDbLine
 10
16.6889962552513
 20
-7.868280867507358
 30
0.0
 11
18.19552997359368
 21
-7.841984217787569
 31
0.0
  0
LINE
  5
8D5
330
19
100
AcDbEntity
  8
TitleBlock&Notes
  6
Continuous
 62
     3
100
AcDbLine
 10
16.83894345845031
 20
-7.883617569259612
 30
0.0
 11
18.20321098014338
 21
-7.859804214017376
 31
0.0
  0
ARC
  5
8D6
330
19
100
AcDbEntity
  8
TitleBlock&Notes
  6
Continuous
 62
     3
100
AcDbCircle
 10
17.09001748200118
 20
-7.777035974075456
 30
0.0
 40
0.8360432669591643
100
AcDbArc
 50
3.474582379999962
 51
173.2499419800004
  0
LINE
  5
8D7
330
19
100
AcDbEntity
  8
TitleBlock&Notes
  6
Continuous
 62
     3
100
AcDbLine
 10
8.920139494588759
 20
-9.140289830167592
 30
0.0
 11
16.99040166829556
 21
-8.999422893259453
 31
0.0
  0
LINE
  5
8D8
330
19
100
AcDbEntity
  8
TitleBlock&Notes
  6
Continuous
 62
     3
100
AcDbLine
 10
8.920139494588759
 20
-9.158243877805283
 30
0.0
 11
18.39148746156249
 21
-8.99292088387639
 31
0.0
  0
LINE
  5
8D9
330
19
100
AcDbEntity
  8
TitleBlock&Notes
  6
Continuous
 62
     3
100
AcDbLine
 10
8.920139494588759
 20
-9.176197925442991
 30
0.0
 11
18.7052729955916
 21
-9.005397762422525
 31
0.0
  0
LINE
  5
8DA
330
19
100
AcDbEntity
  8
TitleBlock&Notes
  6
Continuous
 62
     3
100
AcDbLine
 10
8.920139494588759
 20
-9.194151973080682
 30
0.0
 11
19.73385950110221
 21
-9.005397762422525
 31
0.0
  0
LINE
  5
8DB
330
19
100
AcDbEntity
  8
TitleBlock&Notes
  6
Continuous
 62
     3
100
AcDbLine
 10
15.36491251674273
 20
-9.297106550944882
 30
0.0
 11
21.28816807311534
 21
-9.193715756246167
 31
0.0
  0
LINE
  5
8DC
330
19
100
AcDbEntity
  8
TitleBlock&Notes
  6
Continuous
 62
     3
100
AcDbLine
 10
21.28816807311534
 20
-6.381785523414112
 30
0.0
 11
8.920139494588759
 21
-6.381785523414112
 31
0.0
  0
LINE
  5
8DD
330
19
100
AcDbEntity
  8
TitleBlock&Notes
  6
Continuous
 62
     3
100
AcDbLine
 10
21.28816807311534
 20
-6.823500844215221
 30
0.0
 11
8.920139494588759
 21
-6.823500844215221
 31
0.0
  0
LINE
  5
8DE
330
19
100
AcDbEntity
  8
TitleBlock&Notes
  6
Continuous
 62
     3
100
AcDbLine
 10
8.920139494588759
 20
-9.297106550944882
 30
0.0
 11
21.28816807311534
 21
-9.297106550944882
 31
0.0
  0
LINE
  5
8DF
330
19
100
AcDbEntity
  8
TitleBlock&Notes
  6
Continuous
 62
     3
100
AcDbLine
 10
8.920139494588759
 20
-9.212106020718376
 30
0.0
 11
20.76244605149107
 21
-9.005397762422525
 31
0.0
  0
LINE
  5
8E0
330
19
100
AcDbEntity
  8
TitleBlock&Notes
  6
Continuous
 62
     3
100
AcDbLine
 10
8.920139494588759
 20
-9.230060068356085
 30
0.0
 11
21.28816807311534
 21
-9.014175324747423
 31
0.0
  0
LINE
  5
8E1
330
19
100
AcDbEntity
  8
TitleBlock&Notes
  6
Continuous
 62
     3
100
AcDbLine
 10
8.920139494588759
 20
-9.248014115993779
 30
0.0
 11
21.28816807311534
 21
-9.032129372385139
 31
0.0
  0
LINE
  5
8E2
330
19
100
AcDbEntity
  8
TitleBlock&Notes
  6
Continuous
 62
     3
100
AcDbLine
 10
8.920139494588759
 20
-9.265968163631484
 30
0.0
 11
21.28816807311534
 21
-9.050083420022836
 31
0.0
  0
LINE
  5
8E3
330
19
100
AcDbEntity
  8
TitleBlock&Notes
  6
Continuous
 62
     3
100
AcDbLine
 10
8.920139494588759
 20
-9.283922166390894
 30
0.0
 11
21.28816807311534
 21
-9.068037422782261
 31
0.0
  0
LINE
  5
8E4
330
19
100
AcDbEntity
  8
TitleBlock&Notes
  6
Continuous
 62
     3
100
AcDbLine
 10
9.193393349044391
 20
-9.297106550944882
 30
0.0
 11
21.28816807311534
 21
-9.085991470419958
 31
0.0
  0
LINE
  5
8E5
330
19
100
AcDbEntity
  8
TitleBlock&Notes
  6
Continuous
 62
     3
100
AcDbLine
 10
10.22197989943318
 20
-9.297106550944882
 30
0.0
 11
21.28816807311534
 21
-9.10394551805766
 31
0.0
  0
LINE
  5
8E6
330
19
100
AcDbEntity
  8
TitleBlock&Notes
  6
Continuous
 62
     3
100
AcDbLine
 10
11.25056640494378
 20
-9.297106550944882
 30
0.0
 11
21.28816807311534
 21
-9.121899565695358
 31
0.0
  0
LINE
  5
8E7
330
19
100
AcDbEntity
  8
TitleBlock&Notes
  6
Continuous
 62
     3
100
AcDbLine
 10
12.2791529104544
 20
-9.297106550944882
 30
0.0
 11
21.28816807311534
 21
-9.139853613333048
 31
0.0
  0
LINE
  5
8E8
330
19
100
AcDbEntity
  8
TitleBlock&Notes
  6
Continuous
 62
     3
100
AcDbLine
 10
13.30773946084326
 20
-9.297106550944882
 30
0.0
 11
21.28816807311534
 21
-9.157807660970753
 31
0.0
  0
LINE
  5
8E9
330
19
100
AcDbEntity
  8
TitleBlock&Notes
  6
Continuous
 62
     3
100
AcDbLine
 10
14.33632596635379
 20
-9.297106550944882
 30
0.0
 11
21.28816807311534
 21
-9.175761708608447
 31
0.0
  0
LINE
  5
8EA
330
19
100
AcDbEntity
  8
TitleBlock&Notes
  6
Continuous
 62
     3
100
AcDbLine
 10
8.920139494588759
 20
-5.586697990850382
 30
0.0
 11
30.23732019430058
 21
-5.586697990850382
 31
0.0
  0
LINE
  5
8EB
330
19
100
AcDbEntity
  8
TitleBlock&Notes
 62
     3
100
AcDbLine
 10
8.920139494588759
 20
-10.63550394604529
 30
0.0
 11
30.23732019430058
 21
-10.63550394604528
 31
0.0
  0
LINE
  5
8EC
330
19
100
AcDbEntity
  8
TitleBlock&Notes
  6
Continuous
 62
     3
100
AcDbLine
 10
16.39349902225327
 20
-9.297106550944882
 30
0.0
 11
21.28816807311534
 21
-9.21166980388385
 31
0.0
  0
LINE
  5
8ED
330
19
100
AcDbEntity
  8
TitleBlock&Notes
  6
Continuous
 62
     3
100
AcDbLine
 10
9.842176044099119
 20
-8.836930910684039
 30
0.0
 11
10.04202515169827
 21
-8.833442522356044
 31
0.0
  0
LINE
  5
8EE
330
19
100
AcDbEntity
  8
TitleBlock&Notes
  6
Continuous
 62
     3
100
AcDbLine
 10
9.842176044099119
 20
-8.854884958321729
 30
0.0
 11
10.04825030700185
 21
-8.8512879196896
 31
0.0
  0
LINE
  5
8EF
330
19
100
AcDbEntity
  8
TitleBlock&Notes
  6
Continuous
 62
     3
100
AcDbLine
 10
9.842176044099119
 20
-8.872839005959441
 30
0.0
 11
10.05447541742724
 21
-8.869133317023138
 31
0.0
  0
LINE
  5
8F0
330
19
100
AcDbEntity
  8
TitleBlock&Notes
  6
Continuous
 62
     3
100
AcDbLine
 10
9.842176044099119
 20
-8.890793053597132
 30
0.0
 11
10.06070057273083
 21
-8.886978669478416
 31
0.0
  0
LINE
  5
8F1
330
19
100
AcDbEntity
  8
TitleBlock&Notes
  6
Continuous
 62
     3
100
AcDbLine
 10
9.842176044099119
 20
-8.908747101234837
 30
0.0
 11
10.06692572803445
 21
-8.904824066811961
 31
0.0
  0
LINE
  5
8F2
330
19
100
AcDbEntity
  8
TitleBlock&Notes
  6
Continuous
 62
     3
100
AcDbLine
 10
9.842176044099119
 20
-8.926701148872531
 30
0.0
 11
10.07315083845978
 21
-8.922669464145499
 31
0.0
  0
LINE
  5
8F3
330
19
100
AcDbEntity
  8
TitleBlock&Notes
  6
Continuous
 62
     3
100
AcDbLine
 10
9.842176044099119
 20
-8.944655196510222
 30
0.0
 11
10.0793759937634
 21
-8.940514816600767
 31
0.0
  0
LINE
  5
8F4
330
19
100
AcDbEntity
  8
TitleBlock&Notes
  6
Continuous
 62
     3
100
AcDbLine
 10
9.842176044099119
 20
-8.962609199269653
 30
0.0
 11
10.08560110418873
 21
-8.958360213934309
 31
0.0
  0
LINE
  5
8F5
330
19
100
AcDbEntity
  8
TitleBlock&Notes
  6
Continuous
 62
     3
100
AcDbLine
 10
9.842176044099119
 20
-8.980563246907372
 30
0.0
 11
10.09182625949238
 21
-8.976205611267857
 31
0.0
  0
LINE
  5
8F6
330
19
100
AcDbEntity
  8
TitleBlock&Notes
  6
Continuous
 62
     3
100
AcDbLine
 10
9.842176044099119
 20
-8.998517294545063
 30
0.0
 11
10.0980513699177
 21
-8.994051008601402
 31
0.0
  0
LINE
  5
8F7
330
19
100
AcDbEntity
  8
TitleBlock&Notes
  6
Continuous
 62
     3
100
AcDbLine
 10
9.842176044099119
 20
-8.765114720133226
 30
0.0
 11
10.01712462024037
 21
-8.762060977900159
 31
0.0
  0
LINE
  5
8F8
330
19
100
AcDbEntity
  8
TitleBlock&Notes
  6
Continuous
 62
     3
100
AcDbLine
 10
9.842176044099119
 20
-8.78306876777092
 30
0.0
 11
10.02334977554392
 21
-8.779906375233704
 31
0.0
  0
LINE
  5
8F9
330
19
100
AcDbEntity
  8
TitleBlock&Notes
  6
Continuous
 62
     3
100
AcDbLine
 10
9.842176044099119
 20
-8.801022815408625
 30
0.0
 11
10.02957488596932
 21
-8.797751772567238
 31
0.0
  0
LINE
  5
8FA
330
19
100
AcDbEntity
  8
TitleBlock&Notes
  6
Continuous
 62
     3
100
AcDbLine
 10
9.842176044099119
 20
-8.818976863046344
 30
0.0
 11
10.0358000412729
 21
-8.815597125022506
 31
0.0
  0
LINE
  5
8FB
330
19
100
AcDbEntity
  8
TitleBlock&Notes
  6
Continuous
 62
     3
100
AcDbLine
 10
9.797297768941866
 20
-7.995636571383528
 30
0.0
 11
10.13388483262154
 21
-8.960519487265244
 31
0.0
  0
LINE
  5
8FC
330
19
100
AcDbEntity
  8
TitleBlock&Notes
  6
Continuous
 62
     3
100
AcDbLine
 10
10.10200954403002
 20
-9.005397762422525
 30
0.0
 11
9.842176044099119
 21
-8.260541630555124
 31
0.0
  0
LINE
  5
8FD
330
19
100
AcDbEntity
  8
TitleBlock&Notes
  6
Continuous
 62
     3
100
AcDbLine
 10
9.819736906520482
 20
-8.128089100969333
 30
0.0
 11
10.11794716588663
 21
-8.982958624843881
 31
0.0
  0
LINE
  5
8FE
330
19
100
AcDbEntity
  8
TitleBlock&Notes
  6
Continuous
 62
     3
100
AcDbLine
 10
10.30217836446134
 20
-8.218076594887865
 30
0.0
 11
10.0126537118343
 21
-6.940997105187264
 31
0.0
  0
LINE
  5
8FF
330
19
100
AcDbEntity
  8
TitleBlock&Notes
  6
Continuous
 62
     3
100
AcDbLine
 10
10.30217836446134
 20
-8.319566256094379
 30
0.0
 11
9.994732290702678
 21
-6.963436242765919
 31
0.0
  0
LINE
  5
900
330
19
100
AcDbEntity
  8
TitleBlock&Notes
  6
Continuous
 62
     3
100
AcDbLine
 10
10.30217836446134
 20
-8.421055917300908
 30
0.0
 11
9.976810869570989
 21
-6.985875380344555
 31
0.0
  0
LINE
  5
901
330
19
100
AcDbEntity
  8
TitleBlock&Notes
  6
Continuous
 62
     3
100
AcDbLine
 10
8.920139494588759
 20
-9.03256554434138
 30
0.0
 11
10.47658081687215
 21
-9.005397762422525
 31
0.0
  0
LINE
  5
902
330
19
100
AcDbEntity
  8
TitleBlock&Notes
 62
     3
100
AcDbLine
 10
14.73391604905561
 20
-10.63550394604529
 30
0.0
 11
3.237856233613914
 21
-10.63953974933941
 31
0.0
  0
LINE
  5
903
330
19
100
AcDbEntity
  8
TitleBlock&Notes
  6
Continuous
 62
     3
100
AcDbLine
 10
8.920139494588759
 20
-9.068473639616783
 30
0.0
 11
13.05097271784522
 21
-8.996369689565682
 31
0.0
  0
LINE
  5
904
330
19
100
AcDbEntity
  8
TitleBlock&Notes
  6
Continuous
 62
     3
100
AcDbLine
 10
8.920139494588759
 20
-9.086427687254495
 30
0.0
 11
13.5623403782822
 21
-9.005397762422525
 31
0.0
  0
LINE
  5
905
330
19
100
AcDbEntity
  8
TitleBlock&Notes
  6
Continuous
 62
     3
100
AcDbLine
 10
8.920139494588759
 20
-9.104381734892193
 30
0.0
 11
14.59092688379274
 21
-9.005397762422525
 31
0.0
  0
LINE
  5
906
330
19
100
AcDbEntity
  8
TitleBlock&Notes
  6
Continuous
 62
     3
100
AcDbLine
 10
8.920139494588759
 20
-9.050519591979085
 30
0.0
 11
11.94412738635885
 21
-8.99773569450491
 31
0.0
  0
LINE
  5
907
330
19
100
AcDbEntity
  8
TitleBlock&Notes
  6
Continuous
 62
     3
100
AcDbLine
 10
8.920139494588759
 20
-9.122335782529887
 30
0.0
 11
15.6195134341816
 21
-9.005397762422525
 31
0.0
  0
LINE
  5
908
330
19
100
AcDbEntity
  8
TitleBlock&Notes
  6
Continuous
 62
     3
100
AcDbLine
 10
9.797297768941866
 20
-8.960519487265244
 30
0.0
 11
9.797297768941866
 21
-7.995636571383528
 31
0.0
  0
LINE
  5
909
330
19
100
AcDbEntity
  8
TitleBlock&Notes
  6
Continuous
 62
     3
100
AcDbLine
 10
9.415832430104892
 20
-9.005397762422525
 30
0.0
 11
9.415832430104892
 21
-6.940997105187264
 31
0.0
  0
LINE
  5
90A
330
19
100
AcDbEntity
  8
TitleBlock&Notes
  6
Continuous
 62
     3
100
AcDbLine
 10
9.460710705262194
 20
-8.960519487265244
 30
0.0
 11
9.460710705262194
 21
-6.985875380344555
 31
0.0
  0
LINE
  5
90B
330
19
100
AcDbEntity
  8
TitleBlock&Notes
  6
Continuous
 62
     3
100
AcDbLine
 10
9.438271567683578
 20
-8.982958624843881
 30
0.0
 11
9.438271567683578
 21
-6.963436242765919
 31
0.0
  0
LINE
  5
90C
330
19
100
AcDbEntity
  8
TitleBlock&Notes
  6
Continuous
 62
     3
100
AcDbLine
 10
8.920139494588759
 20
-10.63550394604529
 30
0.0
 11
8.920139494588759
 21
-5.586697990850382
 31
0.0
  0
TEXT
  5
90D
330
19
100
AcDbEntity
  8
TitleBlock&Notes
  6
Continuous
 62
     3
100
AcDbText
 10
8.968879455566728
 20
-10.05099340348735
 30
0.0
 40
0.3141479261010163
  1
The
 41
0.8
 51
11.0
100
AcDbText
  0
LINE
  5
90E
330
19
100
AcDbEntity
  8
TitleBlock&Notes
  6
Continuous
 62
     3
100
AcDbLine
 10
8.920139494588759
 20
-8.422128059294418
 30
0.0
 11
9.404359658087159
 21
-8.413675954220938
 31
0.0
  0
LINE
  5
90F
330
19
100
AcDbEntity
  8
TitleBlock&Notes
  6
Continuous
 62
     3
100
AcDbLine
 10
8.920139494588759
 20
-9.014611496703686
 30
0.0
 11
9.447994311361547
 21
-9.005397762422525
 31
0.0
  0
LINE
  5
910
330
19
100
AcDbEntity
  8
TitleBlock&Notes
  6
Continuous
 62
     3
100
AcDbLine
 10
8.920139494588759
 20
-8.853025112842662
 30
0.0
 11
9.415832430104892
 21
-8.844372760905446
 31
0.0
  0
LINE
  5
911
330
19
100
AcDbEntity
  8
TitleBlock&Notes
  6
Continuous
 62
     3
100
AcDbLine
 10
8.920139494588759
 20
-8.870979160480356
 30
0.0
 11
9.415832430104892
 21
-8.862326808543127
 31
0.0
  0
LINE
  5
912
330
19
100
AcDbEntity
  8
TitleBlock&Notes
  6
Continuous
 62
     3
100
AcDbLine
 10
8.920139494588759
 20
-8.888933208118064
 30
0.0
 11
9.415832430104892
 21
-8.880280856180846
 31
0.0
  0
LINE
  5
913
330
19
100
AcDbEntity
  8
TitleBlock&Notes
  6
Continuous
 62
     3
100
AcDbLine
 10
8.920139494588759
 20
-8.906887255755755
 30
0.0
 11
9.415832430104892
 21
-8.89823490381854
 31
0.0
  0
LINE
  5
914
330
19
100
AcDbEntity
  8
TitleBlock&Notes
  6
Continuous
 62
     3
100
AcDbLine
 10
8.920139494588759
 20
-8.924841303393474
 30
0.0
 11
9.415832430104892
 21
-8.916188951456234
 31
0.0
  0
LINE
  5
915
330
19
100
AcDbEntity
  8
TitleBlock&Notes
  6
Continuous
 62
     3
100
AcDbLine
 10
8.920139494588759
 20
-8.942795351031168
 30
0.0
 11
9.415832430104892
 21
-8.934142999093943
 31
0.0
  0
LINE
  5
916
330
19
100
AcDbEntity
  8
TitleBlock&Notes
  6
Continuous
 62
     3
100
AcDbLine
 10
8.920139494588759
 20
-8.960749398668859
 30
0.0
 11
9.415832430104892
 21
-8.952097046731633
 31
0.0
  0
LINE
  5
917
330
19
100
AcDbEntity
  8
TitleBlock&Notes
  6
Continuous
 62
     3
100
AcDbLine
 10
8.920139494588759
 20
-8.978703446306564
 30
0.0
 11
9.415832430104892
 21
-8.970051094369338
 31
0.0
  0
LINE
  5
918
330
19
100
AcDbEntity
  8
TitleBlock&Notes
  6
Continuous
 62
     3
100
AcDbLine
 10
8.920139494588759
 20
-8.996657493944262
 30
0.0
 11
9.415832430104892
 21
-8.988005142007033
 31
0.0
  0
LINE
  5
919
330
19
100
AcDbEntity
  8
TitleBlock&Notes
  6
Continuous
 62
     3
100
AcDbLine
 10
8.920139494588759
 20
-8.413675954220938
 30
0.0
 11
9.415832430104892
 21
-8.413675954220938
 31
0.0
  0
LINE
  5
91A
330
19
100
AcDbEntity
  8
TitleBlock&Notes
  6
Continuous
 62
     3
100
AcDbLine
 10
8.920139494588759
 20
-8.440082106932123
 30
0.0
 11
9.415832430104892
 21
-8.431429754994894
 31
0.0
  0
LINE
  5
91B
330
19
100
AcDbEntity
  8
TitleBlock&Notes
  6
Continuous
 62
     3
100
AcDbLine
 10
8.920139494588759
 20
-8.458036154569814
 30
0.0
 11
9.415832430104892
 21
-8.449383802632588
 31
0.0
  0
LINE
  5
91C
330
19
100
AcDbEntity
  8
TitleBlock&Notes
  6
Continuous
 62
     3
100
AcDbLine
 10
8.920139494588759
 20
-8.475990202207508
 30
0.0
 11
9.415832430104892
 21
-8.467337850270297
 31
0.0
  0
LINE
  5
91D
330
19
100
AcDbEntity
  8
TitleBlock&Notes
  6
Continuous
 62
     3
100
AcDbLine
 10
8.920139494588759
 20
-8.493944204966936
 30
0.0
 11
9.415832430104892
 21
-8.485291853029711
 31
0.0
  0
LINE
  5
91E
330
19
100
AcDbEntity
  8
TitleBlock&Notes
  6
Continuous
 62
     3
100
AcDbLine
 10
8.920139494588759
 20
-8.511898252604645
 30
0.0
 11
9.415832430104892
 21
-8.503245900667405
 31
0.0
  0
LINE
  5
91F
330
19
100
AcDbEntity
  8
TitleBlock&Notes
  6
Continuous
 62
     3
100
AcDbLine
 10
8.920139494588759
 20
-8.529852300242335
 30
0.0
 11
9.415832430104892
 21
-8.52119994830512
 31
0.0
  0
LINE
  5
920
330
19
100
AcDbEntity
  8
TitleBlock&Notes
  6
Continuous
 62
     3
100
AcDbLine
 10
8.920139494588759
 20
-8.54780634788003
 30
0.0
 11
9.415832430104892
 21
-8.539153995942825
 31
0.0
  0
LINE
  5
921
330
19
100
AcDbEntity
  8
TitleBlock&Notes
  6
Continuous
 62
     3
100
AcDbLine
 10
8.920139494588759
 20
-8.565760395517745
 30
0.0
 11
9.415832430104892
 21
-8.55710804358052
 31
0.0
  0
LINE
  5
922
330
19
100
AcDbEntity
  8
TitleBlock&Notes
  6
Continuous
 62
     3
100
AcDbLine
 10
8.920139494588759
 20
-8.583714443155439
 30
0.0
 11
9.415832430104892
 21
-8.575062091218214
 31
0.0
  0
LINE
  5
923
330
19
100
AcDbEntity
  8
TitleBlock&Notes
  6
Continuous
 62
     3
100
AcDbLine
 10
8.920139494588759
 20
-8.601668490793144
 30
0.0
 11
9.415832430104892
 21
-8.593016138855919
 31
0.0
  0
LINE
  5
924
330
19
100
AcDbEntity
  8
TitleBlock&Notes
  6
Continuous
 62
     3
100
AcDbLine
 10
8.920139494588759
 20
-8.619622538430839
 30
0.0
 11
9.415832430104892
 21
-8.610970186493613
 31
0.0
  0
LINE
  5
925
330
19
100
AcDbEntity
  8
TitleBlock&Notes
  6
Continuous
 62
     3
100
AcDbLine
 10
8.920139494588759
 20
-8.637576586068533
 30
0.0
 11
9.415832430104892
 21
-8.628924234131318
 31
0.0
  0
LINE
  5
926
330
19
100
AcDbEntity
  8
TitleBlock&Notes
  6
Continuous
 62
     3
100
AcDbLine
 10
8.920139494588759
 20
-8.655530633706241
 30
0.0
 11
9.415832430104892
 21
-8.646878281769012
 31
0.0
  0
LINE
  5
927
330
19
100
AcDbEntity
  8
TitleBlock&Notes
  6
Continuous
 62
     3
100
AcDbLine
 10
8.920139494588759
 20
-8.673484681343946
 30
0.0
 11
9.415832430104892
 21
-8.664832329406706
 31
0.0
  0
LINE
  5
928
330
19
100
AcDbEntity
  8
TitleBlock&Notes
  6
Continuous
 62
     3
100
AcDbLine
 10
8.920139494588759
 20
-8.691438728981637
 30
0.0
 11
9.415832430104892
 21
-8.682786377044422
 31
0.0
  0
LINE
  5
929
330
19
100
AcDbEntity
  8
TitleBlock&Notes
  6
Continuous
 62
     3
100
AcDbLine
 10
8.920139494588759
 20
-8.709392776619331
 30
0.0
 11
9.415832430104892
 21
-8.70074042468212
 31
0.0
  0
LINE
  5
92A
330
19
100
AcDbEntity
  8
TitleBlock&Notes
  6
Continuous
 62
     3
100
AcDbLine
 10
8.920139494588759
 20
-8.72734682425705
 30
0.0
 11
9.415832430104892
 21
-8.718694472319825
 31
0.0
  0
LINE
  5
92B
330
19
100
AcDbEntity
  8
TitleBlock&Notes
  6
Continuous
 62
     3
100
AcDbLine
 10
8.920139494588759
 20
-8.74530087189473
 30
0.0
 11
9.415832430104892
 21
-8.736648519957515
 31
0.0
  0
LINE
  5
92C
330
19
100
AcDbEntity
  8
TitleBlock&Notes
  6
Continuous
 62
     3
100
AcDbLine
 10
8.920139494588759
 20
-8.763254874654172
 30
0.0
 11
9.415832430104892
 21
-8.754602522716947
 31
0.0
  0
LINE
  5
92D
330
19
100
AcDbEntity
  8
TitleBlock&Notes
  6
Continuous
 62
     3
100
AcDbLine
 10
8.920139494588759
 20
-8.781208922291863
 30
0.0
 11
9.415832430104892
 21
-8.772556570354637
 31
0.0
  0
LINE
  5
92E
330
19
100
AcDbEntity
  8
TitleBlock&Notes
  6
Continuous
 62
     3
100
AcDbLine
 10
8.920139494588759
 20
-8.799162969929557
 30
0.0
 11
9.415832430104892
 21
-8.790510617992342
 31
0.0
  0
LINE
  5
92F
330
19
100
AcDbEntity
  8
TitleBlock&Notes
  6
Continuous
 62
     3
100
AcDbLine
 10
8.920139494588759
 20
-8.817117017567262
 30
0.0
 11
9.415832430104892
 21
-8.808464665630037
 31
0.0
  0
LINE
  5
930
330
19
100
AcDbEntity
  8
TitleBlock&Notes
  6
Continuous
 62
     3
100
AcDbLine
 10
8.920139494588759
 20
-8.835071065204967
 30
0.0
 11
9.415832430104892
 21
-8.826418713267727
 31
0.0
  0
LINE
  5
931
330
19
100
AcDbEntity
  8
TitleBlock&Notes
  6
Continuous
 62
     3
100
AcDbLine
 10
8.920139494588759
 20
-8.097638966883732
 30
0.0
 11
9.415832430104892
 21
-8.088986614946506
 31
0.0
  0
LINE
  5
932
330
19
100
AcDbEntity
  8
TitleBlock&Notes
  6
Continuous
 62
     3
100
AcDbLine
 10
8.920139494588759
 20
-8.115593014521436
 30
0.0
 11
9.415832430104892
 21
-8.106940662584211
 31
0.0
  0
LINE
  5
933
330
19
100
AcDbEntity
  8
TitleBlock&Notes
  6
Continuous
 62
     3
100
AcDbLine
 10
8.920139494588759
 20
-8.133547062159127
 30
0.0
 11
9.415832430104892
 21
-8.124894710221902
 31
0.0
  0
LINE
  5
934
330
19
100
AcDbEntity
  8
TitleBlock&Notes
  6
Continuous
 62
     3
100
AcDbLine
 10
8.920139494588759
 20
-8.151501109796836
 30
0.0
 11
9.415832430104892
 21
-8.142848757859596
 31
0.0
  0
LINE
  5
935
330
19
100
AcDbEntity
  8
TitleBlock&Notes
  6
Continuous
 62
     3
100
AcDbLine
 10
8.920139494588759
 20
-8.16945515743453
 30
0.0
 11
9.415832430104892
 21
-8.160802805497315
 31
0.0
  0
LINE
  5
936
330
19
100
AcDbEntity
  8
TitleBlock&Notes
  6
Continuous
 62
     3
100
AcDbLine
 10
8.920139494588759
 20
-8.187409160193954
 30
0.0
 11
9.415832430104892
 21
-8.178756808256739
 31
0.0
  0
LINE
  5
937
330
19
100
AcDbEntity
  8
TitleBlock&Notes
  6
Continuous
 62
     3
100
AcDbLine
 10
8.920139494588759
 20
-8.205363207831648
 30
0.0
 11
9.415832430104892
 21
-8.196710855894437
 31
0.0
  0
LINE
  5
938
330
19
100
AcDbEntity
  8
TitleBlock&Notes
  6
Continuous
 62
     3
100
AcDbLine
 10
8.920139494588759
 20
-8.223317255469368
 30
0.0
 11
9.415832430104892
 21
-8.214664903532128
 31
0.0
  0
LINE
  5
939
330
19
100
AcDbEntity
  8
TitleBlock&Notes
  6
Continuous
 62
     3
100
AcDbLine
 10
8.920139494588759
 20
-8.241271303107058
 30
0.0
 11
9.415832430104892
 21
-8.232618951169833
 31
0.0
  0
LINE
  5
93A
330
19
100
AcDbEntity
  8
TitleBlock&Notes
  6
Continuous
 62
     3
100
AcDbLine
 10
8.920139494588759
 20
-8.259225350744756
 30
0.0
 11
9.415832430104892
 21
-8.250572998807527
 31
0.0
  0
LINE
  5
93B
330
19
100
AcDbEntity
  8
TitleBlock&Notes
  6
Continuous
 62
     3
100
AcDbLine
 10
8.920139494588759
 20
-8.277179398382461
 30
0.0
 11
9.415832430104892
 21
-8.268527046445232
 31
0.0
  0
LINE
  5
93C
330
19
100
AcDbEntity
  8
TitleBlock&Notes
  6
Continuous
 62
     3
100
AcDbLine
 10
8.920139494588759
 20
-8.295133446020155
 30
0.0
 11
9.415832430104892
 21
-8.286481094082926
 31
0.0
  0
LINE
  5
93D
330
19
100
AcDbEntity
  8
TitleBlock&Notes
  6
Continuous
 62
     3
100
AcDbLine
 10
8.920139494588759
 20
-8.325332890060725
 30
0.0
 11
9.415832430104892
 21
-8.325332890060725
 31
0.0
  0
LINE
  5
93E
330
19
100
AcDbEntity
  8
TitleBlock&Notes
  6
Continuous
 62
     3
100
AcDbLine
 10
8.920139494588759
 20
-8.31308749365786
 30
0.0
 11
9.415832430104892
 21
-8.30443514172062
 31
0.0
  0
LINE
  5
93F
330
19
100
AcDbEntity
  8
TitleBlock&Notes
  6
Continuous
 62
     3
100
AcDbLine
 10
9.842176044099119
 20
-8.747160672495535
 30
0.0
 11
10.01089950981498
 21
-8.744215625444891
 31
0.0
  0
LINE
  5
940
330
19
100
AcDbEntity
  8
TitleBlock&Notes
  6
Continuous
 62
     3
100
AcDbLine
 10
9.842176044099119
 20
-9.005397762422525
 30
0.0
 11
9.842176044099119
 21
-8.260541630555124
 31
0.0
  0
LINE
  5
941
330
19
100
AcDbEntity
  8
TitleBlock&Notes
  6
Continuous
 62
     3
100
AcDbLine
 10
9.819736906520482
 20
-8.128089100969333
 30
0.0
 11
9.819736906520482
 21
-8.982958624843881
 31
0.0
  0
LINE
  5
942
330
19
100
AcDbEntity
  8
TitleBlock&Notes
  6
Continuous
 62
     3
100
AcDbLine
 10
9.415832430104892
 20
-9.005397762422525
 30
0.0
 11
9.842176044099119
 21
-9.005397762422525
 31
0.0
  0
LINE
  5
943
330
19
100
AcDbEntity
  8
TitleBlock&Notes
  6
Continuous
 62
     3
100
AcDbLine
 10
9.460710705262194
 20
-8.960519487265244
 30
0.0
 11
9.797297768941866
 21
-8.960519487265244
 31
0.0
  0
LINE
  5
944
330
19
100
AcDbEntity
  8
TitleBlock&Notes
  6
Continuous
 62
     3
100
AcDbLine
 10
9.438271567683578
 20
-8.982958624843881
 30
0.0
 11
9.819736906520482
 21
-8.982958624843881
 31
0.0
  0
LINE
  5
945
330
19
100
AcDbEntity
  8
TitleBlock&Notes
  6
Continuous
 62
     3
100
AcDbLine
 10
9.247187591127165
 20
-8.325332890060725
 30
0.0
 11
9.415832430104892
 21
-8.322389189358329
 31
0.0
  0
LINE
  5
946
330
19
100
AcDbEntity
  8
TitleBlock&Notes
  6
Continuous
 62
     3
100
AcDbLine
 10
9.842176044099119
 20
-8.406033857135781
 30
0.0
 11
9.892621962950777
 21
-8.40515330049892
 31
0.0
  0
LINE
  5
947
330
19
100
AcDbEntity
  8
TitleBlock&Notes
  6
Continuous
 62
     3
100
AcDbLine
 10
9.842176044099119
 20
-8.423987904773486
 30
0.0
 11
9.898847073376096
 21
-8.422998697832468
 31
0.0
  0
LINE
  5
948
330
19
100
AcDbEntity
  8
TitleBlock&Notes
  6
Continuous
 62
     3
100
AcDbLine
 10
9.842176044099119
 20
-8.4419419075329
 30
0.0
 11
9.905072228679721
 21
-8.440844050287747
 31
0.0
  0
LINE
  5
949
330
19
100
AcDbEntity
  8
TitleBlock&Notes
  6
Continuous
 62
     3
100
AcDbLine
 10
9.842176044099119
 20
-8.459895955170615
 30
0.0
 11
9.91129733910504
 21
-8.458689447621281
 31
0.0
  0
LINE
  5
94A
330
19
100
AcDbEntity
  8
TitleBlock&Notes
  6
Continuous
 62
     3
100
AcDbLine
 10
9.842176044099119
 20
-8.477850002808313
 30
0.0
 11
9.917522494408672
 21
-8.47653484495483
 31
0.0
  0
LINE
  5
94B
330
19
100
AcDbEntity
  8
TitleBlock&Notes
  6
Continuous
 62
     3
100
AcDbLine
 10
9.842176044099119
 20
-8.495804050446018
 30
0.0
 11
9.923747604834019
 21
-8.494380242288364
 31
0.0
  0
LINE
  5
94C
330
19
100
AcDbEntity
  8
TitleBlock&Notes
  6
Continuous
 62
     3
100
AcDbLine
 10
9.842176044099119
 20
-8.262401476034185
 30
0.0
 11
9.842820900034922
 21
-8.262390211587117
 31
0.0
  0
LINE
  5
94D
330
19
100
AcDbEntity
  8
TitleBlock&Notes
  6
Continuous
 62
     3
100
AcDbLine
 10
9.842176044099119
 20
-8.280355523671875
 30
0.0
 11
9.849046010460241
 21
-8.280235608920673
 31
0.0
  0
LINE
  5
94E
330
19
100
AcDbEntity
  8
TitleBlock&Notes
  6
Continuous
 62
     3
100
AcDbLine
 10
9.842176044099119
 20
-8.298309571309594
 30
0.0
 11
9.855271165763873
 21
-8.298081006254211
 31
0.0
  0
LINE
  5
94F
330
19
100
AcDbEntity
  8
TitleBlock&Notes
  6
Continuous
 62
     3
100
AcDbLine
 10
9.842176044099119
 20
-8.316263618947289
 30
0.0
 11
9.861496276189221
 21
-8.315926403587756
 31
0.0
  0
LINE
  5
950
330
19
100
AcDbEntity
  8
TitleBlock&Notes
  6
Continuous
 62
     3
100
AcDbLine
 10
9.842176044099119
 20
-8.334217666584994
 30
0.0
 11
9.867721431492846
 21
-8.333771756043024
 31
0.0
  0
LINE
  5
951
330
19
100
AcDbEntity
  8
TitleBlock&Notes
  6
Continuous
 62
     3
100
AcDbLine
 10
9.842176044099119
 20
-8.352171714222684
 30
0.0
 11
9.873946541918172
 21
-8.351617153376572
 31
0.0
  0
LINE
  5
952
330
19
100
AcDbEntity
  8
TitleBlock&Notes
  6
Continuous
 62
     3
100
AcDbLine
 10
9.842176044099119
 20
-8.370125761860382
 30
0.0
 11
9.880171697221797
 21
-8.369462550710107
 31
0.0
  0
LINE
  5
953
330
19
100
AcDbEntity
  8
TitleBlock&Notes
  6
Continuous
 62
     3
100
AcDbLine
 10
9.842176044099119
 20
-8.388079809498087
 30
0.0
 11
9.886396807647123
 21
-8.387307903165385
 31
0.0
  0
LINE
  5
954
330
19
100
AcDbEntity
  8
TitleBlock&Notes
  6
Continuous
 62
     3
100
AcDbLine
 10
9.842176044099119
 20
-8.513758098083712
 30
0.0
 11
9.929972760137651
 21
-8.512225594743643
 31
0.0
  0
LINE
  5
955
330
19
100
AcDbEntity
  8
TitleBlock&Notes
  6
Continuous
 62
     3
100
AcDbLine
 10
9.842176044099119
 20
-8.531712145721403
 30
0.0
 11
9.93619787056297
 21
-8.530070992077178
 31
0.0
  0
LINE
  5
956
330
19
100
AcDbEntity
  8
TitleBlock&Notes
  6
Continuous
 62
     3
100
AcDbLine
 10
9.842176044099119
 20
-8.549666193359112
 30
0.0
 11
9.942423025866595
 21
-8.547916389410737
 31
0.0
  0
LINE
  5
957
330
19
100
AcDbEntity
  8
TitleBlock&Notes
  6
Continuous
 62
     3
100
AcDbLine
 10
9.842176044099119
 20
-8.567620240996802
 30
0.0
 11
9.948648181170177
 21
-8.565761741865991
 31
0.0
  0
LINE
  5
958
330
19
100
AcDbEntity
  8
TitleBlock&Notes
  6
Continuous
 62
     3
100
AcDbLine
 10
9.842176044099119
 20
-8.585574288634507
 30
0.0
 11
9.954873291595575
 21
-8.583607139199539
 31
0.0
  0
LINE
  5
959
330
19
100
AcDbEntity
  8
TitleBlock&Notes
  6
Continuous
 62
     3
100
AcDbLine
 10
9.842176044099119
 20
-8.603528336272205
 30
0.0
 11
9.961098446899129
 21
-8.601452536533074
 31
0.0
  0
LINE
  5
95A
330
19
100
AcDbEntity
  8
TitleBlock&Notes
  6
Continuous
 62
     3
100
AcDbLine
 10
9.842176044099119
 20
-8.621482383909899
 30
0.0
 11
9.967323557324526
 21
-8.619297933866633
 31
0.0
  0
LINE
  5
95B
330
19
100
AcDbEntity
  8
TitleBlock&Notes
  6
Continuous
 62
     3
100
AcDbLine
 10
9.842176044099119
 20
-8.639436431547604
 30
0.0
 11
9.973548712628108
 21
-8.637143286321887
 31
0.0
  0
LINE
  5
95C
330
19
100
AcDbEntity
  8
TitleBlock&Notes
  6
Continuous
 62
     3
100
AcDbLine
 10
9.842176044099119
 20
-8.65739047918532
 30
0.0
 11
9.97977382305347
 21
-8.654988683655446
 31
0.0
  0
LINE
  5
95D
330
19
100
AcDbEntity
  8
TitleBlock&Notes
  6
Continuous
 62
     3
100
AcDbLine
 10
9.842176044099119
 20
-8.675344526823014
 30
0.0
 11
9.985998978357052
 21
-8.672834080988994
 31
0.0
  0
LINE
  5
95E
330
19
100
AcDbEntity
  8
TitleBlock&Notes
  6
Continuous
 62
     3
100
AcDbLine
 10
9.842176044099119
 20
-8.693298574460708
 30
0.0
 11
9.99222408878245
 21
-8.690679433444248
 31
0.0
  0
LINE
  5
95F
330
19
100
AcDbEntity
  8
TitleBlock&Notes
  6
Continuous
 62
     3
100
AcDbLine
 10
9.842176044099119
 20
-8.711252577220136
 30
0.0
 11
9.998449244086025
 21
-8.708524830777797
 31
0.0
  0
LINE
  5
960
330
19
100
AcDbEntity
  8
TitleBlock&Notes
  6
Continuous
 62
     3
100
AcDbLine
 10
9.842176044099119
 20
-8.72920662485783
 30
0.0
 11
10.0046743545114
 21
-8.726370228111342
 31
0.0
  0
LINE
  5
961
330
19
100
AcDbEntity
  8
TitleBlock&Notes
  6
Continuous
 62
     3
100
AcDbLine
 10
8.920139494588759
 20
-7.97196063341984
 30
0.0
 11
9.415832430104892
 21
-7.97196063341984
 31
0.0
  0
LINE
  5
962
330
19
100
AcDbEntity
  8
TitleBlock&Notes
  6
Continuous
 62
     3
100
AcDbLine
 10
8.920139494588759
 20
-7.883617569259612
 30
0.0
 11
9.415832430104892
 21
-7.883617569259612
 31
0.0
  0
LINE
  5
963
330
19
100
AcDbEntity
  8
TitleBlock&Notes
  6
Continuous
 62
     3
100
AcDbLine
 10
8.920139494588759
 20
-7.98991468105753
 30
0.0
 11
9.415832430104892
 21
-7.981262329120319
 31
0.0
  0
LINE
  5
964
330
19
100
AcDbEntity
  8
TitleBlock&Notes
  6
Continuous
 62
     3
100
AcDbLine
 10
8.920139494588759
 20
-8.007868728695225
 30
0.0
 11
9.415832430104892
 21
-7.99921637675801
 31
0.0
  0
LINE
  5
965
330
19
100
AcDbEntity
  8
TitleBlock&Notes
  6
Continuous
 62
     3
100
AcDbLine
 10
8.920139494588759
 20
-8.025822776332944
 30
0.0
 11
9.415832430104892
 21
-8.017170424395718
 31
0.0
  0
LINE
  5
966
330
19
100
AcDbEntity
  8
TitleBlock&Notes
  6
Continuous
 62
     3
100
AcDbLine
 10
8.920139494588759
 20
-8.043776823970638
 30
0.0
 11
9.415832430104892
 21
-8.035124472033409
 31
0.0
  0
LINE
  5
967
330
19
100
AcDbEntity
  8
TitleBlock&Notes
  6
Continuous
 62
     3
100
AcDbLine
 10
8.920139494588759
 20
-8.061730871608343
 30
0.0
 11
9.415832430104892
 21
-8.053078519671103
 31
0.0
  0
LINE
  5
968
330
19
100
AcDbEntity
  8
TitleBlock&Notes
  6
Continuous
 62
     3
100
AcDbLine
 10
8.920139494588759
 20
-8.079684919246037
 30
0.0
 11
9.415832430104892
 21
-8.071032567308808
 31
0.0
  0
LINE
  5
969
330
19
100
AcDbEntity
  8
TitleBlock&Notes
  6
Continuous
 62
     3
100
AcDbLine
 10
8.920139494588759
 20
-7.716622051772159
 30
0.0
 11
9.415832430104892
 21
-7.707969699834919
 31
0.0
  0
LINE
  5
96A
330
19
100
AcDbEntity
  8
TitleBlock&Notes
  6
Continuous
 62
     3
100
AcDbLine
 10
8.920139494588759
 20
-7.734576099409853
 30
0.0
 11
9.415832430104892
 21
-7.725923747472638
 31
0.0
  0
LINE
  5
96B
330
19
100
AcDbEntity
  8
TitleBlock&Notes
  6
Continuous
 62
     3
100
AcDbLine
 10
8.920139494588759
 20
-7.752530147047544
 30
0.0
 11
9.415832430104892
 21
-7.743877795110332
 31
0.0
  0
LINE
  5
96C
330
19
100
AcDbEntity
  8
TitleBlock&Notes
  6
Continuous
 62
     3
100
AcDbLine
 10
8.920139494588759
 20
-7.770484194685263
 30
0.0
 11
9.415832430104892
 21
-7.761831842748037
 31
0.0
  0
LINE
  5
96D
330
19
100
AcDbEntity
  8
TitleBlock&Notes
  6
Continuous
 62
     3
100
AcDbLine
 10
8.920139494588759
 20
-7.788438242322957
 30
0.0
 11
9.415832430104892
 21
-7.779785890385728
 31
0.0
  0
LINE
  5
96E
330
19
100
AcDbEntity
  8
TitleBlock&Notes
  6
Continuous
 62
     3
100
AcDbLine
 10
8.920139494588759
 20
-7.806392289960662
 30
0.0
 11
9.415832430104892
 21
-7.797739938023422
 31
0.0
  0
LINE
  5
96F
330
19
100
AcDbEntity
  8
TitleBlock&Notes
  6
Continuous
 62
     3
100
AcDbLine
 10
8.920139494588759
 20
-7.824346337598356
 30
0.0
 11
9.415832430104892
 21
-7.815693985661127
 31
0.0
  0
LINE
  5
970
330
19
100
AcDbEntity
  8
TitleBlock&Notes
  6
Continuous
 62
     3
100
AcDbLine
 10
8.920139494588759
 20
-7.84230038523605
 30
0.0
 11
9.415832430104892
 21
-7.833648033298832
 31
0.0
  0
LINE
  5
971
330
19
100
AcDbEntity
  8
TitleBlock&Notes
  6
Continuous
 62
     3
100
AcDbLine
 10
8.920139494588759
 20
-7.860254432873755
 30
0.0
 11
9.415832430104892
 21
-7.85160208093653
 31
0.0
  0
LINE
  5
972
330
19
100
AcDbEntity
  8
TitleBlock&Notes
  6
Continuous
 62
     3
100
AcDbLine
 10
8.920139494588759
 20
-7.87820848051145
 30
0.0
 11
9.415832430104892
 21
-7.869556128574224
 31
0.0
  0
LINE
  5
973
330
19
100
AcDbEntity
  8
TitleBlock&Notes
  6
Continuous
 62
     3
100
AcDbLine
 10
8.920139494588759
 20
-7.662759953737332
 30
0.0
 11
9.415832430104892
 21
-7.662759953737332
 31
0.0
  0
LINE
  5
974
330
19
100
AcDbEntity
  8
TitleBlock&Notes
  6
Continuous
 62
     3
100
AcDbLine
 10
8.920139494588759
 20
-7.680713956496759
 30
0.0
 11
9.415832430104892
 21
-7.672061604559544
 31
0.0
  0
LINE
  5
975
330
19
100
AcDbEntity
  8
TitleBlock&Notes
  6
Continuous
 62
     3
100
AcDbLine
 10
8.920139494588759
 20
-7.698668004134454
 30
0.0
 11
9.415832430104892
 21
-7.690015652197235
 31
0.0
  0
LINE
  5
976
330
19
100
AcDbEntity
  8
TitleBlock&Notes
  6
Continuous
 62
     3
100
AcDbLine
 10
8.920139494588759
 20
-7.486073825416895
 30
0.0
 11
9.415832430104892
 21
-7.486073825416895
 31
0.0
  0
LINE
  5
977
330
19
100
AcDbEntity
  8
TitleBlock&Notes
  6
Continuous
 62
     3
100
AcDbLine
 10
8.920139494588759
 20
-7.221044632936209
 30
0.0
 11
9.415832430104892
 21
-7.221044632936209
 31
0.0
  0
LINE
  5
978
330
19
100
AcDbEntity
  8
TitleBlock&Notes
  6
Continuous
 62
     3
100
AcDbLine
 10
8.920139494588759
 20
-7.153727220200277
 30
0.0
 11
9.415832430104892
 21
-7.153727220200277
 31
0.0
  0
LINE
  5
979
330
19
100
AcDbEntity
  8
TitleBlock&Notes
  6
Continuous
 62
     3
100
AcDbLine
 10
8.920139494588759
 20
-7.176166357778942
 30
0.0
 11
9.415832430104892
 21
-7.176166357778942
 31
0.0
  0
LINE
  5
97A
330
19
100
AcDbEntity
  8
TitleBlock&Notes
  6
Continuous
 62
     3
100
AcDbLine
 10
8.920139494588759
 20
-7.198605495357568
 30
0.0
 11
9.415832430104892
 21
-7.198605495357568
 31
0.0
  0
LINE
  5
97B
330
19
100
AcDbEntity
  8
TitleBlock&Notes
  6
Continuous
 62
     3
100
AcDbLine
 10
8.920139494588759
 20
-7.508512962995524
 30
0.0
 11
9.415832430104892
 21
-7.508512962995524
 31
0.0
  0
LINE
  5
97C
330
19
100
AcDbEntity
  8
TitleBlock&Notes
  6
Continuous
 62
     3
100
AcDbLine
 10
8.920139494588759
 20
-7.574416889577122
 30
0.0
 11
9.415832430104892
 21
-7.574416889577122
 31
0.0
  0
LINE
  5
97D
330
19
100
AcDbEntity
  8
TitleBlock&Notes
  6
Continuous
 62
     3
100
AcDbLine
 10
8.920139494588759
 20
-7.551977751998457
 30
0.0
 11
9.415832430104892
 21
-7.551977751998457
 31
0.0
  0
LINE
  5
97E
330
19
100
AcDbEntity
  8
TitleBlock&Notes
  6
Continuous
 62
     3
100
AcDbLine
 10
8.920139494588759
 20
-7.530952100574175
 30
0.0
 11
9.415832430104892
 21
-7.530952100574175
 31
0.0
  0
LINE
  5
97F
330
19
100
AcDbEntity
  8
TitleBlock&Notes
  6
Continuous
 62
     3
100
AcDbLine
 10
9.415832430104892
 20
-6.940997105187264
 30
0.0
 11
10.0126537118343
 21
-6.940997105187264
 31
0.0
  0
LINE
  5
980
330
19
100
AcDbEntity
  8
TitleBlock&Notes
  6
Continuous
 62
     3
100
AcDbLine
 10
9.460710705262194
 20
-6.985875380344555
 30
0.0
 11
9.976810869570989
 21
-6.985875380344555
 31
0.0
  0
LINE
  5
981
330
19
100
AcDbEntity
  8
TitleBlock&Notes
  6
Continuous
 62
     3
100
AcDbLine
 10
9.994732290702678
 20
-6.963436242765919
 30
0.0
 11
9.438271567683578
 21
-6.963436242765919
 31
0.0
  0
LINE
  5
982
330
19
100
AcDbEntity
  8
TitleBlock&Notes
  6
Continuous
 62
     3
100
AcDbLine
 10
13.05097271784522
 20
-6.940997105187264
 30
0.0
 11
13.47731633183946
 21
-6.940997105187264
 31
0.0
  0
LINE
  5
983
330
19
100
AcDbEntity
  8
TitleBlock&Notes
  6
Continuous
 62
     3
100
AcDbLine
 10
13.07341185542384
 20
-6.963436242765919
 30
0.0
 11
13.45487719426084
 21
-6.963436242765919
 31
0.0
  0
LINE
  5
984
330
19
100
AcDbEntity
  8
TitleBlock&Notes
  6
Continuous
 62
     3
100
AcDbLine
 10
13.09585099300253
 20
-8.960519487265244
 30
0.0
 11
14.28512528467066
 21
-8.960519487265244
 31
0.0
  0
LINE
  5
985
330
19
100
AcDbEntity
  8
TitleBlock&Notes
  6
Continuous
 62
     3
100
AcDbLine
 10
14.3075644222493
 20
-8.982958624843881
 30
0.0
 11
13.07341185542384
 21
-8.982958624843881
 31
0.0
  0
LINE
  5
986
330
19
100
AcDbEntity
  8
TitleBlock&Notes
  6
Continuous
 62
     3
100
AcDbLine
 10
13.05097271784522
 20
-9.005397762422525
 30
0.0
 11
14.33000355982793
 21
-9.005397762422525
 31
0.0
  0
LINE
  5
987
330
19
100
AcDbEntity
  8
TitleBlock&Notes
  6
Continuous
 62
     3
100
AcDbLine
 10
13.4324380566822
 20
-8.623932423585571
 30
0.0
 11
14.28512528467066
 21
-8.623932423585571
 31
0.0
  0
TEXT
  5
988
330
19
100
AcDbEntity
  8
TitleBlock&Notes
  6
Continuous
 62
     3
100
AcDbText
 10
13.15944615671868
 20
-10.05099340348735
 30
0.0
 40
0.3141479261010163
  1
 with the
 41
0.8
 51
11.0
100
AcDbText
  0
LINE
  5
989
330
19
100
AcDbEntity
  8
TitleBlock&Notes
  6
Continuous
 62
     3
100
AcDbLine
 10
12.87145961721611
 20
-8.082530560917195
 30
0.0
 11
13.05097271784522
 21
-8.079397114867457
 31
0.0
  0
LINE
  5
98A
330
19
100
AcDbEntity
  8
TitleBlock&Notes
  6
Continuous
 62
     3
100
AcDbLine
 10
11.86169842617709
 20
-8.082201962186505
 30
0.0
 11
12.44511600322187
 21
-8.072018363500912
 31
0.0
  0
LINE
  5
98B
330
19
100
AcDbEntity
  8
TitleBlock&Notes
  6
Continuous
 62
     3
100
AcDbLine
 10
13.09585099300253
 20
-8.960519487265244
 30
0.0
 11
13.09585099300253
 21
-6.985875380344555
 31
0.0
  0
LINE
  5
98C
330
19
100
AcDbEntity
  8
TitleBlock&Notes
  6
Continuous
 62
     3
100
AcDbLine
 10
13.05097271784522
 20
-6.940997105187264
 30
0.0
 11
13.05097271784522
 21
-9.005397762422525
 31
0.0
  0
LINE
  5
98D
330
19
100
AcDbEntity
  8
TitleBlock&Notes
  6
Continuous
 62
     3
100
AcDbLine
 10
13.07341185542384
 20
-8.982958624843881
 30
0.0
 11
13.07341185542384
 21
-6.963436242765919
 31
0.0
  0
LINE
  5
98E
330
19
100
AcDbEntity
  8
TitleBlock&Notes
  6
Continuous
 62
     3
100
AcDbLine
 10
11.81682015101985
 20
-6.985875380344555
 30
0.0
 11
11.81682015101985
 21
-8.399541092677399
 31
0.0
  0
LINE
  5
98F
330
19
100
AcDbEntity
  8
TitleBlock&Notes
  6
Continuous
 62
     3
100
AcDbLine
 10
12.48999427837913
 20
-6.985875380344555
 30
0.0
 11
12.48999427837913
 21
-8.399541092677399
 31
0.0
  0
LINE
  5
990
330
19
100
AcDbEntity
  8
TitleBlock&Notes
  6
Continuous
 62
     3
100
AcDbLine
 10
12.44511600322187
 20
-6.940997105187264
 30
0.0
 11
12.44511600322187
 21
-8.399541047799132
 31
0.0
  0
LINE
  5
991
330
19
100
AcDbEntity
  8
TitleBlock&Notes
  6
Continuous
 62
     3
100
AcDbLine
 10
12.46755514080052
 20
-8.399541092677399
 30
0.0
 11
12.46755514080052
 21
-6.963436242765919
 31
0.0
  0
LINE
  5
992
330
19
100
AcDbEntity
  8
TitleBlock&Notes
  6
Continuous
 62
     3
100
AcDbLine
 10
12.8265813420588
 20
-6.985875380344555
 30
0.0
 11
12.8265813420588
 21
-8.399541047799132
 31
0.0
  0
LINE
  5
993
330
19
100
AcDbEntity
  8
TitleBlock&Notes
  6
Continuous
 62
     3
100
AcDbLine
 10
12.87145961721611
 20
-8.399541047799132
 30
0.0
 11
12.87145961721611
 21
-6.940997105187264
 31
0.0
  0
LINE
  5
994
330
19
100
AcDbEntity
  8
TitleBlock&Notes
  6
Continuous
 62
     3
100
AcDbLine
 10
12.84902047963749
 20
-8.399541047799132
 30
0.0
 11
12.84902047963749
 21
-6.963436242765919
 31
0.0
  0
LINE
  5
995
330
19
100
AcDbEntity
  8
TitleBlock&Notes
  6
Continuous
 62
     3
100
AcDbLine
 10
11.86169842617709
 20
-8.399541092677399
 30
0.0
 11
11.86169842617709
 21
-6.940997105187264
 31
0.0
  0
LINE
  5
996
330
19
100
AcDbEntity
  8
TitleBlock&Notes
  6
Continuous
 62
     3
100
AcDbLine
 10
11.83925928859846
 20
-8.399541092677399
 30
0.0
 11
11.83925928859846
 21
-6.963436242765919
 31
0.0
  0
LINE
  5
997
330
19
100
AcDbEntity
  8
TitleBlock&Notes
  6
Continuous
 62
     3
100
AcDbLine
 10
13.4324380566822
 20
-6.985875380344555
 30
0.0
 11
13.4324380566822
 21
-8.623932423585571
 31
0.0
  0
LINE
  5
998
330
19
100
AcDbEntity
  8
TitleBlock&Notes
  6
Continuous
 62
     3
100
AcDbLine
 10
10.80705895998083
 20
-8.960519487265244
 30
0.0
 11
10.80705895998083
 21
-7.995636571383528
 31
0.0
  0
LINE
  5
999
330
19
100
AcDbEntity
  8
TitleBlock&Notes
  6
Continuous
 62
     3
100
AcDbLine
 10
10.47047189630121
 20
-8.960519487265244
 30
0.0
 11
10.80705895998083
 21
-7.995636571383528
 31
0.0
  0
LINE
  5
99A
330
19
100
AcDbEntity
  8
TitleBlock&Notes
  6
Continuous
 62
     3
100
AcDbLine
 10
11.1436460236605
 20
-8.960519487265244
 30
0.0
 11
11.1436460236605
 21
-6.985875380344555
 31
0.0
  0
LINE
  5
99B
330
19
100
AcDbEntity
  8
TitleBlock&Notes
  6
Continuous
 62
     3
100
AcDbLine
 10
11.18852429881781
 20
-9.005397762422525
 30
0.0
 11
11.18852429881781
 21
-6.940997105187264
 31
0.0
  0
LINE
  5
99C
330
19
100
AcDbEntity
  8
TitleBlock&Notes
  6
Continuous
 62
     3
100
AcDbLine
 10
11.16608516123917
 20
-6.963436242765919
 30
0.0
 11
11.16608516123917
 21
-8.982958624843881
 31
0.0
  0
LINE
  5
99D
330
19
100
AcDbEntity
  8
TitleBlock&Notes
  6
Continuous
 62
     3
100
AcDbLine
 10
10.59170301708837
 20
-6.940997105187264
 30
0.0
 11
10.30217836446134
 21
-8.218076594887865
 31
0.0
  0
LINE
  5
99E
330
19
100
AcDbEntity
  8
TitleBlock&Notes
  6
Continuous
 62
     3
100
AcDbLine
 10
10.60962443822001
 20
-6.963436242765919
 30
0.0
 11
10.30217836446134
 21
-8.319566256094379
 31
0.0
  0
LINE
  5
99F
330
19
100
AcDbEntity
  8
TitleBlock&Notes
  6
Continuous
 62
     3
100
AcDbLine
 10
10.30217836446134
 20
-8.421055917300908
 30
0.0
 11
10.62754585935172
 21
-6.985875380344555
 31
0.0
  0
LINE
  5
9A0
330
19
100
AcDbEntity
  8
TitleBlock&Notes
  6
Continuous
 62
     3
100
AcDbLine
 10
11.48023308734018
 20
-6.985875380344555
 30
0.0
 11
11.48023308734018
 21
-8.399541047799132
 31
0.0
  0
LINE
  5
9A1
330
19
100
AcDbEntity
  8
TitleBlock&Notes
  6
Continuous
 62
     3
100
AcDbLine
 10
11.43535481218285
 20
-6.940997105187264
 30
0.0
 11
11.43535481218285
 21
-8.399541047799132
 31
0.0
  0
LINE
  5
9A2
330
19
100
AcDbEntity
  8
TitleBlock&Notes
  6
Continuous
 62
     3
100
AcDbLine
 10
11.45779394976154
 20
-8.399541047799132
 30
0.0
 11
11.45779394976154
 21
-6.963436242765919
 31
0.0
  0
ARC
  5
9A3
330
19
100
AcDbEntity
  8
TitleBlock&Notes
  6
Continuous
 62
     3
100
AcDbCircle
 10
12.04121152680627
 20
-8.399541047799136
 30
0.0
 40
0.5609784394661005
100
AcDbArc
 50
180.0000000000004
 51
269.9999931700005
  0
ARC
  5
9A4
330
19
100
AcDbEntity
  8
TitleBlock&Notes
  6
Continuous
 62
     3
100
AcDbCircle
 10
12.04121152680627
 20
-8.399541047799136
 30
0.0
 40
0.6058567146233887
100
AcDbArc
 50
180.0000000000004
 51
269.9999934300003
  0
ARC
  5
9A5
330
19
100
AcDbEntity
  8
TitleBlock&Notes
  6
Continuous
 62
     3
100
AcDbCircle
 10
12.04121152680627
 20
-8.399541047799136
 30
0.0
 40
0.5834175770447444
100
AcDbArc
 50
180.0000000000004
 51
269.9999934300003
  0
LINE
  5
9A6
330
19
100
AcDbEntity
  8
TitleBlock&Notes
  6
Continuous
 62
     3
100
AcDbLine
 10
11.18852429881781
 20
-8.992970743640082
 30
0.0
 11
11.8706451347211
 21
-8.981064312849479
 31
0.0
  0
TEXT
  5
9A7
330
19
100
AcDbEntity
  8
TitleBlock&Notes
  6
Continuous
 62
     3
100
AcDbText
 10
11.15379555973524
 20
-10.05099340348735
 30
0.0
 40
0.3141479261010163
  1
 of
 41
1.098901099999999
 51
11.0
100
AcDbText
  0
LINE
  5
9A8
330
19
100
AcDbEntity
  8
TitleBlock&Notes
  6
Continuous
 62
     3
100
AcDbLine
 10
11.18852429881781
 20
-8.939108645605269
 30
0.0
 11
11.74701118620368
 21
-8.929360186675598
 31
0.0
  0
LINE
  5
9A9
330
19
100
AcDbEntity
  8
TitleBlock&Notes
  6
Continuous
 62
     3
100
AcDbLine
 10
11.18852429881781
 20
-8.957062648364686
 30
0.0
 11
11.78072899726003
 21
-8.946725700612894
 31
0.0
  0
LINE
  5
9AA
330
19
100
AcDbEntity
  8
TitleBlock&Notes
  6
Continuous
 62
     3
100
AcDbLine
 10
11.18852429881781
 20
-8.975016696002391
 30
0.0
 11
11.82060626182521
 21
-8.963983686202897
 31
0.0
  0
TEXT
  5
9AB
330
19
100
AcDbEntity
  8
TitleBlock&Notes
  6
Continuous
 62
     3
100
AcDbText
 10
9.798026188225911
 20
-10.05099340348736
 30
0.0
 40
0.3141479261010163
  1
 SPEED
 41
0.8
 51
11.0
100
AcDbText
  0
LINE
  5
9AC
330
19
100
AcDbEntity
  8
TitleBlock&Notes
  6
Continuous
 62
     3
100
AcDbLine
 10
11.1436460236605
 20
-8.960519487265244
 30
0.0
 11
10.80705895998083
 21
-8.960519487265244
 31
0.0
  0
LINE
  5
9AD
330
19
100
AcDbEntity
  8
TitleBlock&Notes
  6
Continuous
 62
     3
100
AcDbLine
 10
10.76218068482358
 20
-9.005397762422525
 30
0.0
 11
11.18852429881781
 21
-9.005397762422525
 31
0.0
  0
LINE
  5
9AE
330
19
100
AcDbEntity
  8
TitleBlock&Notes
  6
Continuous
 62
     3
100
AcDbLine
 10
10.78461982240219
 20
-8.982958624843881
 30
0.0
 11
11.16608516123917
 21
-8.982958624843881
 31
0.0
  0
LINE
  5
9AF
330
19
100
AcDbEntity
  8
TitleBlock&Notes
  6
Continuous
 62
     3
100
AcDbLine
 10
10.50234714001442
 20
-9.005397762422525
 30
0.0
 11
10.76218068482358
 21
-8.260541630555124
 31
0.0
  0
LINE
  5
9B0
330
19
100
AcDbEntity
  8
TitleBlock&Notes
  6
Continuous
 62
     3
100
AcDbLine
 10
10.76218068482358
 20
-8.260541630555124
 30
0.0
 11
10.76218068482358
 21
-9.005397762422525
 31
0.0
  0
LINE
  5
9B1
330
19
100
AcDbEntity
  8
TitleBlock&Notes
  6
Continuous
 62
     3
100
AcDbLine
 10
10.78461982240219
 20
-8.128089100969333
 30
0.0
 11
10.48640951815782
 21
-8.982958624843881
 31
0.0
  0
LINE
  5
9B2
330
19
100
AcDbEntity
  8
TitleBlock&Notes
  6
Continuous
 62
     3
100
AcDbLine
 10
10.78461982240219
 20
-8.128089100969333
 30
0.0
 11
10.78461982240219
 21
-8.982958624843881
 31
0.0
  0
LINE
  5
9B3
330
19
100
AcDbEntity
  8
TitleBlock&Notes
  6
Continuous
 62
     3
100
AcDbLine
 10
10.13388483262154
 20
-8.960519487265244
 30
0.0
 11
10.47047189630121
 21
-8.960519487265244
 31
0.0
  0
LINE
  5
9B4
330
19
100
AcDbEntity
  8
TitleBlock&Notes
  6
Continuous
 62
     3
100
AcDbLine
 10
10.10200954403002
 20
-9.005397762422525
 30
0.0
 11
10.50234714001442
 21
-9.005397762422525
 31
0.0
  0
LINE
  5
9B5
330
19
100
AcDbEntity
  8
TitleBlock&Notes
  6
Continuous
 62
     3
100
AcDbLine
 10
10.11794716588663
 20
-8.982958624843881
 30
0.0
 11
10.48640951815782
 21
-8.982958624843881
 31
0.0
  0
LINE
  5
9B6
330
19
100
AcDbEntity
  8
TitleBlock&Notes
  6
Continuous
 62
     3
100
AcDbLine
 10
10.55921765322443
 20
-8.84236894591967
 30
0.0
 11
10.76218068482358
 21
-8.838826210000465
 31
0.0
  0
LINE
  5
9B7
330
19
100
AcDbEntity
  8
TitleBlock&Notes
  6
Continuous
 62
     3
100
AcDbLine
 10
10.55291624973125
 20
-8.860432990209769
 30
0.0
 11
10.76218068482358
 21
-8.856780257638174
 31
0.0
  0
LINE
  5
9B8
330
19
100
AcDbEntity
  8
TitleBlock&Notes
  6
Continuous
 62
     3
100
AcDbLine
 10
10.54661484623818
 20
-8.878497034499879
 30
0.0
 11
10.76218068482358
 21
-8.874734305275868
 31
0.0
  0
LINE
  5
9B9
330
19
100
AcDbEntity
  8
TitleBlock&Notes
  6
Continuous
 62
     3
100
AcDbLine
 10
10.54031344274508
 20
-8.896561033911709
 30
0.0
 11
10.76218068482358
 21
-8.892688352913584
 31
0.0
  0
LINE
  5
9BA
330
19
100
AcDbEntity
  8
TitleBlock&Notes
  6
Continuous
 62
     3
100
AcDbLine
 10
10.53401203925194
 20
-8.914625078201833
 30
0.0
 11
10.76218068482358
 21
-8.910642400551282
 31
0.0
  0
LINE
  5
9BB
330
19
100
AcDbEntity
  8
TitleBlock&Notes
  6
Continuous
 62
     3
100
AcDbLine
 10
10.52771063575884
 20
-8.932689122491943
 30
0.0
 11
10.76218068482358
 21
-8.928596448188972
 31
0.0
  0
LINE
  5
9BC
330
19
100
AcDbEntity
  8
TitleBlock&Notes
  6
Continuous
 62
     3
100
AcDbLine
 10
10.52140918738744
 20
-8.950753166782053
 30
0.0
 11
10.76218068482358
 21
-8.946550495826681
 31
0.0
  0
LINE
  5
9BD
330
19
100
AcDbEntity
  8
TitleBlock&Notes
  6
Continuous
 62
     3
100
AcDbLine
 10
10.51510778389434
 20
-8.968817211072163
 30
0.0
 11
10.76218068482358
 21
-8.964504543464371
 31
0.0
  0
LINE
  5
9BE
330
19
100
AcDbEntity
  8
TitleBlock&Notes
  6
Continuous
 62
     3
100
AcDbLine
 10
10.50880638040123
 20
-8.986881255362259
 30
0.0
 11
10.76218068482358
 21
-8.982458591102076
 31
0.0
  0
LINE
  5
9BF
330
19
100
AcDbEntity
  8
TitleBlock&Notes
  6
Continuous
 62
     3
100
AcDbLine
 10
10.50250497690809
 20
-9.004945254774103
 30
0.0
 11
10.76218068482358
 21
-9.000412593861494
 31
0.0
  0
LINE
  5
9C0
330
19
100
AcDbEntity
  8
TitleBlock&Notes
  6
Continuous
 62
     3
100
AcDbLine
 10
10.57812186370375
 20
-8.788176857927606
 30
0.0
 11
10.76218068482358
 21
-8.784964067087376
 31
0.0
  0
LINE
  5
9C1
330
19
100
AcDbEntity
  8
TitleBlock&Notes
  6
Continuous
 62
     3
100
AcDbLine
 10
10.57182046021059
 20
-8.806240857339439
 30
0.0
 11
10.76218068482358
 21
-8.802918114725081
 31
0.0
  0
LINE
  5
9C2
330
19
100
AcDbEntity
  8
TitleBlock&Notes
  6
Continuous
 62
     3
100
AcDbLine
 10
10.5655190567175
 20
-8.824304901629563
 30
0.0
 11
10.76218068482358
 21
-8.820872162362775
 31
0.0
  0
LINE
  5
9C3
330
19
100
AcDbEntity
  8
TitleBlock&Notes
  6
Continuous
 62
     3
100
AcDbLine
 10
10.59072471556824
 20
-8.752048769347386
 30
0.0
 11
10.76218068482358
 21
-8.749055971811976
 31
0.0
  0
LINE
  5
9C4
330
19
100
AcDbEntity
  8
TitleBlock&Notes
  6
Continuous
 62
     3
100
AcDbLine
 10
10.58442326719684
 20
-8.770112813637496
 30
0.0
 11
10.76218068482358
 21
-8.767010019449671
 31
0.0
  0
LINE
  5
9C5
330
19
100
AcDbEntity
  8
TitleBlock&Notes
  6
Continuous
 62
     3
100
AcDbLine
 10
10.27358856951583
 20
-8.09196846218278
 30
0.0
 11
10.33099528835737
 21
-8.090966420055067
 31
0.0
  0
LINE
  5
9C6
330
19
100
AcDbEntity
  8
TitleBlock&Notes
  6
Continuous
 62
     3
100
AcDbLine
 10
10.27764287289353
 20
-8.109851736780562
 30
0.0
 11
10.32690880725643
 21
-8.108991779271999
 31
0.0
  0
LINE
  5
9C7
330
19
100
AcDbEntity
  8
TitleBlock&Notes
  6
Continuous
 62
     3
100
AcDbLine
 10
10.28169713139299
 20
-8.127735011378323
 30
0.0
 11
10.32282228127718
 21
-8.127017183367204
 31
0.0
  0
LINE
  5
9C8
330
19
100
AcDbEntity
  8
TitleBlock&Notes
  6
Continuous
 62
     3
100
AcDbLine
 10
10.28575143477068
 20
-8.145618285976109
 30
0.0
 11
10.31873580017617
 21
-8.145042542584118
 31
0.0
  0
LINE
  5
9C9
330
19
100
AcDbEntity
  8
TitleBlock&Notes
  6
Continuous
 62
     3
100
AcDbLine
 10
10.28980573814839
 20
-8.163501560573891
 30
0.0
 11
10.31464927419686
 21
-8.163067901801039
 31
0.0
  0
LINE
  5
9CA
330
19
100
AcDbEntity
  8
TitleBlock&Notes
  6
Continuous
 62
     3
100
AcDbLine
 10
10.29385999664786
 20
-8.18138483517168
 30
0.0
 11
10.3105627482176
 21
-8.181093305896233
 31
0.0
  0
LINE
  5
9CB
330
19
100
AcDbEntity
  8
TitleBlock&Notes
  6
Continuous
 62
     3
100
AcDbLine
 10
10.29791430002554
 20
-8.199268109769437
 30
0.0
 11
10.3064762671166
 21
-8.199118665113168
 31
0.0
  0
LINE
  5
9CC
330
19
100
AcDbEntity
  8
TitleBlock&Notes
  6
Continuous
 62
     3
100
AcDbLine
 10
10.30196860340325
 20
-8.217151384367223
 30
0.0
 11
10.30238974113734
 21
-8.217144069208373
 31
0.0
  0
LINE
  5
9CD
330
19
100
AcDbEntity
  8
TitleBlock&Notes
  6
Continuous
 62
     3
100
AcDbLine
 10
10.71045142681559
 20
-8.408832062470111
 30
0.0
 11
10.76218068482358
 21
-8.407929156452233
 31
0.0
  0
LINE
  5
9CE
330
19
100
AcDbEntity
  8
TitleBlock&Notes
  6
Continuous
 62
     3
100
AcDbLine
 10
10.70415002332244
 20
-8.426896106760231
 30
0.0
 11
10.76218068482358
 21
-8.425883204089927
 31
0.0
  0
LINE
  5
9CF
330
19
100
AcDbEntity
  8
TitleBlock&Notes
  6
Continuous
 62
     3
100
AcDbLine
 10
10.69784861982935
 20
-8.444960151050342
 30
0.0
 11
10.76218068482358
 21
-8.443837251727622
 31
0.0
  0
LINE
  5
9D0
330
19
100
AcDbEntity
  8
TitleBlock&Notes
  6
Continuous
 62
     3
100
AcDbLine
 10
10.69154721633627
 20
-8.463024195340452
 30
0.0
 11
10.76218068482358
 21
-8.461791299365327
 31
0.0
  0
LINE
  5
9D1
330
19
100
AcDbEntity
  8
TitleBlock&Notes
  6
Continuous
 62
     3
100
AcDbLine
 10
10.6852458128431
 20
-8.481088239630551
 30
0.0
 11
10.76218068482358
 21
-8.479745302124751
 31
0.0
  0
LINE
  5
9D2
330
19
100
AcDbEntity
  8
TitleBlock&Notes
  6
Continuous
 62
     3
100
AcDbLine
 10
10.67894440935003
 20
-8.499152239042384
 30
0.0
 11
10.76218068482358
 21
-8.497699349762449
 31
0.0
  0
LINE
  5
9D3
330
19
100
AcDbEntity
  8
TitleBlock&Notes
  6
Continuous
 62
     3
100
AcDbLine
 10
10.76086269963875
 20
-8.264319797905788
 30
0.0
 11
10.76218068482358
 21
-8.264296775350626
 31
0.0
  0
LINE
  5
9D4
330
19
100
AcDbEntity
  8
TitleBlock&Notes
  6
Continuous
 62
     3
100
AcDbLine
 10
10.75456129614561
 20
-8.282383842195887
 30
0.0
 11
10.76218068482358
 21
-8.282250822988331
 31
0.0
  0
LINE
  5
9D5
330
19
100
AcDbEntity
  8
TitleBlock&Notes
  6
Continuous
 62
     3
100
AcDbLine
 10
10.74825989265252
 20
-8.300447886486008
 30
0.0
 11
10.76218068482358
 21
-8.300204870626025
 31
0.0
  0
LINE
  5
9D6
330
19
100
AcDbEntity
  8
TitleBlock&Notes
  6
Continuous
 62
     3
100
AcDbLine
 10
10.74195848915943
 20
-8.318511885897841
 30
0.0
 11
10.76218068482358
 21
-8.31815891826373
 31
0.0
  0
LINE
  5
9D7
330
19
100
AcDbEntity
  8
TitleBlock&Notes
  6
Continuous
 62
     3
100
AcDbLine
 10
10.73565708566626
 20
-8.336575930187962
 30
0.0
 11
10.76218068482358
 21
-8.336112965901424
 31
0.0
  0
LINE
  5
9D8
330
19
100
AcDbEntity
  8
TitleBlock&Notes
  6
Continuous
 62
     3
100
AcDbLine
 10
10.72935568217319
 20
-8.354639974478061
 30
0.0
 11
10.76218068482358
 21
-8.354067013539115
 31
0.0
  0
LINE
  5
9D9
330
19
100
AcDbEntity
  8
TitleBlock&Notes
  6
Continuous
 62
     3
100
AcDbLine
 10
10.72305427868009
 20
-8.372704018768182
 30
0.0
 11
10.76218068482358
 21
-8.372021061176834
 31
0.0
  0
LINE
  5
9DA
330
19
100
AcDbEntity
  8
TitleBlock&Notes
  6
Continuous
 62
     3
100
AcDbLine
 10
10.71675287518694
 20
-8.390768063058281
 30
0.0
 11
10.76218068482358
 21
-8.389975108814539
 31
0.0
  0
LINE
  5
9DB
330
19
100
AcDbEntity
  8
TitleBlock&Notes
  6
Continuous
 62
     3
100
AcDbLine
 10
10.59702611906132
 20
-8.733984725057275
 30
0.0
 11
10.76218068482358
 21
-8.731101924174282
 31
0.0
  0
LINE
  5
9DC
330
19
100
AcDbEntity
  8
TitleBlock&Notes
  6
Continuous
 62
     3
100
AcDbLine
 10
10.67264300585693
 20
-8.517216283332505
 30
0.0
 11
10.76218068482358
 21
-8.515653397400143
 31
0.0
  0
LINE
  5
9DD
330
19
100
AcDbEntity
  8
TitleBlock&Notes
  6
Continuous
 62
     3
100
AcDbLine
 10
10.66634160236378
 20
-8.535280327622626
 30
0.0
 11
10.76218068482358
 21
-8.533607445037858
 31
0.0
  0
LINE
  5
9DE
330
19
100
AcDbEntity
  8
TitleBlock&Notes
  6
Continuous
 62
     3
100
AcDbLine
 10
10.66004019887068
 20
-8.553344371912725
 30
0.0
 11
10.76218068482358
 21
-8.551561492675563
 31
0.0
  0
LINE
  5
9DF
330
19
100
AcDbEntity
  8
TitleBlock&Notes
  6
Continuous
 62
     3
100
AcDbLine
 10
10.65373879537758
 20
-8.571408416202835
 30
0.0
 11
10.76218068482358
 21
-8.569515540313258
 31
0.0
  0
LINE
  5
9E0
330
19
100
AcDbEntity
  8
TitleBlock&Notes
  6
Continuous
 62
     3
100
AcDbLine
 10
10.64743734700618
 20
-8.589472460492945
 30
0.0
 11
10.76218068482358
 21
-8.587469587950952
 31
0.0
  0
LINE
  5
9E1
330
19
100
AcDbEntity
  8
TitleBlock&Notes
  6
Continuous
 62
     3
100
AcDbLine
 10
10.64113594351311
 20
-8.607536459904775
 30
0.0
 11
10.76218068482358
 21
-8.605423635588643
 31
0.0
  0
LINE
  5
9E2
330
19
100
AcDbEntity
  8
TitleBlock&Notes
  6
Continuous
 62
     3
100
AcDbLine
 10
10.63483454002001
 20
-8.625600504194899
 30
0.0
 11
10.76218068482358
 21
-8.623377683226351
 31
0.0
  0
LINE
  5
9E3
330
19
100
AcDbEntity
  8
TitleBlock&Notes
  6
Continuous
 62
     3
100
AcDbLine
 10
10.62853313652686
 20
-8.643664548485009
 30
0.0
 11
10.76218068482358
 21
-8.641331730864056
 31
0.0
  0
LINE
  5
9E4
330
19
100
AcDbEntity
  8
TitleBlock&Notes
  6
Continuous
 62
     3
100
AcDbLine
 10
10.62223173303376
 20
-8.661728592775119
 30
0.0
 11
10.76218068482358
 21
-8.65928577850175
 31
0.0
  0
LINE
  5
9E5
330
19
100
AcDbEntity
  8
TitleBlock&Notes
  6
Continuous
 62
     3
100
AcDbLine
 10
10.61593032954066
 20
-8.679792637065215
 30
0.0
 11
10.76218068482358
 21
-8.677239826139445
 31
0.0
  0
LINE
  5
9E6
330
19
100
AcDbEntity
  8
TitleBlock&Notes
  6
Continuous
 62
     3
100
AcDbLine
 10
10.60962892604756
 20
-8.697856636477045
 30
0.0
 11
10.76218068482358
 21
-8.695193873777149
 31
0.0
  0
LINE
  5
9E7
330
19
100
AcDbEntity
  8
TitleBlock&Notes
  6
Continuous
 62
     3
100
AcDbLine
 10
10.60332752255442
 20
-8.715920680767169
 30
0.0
 11
10.76218068482358
 21
-8.713147921414844
 31
0.0
  0
LINE
  5
9E8
330
19
100
AcDbEntity
  8
TitleBlock&Notes
  6
Continuous
 62
     3
100
AcDbLine
 10
11.18852429881781
 20
-8.849338407416762
 30
0.0
 11
11.6267631689121
 21
-8.841688905416198
 31
0.0
  0
LINE
  5
9E9
330
19
100
AcDbEntity
  8
TitleBlock&Notes
  6
Continuous
 62
     3
100
AcDbLine
 10
11.18852429881781
 20
-8.86729245505446
 30
0.0
 11
11.64639059279563
 21
-8.859300352301353
 31
0.0
  0
LINE
  5
9EA
330
19
100
AcDbEntity
  8
TitleBlock&Notes
  6
Continuous
 62
     3
100
AcDbLine
 10
11.18852429881781
 20
-8.885246502692151
 30
0.0
 11
11.66783554194469
 21
-8.876880070245967
 31
0.0
  0
LINE
  5
9EB
330
19
100
AcDbEntity
  8
TitleBlock&Notes
  6
Continuous
 62
     3
100
AcDbLine
 10
11.18852429881781
 20
-8.90320055032987
 30
0.0
 11
11.69141934480947
 21
-8.894422449465647
 31
0.0
  0
LINE
  5
9EC
330
19
100
AcDbEntity
  8
TitleBlock&Notes
  6
Continuous
 62
     3
100
AcDbLine
 10
11.18852429881781
 20
-8.921154597967575
 30
0.0
 11
11.71759091877639
 21
-8.911919681140535
 31
0.0
  0
LINE
  5
9ED
330
19
100
AcDbEntity
  8
TitleBlock&Notes
  6
Continuous
 62
     3
100
AcDbLine
 10
11.18852429881781
 20
-8.759568169228273
 30
0.0
 11
11.549138921747
 21
-8.753273632111259
 31
0.0
  0
LINE
  5
9EE
330
19
100
AcDbEntity
  8
TitleBlock&Notes
  6
Continuous
 62
     3
100
AcDbLine
 10
11.18852429881781
 20
-8.777522216865964
 30
0.0
 11
11.56237653193536
 21
-8.770996601510162
 31
0.0
  0
LINE
  5
9EF
330
19
100
AcDbEntity
  8
TitleBlock&Notes
  6
Continuous
 62
     3
100
AcDbLine
 10
11.18852429881781
 20
-8.795476264503658
 30
0.0
 11
11.57665114442769
 21
-8.788701484964196
 31
0.0
  0
LINE
  5
9F0
330
19
100
AcDbEntity
  8
TitleBlock&Notes
  6
Continuous
 62
     3
100
AcDbLine
 10
11.18852429881781
 20
-8.813430312141363
 30
0.0
 11
11.59205803580231
 21
-8.806386621977154
 31
0.0
  0
LINE
  5
9F1
330
19
100
AcDbEntity
  8
TitleBlock&Notes
  6
Continuous
 62
     3
100
AcDbLine
 10
11.18852429881781
 20
-8.831384359779068
 30
0.0
 11
11.60871366518313
 21
-8.824049903270108
 31
0.0
  0
LINE
  5
9F2
330
19
100
AcDbEntity
  8
TitleBlock&Notes
  6
Continuous
 62
     3
100
AcDbLine
 10
11.43535481218285
 20
-8.413675954220938
 30
0.0
 11
11.18852429881781
 21
-8.413675954220938
 31
0.0
  0
LINE
  5
9F3
330
19
100
AcDbEntity
  8
TitleBlock&Notes
  6
Continuous
 62
     3
100
AcDbLine
 10
11.18852429881781
 20
-8.418441353868519
 30
0.0
 11
11.43536562784721
 21
-8.414132680427222
 31
0.0
  0
LINE
  5
9F4
330
19
100
AcDbEntity
  8
TitleBlock&Notes
  6
Continuous
 62
     3
100
AcDbLine
 10
11.18852429881781
 20
-8.436395356627944
 30
0.0
 11
11.4360637991738
 21
-8.432074566052342
 31
0.0
  0
LINE
  5
9F5
330
19
100
AcDbEntity
  8
TitleBlock&Notes
  6
Continuous
 62
     3
100
AcDbLine
 10
11.18852429881781
 20
-8.454349404265638
 30
0.0
 11
11.43729485513967
 21
-8.450007116996246
 31
0.0
  0
LINE
  5
9F6
330
19
100
AcDbEntity
  8
TitleBlock&Notes
  6
Continuous
 62
     3
100
AcDbLine
 10
11.18852429881781
 20
-8.472303451903343
 30
0.0
 11
11.43906112941502
 21
-8.467930333258916
 31
0.0
  0
LINE
  5
9F7
330
19
100
AcDbEntity
  8
TitleBlock&Notes
  6
Continuous
 62
     3
100
AcDbLine
 10
11.18852429881781
 20
-8.490257499541037
 30
0.0
 11
11.4413665712881
 21
-8.485844125083794
 31
0.0
  0
LINE
  5
9F8
330
19
100
AcDbEntity
  8
TitleBlock&Notes
  6
Continuous
 62
     3
100
AcDbLine
 10
11.18852429881781
 20
-8.093952261457832
 30
0.0
 11
11.43535481218285
 21
-8.089643812407917
 31
0.0
  0
LINE
  5
9F9
330
19
100
AcDbEntity
  8
TitleBlock&Notes
  6
Continuous
 62
     3
100
AcDbLine
 10
11.18852429881781
 20
-8.111906309095537
 30
0.0
 11
11.43535481218285
 21
-8.107597860045608
 31
0.0
  0
LINE
  5
9FA
330
19
100
AcDbEntity
  8
TitleBlock&Notes
  6
Continuous
 62
     3
100
AcDbLine
 10
11.18852429881781
 20
-8.129860311854976
 30
0.0
 11
11.43535481218285
 21
-8.125551907683316
 31
0.0
  0
LINE
  5
9FB
330
19
100
AcDbEntity
  8
TitleBlock&Notes
  6
Continuous
 62
     3
100
AcDbLine
 10
11.18852429881781
 20
-8.147814359492659
 30
0.0
 11
11.43535481218285
 21
-8.14350595532101
 31
0.0
  0
LINE
  5
9FC
330
19
100
AcDbEntity
  8
TitleBlock&Notes
  6
Continuous
 62
     3
100
AcDbLine
 10
11.18852429881781
 20
-8.16576840713035
 30
0.0
 11
11.43535481218285
 21
-8.161459958080438
 31
0.0
  0
LINE
  5
9FD
330
19
100
AcDbEntity
  8
TitleBlock&Notes
  6
Continuous
 62
     3
100
AcDbLine
 10
11.18852429881781
 20
-8.183722454768044
 30
0.0
 11
11.43535481218285
 21
-8.179414005718129
 31
0.0
  0
LINE
  5
9FE
330
19
100
AcDbEntity
  8
TitleBlock&Notes
  6
Continuous
 62
     3
100
AcDbLine
 10
11.18852429881781
 20
-8.201676502405764
 30
0.0
 11
11.43535481218285
 21
-8.197368053355848
 31
0.0
  0
LINE
  5
9FF
330
19
100
AcDbEntity
  8
TitleBlock&Notes
  6
Continuous
 62
     3
100
AcDbLine
 10
11.18852429881781
 20
-8.219630550043468
 30
0.0
 11
11.43535481218285
 21
-8.215322100993539
 31
0.0
  0
LINE
  5
A00
330
19
100
AcDbEntity
  8
TitleBlock&Notes
  6
Continuous
 62
     3
100
AcDbLine
 10
11.18852429881781
 20
-8.237584597681163
 30
0.0
 11
11.43535481218285
 21
-8.233276148631226
 31
0.0
  0
LINE
  5
A01
330
19
100
AcDbEntity
  8
TitleBlock&Notes
  6
Continuous
 62
     3
100
AcDbLine
 10
11.18852429881781
 20
-8.255538645318857
 30
0.0
 11
11.43535481218285
 21
-8.251230196268942
 31
0.0
  0
LINE
  5
A02
330
19
100
AcDbEntity
  8
TitleBlock&Notes
  6
Continuous
 62
     3
100
AcDbLine
 10
11.18852429881781
 20
-8.273492692956562
 30
0.0
 11
11.43535481218285
 21
-8.269184243906636
 31
0.0
  0
LINE
  5
A03
330
19
100
AcDbEntity
  8
TitleBlock&Notes
  6
Continuous
 62
     3
100
AcDbLine
 10
11.18852429881781
 20
-8.291446740594256
 30
0.0
 11
11.43535481218285
 21
-8.287138291544341
 31
0.0
  0
LINE
  5
A04
330
19
100
AcDbEntity
  8
TitleBlock&Notes
  6
Continuous
 62
     3
100
AcDbLine
 10
11.43535481218285
 20
-8.325332890060725
 30
0.0
 11
11.18852429881781
 21
-8.325332890060725
 31
0.0
  0
LINE
  5
A05
330
19
100
AcDbEntity
  8
TitleBlock&Notes
  6
Continuous
 62
     3
100
AcDbLine
 10
11.18852429881781
 20
-8.309400788231961
 30
0.0
 11
11.43535481218285
 21
-8.305092339182035
 31
0.0
  0
LINE
  5
A06
330
19
100
AcDbEntity
  8
TitleBlock&Notes
  6
Continuous
 62
     3
100
AcDbLine
 10
11.30436064702656
 20
-8.325332890060725
 30
0.0
 11
11.43535481218285
 21
-8.323046386819726
 31
0.0
  0
LINE
  5
A07
330
19
100
AcDbEntity
  8
TitleBlock&Notes
  6
Continuous
 62
     3
100
AcDbLine
 10
11.18852429881781
 20
-8.741614121590568
 30
0.0
 11
11.53685950761158
 21
-8.73553392311571
 31
0.0
  0
LINE
  5
A08
330
19
100
AcDbEntity
  8
TitleBlock&Notes
  6
Continuous
 62
     3
100
AcDbLine
 10
11.18852429881781
 20
-8.52616559481645
 30
0.0
 11
11.44761802526098
 21
-8.521643121272294
 31
0.0
  0
LINE
  5
A09
330
19
100
AcDbEntity
  8
TitleBlock&Notes
  6
Continuous
 62
     3
100
AcDbLine
 10
11.18852429881781
 20
-8.544119642454141
 30
0.0
 11
11.45157956524395
 21
-8.539528011487973
 31
0.0
  0
LINE
  5
A0A
330
19
100
AcDbEntity
  8
TitleBlock&Notes
  6
Continuous
 62
     3
100
AcDbLine
 10
11.18852429881781
 20
-8.56207369009185
 30
0.0
 11
11.4561116876172
 21
-8.557402938726578
 31
0.0
  0
LINE
  5
A0B
330
19
100
AcDbEntity
  8
TitleBlock&Notes
  6
Continuous
 62
     3
100
AcDbLine
 10
11.18852429881781
 20
-8.58002773772954
 30
0.0
 11
11.46122677878486
 21
-8.575267678596702
 31
0.0
  0
LINE
  5
A0C
330
19
100
AcDbEntity
  8
TitleBlock&Notes
  6
Continuous
 62
     3
100
AcDbLine
 10
11.18852429881781
 20
-8.597981785367245
 30
0.0
 11
11.46693928955132
 21
-8.593122006707005
 31
0.0
  0
LINE
  5
A0D
330
19
100
AcDbEntity
  8
TitleBlock&Notes
  6
Continuous
 62
     3
100
AcDbLine
 10
11.18852429881781
 20
-8.615935833004943
 30
0.0
 11
11.47326627366127
 21
-8.610965653787808
 31
0.0
  0
LINE
  5
A0E
330
19
100
AcDbEntity
  8
TitleBlock&Notes
  6
Continuous
 62
     3
100
AcDbLine
 10
11.18852429881781
 20
-8.633889880642637
 30
0.0
 11
11.48022725316436
 21
-8.628798171056409
 31
0.0
  0
LINE
  5
A0F
330
19
100
AcDbEntity
  8
TitleBlock&Notes
  6
Continuous
 62
     3
100
AcDbLine
 10
11.18852429881781
 20
-8.651843928280342
 30
0.0
 11
11.48784498134611
 21
-8.646619244364799
 31
0.0
  0
LINE
  5
A10
330
19
100
AcDbEntity
  8
TitleBlock&Notes
  6
Continuous
 62
     3
100
AcDbLine
 10
11.18852429881781
 20
-8.669797975918058
 30
0.0
 11
11.49614557736265
 21
-8.664428424930292
 31
0.0
  0
LINE
  5
A11
330
19
100
AcDbEntity
  8
TitleBlock&Notes
  6
Continuous
 62
     3
100
AcDbLine
 10
11.18852429881781
 20
-8.687752023555752
 30
0.0
 11
11.50515937892805
 21
-8.682225129335289
 31
0.0
  0
LINE
  5
A12
330
19
100
AcDbEntity
  8
TitleBlock&Notes
  6
Continuous
 62
     3
100
AcDbLine
 10
11.18852429881781
 20
-8.705706026315155
 30
0.0
 11
11.51492134621849
 21
-8.700008774162228
 31
0.0
  0
LINE
  5
A13
330
19
100
AcDbEntity
  8
TitleBlock&Notes
  6
Continuous
 62
     3
100
AcDbLine
 10
11.18852429881781
 20
-8.723660073952871
 30
0.0
 11
11.525472228708
 21
-8.71777864135867
 31
0.0
  0
LINE
  5
A14
330
19
100
AcDbEntity
  8
TitleBlock&Notes
  6
Continuous
 62
     3
100
AcDbLine
 10
11.18852429881781
 20
-8.508211547178756
 30
0.0
 11
11.44421656615195
 21
-8.50374844759262
 31
0.0
  0
TEXT
  5
A15
330
19
100
AcDbEntity
  8
TitleBlock&Notes
  6
Continuous
 62
     3
100
AcDbText
 10
11.96406325862748
 20
-10.05099340348735
 30
0.0
 40
0.3141479261010163
  1
 AIR
 41
1.098901099999999
 51
11.0
100
AcDbText
  0
ARC
  5
A16
330
19
100
AcDbEntity
  8
TitleBlock&Notes
  6
Continuous
 62
     3
100
AcDbCircle
 10
12.2656029025927
 20
-8.399541047799136
 30
0.0
 40
0.5609784394661005
100
AcDbArc
 50
270.0000000000008
 51
0.0000000000008142
  0
ARC
  5
A17
330
19
100
AcDbEntity
  8
TitleBlock&Notes
  6
Continuous
 62
     3
100
AcDbCircle
 10
12.2656029025927
 20
-8.399541047799136
 30
0.0
 40
0.6058567146233887
100
AcDbArc
 50
270.0000000000008
 51
0.0000000000008142
  0
ARC
  5
A18
330
19
100
AcDbEntity
  8
TitleBlock&Notes
  6
Continuous
 62
     3
100
AcDbCircle
 10
12.2656029025927
 20
-8.399541047799136
 30
0.0
 40
0.5834175770447444
100
AcDbArc
 50
270.0000000000008
 51
0.0000000000008142
  0
LINE
  5
A19
330
19
100
AcDbEntity
  8
TitleBlock&Notes
  6
Continuous
 62
     3
100
AcDbLine
 10
12.55232432351856
 20
-8.933257460968523
 30
0.0
 11
13.05097271784522
 21
-8.924553499014873
 31
0.0
  0
LINE
  5
A1A
330
19
100
AcDbEntity
  8
TitleBlock&Notes
  6
Continuous
 62
     3
100
AcDbLine
 10
12.51459075952285
 20
-8.951870142172445
 30
0.0
 11
13.05097271784522
 21
-8.942507546652588
 31
0.0
  0
LINE
  5
A1B
330
19
100
AcDbEntity
  8
TitleBlock&Notes
  6
Continuous
 62
     3
100
AcDbLine
 10
12.46786147990674
 20
-8.970639852461115
 30
0.0
 11
13.05097271784522
 21
-8.960461594290286
 31
0.0
  0
LINE
  5
A1C
330
19
100
AcDbEntity
  8
TitleBlock&Notes
  6
Continuous
 62
     3
100
AcDbLine
 10
12.40247203787154
 20
-8.989735244392623
 30
0.0
 11
13.05097271784522
 21
-8.978415641927977
 31
0.0
  0
LINE
  5
A1D
330
19
100
AcDbEntity
  8
TitleBlock&Notes
  6
Continuous
 62
     3
100
AcDbLine
 10
12.58439546090286
 20
-8.914743601726524
 30
0.0
 11
13.05097271784522
 21
-8.906599451377168
 31
0.0
  0
LINE
  5
A1E
330
19
100
AcDbEntity
  8
TitleBlock&Notes
  6
Continuous
 62
     3
100
AcDbLine
 10
12.04121143704972
 20
-8.960519487265244
 30
0.0
 11
12.2656029025927
 21
-8.960519487265244
 31
0.0
  0
LINE
  5
A1F
330
19
100
AcDbEntity
  8
TitleBlock&Notes
  6
Continuous
 62
     3
100
AcDbLine
 10
12.04121143704972
 20
-9.005397762422525
 30
0.0
 11
12.2656029025927
 21
-9.005397762422525
 31
0.0
  0
LINE
  5
A20
330
19
100
AcDbEntity
  8
TitleBlock&Notes
  6
Continuous
 62
     3
100
AcDbLine
 10
12.04121143704972
 20
-8.982958624843881
 30
0.0
 11
12.2656029025927
 21
-8.982958624843881
 31
0.0
  0
LINE
  5
A21
330
19
100
AcDbEntity
  8
TitleBlock&Notes
  6
Continuous
 62
     3
100
AcDbLine
 10
12.44455861504442
 20
-8.413675954220938
 30
0.0
 11
11.86225576947631
 21
-8.413675954220938
 31
0.0
  0
LINE
  5
A22
330
19
100
AcDbEntity
  8
TitleBlock&Notes
  6
Continuous
 62
     3
100
AcDbLine
 10
12.44511600322187
 20
-8.325332890060725
 30
0.0
 11
11.86169842617709
 21
-8.325332890060725
 31
0.0
  0
LINE
  5
A23
330
19
100
AcDbEntity
  8
TitleBlock&Notes
  6
Continuous
 62
     3
100
AcDbLine
 10
11.86169842617709
 20
-8.1001560098242
 30
0.0
 11
12.44511600322187
 21
-8.089972411138617
 31
0.0
  0
LINE
  5
A24
330
19
100
AcDbEntity
  8
TitleBlock&Notes
  6
Continuous
 62
     3
100
AcDbLine
 10
11.86169842617709
 20
-8.118110057461908
 30
0.0
 11
12.44511600322187
 21
-8.107926458776312
 31
0.0
  0
LINE
  5
A25
330
19
100
AcDbEntity
  8
TitleBlock&Notes
  6
Continuous
 62
     3
100
AcDbLine
 10
11.86169842617709
 20
-8.136064060221322
 30
0.0
 11
12.44511600322187
 21
-8.125880506414002
 31
0.0
  0
LINE
  5
A26
330
19
100
AcDbEntity
  8
TitleBlock&Notes
  6
Continuous
 62
     3
100
AcDbLine
 10
11.86169842617709
 20
-8.154018107859027
 30
0.0
 11
12.44511600322187
 21
-8.143834554051711
 31
0.0
  0
LINE
  5
A27
330
19
100
AcDbEntity
  8
TitleBlock&Notes
  6
Continuous
 62
     3
100
AcDbLine
 10
11.86169842617709
 20
-8.171972155496721
 30
0.0
 11
12.44511600322187
 21
-8.161788556811149
 31
0.0
  0
LINE
  5
A28
330
19
100
AcDbEntity
  8
TitleBlock&Notes
  6
Continuous
 62
     3
100
AcDbLine
 10
11.86169842617709
 20
-8.189926203134415
 30
0.0
 11
12.44511600322187
 21
-8.179742604448843
 31
0.0
  0
LINE
  5
A29
330
19
100
AcDbEntity
  8
TitleBlock&Notes
  6
Continuous
 62
     3
100
AcDbLine
 10
11.86169842617709
 20
-8.207880250772131
 30
0.0
 11
12.44511600322187
 21
-8.197696652086538
 31
0.0
  0
LINE
  5
A2A
330
19
100
AcDbEntity
  8
TitleBlock&Notes
  6
Continuous
 62
     3
100
AcDbLine
 10
11.86169842617709
 20
-8.225834298409839
 30
0.0
 11
12.44511600322187
 21
-8.215650699724243
 31
0.0
  0
LINE
  5
A2B
330
19
100
AcDbEntity
  8
TitleBlock&Notes
  6
Continuous
 62
     3
100
AcDbLine
 10
11.86169842617709
 20
-8.243788346047534
 30
0.0
 11
12.44511600322187
 21
-8.233604747361933
 31
0.0
  0
LINE
  5
A2C
330
19
100
AcDbEntity
  8
TitleBlock&Notes
  6
Continuous
 62
     3
100
AcDbLine
 10
11.86169842617709
 20
-8.261742393685224
 30
0.0
 11
12.44511600322187
 21
-8.251558794999642
 31
0.0
  0
LINE
  5
A2D
330
19
100
AcDbEntity
  8
TitleBlock&Notes
  6
Continuous
 62
     3
100
AcDbLine
 10
11.86169842617709
 20
-8.279696441322933
 30
0.0
 11
12.44511600322187
 21
-8.269512842637336
 31
0.0
  0
LINE
  5
A2E
330
19
100
AcDbEntity
  8
TitleBlock&Notes
  6
Continuous
 62
     3
100
AcDbLine
 10
11.86169842617709
 20
-8.297650488960623
 30
0.0
 11
12.44511600322187
 21
-8.28746689027503
 31
0.0
  0
LINE
  5
A2F
330
19
100
AcDbEntity
  8
TitleBlock&Notes
  6
Continuous
 62
     3
100
AcDbLine
 10
11.86169842617709
 20
-8.315604536598328
 30
0.0
 11
12.44511600322187
 21
-8.305420937912735
 31
0.0
  0
LINE
  5
A30
330
19
100
AcDbEntity
  8
TitleBlock&Notes
  6
Continuous
 62
     3
100
AcDbLine
 10
11.86458234901698
 20
-8.431589387019624
 30
0.0
 11
12.44377037301958
 21
-8.421479613096657
 31
0.0
  0
LINE
  5
A31
330
19
100
AcDbEntity
  8
TitleBlock&Notes
  6
Continuous
 62
     3
100
AcDbLine
 10
11.86878169897999
 20
-8.449470148433995
 30
0.0
 11
12.44061471222362
 21
-8.439488771256261
 31
0.0
  0
LINE
  5
A32
330
19
100
AcDbEntity
  8
TitleBlock&Notes
  6
Continuous
 62
     3
100
AcDbLine
 10
11.87498419075468
 20
-8.46731590479375
 30
0.0
 11
12.43549100442714
 21
-8.457532216418073
 31
0.0
  0
LINE
  5
A33
330
19
100
AcDbEntity
  8
TitleBlock&Notes
  6
Continuous
 62
     3
100
AcDbLine
 10
11.88341192692477
 20
-8.48512284144547
 30
0.0
 11
12.42820034911474
 21
-8.475613538844115
 31
0.0
  0
LINE
  5
A34
330
19
100
AcDbEntity
  8
TitleBlock&Notes
  6
Continuous
 62
     3
100
AcDbLine
 10
11.89442913957139
 20
-8.502884585674134
 30
0.0
 11
12.41841589780842
 21
-8.4937383483188
 31
0.0
  0
LINE
  5
A35
330
19
100
AcDbEntity
  8
TitleBlock&Notes
  6
Continuous
 62
     3
100
AcDbLine
 10
12.04121143704972
 20
-8.623932423585571
 30
0.0
 11
12.2656029025927
 21
-8.623932423585571
 31
0.0
  0
LINE
  5
A36
330
19
100
AcDbEntity
  8
TitleBlock&Notes
  6
Continuous
 62
     3
100
AcDbLine
 10
12.2656029025927
 20
-8.579054148428291
 30
0.0
 11
12.04121148192795
 21
-8.579054148428291
 31
0.0
  0
LINE
  5
A37
330
19
100
AcDbEntity
  8
TitleBlock&Notes
  6
Continuous
 62
     3
100
AcDbLine
 10
12.04121143704972
 20
-8.601493286006927
 30
0.0
 11
12.2656029025927
 21
-8.601493286006927
 31
0.0
  0
LINE
  5
A38
330
19
100
AcDbEntity
  8
TitleBlock&Notes
  6
Continuous
 62
     3
100
AcDbLine
 10
11.99479307412384
 20
-8.572948907875879
 30
0.0
 11
12.3300218519276
 21
-8.567097453969495
 31
0.0
  0
LINE
  5
A39
330
19
100
AcDbEntity
  8
TitleBlock&Notes
  6
Continuous
 62
     3
100
AcDbLine
 10
11.90865200741249
 20
-8.520590366693649
 30
0.0
 11
12.40559134726466
 21
-8.511916248792971
 31
0.0
  0
LINE
  5
A3A
330
19
100
AcDbEntity
  8
TitleBlock&Notes
  6
Continuous
 62
     3
100
AcDbLine
 10
11.92722447768183
 20
-8.53822021367161
 30
0.0
 11
12.3887389266472
 21
-8.530164473524333
 31
0.0
  0
LINE
  5
A3B
330
19
100
AcDbEntity
  8
TitleBlock&Notes
  6
Continuous
 62
     3
100
AcDbLine
 10
11.95272296727793
 20
-8.555729203454585
 30
0.0
 11
12.36575433851228
 21
-8.54851968806367
 31
0.0
  0
ARC
  5
A3C
330
19
100
AcDbEntity
  8
TitleBlock&Notes
  6
Continuous
 62
     3
100
AcDbCircle
 10
12.04121152680627
 20
-8.399541047799136
 30
0.0
 40
0.2243913757864401
100
AcDbArc
 50
180.0000046800004
 51
269.9999931700005
  0
ARC
  5
A3D
330
19
100
AcDbEntity
  8
TitleBlock&Notes
  6
Continuous
 62
     3
100
AcDbCircle
 10
12.04121152680627
 20
-8.399541047799136
 30
0.0
 40
0.1795131006291522
100
AcDbArc
 50
180.0000052300005
 51
269.9999947700005
  0
ARC
  5
A3E
330
19
100
AcDbEntity
  8
TitleBlock&Notes
  6
Continuous
 62
     3
100
AcDbCircle
 10
12.04121152680627
 20
-8.399541047799136
 30
0.0
 40
0.2019522382077961
100
AcDbArc
 50
180.0000046800004
 51
269.9999931700005
  0
LINE
  5
A3F
330
19
100
AcDbEntity
  8
TitleBlock&Notes
  6
Continuous
 62
     3
100
AcDbLine
 10
12.33294715253716
 20
-8.325332890060725
 30
0.0
 11
12.44511600322187
 21
-8.323374985550429
 31
0.0
  0
ARC
  5
A40
330
19
100
AcDbEntity
  8
TitleBlock&Notes
  6
Continuous
 62
     3
100
AcDbCircle
 10
12.2656029025927
 20
-8.399541047799136
 30
0.0
 40
0.2243913757864401
100
AcDbArc
 50
270.0000000000008
 51
359.9999953200008
  0
ARC
  5
A41
330
19
100
AcDbEntity
  8
TitleBlock&Notes
  6
Continuous
 62
     3
100
AcDbCircle
 10
12.2656029025927
 20
-8.399541047799136
 30
0.0
 40
0.1795131006291522
100
AcDbArc
 50
270.0000000000008
 51
0.0000000000008142
  0
ARC
  5
A42
330
19
100
AcDbEntity
  8
TitleBlock&Notes
  6
Continuous
 62
     3
100
AcDbCircle
 10
12.2656029025927
 20
-8.399541047799136
 30
0.0
 40
0.2019522382077961
100
AcDbArc
 50
270.0000000000008
 51
359.9999953200008
  0
LINE
  5
A43
330
19
100
AcDbEntity
  8
TitleBlock&Notes
  6
Continuous
 62
     3
100
AcDbLine
 10
12.75974174831849
 20
-8.75009651949977
 30
0.0
 11
13.05097271784522
 21
-8.74501306751614
 31
0.0
  0
LINE
  5
A44
330
19
100
AcDbEntity
  8
TitleBlock&Notes
  6
Continuous
 62
     3
100
AcDbLine
 10
12.68027403624468
 20
-8.841253855416834
 30
0.0
 11
13.05097271784522
 21
-8.834783305704657
 31
0.0
  0
LINE
  5
A45
330
19
100
AcDbEntity
  8
TitleBlock&Notes
  6
Continuous
 62
     3
100
AcDbLine
 10
12.65986308255524
 20
-8.859564191681005
 30
0.0
 11
13.05097271784522
 21
-8.852737353342352
 31
0.0
  0
LINE
  5
A46
330
19
100
AcDbEntity
  8
TitleBlock&Notes
  6
Continuous
 62
     3
100
AcDbLine
 10
12.6373891643134
 20
-8.877910520321854
 30
0.0
 11
13.05097271784522
 21
-8.870691356101779
 31
0.0
  0
LINE
  5
A47
330
19
100
AcDbEntity
  8
TitleBlock&Notes
  6
Continuous
 62
     3
100
AcDbLine
 10
12.61243540722113
 20
-8.896300111619954
 30
0.0
 11
13.05097271784522
 21
-8.888645403739474
 31
0.0
  0
LINE
  5
A48
330
19
100
AcDbEntity
  8
TitleBlock&Notes
  6
Continuous
 62
     3
100
AcDbLine
 10
12.74632152842856
 20
-8.768284831733794
 30
0.0
 11
13.05097271784522
 21
-8.762967115153859
 31
0.0
  0
LINE
  5
A49
330
19
100
AcDbEntity
  8
TitleBlock&Notes
  6
Continuous
 62
     3
100
AcDbLine
 10
12.73179057122841
 20
-8.786492486504418
 30
0.0
 11
13.05097271784522
 21
-8.780921162791564
 31
0.0
  0
LINE
  5
A4A
330
19
100
AcDbEntity
  8
TitleBlock&Notes
  6
Continuous
 62
     3
100
AcDbLine
 10
12.71603730932619
 20
-8.804721503333993
 30
0.0
 11
13.05097271784522
 21
-8.798875210429258
 31
0.0
  0
LINE
  5
A4B
330
19
100
AcDbEntity
  8
TitleBlock&Notes
  6
Continuous
 62
     3
100
AcDbLine
 10
12.69892338299938
 20
-8.822974305649413
 30
0.0
 11
13.05097271784522
 21
-8.816829258066956
 31
0.0
  0
LINE
  5
A4C
330
19
100
AcDbEntity
  8
TitleBlock&Notes
  6
Continuous
 62
     3
100
AcDbLine
 10
13.05097271784522
 20
-8.413675954220938
 30
0.0
 11
12.87129468955488
 21
-8.413675954220938
 31
0.0
  0
LINE
  5
A4D
330
19
100
AcDbEntity
  8
TitleBlock&Notes
  6
Continuous
 62
     3
100
AcDbLine
 10
12.87092516183727
 20
-8.424982990768551
 30
0.0
 11
13.05097271784522
 21
-8.421840254915839
 31
0.0
  0
LINE
  5
A4E
330
19
100
AcDbEntity
  8
TitleBlock&Notes
  6
Continuous
 62
     3
100
AcDbLine
 10
12.86990216155501
 20
-8.442954899959765
 30
0.0
 11
13.05097271784522
 21
-8.439794302553533
 31
0.0
  0
LINE
  5
A4F
330
19
100
AcDbEntity
  8
TitleBlock&Notes
  6
Continuous
 62
     3
100
AcDbLine
 10
12.86834080148407
 20
-8.460936188710473
 30
0.0
 11
13.05097271784522
 21
-8.457748350191238
 31
0.0
  0
LINE
  5
A50
330
19
100
AcDbEntity
  8
TitleBlock&Notes
  6
Continuous
 62
     3
100
AcDbLine
 10
12.8662361001357
 20
-8.47892699165553
 30
0.0
 11
13.05097271784522
 21
-8.475702397828932
 31
0.0
  0
LINE
  5
A51
330
19
100
AcDbEntity
  8
TitleBlock&Notes
  6
Continuous
 62
     3
100
AcDbLine
 10
12.86358137064704
 20
-8.496927353673189
 30
0.0
 11
13.05097271784522
 21
-8.493656445466626
 31
0.0
  0
LINE
  5
A52
330
19
100
AcDbEntity
  8
TitleBlock&Notes
  6
Continuous
 62
     3
100
AcDbLine
 10
12.87145961721611
 20
-8.1004846085549
 30
0.0
 11
13.05097271784522
 21
-8.097351162505152
 31
0.0
  0
LINE
  5
A53
330
19
100
AcDbEntity
  8
TitleBlock&Notes
  6
Continuous
 62
     3
100
AcDbLine
 10
12.87145961721611
 20
-8.118438611314342
 30
0.0
 11
13.05097271784522
 21
-8.115305210142846
 31
0.0
  0
LINE
  5
A54
330
19
100
AcDbEntity
  8
TitleBlock&Notes
  6
Continuous
 62
     3
100
AcDbLine
 10
12.87145961721611
 20
-8.136392658952036
 30
0.0
 11
13.05097271784522
 21
-8.133259257780554
 31
0.0
  0
LINE
  5
A55
330
19
100
AcDbEntity
  8
TitleBlock&Notes
  6
Continuous
 62
     3
100
AcDbLine
 10
12.87145961721611
 20
-8.154346706589716
 30
0.0
 11
13.05097271784522
 21
-8.151213305418245
 31
0.0
  0
LINE
  5
A56
330
19
100
AcDbEntity
  8
TitleBlock&Notes
  6
Continuous
 62
     3
100
AcDbLine
 10
12.87145961721611
 20
-8.172300754227435
 30
0.0
 11
13.05097271784522
 21
-8.16916735305595
 31
0.0
  0
LINE
  5
A57
330
19
100
AcDbEntity
  8
TitleBlock&Notes
  6
Continuous
 62
     3
100
AcDbLine
 10
12.87145961721611
 20
-8.19025480186514
 30
0.0
 11
13.05097271784522
 21
-8.187121400693644
 31
0.0
  0
LINE
  5
A58
330
19
100
AcDbEntity
  8
TitleBlock&Notes
  6
Continuous
 62
     3
100
AcDbLine
 10
12.87145961721611
 20
-8.208208849502831
 30
0.0
 11
13.05097271784522
 21
-8.205075448331339
 31
0.0
  0
LINE
  5
A59
330
19
100
AcDbEntity
  8
TitleBlock&Notes
  6
Continuous
 62
     3
100
AcDbLine
 10
12.87145961721611
 20
-8.226162897140525
 30
0.0
 11
13.05097271784522
 21
-8.223029495969043
 31
0.0
  0
LINE
  5
A5A
330
19
100
AcDbEntity
  8
TitleBlock&Notes
  6
Continuous
 62
     3
100
AcDbLine
 10
12.87145961721611
 20
-8.244116944778223
 30
0.0
 11
13.05097271784522
 21
-8.240983543606738
 31
0.0
  0
LINE
  5
A5B
330
19
100
AcDbEntity
  8
TitleBlock&Notes
  6
Continuous
 62
     3
100
AcDbLine
 10
12.87145961721611
 20
-8.262070992415928
 30
0.0
 11
13.05097271784522
 21
-8.258937591244457
 31
0.0
  0
LINE
  5
A5C
330
19
100
AcDbEntity
  8
TitleBlock&Notes
  6
Continuous
 62
     3
100
AcDbLine
 10
12.87145961721611
 20
-8.280025040053633
 30
0.0
 11
13.05097271784522
 21
-8.276891638882151
 31
0.0
  0
LINE
  5
A5D
330
19
100
AcDbEntity
  8
TitleBlock&Notes
  6
Continuous
 62
     3
100
AcDbLine
 10
12.87145961721611
 20
-8.297979087691324
 30
0.0
 11
13.05097271784522
 21
-8.294845686519842
 31
0.0
  0
LINE
  5
A5E
330
19
100
AcDbEntity
  8
TitleBlock&Notes
  6
Continuous
 62
     3
100
AcDbLine
 10
13.05097271784522
 20
-8.325332890060725
 30
0.0
 11
12.87145961721611
 21
-8.325332890060725
 31
0.0
  0
LINE
  5
A5F
330
19
100
AcDbEntity
  8
TitleBlock&Notes
  6
Continuous
 62
     3
100
AcDbLine
 10
12.87145961721611
 20
-8.315933135329018
 30
0.0
 11
13.05097271784522
 21
-8.31279968927927
 31
0.0
  0
LINE
  5
A60
330
19
100
AcDbEntity
  8
TitleBlock&Notes
  6
Continuous
 62
     3
100
AcDbLine
 10
12.77214273770133
 20
-8.731926023940985
 30
0.0
 11
13.05097271784522
 21
-8.727059019878449
 31
0.0
  0
LINE
  5
A61
330
19
100
AcDbEntity
  8
TitleBlock&Notes
  6
Continuous
 62
     3
100
AcDbLine
 10
12.78360025110552
 20
-8.71377199870918
 30
0.0
 11
13.05097271784522
 21
-8.709104972240755
 31
0.0
  0
LINE
  5
A62
330
19
100
AcDbEntity
  8
TitleBlock&Notes
  6
Continuous
 62
     3
100
AcDbLine
 10
12.86036840029371
 20
-8.514937499154843
 30
0.0
 11
13.05097271784522
 21
-8.511610493104331
 31
0.0
  0
LINE
  5
A63
330
19
100
AcDbEntity
  8
TitleBlock&Notes
  6
Continuous
 62
     3
100
AcDbLine
 10
12.85658713634209
 20
-8.532957562735308
 30
0.0
 11
13.05097271784522
 21
-8.529564540742036
 31
0.0
  0
LINE
  5
A64
330
19
100
AcDbEntity
  8
TitleBlock&Notes
  6
Continuous
 62
     3
100
AcDbLine
 10
12.85222564117091
 20
-8.550987723927661
 30
0.0
 11
13.05097271784522
 21
-8.54751858837973
 31
0.0
  0
LINE
  5
A65
330
19
100
AcDbEntity
  8
TitleBlock&Notes
  6
Continuous
 62
     3
100
AcDbLine
 10
12.84726982300183
 20
-8.56902825200159
 30
0.0
 11
13.05097271784522
 21
-8.565472636017425
 31
0.0
  0
LINE
  5
A66
330
19
100
AcDbEntity
  8
TitleBlock&Notes
  6
Continuous
 62
     3
100
AcDbLine
 10
12.84170330126443
 20
-8.587079461105016
 30
0.0
 11
13.05097271784522
 21
-8.583426683655119
 31
0.0
  0
LINE
  5
A67
330
19
100
AcDbEntity
  8
TitleBlock&Notes
  6
Continuous
 62
     3
100
AcDbLine
 10
12.83550704757003
 20
-8.60514166538584
 30
0.0
 11
13.05097271784522
 21
-8.601380731292834
 31
0.0
  0
LINE
  5
A68
330
19
100
AcDbEntity
  8
TitleBlock&Notes
  6
Continuous
 62
     3
100
AcDbLine
 10
12.82865902668551
 20
-8.623215268748563
 30
0.0
 11
13.05097271784522
 21
-8.619334734052262
 31
0.0
  0
LINE
  5
A69
330
19
100
AcDbEntity
  8
TitleBlock&Notes
  6
Continuous
 62
     3
100
AcDbLine
 10
12.82113383750709
 20
-8.641300630219372
 30
0.0
 11
13.05097271784522
 21
-8.637288781689957
 31
0.0
  0
LINE
  5
A6A
330
19
100
AcDbEntity
  8
TitleBlock&Notes
  6
Continuous
 62
     3
100
AcDbLine
 10
12.81290217452122
 20
-8.659398378094124
 30
0.0
 11
13.05097271784522
 21
-8.655242829327651
 31
0.0
  0
LINE
  5
A6B
330
19
100
AcDbEntity
  8
TitleBlock&Notes
  6
Continuous
 62
     3
100
AcDbLine
 10
12.80393006487353
 20
-8.677509050912114
 30
0.0
 11
13.05097271784522
 21
-8.673196876965356
 31
0.0
  0
LINE
  5
A6C
330
19
100
AcDbEntity
  8
TitleBlock&Notes
  6
Continuous
 62
     3
100
AcDbLine
 10
12.79417810543835
 20
-8.695633276969214
 30
0.0
 11
13.05097271784522
 21
-8.691150924603061
 31
0.0
  0
LINE
  5
A6D
330
19
100
AcDbEntity
  8
TitleBlock&Notes
  6
Continuous
 62
     3
100
AcDbLine
 10
11.43535481218285
 20
-6.940997105187264
 30
0.0
 11
11.86169842617709
 21
-6.940997105187264
 31
0.0
  0
LINE
  5
A6E
330
19
100
AcDbEntity
  8
TitleBlock&Notes
  6
Continuous
 62
     3
100
AcDbLine
 10
11.45779394976154
 20
-6.963436242765919
 30
0.0
 11
11.83925928859846
 21
-6.963436242765919
 31
0.0
  0
LINE
  5
A6F
330
19
100
AcDbEntity
  8
TitleBlock&Notes
  6
Continuous
 62
     3
100
AcDbLine
 10
11.48023308734018
 20
-6.985875380344555
 30
0.0
 11
11.81682015101985
 21
-6.985875380344555
 31
0.0
  0
LINE
  5
A70
330
19
100
AcDbEntity
  8
TitleBlock&Notes
  6
Continuous
 62
     3
100
AcDbLine
 10
11.1436460236605
 20
-6.985875380344555
 30
0.0
 11
10.62754585935172
 21
-6.985875380344555
 31
0.0
  0
LINE
  5
A71
330
19
100
AcDbEntity
  8
TitleBlock&Notes
  6
Continuous
 62
     3
100
AcDbLine
 10
11.18852429881781
 20
-6.940997105187264
 30
0.0
 11
10.59170301708837
 21
-6.940997105187264
 31
0.0
  0
LINE
  5
A72
330
19
100
AcDbEntity
  8
TitleBlock&Notes
  6
Continuous
 62
     3
100
AcDbLine
 10
10.60962443822001
 20
-6.963436242765919
 30
0.0
 11
11.16608516123917
 21
-6.963436242765919
 31
0.0
  0
LINE
  5
A73
330
19
100
AcDbEntity
  8
TitleBlock&Notes
  6
Continuous
 62
     3
100
AcDbLine
 10
10.15625526156092
 20
-7.574416889577122
 30
0.0
 11
10.44810142248351
 21
-7.574416889577122
 31
0.0
  0
LINE
  5
A74
330
19
100
AcDbEntity
  8
TitleBlock&Notes
  6
Continuous
 62
     3
100
AcDbLine
 10
10.45318855448568
 20
-7.551977751998457
 30
0.0
 11
10.15116812955868
 21
-7.551977751998457
 31
0.0
  0
LINE
  5
A75
330
19
100
AcDbEntity
  8
TitleBlock&Notes
  6
Continuous
 62
     3
100
AcDbLine
 10
10.13622716443678
 20
-7.486073825416895
 30
0.0
 11
10.46812951960758
 21
-7.486073825416895
 31
0.0
  0
LINE
  5
A76
330
19
100
AcDbEntity
  8
TitleBlock&Notes
  6
Continuous
 62
     3
100
AcDbLine
 10
10.14131429643895
 20
-7.508512962995524
 30
0.0
 11
10.46304238760541
 21
-7.508512962995524
 31
0.0
  0
LINE
  5
A77
330
19
100
AcDbEntity
  8
TitleBlock&Notes
  6
Continuous
 62
     3
100
AcDbLine
 10
10.14608099755651
 20
-7.529538614419813
 30
0.0
 11
10.45827568648785
 21
-7.529538614419813
 31
0.0
  0
LINE
  5
A78
330
19
100
AcDbEntity
  8
TitleBlock&Notes
  6
Continuous
 62
     3
100
AcDbLine
 10
10.17628340356325
 20
-7.662759953737332
 30
0.0
 11
10.42807328048115
 21
-7.662759953737332
 31
0.0
  0
LINE
  5
A79
330
19
100
AcDbEntity
  8
TitleBlock&Notes
  6
Continuous
 62
     3
100
AcDbLine
 10
10.17944072485543
 20
-7.676686849353796
 30
0.0
 11
10.42589120898645
 21
-7.672385042288585
 31
0.0
  0
LINE
  5
A7A
330
19
100
AcDbEntity
  8
TitleBlock&Notes
  6
Continuous
 62
     3
100
AcDbLine
 10
10.22635369125175
 20
-7.883617569259612
 30
0.0
 11
10.37800299279265
 21
-7.883617569259612
 31
0.0
  0
LINE
  5
A7B
330
19
100
AcDbEntity
  8
TitleBlock&Notes
  6
Continuous
 62
     3
100
AcDbLine
 10
10.22403792737541
 20
-7.873402869929346
 30
0.0
 11
10.38093964760582
 21
-7.870664128309581
 31
0.0
  0
LINE
  5
A7C
330
19
100
AcDbEntity
  8
TitleBlock&Notes
  6
Continuous
 62
     3
100
AcDbLine
 10
10.18349502823313
 20
-7.694570123951567
 30
0.0
 11
10.4218047278855
 21
-7.69041040150552
 31
0.0
  0
LINE
  5
A7D
330
19
100
AcDbEntity
  8
TitleBlock&Notes
  6
Continuous
 62
     3
100
AcDbLine
 10
10.18754933161084
 20
-7.712453398549342
 30
0.0
 11
10.41771820190618
 21
-7.708435760722444
 31
0.0
  0
LINE
  5
A7E
330
19
100
AcDbEntity
  8
TitleBlock&Notes
  6
Continuous
 62
     3
100
AcDbLine
 10
10.19160359011029
 20
-7.730336673147114
 30
0.0
 11
10.41363172080519
 21
-7.726461164817639
 31
0.0
  0
LINE
  5
A7F
330
19
100
AcDbEntity
  8
TitleBlock&Notes
  6
Continuous
 62
     3
100
AcDbLine
 10
10.19565789348798
 20
-7.7482199477449
 30
0.0
 11
10.40954519482593
 21
-7.744486524034559
 31
0.0
  0
LINE
  5
A80
330
19
100
AcDbEntity
  8
TitleBlock&Notes
  6
Continuous
 62
     3
100
AcDbLine
 10
10.1997121968657
 20
-7.766103222342685
 30
0.0
 11
10.40545871372492
 21
-7.762511883251498
 31
0.0
  0
LINE
  5
A81
330
19
100
AcDbEntity
  8
TitleBlock&Notes
  6
Continuous
 62
     3
100
AcDbLine
 10
10.20376645536508
 20
-7.783986496940446
 30
0.0
 11
10.40137218774565
 21
-7.780537287346689
 31
0.0
  0
LINE
  5
A82
330
19
100
AcDbEntity
  8
TitleBlock&Notes
  6
Continuous
 62
     3
100
AcDbLine
 10
10.20782075874279
 20
-7.801869771538228
 30
0.0
 11
10.39728566176635
 21
-7.798562646563613
 31
0.0
  0
LINE
  5
A83
330
19
100
AcDbEntity
  8
TitleBlock&Notes
  6
Continuous
 62
     3
100
AcDbLine
 10
10.21187506212049
 20
-7.819753046136014
 30
0.0
 11
10.39319918066539
 21
-7.816588005780552
 31
0.0
  0
LINE
  5
A84
330
19
100
AcDbEntity
  8
TitleBlock&Notes
  6
Continuous
 62
     3
100
AcDbLine
 10
10.21592932061994
 20
-7.837636320733775
 30
0.0
 11
10.38911265468608
 21
-7.834613409875743
 31
0.0
  0
LINE
  5
A85
330
19
100
AcDbEntity
  8
TitleBlock&Notes
  6
Continuous
 62
     3
100
AcDbLine
 10
10.21998362399772
 20
-7.855519595331561
 30
0.0
 11
10.38502617358515
 21
-7.852638769092667
 31
0.0
  0
LINE
  5
A86
330
19
100
AcDbEntity
  8
TitleBlock&Notes
  6
Continuous
 62
     3
100
AcDbLine
 10
10.24638178837586
 20
-7.97196063341984
 30
0.0
 11
10.35797489566858
 21
-7.97196063341984
 31
0.0
  0
LINE
  5
A87
330
19
100
AcDbEntity
  8
TitleBlock&Notes
  6
Continuous
 62
     3
100
AcDbLine
 10
10.24926283900615
 20
-7.984668814596126
 30
0.0
 11
10.35551430959822
 21
-7.982814174996985
 31
0.0
  0
LINE
  5
A88
330
19
100
AcDbEntity
  8
TitleBlock&Notes
  6
Continuous
 62
     3
100
AcDbLine
 10
10.25331714238387
 20
-8.002552089193901
 30
0.0
 11
10.35142782849721
 21
-8.000839534213898
 31
0.0
  0
LINE
  5
A89
330
19
100
AcDbEntity
  8
TitleBlock&Notes
  6
Continuous
 62
     3
100
AcDbLine
 10
10.25737140088332
 20
-8.020435363791673
 30
0.0
 11
10.34734130251798
 21
-8.0188649383091
 31
0.0
  0
LINE
  5
A8A
330
19
100
AcDbEntity
  8
TitleBlock&Notes
  6
Continuous
 62
     3
100
AcDbLine
 10
10.26142570426103
 20
-8.038318638389458
 30
0.0
 11
10.34325482141696
 21
-8.036890297526014
 31
0.0
  0
LINE
  5
A8B
330
19
100
AcDbEntity
  8
TitleBlock&Notes
  6
Continuous
 62
     3
100
AcDbLine
 10
10.26548000763872
 20
-8.056201912987233
 30
0.0
 11
10.33916829543771
 21
-8.054915656742949
 31
0.0
  0
LINE
  5
A8C
330
19
100
AcDbEntity
  8
TitleBlock&Notes
  6
Continuous
 62
     3
100
AcDbLine
 10
10.26953426613811
 20
-8.074085187585016
 30
0.0
 11
10.33508181433671
 21
-8.072941060838154
 31
0.0
  0
LINE
  5
A8D
330
19
100
AcDbEntity
  8
TitleBlock&Notes
  6
Continuous
 62
     3
100
AcDbLine
 10
10.07614282818625
 20
-7.221044632936209
 30
0.0
 11
10.52821385585819
 21
-7.221044632936209
 31
0.0
  0
LINE
  5
A8E
330
19
100
AcDbEntity
  8
TitleBlock&Notes
  6
Continuous
 62
     3
100
AcDbLine
 10
10.06088138730144
 20
-7.153727220200277
 30
0.0
 11
10.543475296743
 21
-7.153727220200277
 31
0.0
  0
LINE
  5
A8F
330
19
100
AcDbEntity
  8
TitleBlock&Notes
  6
Continuous
 62
     3
100
AcDbLine
 10
10.53330103273861
 20
-7.198605495357568
 30
0.0
 11
10.07105569618409
 21
-7.198605495357568
 31
0.0
  0
LINE
  5
A90
330
19
100
AcDbEntity
  8
TitleBlock&Notes
  6
Continuous
 62
     3
100
AcDbLine
 10
10.53838816474083
 20
-7.176166357778942
 30
0.0
 11
10.06596851930361
 21
-7.176166357778942
 31
0.0
  0
LINE
  5
A91
330
19
100
AcDbEntity
  8
TitleBlock&Notes
  6
Continuous
 62
     3
100
AcDbLine
 10
11.43535481218285
 20
-7.662759953737332
 30
0.0
 11
11.18852429881781
 21
-7.662759953737332
 31
0.0
  0
LINE
  5
A92
330
19
100
AcDbEntity
  8
TitleBlock&Notes
  6
Continuous
 62
     3
100
AcDbLine
 10
11.18852429881781
 20
-7.67702725107085
 30
0.0
 11
11.43535481218285
 21
-7.672718802020934
 31
0.0
  0
LINE
  5
A93
330
19
100
AcDbEntity
  8
TitleBlock&Notes
  6
Continuous
 62
     3
100
AcDbLine
 10
11.43535481218285
 20
-7.574416889577122
 30
0.0
 11
11.18852429881781
 21
-7.574416889577122
 31
0.0
  0
LINE
  5
A94
330
19
100
AcDbEntity
  8
TitleBlock&Notes
  6
Continuous
 62
     3
100
AcDbLine
 10
11.43535481218285
 20
-7.551977751998457
 30
0.0
 11
11.18852429881781
 21
-7.551977751998457
 31
0.0
  0
LINE
  5
A95
330
19
100
AcDbEntity
  8
TitleBlock&Notes
  6
Continuous
 62
     3
100
AcDbLine
 10
11.43535481218285
 20
-7.486073825416895
 30
0.0
 11
11.18852429881781
 21
-7.486073825416895
 31
0.0
  0
LINE
  5
A96
330
19
100
AcDbEntity
  8
TitleBlock&Notes
  6
Continuous
 62
     3
100
AcDbLine
 10
11.43535481218285
 20
-7.508512962995524
 30
0.0
 11
11.18852429881781
 21
-7.508512962995524
 31
0.0
  0
LINE
  5
A97
330
19
100
AcDbEntity
  8
TitleBlock&Notes
  6
Continuous
 62
     3
100
AcDbLine
 10
11.43535481218285
 20
-7.529538614419813
 30
0.0
 11
11.18852429881781
 21
-7.529538614419813
 31
0.0
  0
LINE
  5
A98
330
19
100
AcDbEntity
  8
TitleBlock&Notes
  6
Continuous
 62
     3
100
AcDbLine
 10
11.43535481218285
 20
-7.97196063341984
 30
0.0
 11
11.18852429881781
 21
-7.97196063341984
 31
0.0
  0
LINE
  5
A99
330
19
100
AcDbEntity
  8
TitleBlock&Notes
  6
Continuous
 62
     3
100
AcDbLine
 10
11.43535481218285
 20
-7.883617569259612
 30
0.0
 11
11.18852429881781
 21
-7.883617569259612
 31
0.0
  0
LINE
  5
A9A
330
19
100
AcDbEntity
  8
TitleBlock&Notes
  6
Continuous
 62
     3
100
AcDbLine
 10
11.18852429881781
 20
-7.986227975631646
 30
0.0
 11
11.43535481218285
 21
-7.981919526581705
 31
0.0
  0
LINE
  5
A9B
330
19
100
AcDbEntity
  8
TitleBlock&Notes
  6
Continuous
 62
     3
100
AcDbLine
 10
11.18852429881781
 20
-8.00418202326934
 30
0.0
 11
11.43535481218285
 21
-7.999873574219414
 31
0.0
  0
LINE
  5
A9C
330
19
100
AcDbEntity
  8
TitleBlock&Notes
  6
Continuous
 62
     3
100
AcDbLine
 10
11.18852429881781
 20
-8.022136070907023
 30
0.0
 11
11.43535481218285
 21
-8.017827621857108
 31
0.0
  0
LINE
  5
A9D
330
19
100
AcDbEntity
  8
TitleBlock&Notes
  6
Continuous
 62
     3
100
AcDbLine
 10
11.18852429881781
 20
-8.040090118544739
 30
0.0
 11
11.43535481218285
 21
-8.035781669494824
 31
0.0
  0
LINE
  5
A9E
330
19
100
AcDbEntity
  8
TitleBlock&Notes
  6
Continuous
 62
     3
100
AcDbLine
 10
11.18852429881781
 20
-8.058044166182444
 30
0.0
 11
11.43535481218285
 21
-8.053735717132518
 31
0.0
  0
LINE
  5
A9F
330
19
100
AcDbEntity
  8
TitleBlock&Notes
  6
Continuous
 62
     3
100
AcDbLine
 10
11.18852429881781
 20
-8.075998213820138
 30
0.0
 11
11.43535481218285
 21
-8.071689764770212
 31
0.0
  0
LINE
  5
AA0
330
19
100
AcDbEntity
  8
TitleBlock&Notes
  6
Continuous
 62
     3
100
AcDbLine
 10
11.18852429881781
 20
-7.71293534634627
 30
0.0
 11
11.43535481218285
 21
-7.708626897296333
 31
0.0
  0
LINE
  5
AA1
330
19
100
AcDbEntity
  8
TitleBlock&Notes
  6
Continuous
 62
     3
100
AcDbLine
 10
11.18852429881781
 20
-7.730889393983968
 30
0.0
 11
11.43535481218285
 21
-7.726580944934024
 31
0.0
  0
LINE
  5
AA2
330
19
100
AcDbEntity
  8
TitleBlock&Notes
  6
Continuous
 62
     3
100
AcDbLine
 10
11.18852429881781
 20
-7.748843441621659
 30
0.0
 11
11.43535481218285
 21
-7.744534992571743
 31
0.0
  0
LINE
  5
AA3
330
19
100
AcDbEntity
  8
TitleBlock&Notes
  6
Continuous
 62
     3
100
AcDbLine
 10
11.18852429881781
 20
-7.766797489259364
 30
0.0
 11
11.43535481218285
 21
-7.762489040209427
 31
0.0
  0
LINE
  5
AA4
330
19
100
AcDbEntity
  8
TitleBlock&Notes
  6
Continuous
 62
     3
100
AcDbLine
 10
11.18852429881781
 20
-7.784751536897058
 30
0.0
 11
11.43535481218285
 21
-7.780443087847142
 31
0.0
  0
LINE
  5
AA5
330
19
100
AcDbEntity
  8
TitleBlock&Notes
  6
Continuous
 62
     3
100
AcDbLine
 10
11.18852429881781
 20
-7.802705584534763
 30
0.0
 11
11.43535481218285
 21
-7.798397135484837
 31
0.0
  0
LINE
  5
AA6
330
19
100
AcDbEntity
  8
TitleBlock&Notes
  6
Continuous
 62
     3
100
AcDbLine
 10
11.18852429881781
 20
-7.820659632172457
 30
0.0
 11
11.43535481218285
 21
-7.816351183122531
 31
0.0
  0
LINE
  5
AA7
330
19
100
AcDbEntity
  8
TitleBlock&Notes
  6
Continuous
 62
     3
100
AcDbLine
 10
11.18852429881781
 20
-7.838613679810151
 30
0.0
 11
11.43535481218285
 21
-7.834305230760236
 31
0.0
  0
LINE
  5
AA8
330
19
100
AcDbEntity
  8
TitleBlock&Notes
  6
Continuous
 62
     3
100
AcDbLine
 10
11.18852429881781
 20
-7.856567727447856
 30
0.0
 11
11.43535481218285
 21
-7.85225927839793
 31
0.0
  0
LINE
  5
AA9
330
19
100
AcDbEntity
  8
TitleBlock&Notes
  6
Continuous
 62
     3
100
AcDbLine
 10
11.18852429881781
 20
-7.874521730207295
 30
0.0
 11
11.43535481218285
 21
-7.870213326035635
 31
0.0
  0
LINE
  5
AAA
330
19
100
AcDbEntity
  8
TitleBlock&Notes
  6
Continuous
 62
     3
100
AcDbLine
 10
11.18852429881781
 20
-7.694981298708555
 30
0.0
 11
11.43535481218285
 21
-7.690672849658639
 31
0.0
  0
LINE
  5
AAB
330
19
100
AcDbEntity
  8
TitleBlock&Notes
  6
Continuous
 62
     3
100
AcDbLine
 10
11.43535481218285
 20
-7.221044632936223
 30
0.0
 11
11.18852429881781
 21
-7.221044632936223
 31
0.0
  0
LINE
  5
AAC
330
19
100
AcDbEntity
  8
TitleBlock&Notes
  6
Continuous
 62
     3
100
AcDbLine
 10
11.43535481218285
 20
-7.153727220200277
 30
0.0
 11
11.18852429881781
 21
-7.153727220200277
 31
0.0
  0
LINE
  5
AAD
330
19
100
AcDbEntity
  8
TitleBlock&Notes
  6
Continuous
 62
     3
100
AcDbLine
 10
11.43535481218285
 20
-7.198605495357579
 30
0.0
 11
11.18852429881781
 21
-7.198605495357579
 31
0.0
  0
LINE
  5
AAE
330
19
100
AcDbEntity
  8
TitleBlock&Notes
  6
Continuous
 62
     3
100
AcDbLine
 10
11.43535481218285
 20
-7.176166357778942
 30
0.0
 11
11.18852429881781
 21
-7.176166357778942
 31
0.0
  0
LINE
  5
AAF
330
19
100
AcDbEntity
  8
TitleBlock&Notes
  6
Continuous
 62
     3
100
AcDbLine
 10
12.8265813420588
 20
-6.985875380344555
 30
0.0
 11
12.48999427837913
 21
-6.985875380344555
 31
0.0
  0
LINE
  5
AB0
330
19
100
AcDbEntity
  8
TitleBlock&Notes
  6
Continuous
 62
     3
100
AcDbLine
 10
12.87145961721611
 20
-6.940997105187264
 30
0.0
 11
12.44511600322187
 21
-6.940997105187264
 31
0.0
  0
LINE
  5
AB1
330
19
100
AcDbEntity
  8
TitleBlock&Notes
  6
Continuous
 62
     3
100
AcDbLine
 10
12.46755514080052
 20
-6.963436242765919
 30
0.0
 11
12.84902047963749
 21
-6.963436242765919
 31
0.0
  0
LINE
  5
AB2
330
19
100
AcDbEntity
  8
TitleBlock&Notes
  6
Continuous
 62
     3
100
AcDbLine
 10
12.44511600322187
 20
-7.574416889577122
 30
0.0
 11
11.86169842617709
 21
-7.574416889577122
 31
0.0
  0
LINE
  5
AB3
330
19
100
AcDbEntity
  8
TitleBlock&Notes
  6
Continuous
 62
     3
100
AcDbLine
 10
12.44511600322187
 20
-7.486073825416895
 30
0.0
 11
11.86169842617709
 21
-7.486073825416895
 31
0.0
  0
LINE
  5
AB4
330
19
100
AcDbEntity
  8
TitleBlock&Notes
  6
Continuous
 62
     3
100
AcDbLine
 10
12.44511600322187
 20
-7.662759953737332
 30
0.0
 11
11.86169842617709
 21
-7.662759953737332
 31
0.0
  0
LINE
  5
AB5
330
19
100
AcDbEntity
  8
TitleBlock&Notes
  6
Continuous
 62
     3
100
AcDbLine
 10
11.86169842617709
 20
-7.683230999437217
 30
0.0
 11
12.44511600322187
 21
-7.673047400751634
 31
0.0
  0
LINE
  5
AB6
330
19
100
AcDbEntity
  8
TitleBlock&Notes
  6
Continuous
 62
     3
100
AcDbLine
 10
12.44511600322187
 20
-7.508512962995524
 30
0.0
 11
11.86169842617709
 21
-7.508512962995524
 31
0.0
  0
LINE
  5
AB7
330
19
100
AcDbEntity
  8
TitleBlock&Notes
  6
Continuous
 62
     3
100
AcDbLine
 10
12.44511600322187
 20
-7.530952100574175
 30
0.0
 11
11.86169842617709
 21
-7.530952100574175
 31
0.0
  0
LINE
  5
AB8
330
19
100
AcDbEntity
  8
TitleBlock&Notes
  6
Continuous
 62
     3
100
AcDbLine
 10
12.44511600322187
 20
-7.553391238152812
 30
0.0
 11
11.86169842617709
 21
-7.553391238152812
 31
0.0
  0
LINE
  5
AB9
330
19
100
AcDbEntity
  8
TitleBlock&Notes
  6
Continuous
 62
     3
100
AcDbLine
 10
12.44511600322187
 20
-7.97196063341984
 30
0.0
 11
11.86169842617709
 21
-7.97196063341984
 31
0.0
  0
LINE
  5
ABA
330
19
100
AcDbEntity
  8
TitleBlock&Notes
  6
Continuous
 62
     3
100
AcDbLine
 10
12.44511600322187
 20
-7.883617569259612
 30
0.0
 11
11.86169842617709
 21
-7.883617569259612
 31
0.0
  0
LINE
  5
ABB
330
19
100
AcDbEntity
  8
TitleBlock&Notes
  6
Continuous
 62
     3
100
AcDbLine
 10
11.86169842617709
 20
-7.992431723998006
 30
0.0
 11
12.44511600322187
 21
-7.98224812531242
 31
0.0
  0
LINE
  5
ABC
330
19
100
AcDbEntity
  8
TitleBlock&Notes
  6
Continuous
 62
     3
100
AcDbLine
 10
11.86169842617709
 20
-8.010385771635696
 30
0.0
 11
12.44511600322187
 21
-8.000202172950125
 31
0.0
  0
LINE
  5
ABD
330
19
100
AcDbEntity
  8
TitleBlock&Notes
  6
Continuous
 62
     3
100
AcDbLine
 10
11.86169842617709
 20
-8.028339819273391
 30
0.0
 11
12.44511600322187
 21
-8.018156220587819
 31
0.0
  0
LINE
  5
ABE
330
19
100
AcDbEntity
  8
TitleBlock&Notes
  6
Continuous
 62
     3
100
AcDbLine
 10
11.86169842617709
 20
-8.046293866911106
 30
0.0
 11
12.44511600322187
 21
-8.036110268225513
 31
0.0
  0
LINE
  5
ABF
330
19
100
AcDbEntity
  8
TitleBlock&Notes
  6
Continuous
 62
     3
100
AcDbLine
 10
11.86169842617709
 20
-8.064247914548815
 30
0.0
 11
12.44511600322187
 21
-8.054064315863218
 31
0.0
  0
LINE
  5
AC0
330
19
100
AcDbEntity
  8
TitleBlock&Notes
  6
Continuous
 62
     3
100
AcDbLine
 10
11.86169842617709
 20
-7.719139094712641
 30
0.0
 11
12.44511600322187
 21
-7.708955496027044
 31
0.0
  0
LINE
  5
AC1
330
19
100
AcDbEntity
  8
TitleBlock&Notes
  6
Continuous
 62
     3
100
AcDbLine
 10
11.86169842617709
 20
-7.737093142350332
 30
0.0
 11
12.44511600322187
 21
-7.726909543664739
 31
0.0
  0
LINE
  5
AC2
330
19
100
AcDbEntity
  8
TitleBlock&Notes
  6
Continuous
 62
     3
100
AcDbLine
 10
11.86169842617709
 20
-7.755047189988029
 30
0.0
 11
12.44511600322187
 21
-7.744863591302447
 31
0.0
  0
LINE
  5
AC3
330
19
100
AcDbEntity
  8
TitleBlock&Notes
  6
Continuous
 62
     3
100
AcDbLine
 10
11.86169842617709
 20
-7.773001237625734
 30
0.0
 11
12.44511600322187
 21
-7.762817638940138
 31
0.0
  0
LINE
  5
AC4
330
19
100
AcDbEntity
  8
TitleBlock&Notes
  6
Continuous
 62
     3
100
AcDbLine
 10
11.86169842617709
 20
-7.790955285263429
 30
0.0
 11
12.44511600322187
 21
-7.780771686577832
 31
0.0
  0
LINE
  5
AC5
330
19
100
AcDbEntity
  8
TitleBlock&Notes
  6
Continuous
 62
     3
100
AcDbLine
 10
11.86169842617709
 20
-7.808909332901134
 30
0.0
 11
12.44511600322187
 21
-7.798725734215537
 31
0.0
  0
LINE
  5
AC6
330
19
100
AcDbEntity
  8
TitleBlock&Notes
  6
Continuous
 62
     3
100
AcDbLine
 10
11.86169842617709
 20
-7.826863380538828
 30
0.0
 11
12.44511600322187
 21
-7.816679781853231
 31
0.0
  0
LINE
  5
AC7
330
19
100
AcDbEntity
  8
TitleBlock&Notes
  6
Continuous
 62
     3
100
AcDbLine
 10
11.86169842617709
 20
-7.844817428176519
 30
0.0
 11
12.44511600322187
 21
-7.834633829490936
 31
0.0
  0
LINE
  5
AC8
330
19
100
AcDbEntity
  8
TitleBlock&Notes
  6
Continuous
 62
     3
100
AcDbLine
 10
11.86169842617709
 20
-7.862771475814223
 30
0.0
 11
12.44511600322187
 21
-7.85258787712863
 31
0.0
  0
LINE
  5
AC9
330
19
100
AcDbEntity
  8
TitleBlock&Notes
  6
Continuous
 62
     3
100
AcDbLine
 10
11.86169842617709
 20
-7.880725478573666
 30
0.0
 11
12.44511600322187
 21
-7.870541924766325
 31
0.0
  0
LINE
  5
ACA
330
19
100
AcDbEntity
  8
TitleBlock&Notes
  6
Continuous
 62
     3
100
AcDbLine
 10
11.86169842617709
 20
-7.701185047074922
 30
0.0
 11
12.44511600322187
 21
-7.691001448389329
 31
0.0
  0
LINE
  5
ACB
330
19
100
AcDbEntity
  8
TitleBlock&Notes
  6
Continuous
 62
     3
100
AcDbLine
 10
11.86169842617709
 20
-7.665276951799523
 30
0.0
 11
12.00589905599875
 21
-7.662759953737332
 31
0.0
  0
LINE
  5
ACC
330
19
100
AcDbEntity
  8
TitleBlock&Notes
  6
Continuous
 62
     3
100
AcDbLine
 10
11.86169842617709
 20
-7.974477676360319
 30
0.0
 11
12.00589905599875
 21
-7.97196063341984
 31
0.0
  0
LINE
  5
ACD
330
19
100
AcDbEntity
  8
TitleBlock&Notes
  6
Continuous
 62
     3
100
AcDbLine
 10
12.44511600322187
 20
-7.221044632936223
 30
0.0
 11
11.86169842617709
 21
-7.221044632936223
 31
0.0
  0
LINE
  5
ACE
330
19
100
AcDbEntity
  8
TitleBlock&Notes
  6
Continuous
 62
     3
100
AcDbLine
 10
12.44511600322187
 20
-7.153727220200277
 30
0.0
 11
11.86169842617709
 21
-7.153727220200277
 31
0.0
  0
LINE
  5
ACF
330
19
100
AcDbEntity
  8
TitleBlock&Notes
  6
Continuous
 62
     3
100
AcDbLine
 10
12.44511600322187
 20
-7.176166357778942
 30
0.0
 11
11.86169842617709
 21
-7.176166357778942
 31
0.0
  0
LINE
  5
AD0
330
19
100
AcDbEntity
  8
TitleBlock&Notes
  6
Continuous
 62
     3
100
AcDbLine
 10
12.44511600322187
 20
-7.198605495357579
 30
0.0
 11
11.86169842617709
 21
-7.198605495357579
 31
0.0
  0
LINE
  5
AD1
330
19
100
AcDbEntity
  8
TitleBlock&Notes
  6
Continuous
 62
     3
100
AcDbLine
 10
13.05097271784522
 20
-7.662759953737332
 30
0.0
 11
12.87145961721611
 21
-7.662759953737332
 31
0.0
  0
LINE
  5
AD2
330
19
100
AcDbEntity
  8
TitleBlock&Notes
  6
Continuous
 62
     3
100
AcDbLine
 10
12.87145961721611
 20
-7.665605550530237
 30
0.0
 11
13.03448560638762
 21
-7.662759953737332
 31
0.0
  0
LINE
  5
AD3
330
19
100
AcDbEntity
  8
TitleBlock&Notes
  6
Continuous
 62
     3
100
AcDbLine
 10
12.87145961721611
 20
-7.683559598167942
 30
0.0
 11
13.05097271784522
 21
-7.68042619699645
 31
0.0
  0
LINE
  5
AD4
330
19
100
AcDbEntity
  8
TitleBlock&Notes
  6
Continuous
 62
     3
100
AcDbLine
 10
13.05097271784522
 20
-7.574416889577122
 30
0.0
 11
12.87145961721611
 21
-7.574416889577122
 31
0.0
  0
LINE
  5
AD5
330
19
100
AcDbEntity
  8
TitleBlock&Notes
  6
Continuous
 62
     3
100
AcDbLine
 10
13.05097271784522
 20
-7.553391238152812
 30
0.0
 11
12.87145961721611
 21
-7.553391238152812
 31
0.0
  0
LINE
  5
AD6
330
19
100
AcDbEntity
  8
TitleBlock&Notes
  6
Continuous
 62
     3
100
AcDbLine
 10
13.05097271784522
 20
-7.486073825416895
 30
0.0
 11
12.87145961721611
 21
-7.486073825416895
 31
0.0
  0
LINE
  5
AD7
330
19
100
AcDbEntity
  8
TitleBlock&Notes
  6
Continuous
 62
     3
100
AcDbLine
 10
13.05097271784522
 20
-7.508512962995524
 30
0.0
 11
12.87145961721611
 21
-7.508512962995524
 31
0.0
  0
LINE
  5
AD8
330
19
100
AcDbEntity
  8
TitleBlock&Notes
  6
Continuous
 62
     3
100
AcDbLine
 10
13.05097271784522
 20
-7.530952100574175
 30
0.0
 11
12.87145961721611
 21
-7.530952100574175
 31
0.0
  0
LINE
  5
AD9
330
19
100
AcDbEntity
  8
TitleBlock&Notes
  6
Continuous
 62
     3
100
AcDbLine
 10
13.05097271784522
 20
-7.97196063341984
 30
0.0
 11
12.87145961721611
 21
-7.97196063341984
 31
0.0
  0
LINE
  5
ADA
330
19
100
AcDbEntity
  8
TitleBlock&Notes
  6
Continuous
 62
     3
100
AcDbLine
 10
13.05097271784522
 20
-7.883617569259612
 30
0.0
 11
12.87145961721611
 21
-7.883617569259612
 31
0.0
  0
LINE
  5
ADB
330
19
100
AcDbEntity
  8
TitleBlock&Notes
  6
Continuous
 62
     3
100
AcDbLine
 10
12.87145961721611
 20
-7.974806275091008
 30
0.0
 11
13.03448560638762
 21
-7.97196063341984
 31
0.0
  0
LINE
  5
ADC
330
19
100
AcDbEntity
  8
TitleBlock&Notes
  6
Continuous
 62
     3
100
AcDbLine
 10
12.87145961721611
 20
-7.992760322728702
 30
0.0
 11
13.05097271784522
 21
-7.989626921557221
 31
0.0
  0
LINE
  5
ADD
330
19
100
AcDbEntity
  8
TitleBlock&Notes
  6
Continuous
 62
     3
100
AcDbLine
 10
12.87145961721611
 20
-8.010714370366411
 30
0.0
 11
13.05097271784522
 21
-8.007580969194929
 31
0.0
  0
LINE
  5
ADE
330
19
100
AcDbEntity
  8
TitleBlock&Notes
  6
Continuous
 62
     3
100
AcDbLine
 10
12.87145961721611
 20
-8.028668418004116
 30
0.0
 11
13.05097271784522
 21
-8.025535016832623
 31
0.0
  0
LINE
  5
ADF
330
19
100
AcDbEntity
  8
TitleBlock&Notes
  6
Continuous
 62
     3
100
AcDbLine
 10
12.87145961721611
 20
-8.04662246564181
 30
0.0
 11
13.05097271784522
 21
-8.043489019592037
 31
0.0
  0
LINE
  5
AE0
330
19
100
AcDbEntity
  8
TitleBlock&Notes
  6
Continuous
 62
     3
100
AcDbLine
 10
12.87145961721611
 20
-8.064576513279501
 30
0.0
 11
13.05097271784522
 21
-8.061443067229753
 31
0.0
  0
LINE
  5
AE1
330
19
100
AcDbEntity
  8
TitleBlock&Notes
  6
Continuous
 62
     3
100
AcDbLine
 10
12.87145961721611
 20
-7.719467693443331
 30
0.0
 11
13.05097271784522
 21
-7.716334292271849
 31
0.0
  0
LINE
  5
AE2
330
19
100
AcDbEntity
  8
TitleBlock&Notes
  6
Continuous
 62
     3
100
AcDbLine
 10
12.87145961721611
 20
-7.737421741081021
 30
0.0
 11
13.05097271784522
 21
-7.734288339909539
 31
0.0
  0
LINE
  5
AE3
330
19
100
AcDbEntity
  8
TitleBlock&Notes
  6
Continuous
 62
     3
100
AcDbLine
 10
12.87145961721611
 20
-7.755375788718726
 30
0.0
 11
13.05097271784522
 21
-7.752242387547244
 31
0.0
  0
LINE
  5
AE4
330
19
100
AcDbEntity
  8
TitleBlock&Notes
  6
Continuous
 62
     3
100
AcDbLine
 10
12.87145961721611
 20
-7.773329836356435
 30
0.0
 11
13.05097271784522
 21
-7.770196435184939
 31
0.0
  0
LINE
  5
AE5
330
19
100
AcDbEntity
  8
TitleBlock&Notes
  6
Continuous
 62
     3
100
AcDbLine
 10
12.87145961721611
 20
-7.791283883994129
 30
0.0
 11
13.05097271784522
 21
-7.788150482822636
 31
0.0
  0
LINE
  5
AE6
330
19
100
AcDbEntity
  8
TitleBlock&Notes
  6
Continuous
 62
     3
100
AcDbLine
 10
12.87145961721611
 20
-7.809237931631823
 30
0.0
 11
13.05097271784522
 21
-7.806104485582071
 31
0.0
  0
LINE
  5
AE7
330
19
100
AcDbEntity
  8
TitleBlock&Notes
  6
Continuous
 62
     3
100
AcDbLine
 10
12.87145961721611
 20
-7.827191979269528
 30
0.0
 11
13.05097271784522
 21
-7.82405853321978
 31
0.0
  0
LINE
  5
AE8
330
19
100
AcDbEntity
  8
TitleBlock&Notes
  6
Continuous
 62
     3
100
AcDbLine
 10
12.87145961721611
 20
-7.845146026907222
 30
0.0
 11
13.05097271784522
 21
-7.84201258085747
 31
0.0
  0
LINE
  5
AE9
330
19
100
AcDbEntity
  8
TitleBlock&Notes
  6
Continuous
 62
     3
100
AcDbLine
 10
12.87145961721611
 20
-7.863100029666657
 30
0.0
 11
13.05097271784522
 21
-7.859966628495165
 31
0.0
  0
LINE
  5
AEA
330
19
100
AcDbEntity
  8
TitleBlock&Notes
  6
Continuous
 62
     3
100
AcDbLine
 10
12.87145961721611
 20
-7.881054077304355
 30
0.0
 11
13.05097271784522
 21
-7.87792067613287
 31
0.0
  0
LINE
  5
AEB
330
19
100
AcDbEntity
  8
TitleBlock&Notes
  6
Continuous
 62
     3
100
AcDbLine
 10
12.87145961721611
 20
-7.701513645805636
 30
0.0
 11
13.05097271784522
 21
-7.69838024463414
 31
0.0
  0
LINE
  5
AEC
330
19
100
AcDbEntity
  8
TitleBlock&Notes
  6
Continuous
 62
     3
100
AcDbLine
 10
13.05097271784522
 20
-7.221044632936223
 30
0.0
 11
12.87145961721611
 21
-7.221044632936223
 31
0.0
  0
LINE
  5
AED
330
19
100
AcDbEntity
  8
TitleBlock&Notes
  6
Continuous
 62
     3
100
AcDbLine
 10
13.05097271784522
 20
-7.153727220200277
 30
0.0
 11
12.87145961721611
 21
-7.153727220200277
 31
0.0
  0
LINE
  5
AEE
330
19
100
AcDbEntity
  8
TitleBlock&Notes
  6
Continuous
 62
     3
100
AcDbLine
 10
13.05097271784522
 20
-7.176166357778942
 30
0.0
 11
12.87145961721611
 21
-7.176166357778942
 31
0.0
  0
LINE
  5
AEF
330
19
100
AcDbEntity
  8
TitleBlock&Notes
  6
Continuous
 62
     3
100
AcDbLine
 10
13.05097271784522
 20
-7.198605495357579
 30
0.0
 11
12.87145961721611
 21
-7.198605495357579
 31
0.0
  0
LINE
  5
AF0
330
19
100
AcDbEntity
  8
TitleBlock&Notes
  6
Continuous
 62
     3
100
AcDbLine
 10
13.09585099300253
 20
-6.985875380344555
 30
0.0
 11
13.4324380566822
 21
-6.985875380344555
 31
0.0
  0
LINE
  5
AF1
330
19
100
AcDbEntity
  8
TitleBlock&Notes
  6
Continuous
 62
     3
100
AcDbLine
 10
16.64123473042831
 20
-8.225306754285355
 30
0.0
 11
16.64123473042831
 21
-7.704709562414414
 31
0.0
  0
LINE
  5
AF2
330
19
100
AcDbEntity
  8
TitleBlock&Notes
  6
Continuous
 62
     3
100
AcDbLine
 10
15.96806060306895
 20
-6.985875380344555
 30
0.0
 11
15.96806060306895
 21
-8.960519487265244
 31
0.0
  0
LINE
  5
AF3
330
19
100
AcDbEntity
  8
TitleBlock&Notes
  6
Continuous
 62
     3
100
AcDbLine
 10
16.01293887822621
 20
-9.005397762422525
 30
0.0
 11
16.01293887822621
 21
-6.940997105187264
 31
0.0
  0
LINE
  5
AF4
330
19
100
AcDbEntity
  8
TitleBlock&Notes
  6
Continuous
 62
     3
100
AcDbLine
 10
15.9904997406476
 20
-6.963436242765919
 30
0.0
 11
15.9904997406476
 21
-8.982958624843881
 31
0.0
  0
LINE
  5
AF5
330
19
100
AcDbEntity
  8
TitleBlock&Notes
  6
Continuous
 62
     3
100
AcDbLine
 10
16.69053495179336
 20
-7.67916691259553
 30
0.0
 11
16.68611300558556
 21
-8.22265045405707
 31
0.0
  0
LINE
  5
AF6
330
19
100
AcDbEntity
  8
TitleBlock&Notes
  6
Continuous
 62
     3
100
AcDbLine
 10
16.66809657714544
 20
-7.678984347772185
 30
0.0
 11
16.66367458605933
 21
-8.222467889233726
 31
0.0
  0
LINE
  5
AF7
330
19
100
AcDbEntity
  8
TitleBlock&Notes
  6
Continuous
 62
     3
100
AcDbLine
 10
16.30464766674863
 20
-8.242467084748618
 30
0.0
 11
16.30464766674863
 21
-7.68148864528252
 31
0.0
  0
LINE
  5
AF8
330
19
100
AcDbEntity
  8
TitleBlock&Notes
  6
Continuous
 62
     3
100
AcDbLine
 10
16.25976939159133
 20
-8.244448729866466
 30
0.0
 11
16.25976939159133
 21
-7.678768752538331
 31
0.0
  0
LINE
  5
AF9
330
19
100
AcDbEntity
  8
TitleBlock&Notes
  6
Continuous
 62
     3
100
AcDbLine
 10
16.28220852916997
 20
-8.244448729866466
 30
0.0
 11
16.28220852916997
 21
-7.678768752538331
 31
0.0
  0
LINE
  5
AFA
330
19
100
AcDbEntity
  8
TitleBlock&Notes
  6
Continuous
 62
     3
100
AcDbLine
 10
14.94707984324063
 20
-8.082208559292958
 30
0.0
 11
15.58659526423198
 21
-8.071045761521698
 31
0.0
  0
LINE
  5
AFB
330
19
100
AcDbEntity
  8
TitleBlock&Notes
  6
Continuous
 62
     3
100
AcDbLine
 10
14.9022015680834
 20
-7.322462444024218
 30
0.0
 11
14.9022015680834
 21
-8.960519487265244
 31
0.0
  0
LINE
  5
AFC
330
19
100
AcDbEntity
  8
TitleBlock&Notes
  6
Continuous
 62
     3
100
AcDbLine
 10
15.63147353938929
 20
-6.985875380344555
 30
0.0
 11
15.63147353938929
 21
-8.960519487265244
 31
0.0
  0
LINE
  5
AFD
330
19
100
AcDbEntity
  8
TitleBlock&Notes
  6
Continuous
 62
     3
100
AcDbLine
 10
14.94707984324063
 20
-9.005397762422525
 30
0.0
 11
14.94707984324063
 21
-7.367340719181498
 31
0.0
  0
LINE
  5
AFE
330
19
100
AcDbEntity
  8
TitleBlock&Notes
  6
Continuous
 62
     3
100
AcDbLine
 10
15.58659526423198
 20
-6.940997105187264
 30
0.0
 11
15.58659526423198
 21
-9.005397762422525
 31
0.0
  0
LINE
  5
AFF
330
19
100
AcDbEntity
  8
TitleBlock&Notes
  6
Continuous
 62
     3
100
AcDbLine
 10
15.60903440181067
 20
-6.963436242765919
 30
0.0
 11
15.60903440181067
 21
-8.982958624843881
 31
0.0
  0
LINE
  5
B00
330
19
100
AcDbEntity
  8
TitleBlock&Notes
  6
Continuous
 62
     3
100
AcDbLine
 10
14.92464070566202
 20
-7.344901581602858
 30
0.0
 11
14.92464070566202
 21
-8.982958624843881
 31
0.0
  0
LINE
  5
B01
330
19
100
AcDbEntity
  8
TitleBlock&Notes
  6
Continuous
 62
     3
100
AcDbLine
 10
14.56561450440373
 20
-7.322462444024218
 30
0.0
 11
14.56561450440373
 21
-8.960519487265244
 31
0.0
  0
LINE
  5
B02
330
19
100
AcDbEntity
  8
TitleBlock&Notes
  6
Continuous
 62
     3
100
AcDbLine
 10
14.5207362292464
 20
-7.367340719181498
 30
0.0
 11
14.5207362292464
 21
-9.005397762422525
 31
0.0
  0
LINE
  5
B03
330
19
100
AcDbEntity
  8
TitleBlock&Notes
  6
Continuous
 62
     3
100
AcDbLine
 10
14.54317536682509
 20
-7.344901581602858
 30
0.0
 11
14.54317536682509
 21
-8.982958624843881
 31
0.0
  0
LINE
  5
B04
330
19
100
AcDbEntity
  8
TitleBlock&Notes
  6
Continuous
 62
     3
100
AcDbLine
 10
13.47731633183946
 20
-8.579054148428291
 30
0.0
 11
13.47731633183946
 21
-6.940997105187264
 31
0.0
  0
LINE
  5
B05
330
19
100
AcDbEntity
  8
TitleBlock&Notes
  6
Continuous
 62
     3
100
AcDbLine
 10
13.45487719426084
 20
-8.601493286006927
 30
0.0
 11
13.45487719426084
 21
-6.963436242765919
 31
0.0
  0
LINE
  5
B06
330
19
100
AcDbEntity
  8
TitleBlock&Notes
  6
Continuous
 62
     3
100
AcDbLine
 10
13.47731633183946
 20
-8.089909312283744
 30
0.0
 11
14.5207362292464
 21
-8.071696361876664
 31
0.0
  0
LINE
  5
B07
330
19
100
AcDbEntity
  8
TitleBlock&Notes
  6
Continuous
 62
     3
100
AcDbLine
 10
14.94707984324063
 20
-8.413675954220938
 30
0.0
 11
15.58659526423198
 21
-8.413675954220938
 31
0.0
  0
LINE
  5
B08
330
19
100
AcDbEntity
  8
TitleBlock&Notes
  6
Continuous
 62
     3
100
AcDbLine
 10
14.94707984324063
 20
-8.424651699341339
 30
0.0
 11
15.57587878090716
 21
-8.413675954220938
 31
0.0
  0
LINE
  5
B09
330
19
100
AcDbEntity
  8
TitleBlock&Notes
  6
Continuous
 62
     3
100
AcDbLine
 10
14.94707984324063
 20
-8.442605746979044
 30
0.0
 11
15.58659526423198
 21
-8.431442949207781
 31
0.0
  0
LINE
  5
B0A
330
19
100
AcDbEntity
  8
TitleBlock&Notes
  6
Continuous
 62
     3
100
AcDbLine
 10
14.94707984324063
 20
-8.460559749738457
 30
0.0
 11
15.58659526423198
 21
-8.449396996845479
 31
0.0
  0
LINE
  5
B0B
330
19
100
AcDbEntity
  8
TitleBlock&Notes
  6
Continuous
 62
     3
100
AcDbLine
 10
14.94707984324063
 20
-8.478513797376152
 30
0.0
 11
15.58659526423198
 21
-8.467351044483184
 31
0.0
  0
LINE
  5
B0C
330
19
100
AcDbEntity
  8
TitleBlock&Notes
  6
Continuous
 62
     3
100
AcDbLine
 10
14.94707984324063
 20
-8.496467845013857
 30
0.0
 11
15.58659526423198
 21
-8.485305092120899
 31
0.0
  0
LINE
  5
B0D
330
19
100
AcDbEntity
  8
TitleBlock&Notes
  6
Continuous
 62
     3
100
AcDbLine
 10
14.94707984324063
 20
-8.325332890060725
 30
0.0
 11
15.58659526423198
 21
-8.325332890060725
 31
0.0
  0
LINE
  5
B0E
330
19
100
AcDbEntity
  8
TitleBlock&Notes
  6
Continuous
 62
     3
100
AcDbLine
 10
14.94707984324063
 20
-8.100162606930652
 30
0.0
 11
15.58659526423198
 21
-8.088999809159403
 31
0.0
  0
LINE
  5
B0F
330
19
100
AcDbEntity
  8
TitleBlock&Notes
  6
Continuous
 62
     3
100
AcDbLine
 10
14.94707984324063
 20
-8.118116654568346
 30
0.0
 11
15.58659526423198
 21
-8.106953856797098
 31
0.0
  0
LINE
  5
B10
330
19
100
AcDbEntity
  8
TitleBlock&Notes
  6
Continuous
 62
     3
100
AcDbLine
 10
14.94707984324063
 20
-8.136070702206051
 30
0.0
 11
15.58659526423198
 21
-8.124907904434813
 31
0.0
  0
LINE
  5
B11
330
19
100
AcDbEntity
  8
TitleBlock&Notes
  6
Continuous
 62
     3
100
AcDbLine
 10
14.94707984324063
 20
-8.15402470496549
 30
0.0
 11
15.58659526423198
 21
-8.142861952072511
 31
0.0
  0
LINE
  5
B12
330
19
100
AcDbEntity
  8
TitleBlock&Notes
  6
Continuous
 62
     3
100
AcDbLine
 10
14.94707984324063
 20
-8.171978752603184
 30
0.0
 11
15.58659526423198
 21
-8.160815999710191
 31
0.0
  0
LINE
  5
B13
330
19
100
AcDbEntity
  8
TitleBlock&Notes
  6
Continuous
 62
     3
100
AcDbLine
 10
14.94707984324063
 20
-8.189932800240864
 30
0.0
 11
15.58659526423198
 21
-8.17877004734791
 31
0.0
  0
LINE
  5
B14
330
19
100
AcDbEntity
  8
TitleBlock&Notes
  6
Continuous
 62
     3
100
AcDbLine
 10
14.94707984324063
 20
-8.207886847878583
 30
0.0
 11
15.58659526423198
 21
-8.196724094985601
 31
0.0
  0
LINE
  5
B15
330
19
100
AcDbEntity
  8
TitleBlock&Notes
  6
Continuous
 62
     3
100
AcDbLine
 10
14.94707984324063
 20
-8.225840895516277
 30
0.0
 11
15.58659526423198
 21
-8.214678097745029
 31
0.0
  0
LINE
  5
B16
330
19
100
AcDbEntity
  8
TitleBlock&Notes
  6
Continuous
 62
     3
100
AcDbLine
 10
14.94707984324063
 20
-8.243794943153982
 30
0.0
 11
15.58659526423198
 21
-8.232632145382723
 31
0.0
  0
LINE
  5
B17
330
19
100
AcDbEntity
  8
TitleBlock&Notes
  6
Continuous
 62
     3
100
AcDbLine
 10
14.94707984324063
 20
-8.261748990791677
 30
0.0
 11
15.58659526423198
 21
-8.250586193020428
 31
0.0
  0
LINE
  5
B18
330
19
100
AcDbEntity
  8
TitleBlock&Notes
  6
Continuous
 62
     3
100
AcDbLine
 10
14.94707984324063
 20
-8.279703038429371
 30
0.0
 11
15.58659526423198
 21
-8.268540240658122
 31
0.0
  0
LINE
  5
B19
330
19
100
AcDbEntity
  8
TitleBlock&Notes
  6
Continuous
 62
     3
100
AcDbLine
 10
14.94707984324063
 20
-8.297657086067076
 30
0.0
 11
15.58659526423198
 21
-8.286494288295827
 31
0.0
  0
LINE
  5
B1A
330
19
100
AcDbEntity
  8
TitleBlock&Notes
  6
Continuous
 62
     3
100
AcDbLine
 10
14.94707984324063
 20
-8.315611133704766
 30
0.0
 11
15.58659526423198
 21
-8.304448335933521
 31
0.0
  0
LINE
  5
B1B
330
19
100
AcDbEntity
  8
TitleBlock&Notes
  6
Continuous
 62
     3
100
AcDbLine
 10
14.94707984324063
 20
-8.837594705251881
 30
0.0
 11
15.58659526423198
 21
-8.826431907480646
 31
0.0
  0
LINE
  5
B1C
330
19
100
AcDbEntity
  8
TitleBlock&Notes
  6
Continuous
 62
     3
100
AcDbLine
 10
14.94707984324063
 20
-8.855548752889593
 30
0.0
 11
15.58659526423198
 21
-8.844385955118326
 31
0.0
  0
LINE
  5
B1D
330
19
100
AcDbEntity
  8
TitleBlock&Notes
  6
Continuous
 62
     3
100
AcDbLine
 10
14.94707984324063
 20
-8.873502800527276
 30
0.0
 11
15.58659526423198
 21
-8.862340002756042
 31
0.0
  0
LINE
  5
B1E
330
19
100
AcDbEntity
  8
TitleBlock&Notes
  6
Continuous
 62
     3
100
AcDbLine
 10
14.94707984324063
 20
-8.89145684816497
 30
0.0
 11
15.58659526423198
 21
-8.880294050393736
 31
0.0
  0
LINE
  5
B1F
330
19
100
AcDbEntity
  8
TitleBlock&Notes
  6
Continuous
 62
     3
100
AcDbLine
 10
14.94707984324063
 20
-8.90941089580269
 30
0.0
 11
15.58659526423198
 21
-8.898248098031441
 31
0.0
  0
LINE
  5
B20
330
19
100
AcDbEntity
  8
TitleBlock&Notes
  6
Continuous
 62
     3
100
AcDbLine
 10
14.94707984324063
 20
-8.92736494344038
 30
0.0
 11
15.58659526423198
 21
-8.916202145669135
 31
0.0
  0
LINE
  5
B21
330
19
100
AcDbEntity
  8
TitleBlock&Notes
  6
Continuous
 62
     3
100
AcDbLine
 10
14.94707984324063
 20
-8.945318991078089
 30
0.0
 11
15.58659526423198
 21
-8.934156193306826
 31
0.0
  0
LINE
  5
B22
330
19
100
AcDbEntity
  8
TitleBlock&Notes
  6
Continuous
 62
     3
100
AcDbLine
 10
14.94707984324063
 20
-8.963273038715783
 30
0.0
 11
15.58659526423198
 21
-8.952110240944538
 31
0.0
  0
LINE
  5
B23
330
19
100
AcDbEntity
  8
TitleBlock&Notes
  6
Continuous
 62
     3
100
AcDbLine
 10
14.94707984324063
 20
-8.981227041475207
 30
0.0
 11
15.58659526423198
 21
-8.970064288582229
 31
0.0
  0
LINE
  5
B24
330
19
100
AcDbEntity
  8
TitleBlock&Notes
  6
Continuous
 62
     3
100
AcDbLine
 10
14.94707984324063
 20
-8.999181089112902
 30
0.0
 11
15.58659526423198
 21
-8.988018336219933
 31
0.0
  0
LINE
  5
B25
330
19
100
AcDbEntity
  8
TitleBlock&Notes
  6
Continuous
 62
     3
100
AcDbLine
 10
14.94707984324063
 20
-8.747824467063384
 30
0.0
 11
15.58659526423198
 21
-8.736661714170416
 31
0.0
  0
LINE
  5
B26
330
19
100
AcDbEntity
  8
TitleBlock&Notes
  6
Continuous
 62
     3
100
AcDbLine
 10
14.94707984324063
 20
-8.765778514701093
 30
0.0
 11
15.58659526423198
 21
-8.754615761808111
 31
0.0
  0
LINE
  5
B27
330
19
100
AcDbEntity
  8
TitleBlock&Notes
  6
Continuous
 62
     3
100
AcDbLine
 10
14.94707984324063
 20
-8.783732562338784
 30
0.0
 11
15.58659526423198
 21
-8.772569809445805
 31
0.0
  0
LINE
  5
B28
330
19
100
AcDbEntity
  8
TitleBlock&Notes
  6
Continuous
 62
     3
100
AcDbLine
 10
14.94707984324063
 20
-8.801686609976481
 30
0.0
 11
15.58659526423198
 21
-8.790523812205233
 31
0.0
  0
LINE
  5
B29
330
19
100
AcDbEntity
  8
TitleBlock&Notes
  6
Continuous
 62
     3
100
AcDbLine
 10
14.94707984324063
 20
-8.819640657614183
 30
0.0
 11
15.58659526423198
 21
-8.808477859842948
 31
0.0
  0
LINE
  5
B2A
330
19
100
AcDbEntity
  8
TitleBlock&Notes
  6
Continuous
 62
     3
100
AcDbLine
 10
14.94707984324063
 20
-8.53237594028927
 30
0.0
 11
15.58659526423198
 21
-8.521213142518007
 31
0.0
  0
LINE
  5
B2B
330
19
100
AcDbEntity
  8
TitleBlock&Notes
  6
Continuous
 62
     3
100
AcDbLine
 10
14.94707984324063
 20
-8.550329987926961
 30
0.0
 11
15.58659526423198
 21
-8.539167190155716
 31
0.0
  0
LINE
  5
B2C
330
19
100
AcDbEntity
  8
TitleBlock&Notes
  6
Continuous
 62
     3
100
AcDbLine
 10
14.94707984324063
 20
-8.568284035564655
 30
0.0
 11
15.58659526423198
 21
-8.55712123779341
 31
0.0
  0
LINE
  5
B2D
330
19
100
AcDbEntity
  8
TitleBlock&Notes
  6
Continuous
 62
     3
100
AcDbLine
 10
14.94707984324063
 20
-8.58623808320236
 30
0.0
 11
15.58659526423198
 21
-8.575075285431115
 31
0.0
  0
LINE
  5
B2E
330
19
100
AcDbEntity
  8
TitleBlock&Notes
  6
Continuous
 62
     3
100
AcDbLine
 10
14.94707984324063
 20
-8.604192130840068
 30
0.0
 11
15.58659526423198
 21
-8.593029333068809
 31
0.0
  0
LINE
  5
B2F
330
19
100
AcDbEntity
  8
TitleBlock&Notes
  6
Continuous
 62
     3
100
AcDbLine
 10
14.94707984324063
 20
-8.622146178477763
 30
0.0
 11
15.58659526423198
 21
-8.610983380706503
 31
0.0
  0
LINE
  5
B30
330
19
100
AcDbEntity
  8
TitleBlock&Notes
  6
Continuous
 62
     3
100
AcDbLine
 10
14.94707984324063
 20
-8.640100226115453
 30
0.0
 11
15.58659526423198
 21
-8.628937428344208
 31
0.0
  0
LINE
  5
B31
330
19
100
AcDbEntity
  8
TitleBlock&Notes
  6
Continuous
 62
     3
100
AcDbLine
 10
14.94707984324063
 20
-8.658054273753162
 30
0.0
 11
15.58659526423198
 21
-8.646891475981927
 31
0.0
  0
LINE
  5
B32
330
19
100
AcDbEntity
  8
TitleBlock&Notes
  6
Continuous
 62
     3
100
AcDbLine
 10
14.94707984324063
 20
-8.676008321390852
 30
0.0
 11
15.58659526423198
 21
-8.664845523619618
 31
0.0
  0
LINE
  5
B33
330
19
100
AcDbEntity
  8
TitleBlock&Notes
  6
Continuous
 62
     3
100
AcDbLine
 10
14.94707984324063
 20
-8.693962369028572
 30
0.0
 11
15.58659526423198
 21
-8.682799571257312
 31
0.0
  0
LINE
  5
B34
330
19
100
AcDbEntity
  8
TitleBlock&Notes
  6
Continuous
 62
     3
100
AcDbLine
 10
14.94707984324063
 20
-8.711916371787989
 30
0.0
 11
15.58659526423198
 21
-8.700753618895017
 31
0.0
  0
LINE
  5
B35
330
19
100
AcDbEntity
  8
TitleBlock&Notes
  6
Continuous
 62
     3
100
AcDbLine
 10
14.94707984324063
 20
-8.729870419425679
 30
0.0
 11
15.58659526423198
 21
-8.718707666532715
 31
0.0
  0
LINE
  5
B36
330
19
100
AcDbEntity
  8
TitleBlock&Notes
  6
Continuous
 62
     3
100
AcDbLine
 10
14.94707984324063
 20
-8.514421892651551
 30
0.0
 11
15.58659526423198
 21
-8.503259139758593
 31
0.0
  0
LINE
  5
B37
330
19
100
AcDbEntity
  8
TitleBlock&Notes
  6
Continuous
 62
     3
100
AcDbLine
 10
14.33000355982793
 20
-8.579054148428291
 30
0.0
 11
13.47731633183946
 21
-8.579054148428291
 31
0.0
  0
LINE
  5
B38
330
19
100
AcDbEntity
  8
TitleBlock&Notes
  6
Continuous
 62
     3
100
AcDbLine
 10
13.47731633183946
 20
-8.413675954220938
 30
0.0
 11
14.5207362292464
 21
-8.413675954220938
 31
0.0
  0
LINE
  5
B39
330
19
100
AcDbEntity
  8
TitleBlock&Notes
  6
Continuous
 62
     3
100
AcDbLine
 10
13.47731633183946
 20
-8.432352452332125
 30
0.0
 11
14.5207362292464
 21
-8.414139501925053
 31
0.0
  0
LINE
  5
B3A
330
19
100
AcDbEntity
  8
TitleBlock&Notes
  6
Continuous
 62
     3
100
AcDbLine
 10
13.47731633183946
 20
-8.45030649996983
 30
0.0
 11
14.5207362292464
 21
-8.432093549562747
 31
0.0
  0
LINE
  5
B3B
330
19
100
AcDbEntity
  8
TitleBlock&Notes
  6
Continuous
 62
     3
100
AcDbLine
 10
13.47731633183946
 20
-8.468260547607524
 30
0.0
 11
14.5207362292464
 21
-8.450047597200441
 31
0.0
  0
LINE
  5
B3C
330
19
100
AcDbEntity
  8
TitleBlock&Notes
  6
Continuous
 62
     3
100
AcDbLine
 10
13.47731633183946
 20
-8.486214595245229
 30
0.0
 11
14.5207362292464
 21
-8.468001644838146
 31
0.0
  0
LINE
  5
B3D
330
19
100
AcDbEntity
  8
TitleBlock&Notes
  6
Continuous
 62
     3
100
AcDbLine
 10
13.47731633183946
 20
-8.50416864288292
 30
0.0
 11
14.5207362292464
 21
-8.485955647597574
 31
0.0
  0
LINE
  5
B3E
330
19
100
AcDbEntity
  8
TitleBlock&Notes
  6
Continuous
 62
     3
100
AcDbLine
 10
13.47731633183946
 20
-8.522122690520614
 30
0.0
 11
14.5207362292464
 21
-8.503909695235268
 31
0.0
  0
LINE
  5
B3F
330
19
100
AcDbEntity
  8
TitleBlock&Notes
  6
Continuous
 62
     3
100
AcDbLine
 10
13.47731633183946
 20
-8.540076738158322
 30
0.0
 11
14.5207362292464
 21
-8.521863742872959
 31
0.0
  0
LINE
  5
B40
330
19
100
AcDbEntity
  8
TitleBlock&Notes
  6
Continuous
 62
     3
100
AcDbLine
 10
13.47731633183946
 20
-8.558030785796017
 30
0.0
 11
14.5207362292464
 21
-8.539817790510678
 31
0.0
  0
LINE
  5
B41
330
19
100
AcDbEntity
  8
TitleBlock&Notes
  6
Continuous
 62
     3
100
AcDbLine
 10
13.47731633183946
 20
-8.575984788555455
 30
0.0
 11
14.5207362292464
 21
-8.557771838148372
 31
0.0
  0
LINE
  5
B42
330
19
100
AcDbEntity
  8
TitleBlock&Notes
  6
Continuous
 62
     3
100
AcDbLine
 10
13.47731633183946
 20
-8.325332890060725
 30
0.0
 11
14.5207362292464
 21
-8.325332890060725
 31
0.0
  0
LINE
  5
B43
330
19
100
AcDbEntity
  8
TitleBlock&Notes
  6
Continuous
 62
     3
100
AcDbLine
 10
13.47731633183946
 20
-8.107863359921452
 30
0.0
 11
14.5207362292464
 21
-8.089650409514355
 31
0.0
  0
LINE
  5
B44
330
19
100
AcDbEntity
  8
TitleBlock&Notes
  6
Continuous
 62
     3
100
AcDbLine
 10
13.47731633183946
 20
-8.125817407559143
 30
0.0
 11
14.5207362292464
 21
-8.10760445715206
 31
0.0
  0
LINE
  5
B45
330
19
100
AcDbEntity
  8
TitleBlock&Notes
  6
Continuous
 62
     3
100
AcDbLine
 10
13.47731633183946
 20
-8.143771455196837
 30
0.0
 11
14.5207362292464
 21
-8.125558504789765
 31
0.0
  0
LINE
  5
B46
330
19
100
AcDbEntity
  8
TitleBlock&Notes
  6
Continuous
 62
     3
100
AcDbLine
 10
13.47731633183946
 20
-8.161725502834542
 30
0.0
 11
14.5207362292464
 21
-8.143512552427459
 31
0.0
  0
LINE
  5
B47
330
19
100
AcDbEntity
  8
TitleBlock&Notes
  6
Continuous
 62
     3
100
AcDbLine
 10
13.47731633183946
 20
-8.179679550472236
 30
0.0
 11
14.5207362292464
 21
-8.161466600065153
 31
0.0
  0
LINE
  5
B48
330
19
100
AcDbEntity
  8
TitleBlock&Notes
  6
Continuous
 62
     3
100
AcDbLine
 10
13.47731633183946
 20
-8.197633598109952
 30
0.0
 11
14.5207362292464
 21
-8.179420602824581
 31
0.0
  0
LINE
  5
B49
330
19
100
AcDbEntity
  8
TitleBlock&Notes
  6
Continuous
 62
     3
100
AcDbLine
 10
13.47731633183946
 20
-8.215587645747646
 30
0.0
 11
14.5207362292464
 21
-8.197374650462272
 31
0.0
  0
LINE
  5
B4A
330
19
100
AcDbEntity
  8
TitleBlock&Notes
  6
Continuous
 62
     3
100
AcDbLine
 10
13.47731633183946
 20
-8.23354169338534
 30
0.0
 11
14.5207362292464
 21
-8.215328698099991
 31
0.0
  0
LINE
  5
B4B
330
19
100
AcDbEntity
  8
TitleBlock&Notes
  6
Continuous
 62
     3
100
AcDbLine
 10
13.47731633183946
 20
-8.251495741023049
 30
0.0
 11
14.5207362292464
 21
-8.233282745737685
 31
0.0
  0
LINE
  5
B4C
330
19
100
AcDbEntity
  8
TitleBlock&Notes
  6
Continuous
 62
     3
100
AcDbLine
 10
13.47731633183946
 20
-8.269449743782473
 30
0.0
 11
14.5207362292464
 21
-8.25123679337538
 31
0.0
  0
LINE
  5
B4D
330
19
100
AcDbEntity
  8
TitleBlock&Notes
  6
Continuous
 62
     3
100
AcDbLine
 10
13.47731633183946
 20
-8.287403791420167
 30
0.0
 11
14.5207362292464
 21
-8.269190841013084
 31
0.0
  0
LINE
  5
B4E
330
19
100
AcDbEntity
  8
TitleBlock&Notes
  6
Continuous
 62
     3
100
AcDbLine
 10
13.47731633183946
 20
-8.305357839057862
 30
0.0
 11
14.5207362292464
 21
-8.287144888650789
 31
0.0
  0
LINE
  5
B4F
330
19
100
AcDbEntity
  8
TitleBlock&Notes
  6
Continuous
 62
     3
100
AcDbLine
 10
13.47731633183946
 20
-8.323311886695567
 30
0.0
 11
14.5207362292464
 21
-8.305098936288487
 31
0.0
  0
LINE
  5
B50
330
19
100
AcDbEntity
  8
TitleBlock&Notes
  6
Continuous
 62
     3
100
AcDbLine
 10
14.28512528467066
 20
-8.960519487265244
 30
0.0
 11
14.28512528467066
 21
-8.623932423585571
 31
0.0
  0
LINE
  5
B51
330
19
100
AcDbEntity
  8
TitleBlock&Notes
  6
Continuous
 62
     3
100
AcDbLine
 10
14.3075644222493
 20
-8.601493286006927
 30
0.0
 11
14.3075644222493
 21
-8.982958624843881
 31
0.0
  0
LINE
  5
B52
330
19
100
AcDbEntity
  8
TitleBlock&Notes
  6
Continuous
 62
     3
100
AcDbLine
 10
14.3075644222493
 20
-8.601493286006927
 30
0.0
 11
13.45487719426084
 21
-8.601493286006927
 31
0.0
  0
LINE
  5
B53
330
19
100
AcDbEntity
  8
TitleBlock&Notes
  6
Continuous
 62
     3
100
AcDbLine
 10
13.47731633183946
 20
-8.414398404694431
 30
0.0
 11
13.51870576988602
 21
-8.413675954220938
 31
0.0
  0
LINE
  5
B54
330
19
100
AcDbEntity
  8
TitleBlock&Notes
  6
Continuous
 62
     3
100
AcDbLine
 10
14.33000355982793
 20
-9.005397762422525
 30
0.0
 11
14.33000355982793
 21
-8.579054148428291
 31
0.0
  0
LINE
  5
B55
330
19
100
AcDbEntity
  8
TitleBlock&Notes
  6
Continuous
 62
     3
100
AcDbLine
 10
14.5207362292464
 20
-9.005397762422525
 30
0.0
 11
14.94707984324063
 21
-9.005397762422525
 31
0.0
  0
LINE
  5
B56
330
19
100
AcDbEntity
  8
TitleBlock&Notes
  6
Continuous
 62
     3
100
AcDbLine
 10
14.54317536682509
 20
-8.982958624843881
 30
0.0
 11
14.92464070566202
 21
-8.982958624843881
 31
0.0
  0
LINE
  5
B57
330
19
100
AcDbEntity
  8
TitleBlock&Notes
  6
Continuous
 62
     3
100
AcDbLine
 10
14.56561450440373
 20
-8.960519487265244
 30
0.0
 11
14.9022015680834
 21
-8.960519487265244
 31
0.0
  0
LINE
  5
B58
330
19
100
AcDbEntity
  8
TitleBlock&Notes
  6
Continuous
 62
     3
100
AcDbLine
 10
14.33000355982793
 20
-8.848365805437552
 30
0.0
 11
14.5207362292464
 21
-8.845036555473289
 31
0.0
  0
LINE
  5
B59
330
19
100
AcDbEntity
  8
TitleBlock&Notes
  6
Continuous
 62
     3
100
AcDbLine
 10
14.33000355982793
 20
-8.866319853075271
 30
0.0
 11
14.5207362292464
 21
-8.862990603110983
 31
0.0
  0
LINE
  5
B5A
330
19
100
AcDbEntity
  8
TitleBlock&Notes
  6
Continuous
 62
     3
100
AcDbLine
 10
14.33000355982793
 20
-8.884273900712962
 30
0.0
 11
14.5207362292464
 21
-8.880944650748688
 31
0.0
  0
LINE
  5
B5B
330
19
100
AcDbEntity
  8
TitleBlock&Notes
  6
Continuous
 62
     3
100
AcDbLine
 10
14.33000355982793
 20
-8.902227948350656
 30
0.0
 11
14.5207362292464
 21
-8.898898698386382
 31
0.0
  0
LINE
  5
B5C
330
19
100
AcDbEntity
  8
TitleBlock&Notes
  6
Continuous
 62
     3
100
AcDbLine
 10
14.33000355982793
 20
-8.920181995988361
 30
0.0
 11
14.5207362292464
 21
-8.916852746024101
 31
0.0
  0
LINE
  5
B5D
330
19
100
AcDbEntity
  8
TitleBlock&Notes
  6
Continuous
 62
     3
100
AcDbLine
 10
14.33000355982793
 20
-8.938136043626052
 30
0.0
 11
14.5207362292464
 21
-8.934806793661792
 31
0.0
  0
LINE
  5
B5E
330
19
100
AcDbEntity
  8
TitleBlock&Notes
  6
Continuous
 62
     3
100
AcDbLine
 10
14.33000355982793
 20
-8.956090091263764
 30
0.0
 11
14.5207362292464
 21
-8.952760841299486
 31
0.0
  0
LINE
  5
B5F
330
19
100
AcDbEntity
  8
TitleBlock&Notes
  6
Continuous
 62
     3
100
AcDbLine
 10
14.33000355982793
 20
-8.974044138901454
 30
0.0
 11
14.5207362292464
 21
-8.970714888937191
 31
0.0
  0
LINE
  5
B60
330
19
100
AcDbEntity
  8
TitleBlock&Notes
  6
Continuous
 62
     3
100
AcDbLine
 10
14.33000355982793
 20
-8.991998186539149
 30
0.0
 11
14.5207362292464
 21
-8.988668936574882
 31
0.0
  0
LINE
  5
B61
330
19
100
AcDbEntity
  8
TitleBlock&Notes
  6
Continuous
 62
     3
100
AcDbLine
 10
14.33000355982793
 20
-8.758595567249056
 30
0.0
 11
14.5207362292464
 21
-8.755266317284796
 31
0.0
  0
LINE
  5
B62
330
19
100
AcDbEntity
  8
TitleBlock&Notes
  6
Continuous
 62
     3
100
AcDbLine
 10
14.33000355982793
 20
-8.776549614886764
 30
0.0
 11
14.5207362292464
 21
-8.77322036492249
 31
0.0
  0
LINE
  5
B63
330
19
100
AcDbEntity
  8
TitleBlock&Notes
  6
Continuous
 62
     3
100
AcDbLine
 10
14.33000355982793
 20
-8.794503662524459
 30
0.0
 11
14.5207362292464
 21
-8.791174412560195
 31
0.0
  0
LINE
  5
B64
330
19
100
AcDbEntity
  8
TitleBlock&Notes
  6
Continuous
 62
     3
100
AcDbLine
 10
14.33000355982793
 20
-8.812457710162153
 30
0.0
 11
14.5207362292464
 21
-8.809128460197886
 31
0.0
  0
LINE
  5
B65
330
19
100
AcDbEntity
  8
TitleBlock&Notes
  6
Continuous
 62
     3
100
AcDbLine
 10
14.33000355982793
 20
-8.830411757799843
 30
0.0
 11
14.5207362292464
 21
-8.827082507835594
 31
0.0
  0
LINE
  5
B66
330
19
100
AcDbEntity
  8
TitleBlock&Notes
  6
Continuous
 62
     3
100
AcDbLine
 10
14.39012020843663
 20
-8.325332890060725
 30
0.0
 11
14.5207362292464
 21
-8.323052983926178
 31
0.0
  0
LINE
  5
B67
330
19
100
AcDbEntity
  8
TitleBlock&Notes
  6
Continuous
 62
     3
100
AcDbLine
 10
14.33000355982793
 20
-8.740641564489632
 30
0.0
 11
14.5207362292464
 21
-8.737312314525357
 31
0.0
  0
LINE
  5
B68
330
19
100
AcDbEntity
  8
TitleBlock&Notes
  6
Continuous
 62
     3
100
AcDbLine
 10
14.33000355982793
 20
-8.57905513575033
 30
0.0
 11
14.5207362292464
 21
-8.575725885786077
 31
0.0
  0
LINE
  5
B69
330
19
100
AcDbEntity
  8
TitleBlock&Notes
  6
Continuous
 62
     3
100
AcDbLine
 10
14.33000355982793
 20
-8.597009183388035
 30
0.0
 11
14.5207362292464
 21
-8.593679933423771
 31
0.0
  0
LINE
  5
B6A
330
19
100
AcDbEntity
  8
TitleBlock&Notes
  6
Continuous
 62
     3
100
AcDbLine
 10
14.33000355982793
 20
-8.61496323102574
 30
0.0
 11
14.5207362292464
 21
-8.611633981061466
 31
0.0
  0
LINE
  5
B6B
330
19
100
AcDbEntity
  8
TitleBlock&Notes
  6
Continuous
 62
     3
100
AcDbLine
 10
14.33000355982793
 20
-8.632917278663434
 30
0.0
 11
14.5207362292464
 21
-8.629588028699171
 31
0.0
  0
LINE
  5
B6C
330
19
100
AcDbEntity
  8
TitleBlock&Notes
  6
Continuous
 62
     3
100
AcDbLine
 10
14.33000355982793
 20
-8.650871326301125
 30
0.0
 11
14.5207362292464
 21
-8.647542076336865
 31
0.0
  0
LINE
  5
B6D
330
19
100
AcDbEntity
  8
TitleBlock&Notes
  6
Continuous
 62
     3
100
AcDbLine
 10
14.33000355982793
 20
-8.668825373938823
 30
0.0
 11
14.5207362292464
 21
-8.66549612397457
 31
0.0
  0
LINE
  5
B6E
330
19
100
AcDbEntity
  8
TitleBlock&Notes
  6
Continuous
 62
     3
100
AcDbLine
 10
14.33000355982793
 20
-8.686779421576538
 30
0.0
 11
14.5207362292464
 21
-8.683450171612264
 31
0.0
  0
LINE
  5
B6F
330
19
100
AcDbEntity
  8
TitleBlock&Notes
  6
Continuous
 62
     3
100
AcDbLine
 10
14.33000355982793
 20
-8.704733469214243
 30
0.0
 11
14.5207362292464
 21
-8.701404219249955
 31
0.0
  0
LINE
  5
B70
330
19
100
AcDbEntity
  8
TitleBlock&Notes
  6
Continuous
 62
     3
100
AcDbLine
 10
14.33000355982793
 20
-8.722687516851941
 30
0.0
 11
14.5207362292464
 21
-8.719358266887663
 31
0.0
  0
TEXT
  5
B71
330
19
100
AcDbEntity
  8
TitleBlock&Notes
  6
Continuous
 62
     3
100
AcDbText
 10
15.32093800029055
 20
-10.05099340348735
 30
0.0
 40
0.3141479261010163
  1
 POWER
 41
0.8
 51
11.0
100
AcDbText
  0
LINE
  5
B72
330
19
100
AcDbEntity
  8
TitleBlock&Notes
  6
Continuous
 62
     3
100
AcDbLine
 10
16.01293887822621
 20
-8.413675954220938
 30
0.0
 11
16.2924264148578
 21
-8.413675954220938
 31
0.0
  0
LINE
  5
B73
330
19
100
AcDbEntity
  8
TitleBlock&Notes
  6
Continuous
 62
     3
100
AcDbLine
 10
16.01293887822621
 20
-8.424001098986373
 30
0.0
 11
16.29408816763031
 21
-8.419093614719656
 31
0.0
  0
LINE
  5
B74
330
19
100
AcDbEntity
  8
TitleBlock&Notes
  6
Continuous
 62
     3
100
AcDbLine
 10
16.01293887822621
 20
-8.441955146624092
 30
0.0
 11
16.29985197426529
 21
-8.436947045264453
 31
0.0
  0
LINE
  5
B75
330
19
100
AcDbEntity
  8
TitleBlock&Notes
  6
Continuous
 62
     3
100
AcDbLine
 10
16.01293887822621
 20
-8.459909194261786
 30
0.0
 11
16.30606173632057
 21
-8.45479271186765
 31
0.0
  0
LINE
  5
B76
330
19
100
AcDbEntity
  8
TitleBlock&Notes
  6
Continuous
 62
     3
100
AcDbLine
 10
16.01293887822621
 20
-8.477863241899466
 30
0.0
 11
16.31272768604274
 21
-8.472630390137858
 31
0.0
  0
LINE
  5
B77
330
19
100
AcDbEntity
  8
TitleBlock&Notes
  6
Continuous
 62
     3
100
AcDbLine
 10
16.01293887822621
 20
-8.495817244658905
 30
0.0
 11
16.3198609083659
 21
-8.490459900562001
 31
0.0
  0
LINE
  5
B78
330
19
100
AcDbEntity
  8
TitleBlock&Notes
  6
Continuous
 62
     3
100
AcDbLine
 10
16.01293887822621
 20
-8.09951200657569
 30
0.0
 11
16.25976939159133
 21
-8.095203557525774
 31
0.0
  0
LINE
  5
B79
330
19
100
AcDbEntity
  8
TitleBlock&Notes
  6
Continuous
 62
     3
100
AcDbLine
 10
16.01293887822621
 20
-8.117466054213405
 30
0.0
 11
16.25976939159133
 21
-8.113157605163468
 31
0.0
  0
LINE
  5
B7A
330
19
100
AcDbEntity
  8
TitleBlock&Notes
  6
Continuous
 62
     3
100
AcDbLine
 10
16.01293887822621
 20
-8.135420101851099
 30
0.0
 11
16.25976939159133
 21
-8.131111652801173
 31
0.0
  0
LINE
  5
B7B
330
19
100
AcDbEntity
  8
TitleBlock&Notes
  6
Continuous
 62
     3
100
AcDbLine
 10
16.01293887822621
 20
-8.153374149488808
 30
0.0
 11
16.25976939159133
 21
-8.149065700438864
 31
0.0
  0
LINE
  5
B7C
330
19
100
AcDbEntity
  8
TitleBlock&Notes
  6
Continuous
 62
     3
100
AcDbLine
 10
16.01293887822621
 20
-8.171328197126499
 30
0.0
 11
16.25976939159133
 21
-8.167019748076558
 31
0.0
  0
LINE
  5
B7D
330
19
100
AcDbEntity
  8
TitleBlock&Notes
  6
Continuous
 62
     3
100
AcDbLine
 10
16.01293887822621
 20
-8.189282199885916
 30
0.0
 11
16.25976939159133
 21
-8.184973795714277
 31
0.0
  0
LINE
  5
B7E
330
19
100
AcDbEntity
  8
TitleBlock&Notes
  6
Continuous
 62
     3
100
AcDbLine
 10
16.01293887822621
 20
-8.207236247523621
 30
0.0
 11
16.25976939159133
 21
-8.202927843351972
 31
0.0
  0
LINE
  5
B7F
330
19
100
AcDbEntity
  8
TitleBlock&Notes
  6
Continuous
 62
     3
100
AcDbLine
 10
16.01293887822621
 20
-8.225190295161326
 30
0.0
 11
16.25976939159133
 21
-8.220881846111399
 31
0.0
  0
LINE
  5
B80
330
19
100
AcDbEntity
  8
TitleBlock&Notes
  6
Continuous
 62
     3
100
AcDbLine
 10
16.01293887822621
 20
-8.24314434279902
 30
0.0
 11
16.25976939159133
 21
-8.23883589374909
 31
0.0
  0
LINE
  5
B81
330
19
100
AcDbEntity
  8
TitleBlock&Notes
  6
Continuous
 62
     3
100
AcDbLine
 10
16.01293887822621
 20
-8.261098390436711
 30
0.0
 11
16.26093685504126
 21
-8.256769566649868
 31
0.0
  0
LINE
  5
B82
330
19
100
AcDbEntity
  8
TitleBlock&Notes
  6
Continuous
 62
     3
100
AcDbLine
 10
16.01293887822621
 20
-8.27905243807443
 30
0.0
 11
16.2629651735653
 21
-8.27468820532848
 31
0.0
  0
LINE
  5
B83
330
19
100
AcDbEntity
  8
TitleBlock&Notes
  6
Continuous
 62
     3
100
AcDbLine
 10
16.01293887822621
 20
-8.297006485712113
 30
0.0
 11
16.26538676041451
 21
-8.292599977630967
 31
0.0
  0
LINE
  5
B84
330
19
100
AcDbEntity
  8
TitleBlock&Notes
  6
Continuous
 62
     3
100
AcDbLine
 10
16.01293887822621
 20
-8.325332890060725
 30
0.0
 11
16.27084180451637
 21
-8.325332890060725
 31
0.0
  0
LINE
  5
B85
330
19
100
AcDbEntity
  8
TitleBlock&Notes
  6
Continuous
 62
     3
100
AcDbLine
 10
16.01293887822621
 20
-8.314960533349829
 30
0.0
 11
16.26820462243338
 21
-8.310504838679104
 31
0.0
  0
LINE
  5
B86
330
19
100
AcDbEntity
  8
TitleBlock&Notes
  6
Continuous
 62
     3
100
AcDbLine
 10
16.01293887822621
 20
-8.747173866708426
 30
0.0
 11
16.47925799532993
 21
-8.739034249064882
 31
0.0
  0
LINE
  5
B87
330
19
100
AcDbEntity
  8
TitleBlock&Notes
  6
Continuous
 62
     3
100
AcDbLine
 10
16.01293887822621
 20
-8.765127914346127
 30
0.0
 11
16.49614192049649
 21
-8.756693581069608
 31
0.0
  0
LINE
  5
B88
330
19
100
AcDbEntity
  8
TitleBlock&Notes
  6
Continuous
 62
     3
100
AcDbLine
 10
16.01293887822621
 20
-8.783081961983825
 30
0.0
 11
16.51404274249988
 21
-8.774335186155667
 31
0.0
  0
LINE
  5
B89
330
19
100
AcDbEntity
  8
TitleBlock&Notes
  6
Continuous
 62
     3
100
AcDbLine
 10
16.01293887822621
 20
-8.801036009621515
 30
0.0
 11
16.5330549749875
 21
-8.791957358948593
 31
0.0
  0
LINE
  5
B8A
330
19
100
AcDbEntity
  8
TitleBlock&Notes
  6
Continuous
 62
     3
100
AcDbLine
 10
16.01293887822621
 20
-8.818990057259235
 30
0.0
 11
16.55329247414351
 21
-8.809558169682514
 31
0.0
  0
LINE
  5
B8B
330
19
100
AcDbEntity
  8
TitleBlock&Notes
  6
Continuous
 62
     3
100
AcDbLine
 10
16.01293887822621
 20
-8.836944104896929
 30
0.0
 11
16.57489431774252
 21
-8.827135150052349
 31
0.0
  0
LINE
  5
B8C
330
19
100
AcDbEntity
  8
TitleBlock&Notes
  6
Continuous
 62
     3
100
AcDbLine
 10
16.01293887822621
 20
-8.854898152534634
 30
0.0
 11
16.59803351153531
 21
-8.844685293213625
 31
0.0
  0
LINE
  5
B8D
330
19
100
AcDbEntity
  8
TitleBlock&Notes
  6
Continuous
 62
     3
100
AcDbLine
 10
16.01293887822621
 20
-8.872852200172324
 30
0.0
 11
16.62292977955715
 21
-8.862204784512979
 31
0.0
  0
LINE
  5
B8E
330
19
100
AcDbEntity
  8
TitleBlock&Notes
  6
Continuous
 62
     3
100
AcDbLine
 10
16.01293887822621
 20
-8.890806247810019
 30
0.0
 11
16.64986953495988
 21
-8.879688597583584
 31
0.0
  0
LINE
  5
B8F
330
19
100
AcDbEntity
  8
TitleBlock&Notes
  6
Continuous
 62
     3
100
AcDbLine
 10
16.01293887822621
 20
-8.908760295447727
 30
0.0
 11
16.67923819237076
 21
-8.897130000684171
 31
0.0
  0
LINE
  5
B90
330
19
100
AcDbEntity
  8
TitleBlock&Notes
  6
Continuous
 62
     3
100
AcDbLine
 10
16.01293887822621
 20
-8.926714343085428
 30
0.0
 11
16.71157644524876
 21
-8.914519569376942
 31
0.0
  0
LINE
  5
B91
330
19
100
AcDbEntity
  8
TitleBlock&Notes
  6
Continuous
 62
     3
100
AcDbLine
 10
16.01293887822621
 20
-8.944668390723126
 30
0.0
 11
16.7476859991014
 21
-8.931843301640054
 31
0.0
  0
LINE
  5
B92
330
19
100
AcDbEntity
  8
TitleBlock&Notes
  6
Continuous
 62
     3
100
AcDbLine
 10
16.01293887822621
 20
-8.962622438360821
 30
0.0
 11
16.78885135992007
 21
-8.949078803214202
 31
0.0
  0
LINE
  5
B93
330
19
100
AcDbEntity
  8
TitleBlock&Notes
  6
Continuous
 62
     3
100
AcDbLine
 10
16.01293887822621
 20
-8.980576485998536
 30
0.0
 11
16.83738833645953
 21
-8.966185638773485
 31
0.0
  0
LINE
  5
B94
330
19
100
AcDbEntity
  8
TitleBlock&Notes
  6
Continuous
 62
     3
100
AcDbLine
 10
16.01293887822621
 20
-8.51377129229661
 30
0.0
 11
16.3274739243288
 21
-8.508281063626963
 31
0.0
  0
LINE
  5
B95
330
19
100
AcDbEntity
  8
TitleBlock&Notes
  6
Continuous
 62
     3
100
AcDbLine
 10
16.01293887822621
 20
-8.531725339934304
 30
0.0
 11
16.3355805115618
 21
-8.526093610063096
 31
0.0
  0
LINE
  5
B96
330
19
100
AcDbEntity
  8
TitleBlock&Notes
  6
Continuous
 62
     3
100
AcDbLine
 10
16.01293887822621
 20
-8.549679387572002
 30
0.0
 11
16.34419601843513
 21
-8.543897270600737
 31
0.0
  0
LINE
  5
B97
330
19
100
AcDbEntity
  8
TitleBlock&Notes
  6
Continuous
 62
     3
100
AcDbLine
 10
16.01293887822621
 20
-8.567633435209707
 30
0.0
 11
16.35333749869332
 21
-8.56169177597026
 31
0.0
  0
LINE
  5
B98
330
19
100
AcDbEntity
  8
TitleBlock&Notes
  6
Continuous
 62
     3
100
AcDbLine
 10
16.01293887822621
 20
-8.585587482847397
 30
0.0
 11
16.36302398072495
 21
-8.579476722267166
 31
0.0
  0
LINE
  5
B99
330
19
100
AcDbEntity
  8
TitleBlock&Notes
  6
Continuous
 62
     3
100
AcDbLine
 10
16.01293887822621
 20
-8.603541530485106
 30
0.0
 11
16.3732765573195
 21
-8.597251795343531
 31
0.0
  0
LINE
  5
B9A
330
19
100
AcDbEntity
  8
TitleBlock&Notes
  6
Continuous
 62
     3
100
AcDbLine
 10
16.01293887822621
 20
-8.621495578122797
 30
0.0
 11
16.38411896908436
 21
-8.615016591294885
 31
0.0
  0
LINE
  5
B9B
330
19
100
AcDbEntity
  8
TitleBlock&Notes
  6
Continuous
 62
     3
100
AcDbLine
 10
16.01293887822621
 20
-8.639449625760491
 30
0.0
 11
16.39557769420203
 21
-8.632770616460224
 31
0.0
  0
LINE
  5
B9C
330
19
100
AcDbEntity
  8
TitleBlock&Notes
  6
Continuous
 62
     3
100
AcDbLine
 10
16.01293887822621
 20
-8.657403673398206
 30
0.0
 11
16.4076825767254
 21
-8.650513377178484
 31
0.0
  0
LINE
  5
B9D
330
19
100
AcDbEntity
  8
TitleBlock&Notes
  6
Continuous
 62
     3
100
AcDbLine
 10
16.01293887822621
 20
-8.675357721035915
 30
0.0
 11
16.42046732023907
 21
-8.668244290032088
 31
0.0
  0
LINE
  5
B9E
330
19
100
AcDbEntity
  8
TitleBlock&Notes
  6
Continuous
 62
     3
100
AcDbLine
 10
16.01293887822621
 20
-8.693311768673609
 30
0.0
 11
16.43397020591184
 21
-8.685962636968675
 31
0.0
  0
LINE
  5
B9F
330
19
100
AcDbEntity
  8
TitleBlock&Notes
  6
Continuous
 62
     3
100
AcDbLine
 10
16.01293887822621
 20
-8.711265816311303
 30
0.0
 11
16.44823490030541
 21
-8.703667699935792
 31
0.0
  0
LINE
  5
BA0
330
19
100
AcDbEntity
  8
TitleBlock&Notes
  6
Continuous
 62
     3
100
AcDbLine
 10
16.01293887822621
 20
-8.729219863948994
 30
0.0
 11
16.46331153245314
 21
-8.721358581367979
 31
0.0
  0
LINE
  5
BA1
330
19
100
AcDbEntity
  8
TitleBlock&Notes
  6
Continuous
 62
     3
100
AcDbLine
 10
15.58659526423198
 20
-9.005397762422525
 30
0.0
 11
16.01293887822621
 21
-9.005397762422525
 31
0.0
  0
LINE
  5
BA2
330
19
100
AcDbEntity
  8
TitleBlock&Notes
  6
Continuous
 62
     3
100
AcDbLine
 10
15.63147353938929
 20
-8.960519487265244
 30
0.0
 11
15.96806060306895
 21
-8.960519487265244
 31
0.0
  0
LINE
  5
BA3
330
19
100
AcDbEntity
  8
TitleBlock&Notes
  6
Continuous
 62
     3
100
AcDbLine
 10
15.9904997406476
 20
-8.982958624843881
 30
0.0
 11
15.60903440181067
 21
-8.982958624843881
 31
0.0
  0
LINE
  5
BA4
330
19
100
AcDbEntity
  8
TitleBlock&Notes
  6
Continuous
 62
     3
100
AcDbLine
 10
15.41870671394717
 20
-8.325332890060725
 30
0.0
 11
15.58659526423198
 21
-8.322402383571215
 31
0.0
  0
LINE
  5
BA5
330
19
100
AcDbEntity
  8
TitleBlock&Notes
  6
Continuous
 62
     3
100
AcDbLine
 10
14.94707984324063
 20
-7.662759953737332
 30
0.0
 11
15.58659526423198
 21
-7.662759953737332
 31
0.0
  0
LINE
  5
BA6
330
19
100
AcDbEntity
  8
TitleBlock&Notes
  6
Continuous
 62
     3
100
AcDbLine
 10
14.94707984324063
 20
-7.683237596543669
 30
0.0
 11
15.58659526423198
 21
-7.672074843650698
 31
0.0
  0
LINE
  5
BA7
330
19
100
AcDbEntity
  8
TitleBlock&Notes
  6
Continuous
 62
     3
100
AcDbLine
 10
14.94707984324063
 20
-7.486073825416895
 30
0.0
 11
15.58659526423198
 21
-7.486073825416895
 31
0.0
  0
LINE
  5
BA8
330
19
100
AcDbEntity
  8
TitleBlock&Notes
  6
Continuous
 62
     3
100
AcDbLine
 10
14.94707984324063
 20
-7.508512962995524
 30
0.0
 11
15.58659526423198
 21
-7.508512962995524
 31
0.0
  0
LINE
  5
BA9
330
19
100
AcDbEntity
  8
TitleBlock&Notes
  6
Continuous
 62
     3
100
AcDbLine
 10
14.94707984324063
 20
-7.574416889577122
 30
0.0
 11
15.58659526423198
 21
-7.574416889577122
 31
0.0
  0
LINE
  5
BAA
330
19
100
AcDbEntity
  8
TitleBlock&Notes
  6
Continuous
 62
     3
100
AcDbLine
 10
14.94707984324063
 20
-7.530952100574175
 30
0.0
 11
15.58659526423198
 21
-7.530952100574175
 31
0.0
  0
LINE
  5
BAB
330
19
100
AcDbEntity
  8
TitleBlock&Notes
  6
Continuous
 62
     3
100
AcDbLine
 10
14.94707984324063
 20
-7.553391238152812
 30
0.0
 11
15.58659526423198
 21
-7.553391238152812
 31
0.0
  0
LINE
  5
BAC
330
19
100
AcDbEntity
  8
TitleBlock&Notes
  6
Continuous
 62
     3
100
AcDbLine
 10
14.94707984324063
 20
-7.367340719181498
 30
0.0
 11
15.45196043876012
 21
-7.367340719181498
 31
0.0
  0
LINE
  5
BAD
330
19
100
AcDbEntity
  8
TitleBlock&Notes
  6
Continuous
 62
     3
100
AcDbLine
 10
14.92464070566202
 20
-7.344901581602858
 30
0.0
 11
15.42952130118151
 21
-7.344901581602858
 31
0.0
  0
LINE
  5
BAE
330
19
100
AcDbEntity
  8
TitleBlock&Notes
  6
Continuous
 62
     3
100
AcDbLine
 10
15.40708216360287
 20
-7.322462444024218
 30
0.0
 11
14.9022015680834
 21
-7.322462444024218
 31
0.0
  0
LINE
  5
BAF
330
19
100
AcDbEntity
  8
TitleBlock&Notes
  6
Continuous
 62
     3
100
AcDbLine
 10
14.06073390888424
 20
-6.985875380344555
 30
0.0
 11
15.40708216360287
 21
-6.985875380344555
 31
0.0
  0
LINE
  5
BB0
330
19
100
AcDbEntity
  8
TitleBlock&Notes
  6
Continuous
 62
     3
100
AcDbLine
 10
14.01585563372694
 20
-6.940997105187264
 30
0.0
 11
15.45196043876012
 21
-6.940997105187264
 31
0.0
  0
LINE
  5
BB1
330
19
100
AcDbEntity
  8
TitleBlock&Notes
  6
Continuous
 62
     3
100
AcDbLine
 10
14.03829477130555
 20
-6.963436242765919
 30
0.0
 11
15.42952130118151
 21
-6.963436242765919
 31
0.0
  0
LINE
  5
BB2
330
19
100
AcDbEntity
  8
TitleBlock&Notes
  6
Continuous
 62
     3
100
AcDbLine
 10
14.94707984324063
 20
-7.883617569259612
 30
0.0
 11
15.58659526423198
 21
-7.883617569259612
 31
0.0
  0
LINE
  5
BB3
330
19
100
AcDbEntity
  8
TitleBlock&Notes
  6
Continuous
 62
     3
100
AcDbLine
 10
14.94707984324063
 20
-7.97196063341984
 30
0.0
 11
15.58659526423198
 21
-7.97196063341984
 31
0.0
  0
LINE
  5
BB4
330
19
100
AcDbEntity
  8
TitleBlock&Notes
  6
Continuous
 62
     3
100
AcDbLine
 10
14.94707984324063
 20
-7.992438321104465
 30
0.0
 11
15.58659526423198
 21
-7.981275523333206
 31
0.0
  0
LINE
  5
BB5
330
19
100
AcDbEntity
  8
TitleBlock&Notes
  6
Continuous
 62
     3
100
AcDbLine
 10
14.94707984324063
 20
-8.010392368742159
 30
0.0
 11
15.58659526423198
 21
-7.999229570970911
 31
0.0
  0
LINE
  5
BB6
330
19
100
AcDbEntity
  8
TitleBlock&Notes
  6
Continuous
 62
     3
100
AcDbLine
 10
14.94707984324063
 20
-8.028346416379854
 30
0.0
 11
15.58659526423198
 21
-8.017183618608605
 31
0.0
  0
LINE
  5
BB7
330
19
100
AcDbEntity
  8
TitleBlock&Notes
  6
Continuous
 62
     3
100
AcDbLine
 10
14.94707984324063
 20
-8.046300464017559
 30
0.0
 11
15.58659526423198
 21
-8.035137666246313
 31
0.0
  0
LINE
  5
BB8
330
19
100
AcDbEntity
  8
TitleBlock&Notes
  6
Continuous
 62
     3
100
AcDbLine
 10
14.94707984324063
 20
-8.064254511655253
 30
0.0
 11
15.58659526423198
 21
-8.053091713884004
 31
0.0
  0
LINE
  5
BB9
330
19
100
AcDbEntity
  8
TitleBlock&Notes
  6
Continuous
 62
     3
100
AcDbLine
 10
14.94707984324063
 20
-7.719145691819065
 30
0.0
 11
15.58659526423198
 21
-7.70798289404783
 31
0.0
  0
LINE
  5
BBA
330
19
100
AcDbEntity
  8
TitleBlock&Notes
  6
Continuous
 62
     3
100
AcDbLine
 10
14.94707984324063
 20
-7.737099739456784
 30
0.0
 11
15.58659526423198
 21
-7.725936941685525
 31
0.0
  0
LINE
  5
BBB
330
19
100
AcDbEntity
  8
TitleBlock&Notes
  6
Continuous
 62
     3
100
AcDbLine
 10
14.94707984324063
 20
-7.755053787094478
 30
0.0
 11
15.58659526423198
 21
-7.743890989323229
 31
0.0
  0
LINE
  5
BBC
330
19
100
AcDbEntity
  8
TitleBlock&Notes
  6
Continuous
 62
     3
100
AcDbLine
 10
14.94707984324063
 20
-7.773007834732172
 30
0.0
 11
15.58659526423198
 21
-7.761845036960924
 31
0.0
  0
LINE
  5
BBD
330
19
100
AcDbEntity
  8
TitleBlock&Notes
  6
Continuous
 62
     3
100
AcDbLine
 10
14.94707984324063
 20
-7.790961882369877
 30
0.0
 11
15.58659526423198
 21
-7.779799084598629
 31
0.0
  0
LINE
  5
BBE
330
19
100
AcDbEntity
  8
TitleBlock&Notes
  6
Continuous
 62
     3
100
AcDbLine
 10
14.94707984324063
 20
-7.808915930007572
 30
0.0
 11
15.58659526423198
 21
-7.797753132236326
 31
0.0
  0
LINE
  5
BBF
330
19
100
AcDbEntity
  8
TitleBlock&Notes
  6
Continuous
 62
     3
100
AcDbLine
 10
14.94707984324063
 20
-7.826869977645277
 30
0.0
 11
15.58659526423198
 21
-7.815707179874017
 31
0.0
  0
LINE
  5
BC0
330
19
100
AcDbEntity
  8
TitleBlock&Notes
  6
Continuous
 62
     3
100
AcDbLine
 10
14.94707984324063
 20
-7.844824025282971
 30
0.0
 11
15.58659526423198
 21
-7.833661227511722
 31
0.0
  0
LINE
  5
BC1
330
19
100
AcDbEntity
  8
TitleBlock&Notes
  6
Continuous
 62
     3
100
AcDbLine
 10
14.94707984324063
 20
-7.862778072920661
 30
0.0
 11
15.58659526423198
 21
-7.851615275149416
 31
0.0
  0
LINE
  5
BC2
330
19
100
AcDbEntity
  8
TitleBlock&Notes
  6
Continuous
 62
     3
100
AcDbLine
 10
14.94707984324063
 20
-7.88073212055837
 30
0.0
 11
15.58659526423198
 21
-7.869569322787135
 31
0.0
  0
LINE
  5
BC3
330
19
100
AcDbEntity
  8
TitleBlock&Notes
  6
Continuous
 62
     3
100
AcDbLine
 10
14.94707984324063
 20
-7.701191644181374
 30
0.0
 11
15.58659526423198
 21
-7.690028891288395
 31
0.0
  0
LINE
  5
BC4
330
19
100
AcDbEntity
  8
TitleBlock&Notes
  6
Continuous
 62
     3
100
AcDbLine
 10
14.01585563372694
 20
-7.367340719181498
 30
0.0
 11
14.5207362292464
 21
-7.367340719181498
 31
0.0
  0
LINE
  5
BC5
330
19
100
AcDbEntity
  8
TitleBlock&Notes
  6
Continuous
 62
     3
100
AcDbLine
 10
14.06073390888424
 20
-7.322462444024218
 30
0.0
 11
14.56561450440373
 21
-7.322462444024218
 31
0.0
  0
LINE
  5
BC6
330
19
100
AcDbEntity
  8
TitleBlock&Notes
  6
Continuous
 62
     3
100
AcDbLine
 10
14.03829477130555
 20
-7.344901581602858
 30
0.0
 11
14.54317536682509
 21
-7.344901581602858
 31
0.0
  0
LINE
  5
BC7
330
19
100
AcDbEntity
  8
TitleBlock&Notes
  6
Continuous
 62
     3
100
AcDbLine
 10
13.75318389704026
 20
-7.883617569259612
 30
0.0
 11
14.5207362292464
 21
-7.870219923142087
 31
0.0
  0
LINE
  5
BC8
330
19
100
AcDbEntity
  8
TitleBlock&Notes
  6
Continuous
 62
     3
100
AcDbLine
 10
13.47731633183946
 20
-7.708892442050437
 30
0.0
 11
14.5207362292464
 21
-7.690679446765077
 31
0.0
  0
LINE
  5
BC9
330
19
100
AcDbEntity
  8
TitleBlock&Notes
  6
Continuous
 62
     3
100
AcDbLine
 10
13.47731633183946
 20
-7.97196063341984
 30
0.0
 11
14.5207362292464
 21
-7.97196063341984
 31
0.0
  0
LINE
  5
BCA
330
19
100
AcDbEntity
  8
TitleBlock&Notes
  6
Continuous
 62
     3
100
AcDbLine
 10
13.47731633183946
 20
-7.883617569259612
 30
0.0
 11
14.5207362292464
 21
-7.883617569259612
 31
0.0
  0
LINE
  5
BCB
330
19
100
AcDbEntity
  8
TitleBlock&Notes
  6
Continuous
 62
     3
100
AcDbLine
 10
13.47731633183946
 20
-8.000139118973518
 30
0.0
 11
14.5207362292464
 21
-7.981926123688158
 31
0.0
  0
LINE
  5
BCC
330
19
100
AcDbEntity
  8
TitleBlock&Notes
  6
Continuous
 62
     3
100
AcDbLine
 10
13.47731633183946
 20
-8.018093121732931
 30
0.0
 11
14.5207362292464
 21
-7.999880171325852
 31
0.0
  0
LINE
  5
BCD
330
19
100
AcDbEntity
  8
TitleBlock&Notes
  6
Continuous
 62
     3
100
AcDbLine
 10
13.47731633183946
 20
-8.03604716937065
 30
0.0
 11
14.5207362292464
 21
-8.017834218963557
 31
0.0
  0
LINE
  5
BCE
330
19
100
AcDbEntity
  8
TitleBlock&Notes
  6
Continuous
 62
     3
100
AcDbLine
 10
13.47731633183946
 20
-8.054001217008345
 30
0.0
 11
14.5207362292464
 21
-8.035788266601251
 31
0.0
  0
LINE
  5
BCF
330
19
100
AcDbEntity
  8
TitleBlock&Notes
  6
Continuous
 62
     3
100
AcDbLine
 10
13.47731633183946
 20
-8.071955264646039
 30
0.0
 11
14.5207362292464
 21
-8.053742314238967
 31
0.0
  0
LINE
  5
BD0
330
19
100
AcDbEntity
  8
TitleBlock&Notes
  6
Continuous
 62
     3
100
AcDbLine
 10
13.47731633183946
 20
-7.726846489688131
 30
0.0
 11
14.5207362292464
 21
-7.708633494402782
 31
0.0
  0
LINE
  5
BD1
330
19
100
AcDbEntity
  8
TitleBlock&Notes
  6
Continuous
 62
     3
100
AcDbLine
 10
13.47731633183946
 20
-7.744800537325847
 30
0.0
 11
14.5207362292464
 21
-7.726587542040476
 31
0.0
  0
LINE
  5
BD2
330
19
100
AcDbEntity
  8
TitleBlock&Notes
  6
Continuous
 62
     3
100
AcDbLine
 10
13.47731633183946
 20
-7.762754540085278
 30
0.0
 11
14.5207362292464
 21
-7.744541589678167
 31
0.0
  0
LINE
  5
BD3
330
19
100
AcDbEntity
  8
TitleBlock&Notes
  6
Continuous
 62
     3
100
AcDbLine
 10
13.47731633183946
 20
-7.780708587722969
 30
0.0
 11
14.5207362292464
 21
-7.762495637315886
 31
0.0
  0
LINE
  5
BD4
330
19
100
AcDbEntity
  8
TitleBlock&Notes
  6
Continuous
 62
     3
100
AcDbLine
 10
13.47731633183946
 20
-7.798662635360663
 30
0.0
 11
14.5207362292464
 21
-7.780449684953595
 31
0.0
  0
LINE
  5
BD5
330
19
100
AcDbEntity
  8
TitleBlock&Notes
  6
Continuous
 62
     3
100
AcDbLine
 10
13.47731633183946
 20
-7.816616682998358
 30
0.0
 11
14.5207362292464
 21
-7.798403732591285
 31
0.0
  0
LINE
  5
BD6
330
19
100
AcDbEntity
  8
TitleBlock&Notes
  6
Continuous
 62
     3
100
AcDbLine
 10
13.47731633183946
 20
-7.834570730636063
 30
0.0
 11
14.5207362292464
 21
-7.81635778022898
 31
0.0
  0
LINE
  5
BD7
330
19
100
AcDbEntity
  8
TitleBlock&Notes
  6
Continuous
 62
     3
100
AcDbLine
 10
13.47731633183946
 20
-7.852524778273767
 30
0.0
 11
14.5207362292464
 21
-7.834311827866674
 31
0.0
  0
LINE
  5
BD8
330
19
100
AcDbEntity
  8
TitleBlock&Notes
  6
Continuous
 62
     3
100
AcDbLine
 10
13.47731633183946
 20
-7.870478825911462
 30
0.0
 11
14.5207362292464
 21
-7.852265875504382
 31
0.0
  0
LINE
  5
BD9
330
19
100
AcDbEntity
  8
TitleBlock&Notes
  6
Continuous
 62
     3
100
AcDbLine
 10
13.47731633183946
 20
-7.662759953737332
 30
0.0
 11
14.5207362292464
 21
-7.662759953737332
 31
0.0
  0
LINE
  5
BDA
330
19
100
AcDbEntity
  8
TitleBlock&Notes
  6
Continuous
 62
     3
100
AcDbLine
 10
13.47731633183946
 20
-7.574416889577122
 30
0.0
 11
14.5207362292464
 21
-7.574416889577122
 31
0.0
  0
LINE
  5
BDB
330
19
100
AcDbEntity
  8
TitleBlock&Notes
  6
Continuous
 62
     3
100
AcDbLine
 10
13.47731633183946
 20
-7.486073825416895
 30
0.0
 11
14.5207362292464
 21
-7.486073825416895
 31
0.0
  0
LINE
  5
BDC
330
19
100
AcDbEntity
  8
TitleBlock&Notes
  6
Continuous
 62
     3
100
AcDbLine
 10
13.47731633183946
 20
-7.690938394412743
 30
0.0
 11
14.5207362292464
 21
-7.672725399127383
 31
0.0
  0
LINE
  5
BDD
330
19
100
AcDbEntity
  8
TitleBlock&Notes
  6
Continuous
 62
     3
100
AcDbLine
 10
13.47731633183946
 20
-7.508512962995524
 30
0.0
 11
14.5207362292464
 21
-7.508512962995524
 31
0.0
  0
LINE
  5
BDE
330
19
100
AcDbEntity
  8
TitleBlock&Notes
  6
Continuous
 62
     3
100
AcDbLine
 10
13.47731633183946
 20
-7.530952100574175
 30
0.0
 11
14.5207362292464
 21
-7.530952100574175
 31
0.0
  0
LINE
  5
BDF
330
19
100
AcDbEntity
  8
TitleBlock&Notes
  6
Continuous
 62
     3
100
AcDbLine
 10
13.47731633183946
 20
-7.553391238152812
 30
0.0
 11
14.5207362292464
 21
-7.553391238152812
 31
0.0
  0
LINE
  5
BE0
330
19
100
AcDbEntity
  8
TitleBlock&Notes
  6
Continuous
 62
     3
100
AcDbLine
 10
13.47731633183946
 20
-7.982185071335813
 30
0.0
 11
14.06307211189822
 21
-7.97196063341984
 31
0.0
  0
LINE
  5
BE1
330
19
100
AcDbEntity
  8
TitleBlock&Notes
  6
Continuous
 62
     3
100
AcDbLine
 10
13.47731633183946
 20
-7.672984346775038
 30
0.0
 11
14.06307211189822
 21
-7.662759953737332
 31
0.0
  0
LINE
  5
BE2
330
19
100
AcDbEntity
  8
TitleBlock&Notes
  6
Continuous
 62
     3
100
AcDbLine
 10
13.47731633183946
 20
-7.221044632936223
 30
0.0
 11
14.01585563372694
 21
-7.221044632936223
 31
0.0
  0
LINE
  5
BE3
330
19
100
AcDbEntity
  8
TitleBlock&Notes
  6
Continuous
 62
     3
100
AcDbLine
 10
13.47731633183946
 20
-7.153727220200277
 30
0.0
 11
14.01585563372694
 21
-7.153727220200277
 31
0.0
  0
LINE
  5
BE4
330
19
100
AcDbEntity
  8
TitleBlock&Notes
  6
Continuous
 62
     3
100
AcDbLine
 10
13.47731633183946
 20
-7.176166357778942
 30
0.0
 11
14.01585563372694
 21
-7.176166357778942
 31
0.0
  0
LINE
  5
BE5
330
19
100
AcDbEntity
  8
TitleBlock&Notes
  6
Continuous
 62
     3
100
AcDbLine
 10
13.47731633183946
 20
-7.198605495357579
 30
0.0
 11
14.01585563372694
 21
-7.198605495357579
 31
0.0
  0
LINE
  5
BE6
330
19
100
AcDbEntity
  8
TitleBlock&Notes
  6
Continuous
 62
     3
100
AcDbLine
 10
14.01585563372694
 20
-6.940997105187264
 30
0.0
 11
14.01585563372694
 21
-7.367340719181498
 31
0.0
  0
LINE
  5
BE7
330
19
100
AcDbEntity
  8
TitleBlock&Notes
  6
Continuous
 62
     3
100
AcDbLine
 10
14.06073390888424
 20
-7.322462444024218
 30
0.0
 11
14.06073390888424
 21
-6.985875380344555
 31
0.0
  0
LINE
  5
BE8
330
19
100
AcDbEntity
  8
TitleBlock&Notes
  6
Continuous
 62
     3
100
AcDbLine
 10
14.03829477130555
 20
-6.963436242765919
 30
0.0
 11
14.03829477130555
 21
-7.344901581602858
 31
0.0
  0
LINE
  5
BE9
330
19
100
AcDbEntity
  8
TitleBlock&Notes
  6
Continuous
 62
     3
100
AcDbLine
 10
14.94707984324063
 20
-7.665283548905975
 30
0.0
 11
15.09165861740876
 21
-7.662759953737332
 31
0.0
  0
LINE
  5
BEA
330
19
100
AcDbEntity
  8
TitleBlock&Notes
  6
Continuous
 62
     3
100
AcDbLine
 10
14.94707984324063
 20
-7.974484273466746
 30
0.0
 11
15.09165861740876
 21
-7.97196063341984
 31
0.0
  0
LINE
  5
BEB
330
19
100
AcDbEntity
  8
TitleBlock&Notes
  6
Continuous
 62
     3
100
AcDbLine
 10
16.01293887822621
 20
-7.662759953737332
 30
0.0
 11
16.26182104681841
 21
-7.662759953737332
 31
0.0
  0
LINE
  5
BEC
330
19
100
AcDbEntity
  8
TitleBlock&Notes
  6
Continuous
 62
     3
100
AcDbLine
 10
16.01293887822621
 20
-7.682586996188714
 30
0.0
 11
16.25982764359252
 21
-7.678277559816741
 31
0.0
  0
LINE
  5
BED
330
19
100
AcDbEntity
  8
TitleBlock&Notes
  6
Continuous
 62
     3
100
AcDbLine
 10
16.01293887822621
 20
-7.574416889577122
 30
0.0
 11
16.27889857686406
 21
-7.574416889577122
 31
0.0
  0
LINE
  5
BEE
330
19
100
AcDbEntity
  8
TitleBlock&Notes
  6
Continuous
 62
     3
100
AcDbLine
 10
16.01293887822621
 20
-7.553391238152812
 30
0.0
 11
16.28444230043764
 21
-7.553391238152812
 31
0.0
  0
LINE
  5
BEF
330
19
100
AcDbEntity
  8
TitleBlock&Notes
  6
Continuous
 62
     3
100
AcDbLine
 10
16.01293887822621
 20
-7.486073825416895
 30
0.0
 11
16.30623855672465
 21
-7.486073825416895
 31
0.0
  0
LINE
  5
BF0
330
19
100
AcDbEntity
  8
TitleBlock&Notes
  6
Continuous
 62
     3
100
AcDbLine
 10
16.01293887822621
 20
-7.508512962995524
 30
0.0
 11
16.29827019457915
 21
-7.508512962995524
 31
0.0
  0
LINE
  5
BF1
330
19
100
AcDbEntity
  8
TitleBlock&Notes
  6
Continuous
 62
     3
100
AcDbLine
 10
16.01293887822621
 20
-7.530952100574175
 30
0.0
 11
16.29101117845073
 21
-7.530952100574175
 31
0.0
  0
LINE
  5
BF2
330
19
100
AcDbEntity
  8
TitleBlock&Notes
  6
Continuous
 62
     3
100
AcDbLine
 10
16.01293887822621
 20
-7.664632948551023
 30
0.0
 11
16.12024516779767
 21
-7.662759953737332
 31
0.0
  0
LINE
  5
BF3
330
19
100
AcDbEntity
  8
TitleBlock&Notes
  6
Continuous
 62
     3
100
AcDbLine
 10
16.01293887822621
 20
-7.221044632936223
 30
0.0
 11
16.46564421543929
 21
-7.221044632936223
 31
0.0
  0
LINE
  5
BF4
330
19
100
AcDbEntity
  8
TitleBlock&Notes
  6
Continuous
 62
     3
100
AcDbLine
 10
16.01293887822621
 20
-7.153727220200277
 30
0.0
 11
16.53283300703856
 21
-7.153727220200277
 31
0.0
  0
LINE
  5
BF5
330
19
100
AcDbEntity
  8
TitleBlock&Notes
  6
Continuous
 62
     3
100
AcDbLine
 10
16.01293887822621
 20
-7.176166357778942
 30
0.0
 11
16.50870509996578
 21
-7.176166357778942
 31
0.0
  0
LINE
  5
BF6
330
19
100
AcDbEntity
  8
TitleBlock&Notes
  6
Continuous
 62
     3
100
AcDbLine
 10
16.01293887822621
 20
-7.198605495357579
 30
0.0
 11
16.48637308682994
 21
-7.198605495357579
 31
0.0
  0
LINE
  5
BF7
330
19
100
AcDbEntity
  8
TitleBlock&Notes
  6
Continuous
 62
     3
100
AcDbLine
 10
16.01293887822621
 20
-7.883617569259612
 30
0.0
 11
16.25976939159133
 21
-7.883617569259612
 31
0.0
  0
LINE
  5
BF8
330
19
100
AcDbEntity
  8
TitleBlock&Notes
  6
Continuous
 62
     3
100
AcDbLine
 10
16.01293887822621
 20
-7.97196063341984
 30
0.0
 11
16.25976939159133
 21
-7.97196063341984
 31
0.0
  0
LINE
  5
BF9
330
19
100
AcDbEntity
  8
TitleBlock&Notes
  6
Continuous
 62
     3
100
AcDbLine
 10
16.01293887822621
 20
-7.991787720749503
 30
0.0
 11
16.25976939159133
 21
-7.987479271699577
 31
0.0
  0
LINE
  5
BFA
330
19
100
AcDbEntity
  8
TitleBlock&Notes
  6
Continuous
 62
     3
100
AcDbLine
 10
16.01293887822621
 20
-8.009741768387197
 30
0.0
 11
16.25976939159133
 21
-8.005433319337281
 31
0.0
  0
LINE
  5
BFB
330
19
100
AcDbEntity
  8
TitleBlock&Notes
  6
Continuous
 62
     3
100
AcDbLine
 10
16.01293887822621
 20
-8.027695816024888
 30
0.0
 11
16.25976939159133
 21
-8.023387366974972
 31
0.0
  0
LINE
  5
BFC
330
19
100
AcDbEntity
  8
TitleBlock&Notes
  6
Continuous
 62
     3
100
AcDbLine
 10
16.01293887822621
 20
-8.045649863662593
 30
0.0
 11
16.25976939159133
 21
-8.041341414612681
 31
0.0
  0
LINE
  5
BFD
330
19
100
AcDbEntity
  8
TitleBlock&Notes
  6
Continuous
 62
     3
100
AcDbLine
 10
16.01293887822621
 20
-8.063603911300301
 30
0.0
 11
16.25976939159133
 21
-8.059295462250375
 31
0.0
  0
LINE
  5
BFE
330
19
100
AcDbEntity
  8
TitleBlock&Notes
  6
Continuous
 62
     3
100
AcDbLine
 10
16.01293887822621
 20
-8.081557958937995
 30
0.0
 11
16.25976939159133
 21
-8.077249509888069
 31
0.0
  0
LINE
  5
BFF
330
19
100
AcDbEntity
  8
TitleBlock&Notes
  6
Continuous
 62
     3
100
AcDbLine
 10
16.01293887822621
 20
-7.700541043826422
 30
0.0
 11
16.25976939159133
 21
-7.696232594776507
 31
0.0
  0
LINE
  5
C00
330
19
100
AcDbEntity
  8
TitleBlock&Notes
  6
Continuous
 62
     3
100
AcDbLine
 10
16.01293887822621
 20
-7.718495091464127
 30
0.0
 11
16.25976939159133
 21
-7.714186642414201
 31
0.0
  0
LINE
  5
C01
330
19
100
AcDbEntity
  8
TitleBlock&Notes
  6
Continuous
 62
     3
100
AcDbLine
 10
16.01293887822621
 20
-7.736449139101821
 30
0.0
 11
16.25976939159133
 21
-7.732140690051895
 31
0.0
  0
LINE
  5
C02
330
19
100
AcDbEntity
  8
TitleBlock&Notes
  6
Continuous
 62
     3
100
AcDbLine
 10
16.01293887822621
 20
-7.754403186739516
 30
0.0
 11
16.25976939159133
 21
-7.7500947376896
 31
0.0
  0
LINE
  5
C03
330
19
100
AcDbEntity
  8
TitleBlock&Notes
  6
Continuous
 62
     3
100
AcDbLine
 10
16.01293887822621
 20
-7.772357234377221
 30
0.0
 11
16.25976939159133
 21
-7.768048785327295
 31
0.0
  0
LINE
  5
C04
330
19
100
AcDbEntity
  8
TitleBlock&Notes
  6
Continuous
 62
     3
100
AcDbLine
 10
16.01293887822621
 20
-7.790311282014915
 30
0.0
 11
16.25976939159133
 21
-7.786002832964999
 31
0.0
  0
LINE
  5
C05
330
19
100
AcDbEntity
  8
TitleBlock&Notes
  6
Continuous
 62
     3
100
AcDbLine
 10
16.01293887822621
 20
-7.808265329652634
 30
0.0
 11
16.25976939159133
 21
-7.80395688060269
 31
0.0
  0
LINE
  5
C06
330
19
100
AcDbEntity
  8
TitleBlock&Notes
  6
Continuous
 62
     3
100
AcDbLine
 10
16.01293887822621
 20
-7.826219377290325
 30
0.0
 11
16.25976939159133
 21
-7.821910928240388
 31
0.0
  0
LINE
  5
C07
330
19
100
AcDbEntity
  8
TitleBlock&Notes
  6
Continuous
 62
     3
100
AcDbLine
 10
16.01293887822621
 20
-7.844173424928008
 30
0.0
 11
16.25976939159133
 21
-7.839864975878093
 31
0.0
  0
LINE
  5
C08
330
19
100
AcDbEntity
  8
TitleBlock&Notes
  6
Continuous
 62
     3
100
AcDbLine
 10
16.01293887822621
 20
-7.862127472565724
 30
0.0
 11
16.25976939159133
 21
-7.857819023515787
 31
0.0
  0
LINE
  5
C09
330
19
100
AcDbEntity
  8
TitleBlock&Notes
  6
Continuous
 62
     3
100
AcDbLine
 10
16.01293887822621
 20
-7.880081520203418
 30
0.0
 11
16.25976939159133
 21
-7.875773071153503
 31
0.0
  0
LINE
  5
C0A
330
19
100
AcDbEntity
  8
TitleBlock&Notes
  6
Continuous
 62
     3
100
AcDbLine
 10
16.01293887822621
 20
-7.973833673111808
 30
0.0
 11
16.12024516779767
 21
-7.97196063341984
 31
0.0
  0
LINE
  5
C0B
330
19
100
AcDbEntity
  8
TitleBlock&Notes
  6
Continuous
 62
     3
100
AcDbLine
 10
15.58659526423198
 20
-6.940997105187264
 30
0.0
 11
16.01293887822621
 21
-6.940997105187264
 31
0.0
  0
LINE
  5
C0C
330
19
100
AcDbEntity
  8
TitleBlock&Notes
  6
Continuous
 62
     3
100
AcDbLine
 10
15.45196043876012
 20
-7.221044632936223
 30
0.0
 11
15.58659526423198
 21
-7.221044632936223
 31
0.0
  0
LINE
  5
C0D
330
19
100
AcDbEntity
  8
TitleBlock&Notes
  6
Continuous
 62
     3
100
AcDbLine
 10
15.45196043876012
 20
-7.153727220200277
 30
0.0
 11
15.58659526423198
 21
-7.153727220200277
 31
0.0
  0
LINE
  5
C0E
330
19
100
AcDbEntity
  8
TitleBlock&Notes
  6
Continuous
 62
     3
100
AcDbLine
 10
15.45196043876012
 20
-7.198605495357579
 30
0.0
 11
15.58659526423198
 21
-7.198605495357579
 31
0.0
  0
LINE
  5
C0F
330
19
100
AcDbEntity
  8
TitleBlock&Notes
  6
Continuous
 62
     3
100
AcDbLine
 10
15.45196043876012
 20
-7.176166357778942
 30
0.0
 11
15.58659526423198
 21
-7.176166357778942
 31
0.0
  0
LINE
  5
C10
330
19
100
AcDbEntity
  8
TitleBlock&Notes
  6
Continuous
 62
     3
100
AcDbLine
 10
15.40708216360287
 20
-6.985875380344555
 30
0.0
 11
15.40708216360287
 21
-7.322462444024218
 31
0.0
  0
LINE
  5
C11
330
19
100
AcDbEntity
  8
TitleBlock&Notes
  6
Continuous
 62
     3
100
AcDbLine
 10
15.45196043876012
 20
-7.367340719181498
 30
0.0
 11
15.45196043876012
 21
-6.940997105187264
 31
0.0
  0
LINE
  5
C12
330
19
100
AcDbEntity
  8
TitleBlock&Notes
  6
Continuous
 62
     3
100
AcDbLine
 10
15.42952130118151
 20
-7.344901581602858
 30
0.0
 11
15.42952130118151
 21
-6.963436242765919
 31
0.0
  0
LINE
  5
C13
330
19
100
AcDbEntity
  8
TitleBlock&Notes
  6
Continuous
 62
     3
100
AcDbLine
 10
15.63147353938929
 20
-6.985875380344555
 30
0.0
 11
15.96806060306895
 21
-6.985875380344555
 31
0.0
  0
LINE
  5
C14
330
19
100
AcDbEntity
  8
TitleBlock&Notes
  6
Continuous
 62
     3
100
AcDbLine
 10
15.60903440181067
 20
-6.963436242765919
 30
0.0
 11
15.9904997406476
 21
-6.963436242765919
 31
0.0
  0
TEXT
  5
C15
330
19
100
AcDbEntity
  8
TitleBlock&Notes
  6
Continuous
 62
     3
100
AcDbText
 10
23.72499139210671
 20
-9.338574284908588
 30
0.0
 40
0.2872209610066434
  1
(905) 951-0670 
 41
1.282051279999999
100
AcDbText
  0
TEXT
  5
C16
330
19
100
AcDbEntity
  8
TitleBlock&Notes
  6
Continuous
 62
     3
100
AcDbText
 10
22.94063864114154
 20
-9.843334565557849
 30
0.0
 40
0.2872209610066434
  1
FAX (905) 951-0672
 41
1.282051279999999
100
AcDbText
  0
TEXT
  5
C17
330
19
100
AcDbEntity
  8
TitleBlock&Notes
  6
Continuous
 62
     3
100
AcDbText
 10
22.44738715686385
 20
-6.900549530307056
 30
0.0
 40
0.6731741273593205
  1
MULTICYL  Inc.
 41
0.85470085
100
AcDbText
  0
TEXT
  5
C18
330
19
100
AcDbEntity
  8
TitleBlock&Notes
  6
Continuous
 62
     3
100
AcDbText
 10
23.03197786518758
 20
-7.580181600612306
 30
0.0
 40
0.3590262012583044
  1
640 Hardwick Road, Unit 5
 41
0.7000000000000001
100
AcDbText
  0
CIRCLE
  5
C19
330
19
100
AcDbEntity
  8
TitleBlock&Notes
  6
Continuous
 62
     3
100
AcDbCircle
 10
20.47629534759037
 20
-7.27758416886694
 30
0.0
 40
0.2804892197330502
  0
LINE
  5
C1A
330
19
100
AcDbEntity
  8
TitleBlock&Notes
  6
Continuous
 62
     3
100
AcDbLine
 10
17.42208552776387
 20
-9.297106550944882
 30
0.0
 11
21.28816807311534
 21
-9.229623851521541
 31
0.0
  0
LINE
  5
C1B
330
19
100
AcDbEntity
  8
TitleBlock&Notes
  6
Continuous
 62
     3
100
AcDbLine
 10
18.45067207815271
 20
-9.297106550944882
 30
0.0
 11
21.28816807311534
 21
-9.24757789915926
 31
0.0
  0
LINE
  5
C1C
330
19
100
AcDbEntity
  8
TitleBlock&Notes
  6
Continuous
 62
     3
100
AcDbLine
 10
19.55832261565199
 20
-8.960519487265244
 30
0.0
 11
20.74759690732013
 21
-8.960519487265244
 31
0.0
  0
LINE
  5
C1D
330
19
100
AcDbEntity
  8
TitleBlock&Notes
  6
Continuous
 62
     3
100
AcDbLine
 10
19.51344434049469
 20
-9.005397762422525
 30
0.0
 11
20.79247518247747
 21
-9.005397762422525
 31
0.0
  0
LINE
  5
C1E
330
19
100
AcDbEntity
  8
TitleBlock&Notes
  6
Continuous
 62
     3
100
AcDbLine
 10
19.53588347807338
 20
-8.982958624843881
 30
0.0
 11
20.77003604489877
 21
-8.982958624843881
 31
0.0
  0
LINE
  5
C1F
330
19
100
AcDbEntity
  8
TitleBlock&Notes
  6
Continuous
 62
     3
100
AcDbLine
 10
19.47925858366331
 20
-9.297106550944882
 30
0.0
 11
21.28816807311534
 21
-9.265531946796961
 31
0.0
  0
LINE
  5
C20
330
19
100
AcDbEntity
  8
TitleBlock&Notes
  6
Continuous
 62
     3
100
AcDbLine
 10
19.89490967933167
 20
-8.623932423585571
 30
0.0
 11
20.74759690732013
 21
-8.623932423585571
 31
0.0
  0
LINE
  5
C21
330
19
100
AcDbEntity
  8
TitleBlock&Notes
  6
Continuous
 62
     3
100
AcDbLine
 10
20.79247518247747
 20
-8.579054148428291
 30
0.0
 11
19.93978795448892
 21
-8.579054148428291
 31
0.0
  0
LINE
  5
C22
330
19
100
AcDbEntity
  8
TitleBlock&Notes
  6
Continuous
 62
     3
100
AcDbLine
 10
21.28816807311534
 20
-8.413675954220948
 30
0.0
 11
19.93978795448892
 21
-8.413675954220938
 31
0.0
  0
LINE
  5
C23
330
19
100
AcDbEntity
  8
TitleBlock&Notes
  6
Continuous
 62
     3
100
AcDbLine
 10
19.93978795448892
 20
-8.427273847202236
 30
0.0
 11
20.71881139821668
 21
-8.413675954220948
 31
0.0
  0
LINE
  5
C24
330
19
100
AcDbEntity
  8
TitleBlock&Notes
  6
Continuous
 62
     3
100
AcDbLine
 10
19.93978795448892
 20
-8.445227894839931
 30
0.0
 11
21.28816807311534
 21
-8.421691842459885
 31
0.0
  0
LINE
  5
C25
330
19
100
AcDbEntity
  8
TitleBlock&Notes
  6
Continuous
 62
     3
100
AcDbLine
 10
19.93978795448892
 20
-8.463181942477628
 30
0.0
 11
21.28816807311534
 21
-8.439645890097594
 31
0.0
  0
LINE
  5
C26
330
19
100
AcDbEntity
  8
TitleBlock&Notes
  6
Continuous
 62
     3
100
AcDbLine
 10
19.93978795448892
 20
-8.481135990115333
 30
0.0
 11
21.28816807311534
 21
-8.457599937735285
 31
0.0
  0
LINE
  5
C27
330
19
100
AcDbEntity
  8
TitleBlock&Notes
  6
Continuous
 62
     3
100
AcDbLine
 10
19.93978795448892
 20
-8.499090037753024
 30
0.0
 11
21.28816807311534
 21
-8.475553985372979
 31
0.0
  0
LINE
  5
C28
330
19
100
AcDbEntity
  8
TitleBlock&Notes
  6
Continuous
 62
     3
100
AcDbLine
 10
19.93978795448892
 20
-8.517044085390729
 30
0.0
 11
21.28816807311534
 21
-8.493508033010698
 31
0.0
  0
LINE
  5
C29
330
19
100
AcDbEntity
  8
TitleBlock&Notes
  6
Continuous
 62
     3
100
AcDbLine
 10
19.93978795448892
 20
-8.534998133028423
 30
0.0
 11
21.28816807311534
 21
-8.511462080648389
 31
0.0
  0
LINE
  5
C2A
330
19
100
AcDbEntity
  8
TitleBlock&Notes
  6
Continuous
 62
     3
100
AcDbLine
 10
19.93978795448892
 20
-8.552952180666117
 30
0.0
 11
21.28816807311534
 21
-8.529416128286094
 31
0.0
  0
LINE
  5
C2B
330
19
100
AcDbEntity
  8
TitleBlock&Notes
  6
Continuous
 62
     3
100
AcDbLine
 10
19.93978795448892
 20
-8.570906228303822
 30
0.0
 11
21.28816807311534
 21
-8.547370131045511
 31
0.0
  0
LINE
  5
C2C
330
19
100
AcDbEntity
  8
TitleBlock&Notes
  6
Continuous
 62
     3
100
AcDbLine
 10
20.77003604489877
 20
-8.601493286006927
 30
0.0
 11
19.91734881691031
 21
-8.601493286006927
 31
0.0
  0
LINE
  5
C2D
330
19
100
AcDbEntity
  8
TitleBlock&Notes
  6
Continuous
 62
     3
100
AcDbLine
 10
21.28816807311534
 20
-7.574416889577122
 30
0.0
 11
19.93978795448892
 21
-7.574416889577122
 31
0.0
  0
LINE
  5
C2E
330
19
100
AcDbEntity
  8
TitleBlock&Notes
  6
Continuous
 62
     3
100
AcDbLine
 10
21.28816807311534
 20
-7.662759953737332
 30
0.0
 11
19.93978795448892
 21
-7.662759953737332
 31
0.0
  0
LINE
  5
C2F
330
19
100
AcDbEntity
  8
TitleBlock&Notes
  6
Continuous
 62
     3
100
AcDbLine
 10
21.28816807311534
 20
-7.883617569259612
 30
0.0
 11
19.93978795448892
 21
-7.883617569259612
 31
0.0
  0
LINE
  5
C30
330
19
100
AcDbEntity
  8
TitleBlock&Notes
  6
Continuous
 62
     3
100
AcDbLine
 10
21.28816807311534
 20
-7.97196063341984
 30
0.0
 11
19.93978795448892
 21
-7.97196063341984
 31
0.0
  0
LINE
  5
C31
330
19
100
AcDbEntity
  8
TitleBlock&Notes
  6
Continuous
 62
     3
100
AcDbLine
 10
21.28816807311534
 20
-8.325332890060725
 30
0.0
 11
19.93978795448892
 21
-8.325332890060725
 31
0.0
  0
LINE
  5
C32
330
19
100
AcDbEntity
  8
TitleBlock&Notes
  6
Continuous
 62
     3
100
AcDbLine
 10
19.93978795448892
 20
-7.995060513843622
 30
0.0
 11
21.26317778510707
 21
-7.97196063341984
 31
0.0
  0
LINE
  5
C33
330
19
100
AcDbEntity
  8
TitleBlock&Notes
  6
Continuous
 62
     3
100
AcDbLine
 10
19.93978795448892
 20
-8.013014561481316
 30
0.0
 11
21.28816807311534
 21
-7.989478464223015
 31
0.0
  0
LINE
  5
C34
330
19
100
AcDbEntity
  8
TitleBlock&Notes
  6
Continuous
 62
     3
100
AcDbLine
 10
19.93978795448892
 20
-8.030968609119021
 30
0.0
 11
21.28816807311534
 21
-8.007432511860706
 31
0.0
  0
LINE
  5
C35
330
19
100
AcDbEntity
  8
TitleBlock&Notes
  6
Continuous
 62
     3
100
AcDbLine
 10
19.93978795448892
 20
-8.048922656756715
 30
0.0
 11
21.28816807311534
 21
-8.0253865594984
 31
0.0
  0
LINE
  5
C36
330
19
100
AcDbEntity
  8
TitleBlock&Notes
  6
Continuous
 62
     3
100
AcDbLine
 10
19.93978795448892
 20
-8.06687665951615
 30
0.0
 11
21.28816807311534
 21
-8.043340607136109
 31
0.0
  0
LINE
  5
C37
330
19
100
AcDbEntity
  8
TitleBlock&Notes
  6
Continuous
 62
     3
100
AcDbLine
 10
19.93978795448892
 20
-8.084830707153848
 30
0.0
 11
21.28816807311534
 21
-8.061294654773803
 31
0.0
  0
LINE
  5
C38
330
19
100
AcDbEntity
  8
TitleBlock&Notes
  6
Continuous
 62
     3
100
AcDbLine
 10
19.93978795448892
 20
-8.102784754791528
 30
0.0
 11
21.28816807311534
 21
-8.079248702411508
 31
0.0
  0
LINE
  5
C39
330
19
100
AcDbEntity
  8
TitleBlock&Notes
  6
Continuous
 62
     3
100
AcDbLine
 10
19.93978795448892
 20
-8.120738802429247
 30
0.0
 11
21.28816807311534
 21
-8.097202750049198
 31
0.0
  0
LINE
  5
C3A
330
19
100
AcDbEntity
  8
TitleBlock&Notes
  6
Continuous
 62
     3
100
AcDbLine
 10
19.93978795448892
 20
-8.138692850066952
 30
0.0
 11
21.28816807311534
 21
-8.115156797686893
 31
0.0
  0
LINE
  5
C3B
330
19
100
AcDbEntity
  8
TitleBlock&Notes
  6
Continuous
 62
     3
100
AcDbLine
 10
19.93978795448892
 20
-8.156646897704646
 30
0.0
 11
21.28816807311534
 21
-8.133110845324612
 31
0.0
  0
LINE
  5
C3C
330
19
100
AcDbEntity
  8
TitleBlock&Notes
  6
Continuous
 62
     3
100
AcDbLine
 10
19.93978795448892
 20
-8.174600945342337
 30
0.0
 11
21.28816807311534
 21
-8.151064892962292
 31
0.0
  0
LINE
  5
C3D
330
19
100
AcDbEntity
  8
TitleBlock&Notes
  6
Continuous
 62
     3
100
AcDbLine
 10
19.93978795448892
 20
-8.192554992980031
 30
0.0
 11
21.28816807311534
 21
-8.169018940600011
 31
0.0
  0
LINE
  5
C3E
330
19
100
AcDbEntity
  8
TitleBlock&Notes
  6
Continuous
 62
     3
100
AcDbLine
 10
19.93978795448892
 20
-8.21050904061774
 30
0.0
 11
21.28816807311534
 21
-8.186972988237705
 31
0.0
  0
LINE
  5
C3F
330
19
100
AcDbEntity
  8
TitleBlock&Notes
  6
Continuous
 62
     3
100
AcDbLine
 10
19.93978795448892
 20
-8.228463088255445
 30
0.0
 11
21.28816807311534
 21
-8.2049270358754
 31
0.0
  0
LINE
  5
C40
330
19
100
AcDbEntity
  8
TitleBlock&Notes
  6
Continuous
 62
     3
100
AcDbLine
 10
19.93978795448892
 20
-8.246417135893139
 30
0.0
 11
21.28816807311534
 21
-8.222881083513104
 31
0.0
  0
LINE
  5
C41
330
19
100
AcDbEntity
  8
TitleBlock&Notes
  6
Continuous
 62
     3
100
AcDbLine
 10
19.93978795448892
 20
-8.26437118353083
 30
0.0
 11
21.28816807311534
 21
-8.240835086272529
 31
0.0
  0
LINE
  5
C42
330
19
100
AcDbEntity
  8
TitleBlock&Notes
  6
Continuous
 62
     3
100
AcDbLine
 10
19.93978795448892
 20
-8.282325231168549
 30
0.0
 11
21.28816807311534
 21
-8.258789133910223
 31
0.0
  0
LINE
  5
C43
330
19
100
AcDbEntity
  8
TitleBlock&Notes
  6
Continuous
 62
     3
100
AcDbLine
 10
19.93978795448892
 20
-8.300279278806243
 30
0.0
 11
21.28816807311534
 21
-8.276743181547921
 31
0.0
  0
LINE
  5
C44
330
19
100
AcDbEntity
  8
TitleBlock&Notes
  6
Continuous
 62
     3
100
AcDbLine
 10
19.93978795448892
 20
-8.318233326443948
 30
0.0
 11
21.28816807311534
 21
-8.294697229185626
 31
0.0
  0
LINE
  5
C45
330
19
100
AcDbEntity
  8
TitleBlock&Notes
  6
Continuous
 62
     3
100
AcDbLine
 10
19.93978795448892
 20
-7.685859789282837
 30
0.0
 11
21.26317778510707
 21
-7.662759953737332
 31
0.0
  0
LINE
  5
C46
330
19
100
AcDbEntity
  8
TitleBlock&Notes
  6
Continuous
 62
     3
100
AcDbLine
 10
19.93978795448892
 20
-7.703813836920542
 30
0.0
 11
21.28816807311534
 21
-7.680277784540493
 31
0.0
  0
LINE
  5
C47
330
19
100
AcDbEntity
  8
TitleBlock&Notes
  6
Continuous
 62
     3
100
AcDbLine
 10
19.93978795448892
 20
-7.721767884558246
 30
0.0
 11
21.28816807311534
 21
-7.698231832178187
 31
0.0
  0
LINE
  5
C48
330
19
100
AcDbEntity
  8
TitleBlock&Notes
  6
Continuous
 62
     3
100
AcDbLine
 10
19.93978795448892
 20
-7.739721932195941
 30
0.0
 11
21.28816807311534
 21
-7.716185879815906
 31
0.0
  0
LINE
  5
C49
330
19
100
AcDbEntity
  8
TitleBlock&Notes
  6
Continuous
 62
     3
100
AcDbLine
 10
19.93978795448892
 20
-7.757675979833635
 30
0.0
 11
21.28816807311534
 21
-7.734139882575334
 31
0.0
  0
LINE
  5
C4A
330
19
100
AcDbEntity
  8
TitleBlock&Notes
  6
Continuous
 62
     3
100
AcDbLine
 10
19.93978795448892
 20
-7.77563002747134
 30
0.0
 11
21.28816807311534
 21
-7.752093930213028
 31
0.0
  0
LINE
  5
C4B
330
19
100
AcDbEntity
  8
TitleBlock&Notes
  6
Continuous
 62
     3
100
AcDbLine
 10
19.93978795448892
 20
-7.793584075109034
 30
0.0
 11
21.28816807311534
 21
-7.770047977850719
 31
0.0
  0
LINE
  5
C4C
330
19
100
AcDbEntity
  8
TitleBlock&Notes
  6
Continuous
 62
     3
100
AcDbLine
 10
19.93978795448892
 20
-7.811538077868473
 30
0.0
 11
21.28816807311534
 21
-7.788002025488424
 31
0.0
  0
LINE
  5
C4D
330
19
100
AcDbEntity
  8
TitleBlock&Notes
  6
Continuous
 62
     3
100
AcDbLine
 10
19.93978795448892
 20
-7.829492125506163
 30
0.0
 11
21.28816807311534
 21
-7.805956073126118
 31
0.0
  0
LINE
  5
C4E
330
19
100
AcDbEntity
  8
TitleBlock&Notes
  6
Continuous
 62
     3
100
AcDbLine
 10
19.93978795448892
 20
-7.847446173143872
 30
0.0
 11
21.28816807311534
 21
-7.823910120763827
 31
0.0
  0
LINE
  5
C4F
330
19
100
AcDbEntity
  8
TitleBlock&Notes
  6
Continuous
 62
     3
100
AcDbLine
 10
19.93978795448892
 20
-7.865400220781566
 30
0.0
 11
21.28816807311534
 21
-7.841864168401521
 31
0.0
  0
LINE
  5
C50
330
19
100
AcDbEntity
  8
TitleBlock&Notes
  6
Continuous
 62
     3
100
AcDbLine
 10
19.93978795448892
 20
-7.883354268419271
 30
0.0
 11
21.28816807311534
 21
-7.859818216039212
 31
0.0
  0
LINE
  5
C51
330
19
100
AcDbEntity
  8
TitleBlock&Notes
  6
Continuous
 62
     3
100
AcDbLine
 10
19.93978795448892
 20
-7.530952100574175
 30
0.0
 11
20.35596699818628
 21
-7.530952100574175
 31
0.0
  0
LINE
  5
C52
330
19
100
AcDbEntity
  8
TitleBlock&Notes
  6
Continuous
 62
     3
100
AcDbLine
 10
19.93978795448892
 20
-7.553391238152812
 30
0.0
 11
20.42525927942049
 21
-7.553391238152812
 31
0.0
  0
LINE
  5
C53
330
19
100
AcDbEntity
  8
TitleBlock&Notes
  6
Continuous
 62
     3
100
AcDbLine
 10
18.90909751056074
 20
-8.084867462461211
 30
0.0
 11
19.51344434049469
 21
-8.074318554615818
 31
0.0
  0
LINE
  5
C54
330
19
100
AcDbEntity
  8
TitleBlock&Notes
  6
Continuous
 62
     3
100
AcDbLine
 10
19.55832261565199
 20
-8.960519487265244
 30
0.0
 11
19.55832261565199
 21
-6.985875380344555
 31
0.0
  0
LINE
  5
C55
330
19
100
AcDbEntity
  8
TitleBlock&Notes
  6
Continuous
 62
     3
100
AcDbLine
 10
19.51344434049469
 20
-6.940997105187264
 30
0.0
 11
19.51344434049469
 21
-9.005397762422525
 31
0.0
  0
LINE
  5
C56
330
19
100
AcDbEntity
  8
TitleBlock&Notes
  6
Continuous
 62
     3
100
AcDbLine
 10
19.53588347807338
 20
-6.963436242765919
 30
0.0
 11
19.53588347807338
 21
-8.982958624843881
 31
0.0
  0
LINE
  5
C57
330
19
100
AcDbEntity
  8
TitleBlock&Notes
  6
Continuous
 62
     3
100
AcDbLine
 10
18.77295280039947
 20
-8.287345359905909
 30
0.0
 11
19.33393123986557
 21
-6.985875380344555
 31
0.0
  0
LINE
  5
C58
330
19
100
AcDbEntity
  8
TitleBlock&Notes
  6
Continuous
 62
     3
100
AcDbLine
 10
18.81783107555673
 20
-8.29660563295841
 30
0.0
 11
19.40214505126949
 21
-6.940997105187264
 31
0.0
  0
LINE
  5
C59
330
19
100
AcDbEntity
  8
TitleBlock&Notes
  6
Continuous
 62
     3
100
AcDbLine
 10
18.79539193797809
 20
-8.291975496432158
 30
0.0
 11
19.36803814556751
 21
-6.963436242765919
 31
0.0
  0
LINE
  5
C5A
330
19
100
AcDbEntity
  8
TitleBlock&Notes
  6
Continuous
 62
     3
100
AcDbLine
 10
19.89490967933167
 20
-6.985875380344555
 30
0.0
 11
19.89490967933167
 21
-8.623932423585571
 31
0.0
  0
LINE
  5
C5B
330
19
100
AcDbEntity
  8
TitleBlock&Notes
  6
Continuous
 62
     3
100
AcDbLine
 10
19.93978795448892
 20
-8.579054148428291
 30
0.0
 11
19.93978795448892
 21
-6.940997105187264
 31
0.0
  0
LINE
  5
C5C
330
19
100
AcDbEntity
  8
TitleBlock&Notes
  6
Continuous
 62
     3
100
AcDbLine
 10
19.91734881691031
 20
-8.601493286006927
 30
0.0
 11
19.91734881691031
 21
-6.963436242765919
 31
0.0
  0
LINE
  5
C5D
330
19
100
AcDbEntity
  8
TitleBlock&Notes
  6
Continuous
 62
     3
100
AcDbLine
 10
18.4363657367198
 20
-8.287345359905909
 30
0.0
 11
17.87538729725371
 21
-6.985875380344555
 31
0.0
  0
LINE
  5
C5E
330
19
100
AcDbEntity
  8
TitleBlock&Notes
  6
Continuous
 62
     3
100
AcDbLine
 10
17.80717344097146
 20
-6.940997105187264
 30
0.0
 11
18.39148746156249
 21
-8.29660563295841
 31
0.0
  0
LINE
  5
C5F
330
19
100
AcDbEntity
  8
TitleBlock&Notes
  6
Continuous
 62
     3
100
AcDbLine
 10
17.84128034667345
 20
-6.963436242765919
 30
0.0
 11
18.41392659914118
 21
-8.291975496432158
 31
0.0
  0
LINE
  5
C60
330
19
100
AcDbEntity
  8
TitleBlock&Notes
  6
Continuous
 62
     3
100
AcDbLine
 10
18.39148746156249
 20
-9.005397762422525
 30
0.0
 11
18.81783107555673
 21
-9.005397762422525
 31
0.0
  0
LINE
  5
C61
330
19
100
AcDbEntity
  8
TitleBlock&Notes
  6
Continuous
 62
     3
100
AcDbLine
 10
18.4363657367198
 20
-8.960519487265244
 30
0.0
 11
18.77295280039947
 21
-8.960519487265244
 31
0.0
  0
LINE
  5
C62
330
19
100
AcDbEntity
  8
TitleBlock&Notes
  6
Continuous
 62
     3
100
AcDbLine
 10
18.79539193797809
 20
-8.982958624843881
 30
0.0
 11
18.41392659914118
 21
-8.982958624843881
 31
0.0
  0
TEXT
  5
C63
330
19
100
AcDbEntity
  8
TitleBlock&Notes
  6
Continuous
 62
     3
100
AcDbText
 10
17.37880110454877
 20
-10.05099340348735
 30
0.0
 40
0.3141479261010163
  1
 HYDRAULICS
 41
0.8
 51
11.0
100
AcDbText
  0
TEXT
  5
C64
330
19
100
AcDbEntity
  8
TitleBlock&Notes
  6
Continuous
 62
     3
100
AcDbText
 10
16.67345589588642
 20
-10.05099340348735
 30
0.0
 40
0.3141479261010163
  1
 of
 41
0.8
 51
11.0
100
AcDbText
  0
LINE
  5
C65
330
19
100
AcDbEntity
  8
TitleBlock&Notes
  6
Continuous
 62
     3
100
AcDbLine
 10
17.87538729725371
 20
-8.242467084748618
 30
0.0
 11
17.53642729477508
 21
-8.242467084748618
 31
0.0
  0
LINE
  5
C66
330
19
100
AcDbEntity
  8
TitleBlock&Notes
  6
Continuous
 62
     3
100
AcDbLine
 10
17.51683088177971
 20
-8.220027947169977
 30
0.0
 11
17.89955815283584
 21
-8.220027947169977
 31
0.0
  0
LINE
  5
C67
330
19
100
AcDbEntity
  8
TitleBlock&Notes
  6
Continuous
 62
     3
100
AcDbLine
 10
17.5809086215886
 20
-8.845483184067642
 30
0.0
 11
18.39148746156249
 21
-8.831334500015362
 31
0.0
  0
LINE
  5
C68
330
19
100
AcDbEntity
  8
TitleBlock&Notes
  6
Continuous
 62
     3
100
AcDbLine
 10
17.5545954566636
 20
-8.863896515973312
 30
0.0
 11
18.39148746156249
 21
-8.84928850277479
 31
0.0
  0
LINE
  5
C69
330
19
100
AcDbEntity
  8
TitleBlock&Notes
  6
Continuous
 62
     3
100
AcDbLine
 10
17.52585338973046
 20
-8.882352257848999
 30
0.0
 11
18.39148746156249
 21
-8.867242550412484
 31
0.0
  0
LINE
  5
C6A
330
19
100
AcDbEntity
  8
TitleBlock&Notes
  6
Continuous
 62
     3
100
AcDbLine
 10
17.49414172733021
 20
-8.900859834132489
 30
0.0
 11
18.39148746156249
 21
-8.885196598050203
 31
0.0
  0
LINE
  5
C6B
330
19
100
AcDbEntity
  8
TitleBlock&Notes
  6
Continuous
 62
     3
100
AcDbLine
 10
17.45865876395539
 20
-8.919433246845624
 30
0.0
 11
18.39148746156249
 21
-8.903150645687894
 31
0.0
  0
LINE
  5
C6C
330
19
100
AcDbEntity
  8
TitleBlock&Notes
  6
Continuous
 62
     3
100
AcDbLine
 10
17.41811994873612
 20
-8.938094890247739
 30
0.0
 11
18.39148746156249
 21
-8.921104693325592
 31
0.0
  0
LINE
  5
C6D
330
19
100
AcDbEntity
  8
TitleBlock&Notes
  6
Continuous
 62
     3
100
AcDbLine
 10
17.37020956267441
 20
-8.956885199664732
 30
0.0
 11
18.39148746156249
 21
-8.939058740963293
 31
0.0
  0
LINE
  5
C6E
330
19
100
AcDbEntity
  8
TitleBlock&Notes
  6
Continuous
 62
     3
100
AcDbLine
 10
17.30980663554848
 20
-8.975893617498964
 30
0.0
 11
18.39148746156249
 21
-8.957012788600991
 31
0.0
  0
LINE
  5
C6F
330
19
100
AcDbEntity
  8
TitleBlock&Notes
  6
Continuous
 62
     3
100
AcDbLine
 10
17.21844941179387
 20
-8.995442280009559
 30
0.0
 11
18.39148746156249
 21
-8.974966836238696
 31
0.0
  0
LINE
  5
C70
330
19
100
AcDbEntity
  8
TitleBlock&Notes
  6
Continuous
 62
     3
100
AcDbLine
 10
17.66827706424724
 20
-8.772141984848722
 30
0.0
 11
18.39148746156249
 21
-8.759518309464567
 31
0.0
  0
LINE
  5
C71
330
19
100
AcDbEntity
  8
TitleBlock&Notes
  6
Continuous
 62
     3
100
AcDbLine
 10
17.64866615556903
 20
-8.790438319091059
 30
0.0
 11
18.39148746156249
 21
-8.777472357102272
 31
0.0
  0
LINE
  5
C72
330
19
100
AcDbEntity
  8
TitleBlock&Notes
  6
Continuous
 62
     3
100
AcDbLine
 10
17.62769090244773
 20
-8.808758528575765
 30
0.0
 11
18.39148746156249
 21
-8.795426404739963
 31
0.0
  0
LINE
  5
C73
330
19
100
AcDbEntity
  8
TitleBlock&Notes
  6
Continuous
 62
     3
100
AcDbLine
 10
17.6051782991327
 20
-8.827105530390745
 30
0.0
 11
18.39148746156249
 21
-8.813380452377671
 31
0.0
  0
LINE
  5
C74
330
19
100
AcDbEntity
  8
TitleBlock&Notes
  6
Continuous
 62
     3
100
AcDbLine
 10
17.49628067080243
 20
-8.197588809591337
 30
0.0
 11
17.92302796488179
 21
-8.197588809591337
 31
0.0
  0
LINE
  5
C75
330
19
100
AcDbEntity
  8
TitleBlock&Notes
  6
Continuous
 62
     3
100
AcDbLine
 10
17.59422678828086
 20
-8.197588809591337
 30
0.0
 11
18.34317290175469
 21
-8.184515902672842
 31
0.0
  0
LINE
  5
C76
330
19
100
AcDbEntity
  8
TitleBlock&Notes
  6
Continuous
 62
     3
100
AcDbLine
 10
17.70393693778274
 20
-8.735611472775183
 30
0.0
 11
18.39148746156249
 21
-8.723610214189182
 31
0.0
  0
LINE
  5
C77
330
19
100
AcDbEntity
  8
TitleBlock&Notes
  6
Continuous
 62
     3
100
AcDbLine
 10
17.68666270625718
 20
-8.753867012665399
 30
0.0
 11
18.39148746156249
 21
-8.741564261826873
 31
0.0
  0
LINE
  5
C78
330
19
100
AcDbEntity
  8
TitleBlock&Notes
  6
Continuous
 62
     3
100
AcDbLine
 10
17.7499641865406
 20
-8.680945918980221
 30
0.0
 11
18.39148746156249
 21
-8.66974807127606
 31
0.0
  0
LINE
  5
C79
330
19
100
AcDbEntity
  8
TitleBlock&Notes
  6
Continuous
 62
     3
100
AcDbLine
 10
17.73551418974892
 20
-8.699152182524294
 30
0.0
 11
18.39148746156249
 21
-8.687702118913769
 31
0.0
  0
LINE
  5
C7A
330
19
100
AcDbEntity
  8
TitleBlock&Notes
  6
Continuous
 62
     3
100
AcDbLine
 10
17.72019427247155
 20
-8.717373614925381
 30
0.0
 11
18.39148746156249
 21
-8.705656166551463
 31
0.0
  0
LINE
  5
C7B
330
19
100
AcDbEntity
  8
TitleBlock&Notes
  6
Continuous
 62
     3
100
AcDbLine
 10
16.90409612270573
 20
-8.534124173498025
 30
0.0
 11
17.28846369471887
 21
-8.527415050875102
 31
0.0
  0
LINE
  5
C7C
330
19
100
AcDbEntity
  8
TitleBlock&Notes
  6
Continuous
 62
     3
100
AcDbLine
 10
16.94253660929174
 20
-8.55140724604384
 30
0.0
 11
17.25064979861061
 21
-8.546029123305537
 31
0.0
  0
LINE
  5
C7D
330
19
100
AcDbEntity
  8
TitleBlock&Notes
  6
Continuous
 62
     3
100
AcDbLine
 10
16.99746824638013
 20
-8.568402469332802
 30
0.0
 11
17.19634475199998
 21
-8.564931044992839
 31
0.0
  0
LINE
  5
C7E
330
19
100
AcDbEntity
  8
TitleBlock&Notes
  6
Continuous
 62
     3
100
AcDbLine
 10
18.4363657367198
 20
-8.960519487265244
 30
0.0
 11
18.4363657367198
 21
-8.287345359905909
 31
0.0
  0
LINE
  5
C7F
330
19
100
AcDbEntity
  8
TitleBlock&Notes
  6
Continuous
 62
     3
100
AcDbLine
 10
18.39148746156249
 20
-8.29660563295841
 30
0.0
 11
18.39148746156249
 21
-9.005397762422525
 31
0.0
  0
LINE
  5
C80
330
19
100
AcDbEntity
  8
TitleBlock&Notes
  6
Continuous
 62
     3
100
AcDbLine
 10
18.41392659914118
 20
-8.982958624843881
 30
0.0
 11
18.41392659914118
 21
-8.291975496432158
 31
0.0
  0
LINE
  5
C81
330
19
100
AcDbEntity
  8
TitleBlock&Notes
  6
Continuous
 62
     3
100
AcDbLine
 10
17.92256257716837
 20
-8.209811766856628
 30
0.0
 11
18.35085395318272
 21
-8.202335898902649
 31
0.0
  0
LINE
  5
C82
330
19
100
AcDbEntity
  8
TitleBlock&Notes
  6
Continuous
 62
     3
100
AcDbLine
 10
17.92155164914218
 20
-8.227783451656456
 30
0.0
 11
18.35853495973244
 21
-8.22015585025419
 31
0.0
  0
LINE
  5
C83
330
19
100
AcDbEntity
  8
TitleBlock&Notes
  6
Continuous
 62
     3
100
AcDbLine
 10
17.9201499210959
 20
-8.245761957954115
 30
0.0
 11
18.36621596628215
 21
-8.237975846483983
 31
0.0
  0
LINE
  5
C84
330
19
100
AcDbEntity
  8
TitleBlock&Notes
  6
Continuous
 62
     3
100
AcDbLine
 10
17.91835487984616
 20
-8.263747330627889
 30
0.0
 11
18.37389701771014
 21
-8.255795797835514
 31
0.0
  0
LINE
  5
C85
330
19
100
AcDbEntity
  8
TitleBlock&Notes
  6
Continuous
 62
     3
100
AcDbLine
 10
17.91616365318334
 20
-8.281739614556016
 30
0.0
 11
18.38157802425985
 21
-8.273615794065321
 31
0.0
  0
LINE
  5
C86
330
19
100
AcDbEntity
  8
TitleBlock&Notes
  6
Continuous
 62
     3
100
AcDbLine
 10
17.88760850426626
 20
-8.413675954220938
 30
0.0
 11
18.39148746156249
 21
-8.413675954220938
 31
0.0
  0
LINE
  5
C87
330
19
100
AcDbEntity
  8
TitleBlock&Notes
  6
Continuous
 62
     3
100
AcDbLine
 10
17.88336512871532
 20
-8.427260742745882
 30
0.0
 11
18.39148746156249
 21
-8.418391449226543
 31
0.0
  0
LINE
  5
C88
330
19
100
AcDbEntity
  8
TitleBlock&Notes
  6
Continuous
 62
     3
100
AcDbLine
 10
17.87732581434909
 20
-8.445320209451921
 30
0.0
 11
18.39148746156249
 21
-8.436345496864248
 31
0.0
  0
LINE
  5
C89
330
19
100
AcDbEntity
  8
TitleBlock&Notes
  6
Continuous
 62
     3
100
AcDbLine
 10
17.87081913762541
 20
-8.463387844004053
 30
0.0
 11
18.39148746156249
 21
-8.454299544501946
 31
0.0
  0
LINE
  5
C8A
330
19
100
AcDbEntity
  8
TitleBlock&Notes
  6
Continuous
 62
     3
100
AcDbLine
 10
17.86383275701864
 20
-8.481463825915362
 30
0.0
 11
18.39148746156249
 21
-8.472253592139651
 31
0.0
  0
LINE
  5
C8B
330
19
100
AcDbEntity
  8
TitleBlock&Notes
  6
Continuous
 62
     3
100
AcDbLine
 10
17.85635276026332
 20
-8.499548424455483
 30
0.0
 11
18.39148746156249
 21
-8.490207639777345
 31
0.0
  0
LINE
  5
C8C
330
19
100
AcDbEntity
  8
TitleBlock&Notes
  6
Continuous
 62
     3
100
AcDbLine
 10
17.84836379898949
 20
-8.517641953772368
 30
0.0
 11
18.39148746156249
 21
-8.508161687415036
 31
0.0
  0
LINE
  5
C8D
330
19
100
AcDbEntity
  8
TitleBlock&Notes
  6
Continuous
 62
     3
100
AcDbLine
 10
17.83984890920904
 20
-8.535744593379106
 30
0.0
 11
18.39148746156249
 21
-8.526115735052744
 31
0.0
  0
LINE
  5
C8E
330
19
100
AcDbEntity
  8
TitleBlock&Notes
  6
Continuous
 62
     3
100
AcDbLine
 10
17.83078901765515
 20
-8.553856792058471
 30
0.0
 11
18.39148746156249
 21
-8.544069782690435
 31
0.0
  0
LINE
  5
C8F
330
19
100
AcDbEntity
  8
TitleBlock&Notes
  6
Continuous
 62
     3
100
AcDbLine
 10
17.82116298666007
 20
-8.571978863958353
 30
0.0
 11
18.39148746156249
 21
-8.562023830328154
 31
0.0
  0
LINE
  5
C90
330
19
100
AcDbEntity
  8
TitleBlock&Notes
  6
Continuous
 62
     3
100
AcDbLine
 10
17.81094721025119
 20
-8.590111212983266
 30
0.0
 11
18.39148746156249
 21
-8.579977877965848
 31
0.0
  0
LINE
  5
C91
330
19
100
AcDbEntity
  8
TitleBlock&Notes
  6
Continuous
 62
     3
100
AcDbLine
 10
17.80011507561131
 20
-8.608254332794196
 30
0.0
 11
18.39148746156249
 21
-8.597931880725276
 31
0.0
  0
LINE
  5
C92
330
19
100
AcDbEntity
  8
TitleBlock&Notes
  6
Continuous
 62
     3
100
AcDbLine
 10
17.78863678356572
 20
-8.626408761930488
 30
0.0
 11
18.39148746156249
 21
-8.615885928362967
 31
0.0
  0
LINE
  5
C93
330
19
100
AcDbEntity
  8
TitleBlock&Notes
  6
Continuous
 62
     3
100
AcDbLine
 10
17.77647863052978
 20
-8.644574994053119
 30
0.0
 11
18.39148746156249
 21
-8.633839976000675
 31
0.0
  0
LINE
  5
C94
330
19
100
AcDbEntity
  8
TitleBlock&Notes
  6
Continuous
 62
     3
100
AcDbLine
 10
17.76360229045644
 20
-8.662753792092807
 30
0.0
 11
18.39148746156249
 21
-8.651794023638366
 31
0.0
  0
LINE
  5
C95
330
19
100
AcDbEntity
  8
TitleBlock&Notes
  6
Continuous
 62
     3
100
AcDbLine
 10
17.90919315948591
 20
-8.325332890060725
 30
0.0
 11
18.39148746156249
 21
-8.325332890060725
 31
0.0
  0
LINE
  5
C96
330
19
100
AcDbEntity
  8
TitleBlock&Notes
  6
Continuous
 62
     3
100
AcDbLine
 10
17.91057716061347
 20
-8.317745230323321
 30
0.0
 11
18.39148746156249
 21
-8.309350883589978
 31
0.0
  0
LINE
  5
C97
330
19
100
AcDbEntity
  8
TitleBlock&Notes
  6
Continuous
 62
     3
100
AcDbLine
 10
17.91357247133228
 20
-8.299738899495078
 30
0.0
 11
18.38925907568783
 21
-8.291435745416837
 31
0.0
  0
LINE
  5
C98
330
19
100
AcDbEntity
  8
TitleBlock&Notes
  6
Continuous
 62
     3
100
AcDbLine
 10
18.81783107555673
 20
-8.841846652553382
 30
0.0
 11
19.51344434049469
 21
-8.829704700574762
 31
0.0
  0
LINE
  5
C99
330
19
100
AcDbEntity
  8
TitleBlock&Notes
  6
Continuous
 62
     3
100
AcDbLine
 10
18.81783107555673
 20
-8.859800700191073
 30
0.0
 11
19.51344434049469
 21
-8.847658748212452
 31
0.0
  0
LINE
  5
C9A
330
19
100
AcDbEntity
  8
TitleBlock&Notes
  6
Continuous
 62
     3
100
AcDbLine
 10
18.81783107555673
 20
-8.877754747828792
 30
0.0
 11
19.51344434049469
 21
-8.865612795850164
 31
0.0
  0
LINE
  5
C9B
330
19
100
AcDbEntity
  8
TitleBlock&Notes
  6
Continuous
 62
     3
100
AcDbLine
 10
18.81783107555673
 20
-8.895708795466486
 30
0.0
 11
19.51344434049469
 21
-8.883566843487855
 31
0.0
  0
LINE
  5
C9C
330
19
100
AcDbEntity
  8
TitleBlock&Notes
  6
Continuous
 62
     3
100
AcDbLine
 10
18.81783107555673
 20
-8.913662843104194
 30
0.0
 11
19.51344434049469
 21
-8.90152089112556
 31
0.0
  0
LINE
  5
C9D
330
19
100
AcDbEntity
  8
TitleBlock&Notes
  6
Continuous
 62
     3
100
AcDbLine
 10
18.81783107555673
 20
-8.931616890741889
 30
0.0
 11
19.51344434049469
 21
-8.919474938763254
 31
0.0
  0
LINE
  5
C9E
330
19
100
AcDbEntity
  8
TitleBlock&Notes
  6
Continuous
 62
     3
100
AcDbLine
 10
18.81783107555673
 20
-8.949570938379579
 30
0.0
 11
19.51344434049469
 21
-8.937428941522671
 31
0.0
  0
LINE
  5
C9F
330
19
100
AcDbEntity
  8
TitleBlock&Notes
  6
Continuous
 62
     3
100
AcDbLine
 10
18.81783107555673
 20
-8.967524986017284
 30
0.0
 11
19.51344434049469
 21
-8.955382989160376
 31
0.0
  0
LINE
  5
CA0
330
19
100
AcDbEntity
  8
TitleBlock&Notes
  6
Continuous
 62
     3
100
AcDbLine
 10
18.81783107555673
 20
-8.985479033654979
 30
0.0
 11
19.51344434049469
 21
-8.973337036798096
 31
0.0
  0
LINE
  5
CA1
330
19
100
AcDbEntity
  8
TitleBlock&Notes
  6
Continuous
 62
     3
100
AcDbLine
 10
18.81783107555673
 20
-9.003433081292683
 30
0.0
 11
19.51344434049469
 21
-8.991291084435786
 31
0.0
  0
LINE
  5
CA2
330
19
100
AcDbEntity
  8
TitleBlock&Notes
  6
Continuous
 62
     3
100
AcDbLine
 10
18.81783107555673
 20
-8.734122411605461
 30
0.0
 11
19.51344434049469
 21
-8.721980414748554
 31
0.0
  0
LINE
  5
CA3
330
19
100
AcDbEntity
  8
TitleBlock&Notes
  6
Continuous
 62
     3
100
AcDbLine
 10
18.81783107555673
 20
-8.75207645924317
 30
0.0
 11
19.51344434049469
 21
-8.739934462386258
 31
0.0
  0
LINE
  5
CA4
330
19
100
AcDbEntity
  8
TitleBlock&Notes
  6
Continuous
 62
     3
100
AcDbLine
 10
18.81783107555673
 20
-8.770030506880861
 30
0.0
 11
19.51344434049469
 21
-8.757888510023949
 31
0.0
  0
LINE
  5
CA5
330
19
100
AcDbEntity
  8
TitleBlock&Notes
  6
Continuous
 62
     3
100
AcDbLine
 10
18.81783107555673
 20
-8.787984554518555
 30
0.0
 11
19.51344434049469
 21
-8.775842557661643
 31
0.0
  0
LINE
  5
CA6
330
19
100
AcDbEntity
  8
TitleBlock&Notes
  6
Continuous
 62
     3
100
AcDbLine
 10
18.81783107555673
 20
-8.805938602156263
 30
0.0
 11
19.51344434049469
 21
-8.793796605299348
 31
0.0
  0
LINE
  5
CA7
330
19
100
AcDbEntity
  8
TitleBlock&Notes
  6
Continuous
 62
     3
100
AcDbLine
 10
18.81783107555673
 20
-8.823892604915688
 30
0.0
 11
19.51344434049469
 21
-8.811750652937067
 31
0.0
  0
LINE
  5
CA8
330
19
100
AcDbEntity
  8
TitleBlock&Notes
  6
Continuous
 62
     3
100
AcDbLine
 10
18.81783107555673
 20
-8.413675954220938
 30
0.0
 11
19.51344434049469
 21
-8.413675954220938
 31
0.0
  0
LINE
  5
CA9
330
19
100
AcDbEntity
  8
TitleBlock&Notes
  6
Continuous
 62
     3
100
AcDbLine
 10
18.81783107555673
 20
-8.325332890060725
 30
0.0
 11
19.51344434049469
 21
-8.325332890060725
 31
0.0
  0
LINE
  5
CAA
330
19
100
AcDbEntity
  8
TitleBlock&Notes
  6
Continuous
 62
     3
100
AcDbLine
 10
18.81783107555673
 20
-8.42890364664284
 30
0.0
 11
19.51344434049469
 21
-8.416761649785929
 31
0.0
  0
LINE
  5
CAB
330
19
100
AcDbEntity
  8
TitleBlock&Notes
  6
Continuous
 62
     3
100
AcDbLine
 10
18.81783107555673
 20
-8.446857694280534
 30
0.0
 11
19.51344434049469
 21
-8.434715697423623
 31
0.0
  0
LINE
  5
CAC
330
19
100
AcDbEntity
  8
TitleBlock&Notes
  6
Continuous
 62
     3
100
AcDbLine
 10
18.81783107555673
 20
-8.464811741918229
 30
0.0
 11
19.51344434049469
 21
-8.452669745061339
 31
0.0
  0
LINE
  5
CAD
330
19
100
AcDbEntity
  8
TitleBlock&Notes
  6
Continuous
 62
     3
100
AcDbLine
 10
18.81783107555673
 20
-8.482765789555934
 30
0.0
 11
19.51344434049469
 21
-8.470623792699036
 31
0.0
  0
LINE
  5
CAE
330
19
100
AcDbEntity
  8
TitleBlock&Notes
  6
Continuous
 62
     3
100
AcDbLine
 10
18.81783107555673
 20
-8.500719837193653
 30
0.0
 11
19.51344434049469
 21
-8.488577840336741
 31
0.0
  0
LINE
  5
CAF
330
19
100
AcDbEntity
  8
TitleBlock&Notes
  6
Continuous
 62
     3
100
AcDbLine
 10
18.81783107555673
 20
-8.518673884831347
 30
0.0
 11
19.51344434049469
 21
-8.506531887974436
 31
0.0
  0
LINE
  5
CB0
330
19
100
AcDbEntity
  8
TitleBlock&Notes
  6
Continuous
 62
     3
100
AcDbLine
 10
18.81783107555673
 20
-8.536627932469038
 30
0.0
 11
19.51344434049469
 21
-8.524485935612126
 31
0.0
  0
LINE
  5
CB1
330
19
100
AcDbEntity
  8
TitleBlock&Notes
  6
Continuous
 62
     3
100
AcDbLine
 10
18.81783107555673
 20
-8.554581935228465
 30
0.0
 11
19.51344434049469
 21
-8.542439983249835
 31
0.0
  0
LINE
  5
CB2
330
19
100
AcDbEntity
  8
TitleBlock&Notes
  6
Continuous
 62
     3
100
AcDbLine
 10
18.81783107555673
 20
-8.57253598286616
 30
0.0
 11
19.51344434049469
 21
-8.56039403088754
 31
0.0
  0
LINE
  5
CB3
330
19
100
AcDbEntity
  8
TitleBlock&Notes
  6
Continuous
 62
     3
100
AcDbLine
 10
18.81783107555673
 20
-8.590490030503865
 30
0.0
 11
19.51344434049469
 21
-8.57834807852523
 31
0.0
  0
LINE
  5
CB4
330
19
100
AcDbEntity
  8
TitleBlock&Notes
  6
Continuous
 62
     3
100
AcDbLine
 10
18.81783107555673
 20
-8.608444078141559
 30
0.0
 11
19.51344434049469
 21
-8.596302126162928
 31
0.0
  0
LINE
  5
CB5
330
19
100
AcDbEntity
  8
TitleBlock&Notes
  6
Continuous
 62
     3
100
AcDbLine
 10
18.81783107555673
 20
-8.626398125779253
 30
0.0
 11
19.51344434049469
 21
-8.614256173800622
 31
0.0
  0
LINE
  5
CB6
330
19
100
AcDbEntity
  8
TitleBlock&Notes
  6
Continuous
 62
     3
100
AcDbLine
 10
18.81783107555673
 20
-8.644352173416958
 30
0.0
 11
19.51344434049469
 21
-8.632210221438327
 31
0.0
  0
LINE
  5
CB7
330
19
100
AcDbEntity
  8
TitleBlock&Notes
  6
Continuous
 62
     3
100
AcDbLine
 10
18.81783107555673
 20
-8.662306221054674
 30
0.0
 11
19.51344434049469
 21
-8.650164269076043
 31
0.0
  0
LINE
  5
CB8
330
19
100
AcDbEntity
  8
TitleBlock&Notes
  6
Continuous
 62
     3
100
AcDbLine
 10
18.81783107555673
 20
-8.680260268692371
 30
0.0
 11
19.51344434049469
 21
-8.668118271835457
 31
0.0
  0
LINE
  5
CB9
330
19
100
AcDbEntity
  8
TitleBlock&Notes
  6
Continuous
 62
     3
100
AcDbLine
 10
18.81783107555673
 20
-8.698214316330052
 30
0.0
 11
19.51344434049469
 21
-8.686072319473151
 31
0.0
  0
LINE
  5
CBA
330
19
100
AcDbEntity
  8
TitleBlock&Notes
  6
Continuous
 62
     3
100
AcDbLine
 10
18.81783107555673
 20
-8.716168363967771
 30
0.0
 11
19.51344434049469
 21
-8.704026367110859
 31
0.0
  0
LINE
  5
CBB
330
19
100
AcDbEntity
  8
TitleBlock&Notes
  6
Continuous
 62
     3
100
AcDbLine
 10
18.90130004488695
 20
-8.10295758102918
 30
0.0
 11
19.51344434049469
 21
-8.092272602253522
 31
0.0
  0
LINE
  5
CBC
330
19
100
AcDbEntity
  8
TitleBlock&Notes
  6
Continuous
 62
     3
100
AcDbLine
 10
18.89350253433494
 20
-8.121047744475433
 30
0.0
 11
19.51344434049469
 21
-8.110226605012961
 31
0.0
  0
LINE
  5
CBD
330
19
100
AcDbEntity
  8
TitleBlock&Notes
  6
Continuous
 62
     3
100
AcDbLine
 10
18.88570506866116
 20
-8.139137907921682
 30
0.0
 11
19.51344434049469
 21
-8.128180652650655
 31
0.0
  0
LINE
  5
CBE
330
19
100
AcDbEntity
  8
TitleBlock&Notes
  6
Continuous
 62
     3
100
AcDbLine
 10
18.87790760298744
 20
-8.157228071367931
 30
0.0
 11
19.51344434049469
 21
-8.146134700288349
 31
0.0
  0
LINE
  5
CBF
330
19
100
AcDbEntity
  8
TitleBlock&Notes
  6
Continuous
 62
     3
100
AcDbLine
 10
18.87011013731369
 20
-8.175318189935904
 30
0.0
 11
19.51344434049469
 21
-8.164088747926054
 31
0.0
  0
LINE
  5
CC0
330
19
100
AcDbEntity
  8
TitleBlock&Notes
  6
Continuous
 62
     3
100
AcDbLine
 10
18.86231262676167
 20
-8.193408353382153
 30
0.0
 11
19.51344434049469
 21
-8.182042795563749
 31
0.0
  0
LINE
  5
CC1
330
19
100
AcDbEntity
  8
TitleBlock&Notes
  6
Continuous
 62
     3
100
AcDbLine
 10
18.85451516108793
 20
-8.211498516828406
 30
0.0
 11
19.51344434049469
 21
-8.199996843201454
 31
0.0
  0
LINE
  5
CC2
330
19
100
AcDbEntity
  8
TitleBlock&Notes
  6
Continuous
 62
     3
100
AcDbLine
 10
18.84671769541413
 20
-8.229588635396378
 30
0.0
 11
19.51344434049469
 21
-8.217950890839148
 31
0.0
  0
LINE
  5
CC3
330
19
100
AcDbEntity
  8
TitleBlock&Notes
  6
Continuous
 62
     3
100
AcDbLine
 10
18.83892018486209
 20
-8.247678798842628
 30
0.0
 11
19.51344434049469
 21
-8.235904938476842
 31
0.0
  0
LINE
  5
CC4
330
19
100
AcDbEntity
  8
TitleBlock&Notes
  6
Continuous
 62
     3
100
AcDbLine
 10
18.83112271918837
 20
-8.265768962288881
 30
0.0
 11
19.51344434049469
 21
-8.253858986114547
 31
0.0
  0
LINE
  5
CC5
330
19
100
AcDbEntity
  8
TitleBlock&Notes
  6
Continuous
 62
     3
100
AcDbLine
 10
18.82332525351457
 20
-8.283859080856863
 30
0.0
 11
19.51344434049469
 21
-8.271813033752241
 31
0.0
  0
LINE
  5
CC6
330
19
100
AcDbEntity
  8
TitleBlock&Notes
  6
Continuous
 62
     3
100
AcDbLine
 10
18.81783107555673
 20
-8.30190903336858
 30
0.0
 11
19.51344434049469
 21
-8.289767081389957
 31
0.0
  0
LINE
  5
CC7
330
19
100
AcDbEntity
  8
TitleBlock&Notes
  6
Continuous
 62
     3
100
AcDbLine
 10
18.81783107555673
 20
-8.319863081006275
 30
0.0
 11
19.51344434049469
 21
-8.307721129027655
 31
0.0
  0
LINE
  5
CC8
330
19
100
AcDbEntity
  8
TitleBlock&Notes
  6
Continuous
 62
     3
100
AcDbLine
 10
18.77295280039947
 20
-8.960519487265244
 30
0.0
 11
18.77295280039947
 21
-8.287345359905909
 31
0.0
  0
LINE
  5
CC9
330
19
100
AcDbEntity
  8
TitleBlock&Notes
  6
Continuous
 62
     3
100
AcDbLine
 10
18.81783107555673
 20
-9.005397762422525
 30
0.0
 11
18.81783107555673
 21
-8.29660563295841
 31
0.0
  0
LINE
  5
CCA
330
19
100
AcDbEntity
  8
TitleBlock&Notes
  6
Continuous
 62
     3
100
AcDbLine
 10
18.79539193797809
 20
-8.291975496432158
 30
0.0
 11
18.79539193797809
 21
-8.982958624843881
 31
0.0
  0
LINE
  5
CCB
330
19
100
AcDbEntity
  8
TitleBlock&Notes
  6
Continuous
 62
     3
100
AcDbLine
 10
18.62677770598401
 20
-7.662759953737332
 30
0.0
 11
18.58254078625702
 21
-7.662759953737332
 31
0.0
  0
LINE
  5
CCC
330
19
100
AcDbEntity
  8
TitleBlock&Notes
  6
Continuous
 62
     3
100
AcDbLine
 10
18.58719654827839
 20
-7.673561257002184
 30
0.0
 11
18.62238672578602
 21
-7.672947008050112
 31
0.0
  0
LINE
  5
CCD
330
19
100
AcDbEntity
  8
TitleBlock&Notes
  6
Continuous
 62
     3
100
AcDbLine
 10
18.50638298161093
 20
-7.486073825416895
 30
0.0
 11
18.70293551063009
 21
-7.486073825416895
 31
0.0
  0
LINE
  5
CCE
330
19
100
AcDbEntity
  8
TitleBlock&Notes
  6
Continuous
 62
     3
100
AcDbLine
 10
18.69326347940298
 20
-7.508512962995524
 30
0.0
 11
18.51605501283798
 21
-7.508512962995524
 31
0.0
  0
LINE
  5
CCF
330
19
100
AcDbEntity
  8
TitleBlock&Notes
  6
Continuous
 62
     3
100
AcDbLine
 10
18.52572704406504
 20
-7.530952100574175
 30
0.0
 11
18.68359144817594
 21
-7.530952100574175
 31
0.0
  0
LINE
  5
CD0
330
19
100
AcDbEntity
  8
TitleBlock&Notes
  6
Continuous
 62
     3
100
AcDbLine
 10
18.53539912017046
 20
-7.553391238152812
 30
0.0
 11
18.67391941694889
 21
-7.553391238152812
 31
0.0
  0
LINE
  5
CD1
330
19
100
AcDbEntity
  8
TitleBlock&Notes
  6
Continuous
 62
     3
100
AcDbLine
 10
18.5450711513975
 20
-7.575830375731456
 30
0.0
 11
18.66424734084353
 21
-7.575830375731456
 31
0.0
  0
LINE
  5
CD2
330
19
100
AcDbEntity
  8
TitleBlock&Notes
  6
Continuous
 62
     3
100
AcDbLine
 10
18.39214627464183
 20
-7.221044632936223
 30
0.0
 11
18.81717221759918
 21
-7.221044632936223
 31
0.0
  0
LINE
  5
CD3
330
19
100
AcDbEntity
  8
TitleBlock&Notes
  6
Continuous
 62
     3
100
AcDbLine
 10
18.36313013608231
 20
-7.153727220200277
 30
0.0
 11
18.84618835615865
 21
-7.153727220200277
 31
0.0
  0
LINE
  5
CD4
330
19
100
AcDbEntity
  8
TitleBlock&Notes
  6
Continuous
 62
     3
100
AcDbLine
 10
18.83651632493158
 20
-7.176166357778942
 30
0.0
 11
18.37280216730943
 21
-7.176166357778942
 31
0.0
  0
LINE
  5
CD5
330
19
100
AcDbEntity
  8
TitleBlock&Notes
  6
Continuous
 62
     3
100
AcDbLine
 10
18.82684429370448
 20
-7.198605495357579
 30
0.0
 11
18.38247419853649
 21
-7.198605495357579
 31
0.0
  0
LINE
  5
CD6
330
19
100
AcDbEntity
  8
TitleBlock&Notes
  6
Continuous
 62
     3
100
AcDbLine
 10
18.59487755482806
 20
-7.691381253231991
 30
0.0
 11
18.6145892601123
 21
-7.691037171496361
 31
0.0
  0
LINE
  5
CD7
330
19
100
AcDbEntity
  8
TitleBlock&Notes
  6
Continuous
 62
     3
100
AcDbLine
 10
18.60465926855966
 20
-7.827452587413368
 30
0.0
 11
18.96740803298569
 21
-6.985875380344555
 31
0.0
  0
LINE
  5
CD8
330
19
100
AcDbEntity
  8
TitleBlock&Notes
  6
Continuous
 62
     3
100
AcDbLine
 10
18.93788239136832
 20
-6.940997105187264
 30
0.0
 11
18.60465926855966
 21
-7.714074760874218
 31
0.0
  0
LINE
  5
CD9
330
19
100
AcDbEntity
  8
TitleBlock&Notes
  6
Continuous
 62
     3
100
AcDbLine
 10
18.60465926855966
 20
-7.770763696582925
 30
0.0
 11
18.95264518973785
 21
-6.963436242765919
 31
0.0
  0
LINE
  5
CDA
330
19
100
AcDbEntity
  8
TitleBlock&Notes
  6
Continuous
 62
     3
100
AcDbLine
 10
17.53443595594983
 20
-7.68148864528252
 30
0.0
 11
17.87538729725371
 21
-7.68148864528252
 31
0.0
  0
LINE
  5
CDB
330
19
100
AcDbEntity
  8
TitleBlock&Notes
  6
Continuous
 62
     3
100
AcDbLine
 10
17.64720195696376
 20
-7.153727220200277
 30
0.0
 11
17.89886743130291
 21
-7.153727220200277
 31
0.0
  0
LINE
  5
CDC
330
19
100
AcDbEntity
  8
TitleBlock&Notes
  6
Continuous
 62
     3
100
AcDbLine
 10
17.90853946252995
 20
-7.176166357778942
 30
0.0
 11
17.67132981915825
 21
-7.176166357778942
 31
0.0
  0
LINE
  5
CDD
330
19
100
AcDbEntity
  8
TitleBlock&Notes
  6
Continuous
 62
     3
100
AcDbLine
 10
17.51754709417299
 20
-7.703927782861171
 30
0.0
 11
17.90033028355994
 21
-7.703927782861171
 31
0.0
  0
LINE
  5
CDE
330
19
100
AcDbEntity
  8
TitleBlock&Notes
  6
Continuous
 62
     3
100
AcDbLine
 10
17.92452389242756
 20
-7.726366920439811
 30
0.0
 11
17.49818072721606
 21
-7.726366920439811
 31
0.0
  0
LINE
  5
CDF
330
19
100
AcDbEntity
  8
TitleBlock&Notes
  6
Continuous
 62
     3
100
AcDbLine
 10
17.92788356986236
 20
-7.221044632936223
 30
0.0
 11
17.71439074856305
 21
-7.221044632936223
 31
0.0
  0
LINE
  5
CE0
330
19
100
AcDbEntity
  8
TitleBlock&Notes
  6
Continuous
 62
     3
100
AcDbLine
 10
17.91821153863533
 20
-7.198605495357579
 30
0.0
 11
17.69366183229412
 21
-7.198605495357579
 31
0.0
  0
LINE
  5
CE1
330
19
100
AcDbEntity
  8
TitleBlock&Notes
  6
Continuous
 62
     3
100
AcDbLine
 10
18.60465926855966
 20
-7.827452587413368
 30
0.0
 11
18.24191045925528
 21
-6.985875380344555
 31
0.0
  0
LINE
  5
CE2
330
19
100
AcDbEntity
  8
TitleBlock&Notes
  6
Continuous
 62
     3
100
AcDbLine
 10
18.60465926855966
 20
-7.714074760874218
 30
0.0
 11
18.27143614575094
 21
-6.940997105187264
 31
0.0
  0
LINE
  5
CE3
330
19
100
AcDbEntity
  8
TitleBlock&Notes
  6
Continuous
 62
     3
100
AcDbLine
 10
18.60465926855966
 20
-7.770763696582925
 30
0.0
 11
18.25667330250312
 21
-6.963436242765919
 31
0.0
  0
LINE
  5
CE4
330
19
100
AcDbEntity
  8
TitleBlock&Notes
  6
Continuous
 62
     3
100
AcDbLine
 10
17.86753000883918
 20
-7.883617569259612
 30
0.0
 11
18.21089198669313
 21
-7.877624165368917
 31
0.0
  0
LINE
  5
CE5
330
19
100
AcDbEntity
  8
TitleBlock&Notes
  6
Continuous
 62
     3
100
AcDbLine
 10
18.11827808147754
 20
-7.662759953737332
 30
0.0
 11
17.91821387230564
 21
-7.662759953737332
 31
0.0
  0
LINE
  5
CE6
330
19
100
AcDbEntity
  8
TitleBlock&Notes
  6
Continuous
 62
     3
100
AcDbLine
 10
17.91882417196951
 20
-7.667273720896098
 30
0.0
 11
18.11871972858338
 21
-7.663784524759176
 31
0.0
  0
LINE
  5
CE7
330
19
100
AcDbEntity
  8
TitleBlock&Notes
  6
Continuous
 62
     3
100
AcDbLine
 10
17.92418353558878
 20
-7.721042292605499
 30
0.0
 11
18.1417627931108
 21
-7.717244423692044
 31
0.0
  0
LINE
  5
CE8
330
19
100
AcDbEntity
  8
TitleBlock&Notes
  6
Continuous
 62
     3
100
AcDbLine
 10
17.92278616073519
 20
-7.703112658749482
 30
0.0
 11
18.13408178656109
 21
-7.699424472340513
 31
0.0
  0
LINE
  5
CE9
330
19
100
AcDbEntity
  8
TitleBlock&Notes
  6
Continuous
 62
     3
100
AcDbLine
 10
17.92100036441015
 20
-7.685189756634752
 30
0.0
 11
18.12640073513312
 21
-7.68160447611072
 31
0.0
  0
LINE
  5
CEA
330
19
100
AcDbEntity
  8
TitleBlock&Notes
  6
Continuous
 62
     3
100
AcDbLine
 10
18.08019917915452
 20
-7.574416889577122
 30
0.0
 11
17.90113634226006
 21
-7.574416889577122
 31
0.0
  0
LINE
  5
CEB
330
19
100
AcDbEntity
  8
TitleBlock&Notes
  6
Continuous
 62
     3
100
AcDbLine
 10
18.07113641539097
 20
-7.553391238152812
 30
0.0
 11
17.89559261868639
 21
-7.553391238152812
 31
0.0
  0
LINE
  5
CEC
330
19
100
AcDbEntity
  8
TitleBlock&Notes
  6
Continuous
 62
     3
100
AcDbLine
 10
18.04212027683145
 20
-7.486073825416895
 30
0.0
 11
17.87379636239938
 21
-7.486073825416895
 31
0.0
  0
LINE
  5
CED
330
19
100
AcDbEntity
  8
TitleBlock&Notes
  6
Continuous
 62
     3
100
AcDbLine
 10
18.05179230805857
 20
-7.508512962995524
 30
0.0
 11
17.88176472454495
 21
-7.508512962995524
 31
0.0
  0
LINE
  5
CEE
330
19
100
AcDbEntity
  8
TitleBlock&Notes
  6
Continuous
 62
     3
100
AcDbLine
 10
17.88902374067337
 20
-7.530952100574175
 30
0.0
 11
18.06146438416392
 21
-7.530952100574175
 31
0.0
  0
LINE
  5
CEF
330
19
100
AcDbEntity
  8
TitleBlock&Notes
  6
Continuous
 62
     3
100
AcDbLine
 10
18.60255860625607
 20
-7.709201204583532
 30
0.0
 11
18.60679174956026
 21
-7.709127334942611
 31
0.0
  0
LINE
  5
CF0
330
19
100
AcDbEntity
  8
TitleBlock&Notes
  6
Continuous
 62
     3
100
AcDbLine
 10
17.87538729725371
 20
-6.985875380344555
 30
0.0
 11
18.24191045925528
 21
-6.985875380344555
 31
0.0
  0
LINE
  5
CF1
330
19
100
AcDbEntity
  8
TitleBlock&Notes
  6
Continuous
 62
     3
100
AcDbLine
 10
18.25667330250312
 20
-6.963436242765919
 30
0.0
 11
17.84128034667345
 21
-6.963436242765919
 31
0.0
  0
LINE
  5
CF2
330
19
100
AcDbEntity
  8
TitleBlock&Notes
  6
Continuous
 62
     3
100
AcDbLine
 10
17.80717344097146
 20
-6.940997105187264
 30
0.0
 11
18.27143614575094
 21
-6.940997105187264
 31
0.0
  0
LINE
  5
CF3
330
19
100
AcDbEntity
  8
TitleBlock&Notes
  6
Continuous
 62
     3
100
AcDbLine
 10
19.09104041076343
 20
-7.662759953737332
 30
0.0
 11
19.51344434049469
 21
-7.662759953737332
 31
0.0
  0
LINE
  5
CF4
330
19
100
AcDbEntity
  8
TitleBlock&Notes
  6
Continuous
 62
     3
100
AcDbLine
 10
19.1291193130865
 20
-7.574416889577122
 30
0.0
 11
19.51344434049469
 21
-7.574416889577122
 31
0.0
  0
LINE
  5
CF5
330
19
100
AcDbEntity
  8
TitleBlock&Notes
  6
Continuous
 62
     3
100
AcDbLine
 10
19.08237140898611
 20
-7.682872018114256
 30
0.0
 11
19.51344434049469
 21
-7.67534759186655
 31
0.0
  0
LINE
  5
CF6
330
19
100
AcDbEntity
  8
TitleBlock&Notes
  6
Continuous
 62
     3
100
AcDbLine
 10
19.51344434049469
 20
-7.551977751998457
 30
0.0
 11
19.13879134431355
 21
-7.551977751998457
 31
0.0
  0
LINE
  5
CF7
330
19
100
AcDbEntity
  8
TitleBlock&Notes
  6
Continuous
 62
     3
100
AcDbLine
 10
19.28143492237858
 20
-7.221044632936223
 30
0.0
 11
19.51344434049469
 21
-7.221044632936223
 31
0.0
  0
LINE
  5
CF8
330
19
100
AcDbEntity
  8
TitleBlock&Notes
  6
Continuous
 62
     3
100
AcDbLine
 10
19.51344434049469
 20
-7.153727220200277
 30
0.0
 11
19.31045106093811
 21
-7.153727220200277
 31
0.0
  0
LINE
  5
CF9
330
19
100
AcDbEntity
  8
TitleBlock&Notes
  6
Continuous
 62
     3
100
AcDbLine
 10
19.51344434049469
 20
-7.176166357778942
 30
0.0
 11
19.30077902971102
 21
-7.176166357778942
 31
0.0
  0
LINE
  5
CFA
330
19
100
AcDbEntity
  8
TitleBlock&Notes
  6
Continuous
 62
     3
100
AcDbLine
 10
19.51344434049469
 20
-7.198605495357579
 30
0.0
 11
19.29110695360564
 21
-7.198605495357579
 31
0.0
  0
LINE
  5
CFB
330
19
100
AcDbEntity
  8
TitleBlock&Notes
  6
Continuous
 62
     3
100
AcDbLine
 10
19.51344434049469
 20
-7.486073825416895
 30
0.0
 11
19.16719821540952
 21
-7.486073825416895
 31
0.0
  0
LINE
  5
CFC
330
19
100
AcDbEntity
  8
TitleBlock&Notes
  6
Continuous
 62
     3
100
AcDbLine
 10
19.51344434049469
 20
-7.508512962995524
 30
0.0
 11
19.15752618418247
 21
-7.508512962995524
 31
0.0
  0
LINE
  5
CFD
330
19
100
AcDbEntity
  8
TitleBlock&Notes
  6
Continuous
 62
     3
100
AcDbLine
 10
19.51344434049469
 20
-7.530952100574175
 30
0.0
 11
19.14785410807709
 21
-7.530952100574175
 31
0.0
  0
LINE
  5
CFE
330
19
100
AcDbEntity
  8
TitleBlock&Notes
  6
Continuous
 62
     3
100
AcDbLine
 10
19.07457394331236
 20
-7.700962136682232
 30
0.0
 11
19.51344434049469
 21
-7.693301639504255
 31
0.0
  0
LINE
  5
CFF
330
19
100
AcDbEntity
  8
TitleBlock&Notes
  6
Continuous
 62
     3
100
AcDbLine
 10
19.06677643276034
 20
-7.719052300128481
 30
0.0
 11
19.51344434049469
 21
-7.711255687141953
 31
0.0
  0
LINE
  5
D00
330
19
100
AcDbEntity
  8
TitleBlock&Notes
  6
Continuous
 62
     3
100
AcDbLine
 10
19.0589789670866
 20
-7.737142463574731
 30
0.0
 11
19.51344434049469
 21
-7.729209734779644
 31
0.0
  0
LINE
  5
D01
330
19
100
AcDbEntity
  8
TitleBlock&Notes
  6
Continuous
 62
     3
100
AcDbLine
 10
19.05118150141287
 20
-7.75523262702098
 30
0.0
 11
19.51344434049469
 21
-7.747163782417349
 31
0.0
  0
LINE
  5
D02
330
19
100
AcDbEntity
  8
TitleBlock&Notes
  6
Continuous
 62
     3
100
AcDbLine
 10
19.04338403573908
 20
-7.773322745588952
 30
0.0
 11
19.51344434049469
 21
-7.765117830055043
 31
0.0
  0
LINE
  5
D03
330
19
100
AcDbEntity
  8
TitleBlock&Notes
  6
Continuous
 62
     3
100
AcDbLine
 10
19.03558652518711
 20
-7.791412909035202
 30
0.0
 11
19.51344434049469
 21
-7.783071877692748
 31
0.0
  0
LINE
  5
D04
330
19
100
AcDbEntity
  8
TitleBlock&Notes
  6
Continuous
 62
     3
100
AcDbLine
 10
19.02778905951329
 20
-7.809503072481454
 30
0.0
 11
19.51344434049469
 21
-7.801025925330442
 31
0.0
  0
LINE
  5
D05
330
19
100
AcDbEntity
  8
TitleBlock&Notes
  6
Continuous
 62
     3
100
AcDbLine
 10
19.01999159383957
 20
-7.827593191049427
 30
0.0
 11
19.51344434049469
 21
-7.818979972968136
 31
0.0
  0
LINE
  5
D06
330
19
100
AcDbEntity
  8
TitleBlock&Notes
  6
Continuous
 62
     3
100
AcDbLine
 10
19.01219408328753
 20
-7.845683354495687
 30
0.0
 11
19.51344434049469
 21
-7.836934020605855
 31
0.0
  0
LINE
  5
D07
330
19
100
AcDbEntity
  8
TitleBlock&Notes
  6
Continuous
 62
     3
100
AcDbLine
 10
19.00439661761374
 20
-7.863773517941936
 30
0.0
 11
19.51344434049469
 21
-7.85488802336528
 31
0.0
  0
LINE
  5
D08
330
19
100
AcDbEntity
  8
TitleBlock&Notes
  6
Continuous
 62
     3
100
AcDbLine
 10
18.99584313251673
 20
-7.883617569259612
 30
0.0
 11
19.51344434049469
 21
-7.883617569259612
 31
0.0
  0
LINE
  5
D09
330
19
100
AcDbEntity
  8
TitleBlock&Notes
  6
Continuous
 62
     3
100
AcDbLine
 10
18.99659915194002
 20
-7.881863636509912
 30
0.0
 11
19.51344434049469
 21
-7.872842071002974
 31
0.0
  0
LINE
  5
D0A
330
19
100
AcDbEntity
  8
TitleBlock&Notes
  6
Continuous
 62
     3
100
AcDbLine
 10
18.95776423019366
 20
-7.97196063341984
 30
0.0
 11
19.51344434049469
 21
-7.97196063341984
 31
0.0
  0
LINE
  5
D0B
330
19
100
AcDbEntity
  8
TitleBlock&Notes
  6
Continuous
 62
     3
100
AcDbLine
 10
18.94808488380776
 20
-7.994416690108213
 30
0.0
 11
19.51344434049469
 21
-7.984548316427325
 31
0.0
  0
LINE
  5
D0C
330
19
100
AcDbEntity
  8
TitleBlock&Notes
  6
Continuous
 62
     3
100
AcDbLine
 10
18.94028741813402
 20
-8.012506853554462
 30
0.0
 11
19.51344434049469
 21
-8.00250236406503
 31
0.0
  0
LINE
  5
D0D
330
19
100
AcDbEntity
  8
TitleBlock&Notes
  6
Continuous
 62
     3
100
AcDbLine
 10
18.93248995246029
 20
-8.030597017000712
 30
0.0
 11
19.51344434049469
 21
-8.020456411702724
 31
0.0
  0
LINE
  5
D0E
330
19
100
AcDbEntity
  8
TitleBlock&Notes
  6
Continuous
 62
     3
100
AcDbLine
 10
18.9246924867865
 20
-8.048687135568684
 30
0.0
 11
19.51344434049469
 21
-8.038410459340429
 31
0.0
  0
LINE
  5
D0F
330
19
100
AcDbEntity
  8
TitleBlock&Notes
  6
Continuous
 62
     3
100
AcDbLine
 10
18.91689497623446
 20
-8.066777299014937
 30
0.0
 11
19.51344434049469
 21
-8.056364506978123
 31
0.0
  0
LINE
  5
D10
330
19
100
AcDbEntity
  8
TitleBlock&Notes
  6
Continuous
 62
     3
100
AcDbLine
 10
18.95588239435981
 20
-7.97632652666196
 30
0.0
 11
19.20600472920767
 21
-7.97196063341984
 31
0.0
  0
LINE
  5
D11
330
19
100
AcDbEntity
  8
TitleBlock&Notes
  6
Continuous
 62
     3
100
AcDbLine
 10
19.09016887465989
 20
-7.664781854668007
 30
0.0
 11
19.20600472920767
 21
-7.662759953737332
 31
0.0
  0
LINE
  5
D12
330
19
100
AcDbEntity
  8
TitleBlock&Notes
  6
Continuous
 62
     3
100
AcDbLine
 10
19.40214505126949
 20
-6.940997105187264
 30
0.0
 11
18.93788239136832
 21
-6.940997105187264
 31
0.0
  0
LINE
  5
D13
330
19
100
AcDbEntity
  8
TitleBlock&Notes
  6
Continuous
 62
     3
100
AcDbLine
 10
18.95264518973785
 20
-6.963436242765919
 30
0.0
 11
19.36803814556751
 21
-6.963436242765919
 31
0.0
  0
LINE
  5
D14
330
19
100
AcDbEntity
  8
TitleBlock&Notes
  6
Continuous
 62
     3
100
AcDbLine
 10
18.96740803298569
 20
-6.985875380344555
 30
0.0
 11
19.33393123986557
 21
-6.985875380344555
 31
0.0
  0
LINE
  5
D15
330
19
100
AcDbEntity
  8
TitleBlock&Notes
  6
Continuous
 62
     3
100
AcDbLine
 10
19.93978795448892
 20
-7.977106466205928
 30
0.0
 11
20.23459123471828
 21
-7.97196063341984
 31
0.0
  0
LINE
  5
D16
330
19
100
AcDbEntity
  8
TitleBlock&Notes
  6
Continuous
 62
     3
100
AcDbLine
 10
19.93978795448892
 20
-7.667905741645142
 30
0.0
 11
20.23459123471828
 21
-7.662759953737332
 31
0.0
  0
LINE
  5
D17
330
19
100
AcDbEntity
  8
TitleBlock&Notes
  6
Continuous
 62
     3
100
AcDbLine
 10
19.93978795448892
 20
-7.486073825416895
 30
0.0
 11
20.28866197185429
 21
-7.486073825416895
 31
0.0
  0
LINE
  5
D18
330
19
100
AcDbEntity
  8
TitleBlock&Notes
  6
Continuous
 62
     3
100
AcDbLine
 10
19.93978795448892
 20
-7.508512962995524
 30
0.0
 11
20.3170907435485
 21
-7.508512962995524
 31
0.0
  0
LINE
  5
D19
330
19
100
AcDbEntity
  8
TitleBlock&Notes
  6
Continuous
 62
     3
100
AcDbLine
 10
19.51344434049469
 20
-6.940997105187264
 30
0.0
 11
19.93978795448892
 21
-6.940997105187264
 31
0.0
  0
LINE
  5
D1A
330
19
100
AcDbEntity
  8
TitleBlock&Notes
  6
Continuous
 62
     3
100
AcDbLine
 10
19.53588347807338
 20
-6.963436242765919
 30
0.0
 11
19.91734881691031
 21
-6.963436242765919
 31
0.0
  0
LINE
  5
D1B
330
19
100
AcDbEntity
  8
TitleBlock&Notes
  6
Continuous
 62
     3
100
AcDbLine
 10
19.55832261565199
 20
-6.985875380344555
 30
0.0
 11
19.89490967933167
 21
-6.985875380344555
 31
0.0
  0
LINE
  5
D1C
330
19
100
AcDbEntity
  8
TitleBlock&Notes
  6
Continuous
 62
     3
100
AcDbLine
 10
19.93978795448892
 20
-7.221044632936223
 30
0.0
 11
20.20156369641208
 21
-7.221044632936223
 31
0.0
  0
LINE
  5
D1D
330
19
100
AcDbEntity
  8
TitleBlock&Notes
  6
Continuous
 62
     3
100
AcDbLine
 10
19.93978795448892
 20
-7.153727220200277
 30
0.0
 11
20.22463355326979
 21
-7.153727220200277
 31
0.0
  0
LINE
  5
D1E
330
19
100
AcDbEntity
  8
TitleBlock&Notes
  6
Continuous
 62
     3
100
AcDbLine
 10
19.93978795448892
 20
-7.176166357778942
 30
0.0
 11
20.21478317577725
 21
-7.176166357778942
 31
0.0
  0
LINE
  5
D1F
330
19
100
AcDbEntity
  8
TitleBlock&Notes
  6
Continuous
 62
     3
100
AcDbLine
 10
19.93978795448892
 20
-7.198605495357579
 30
0.0
 11
20.20715490120081
 21
-7.198605495357579
 31
0.0
  0
LINE
  5
D20
330
19
100
AcDbEntity
  8
TitleBlock&Notes
  6
Continuous
 62
     3
100
AcDbLine
 10
21.28816807311534
 20
-5.586697990850382
 30
0.0
 11
21.28816807311534
 21
-10.63550394604529
 31
0.0
  0
LINE
  5
D21
330
19
100
AcDbEntity
  8
TitleBlock&Notes
  6
Continuous
 62
     3
100
AcDbLine
 10
20.79247518247747
 20
-8.843287200307656
 30
0.0
 11
21.28816807311534
 21
-8.834634848370424
 31
0.0
  0
LINE
  5
D22
330
19
100
AcDbEntity
  8
TitleBlock&Notes
  6
Continuous
 62
     3
100
AcDbLine
 10
20.50784513405218
 20
-9.297106550944882
 30
0.0
 11
21.28816807311534
 21
-9.283485994434659
 31
0.0
  0
LINE
  5
D23
330
19
100
AcDbEntity
  8
TitleBlock&Notes
  6
Continuous
 62
     3
100
AcDbLine
 10
20.79247518247747
 20
-8.861241247945347
 30
0.0
 11
21.28816807311534
 21
-8.852588896008143
 31
0.0
  0
LINE
  5
D24
330
19
100
AcDbEntity
  8
TitleBlock&Notes
  6
Continuous
 62
     3
100
AcDbLine
 10
20.79247518247747
 20
-8.879195295583052
 30
0.0
 11
21.28816807311534
 21
-8.870542943645837
 31
0.0
  0
LINE
  5
D25
330
19
100
AcDbEntity
  8
TitleBlock&Notes
  6
Continuous
 62
     3
100
AcDbLine
 10
20.79247518247747
 20
-8.897149343220771
 30
0.0
 11
21.28816807311534
 21
-8.888496991283535
 31
0.0
  0
LINE
  5
D26
330
19
100
AcDbEntity
  8
TitleBlock&Notes
  6
Continuous
 62
     3
100
AcDbLine
 10
20.79247518247747
 20
-8.915103390858465
 30
0.0
 11
21.28816807311534
 21
-8.90645103892124
 31
0.0
  0
LINE
  5
D27
330
19
100
AcDbEntity
  8
TitleBlock&Notes
  6
Continuous
 62
     3
100
AcDbLine
 10
20.79247518247747
 20
-8.933057438496156
 30
0.0
 11
21.28816807311534
 21
-8.92440508655893
 31
0.0
  0
LINE
  5
D28
330
19
100
AcDbEntity
  8
TitleBlock&Notes
  6
Continuous
 62
     3
100
AcDbLine
 10
20.79247518247747
 20
-8.951011486133864
 30
0.0
 11
21.28816807311534
 21
-8.942359134196635
 31
0.0
  0
LINE
  5
D29
330
19
100
AcDbEntity
  8
TitleBlock&Notes
  6
Continuous
 62
     3
100
AcDbLine
 10
20.79247518247747
 20
-8.968965533771559
 30
0.0
 11
21.28816807311534
 21
-8.96031318183433
 31
0.0
  0
LINE
  5
D2A
330
19
100
AcDbEntity
  8
TitleBlock&Notes
  6
Continuous
 62
     3
100
AcDbLine
 10
20.79247518247747
 20
-8.98691958140926
 30
0.0
 11
21.28816807311534
 21
-8.978267229472027
 31
0.0
  0
LINE
  5
D2B
330
19
100
AcDbEntity
  8
TitleBlock&Notes
  6
Continuous
 62
     3
100
AcDbLine
 10
20.79247518247747
 20
-9.004873629046958
 30
0.0
 11
21.28816807311534
 21
-8.996221277109729
 31
0.0
  0
LINE
  5
D2C
330
19
100
AcDbEntity
  8
TitleBlock&Notes
  6
Continuous
 62
     3
100
AcDbLine
 10
20.50157878049197
 20
-8.579054148428291
 30
0.0
 11
21.28816807311534
 21
-8.565324178683205
 31
0.0
  0
LINE
  5
D2D
330
19
100
AcDbEntity
  8
TitleBlock&Notes
  6
Continuous
 62
     3
100
AcDbLine
 10
20.56163933125669
 20
-8.325332890060725
 30
0.0
 11
21.28816807311534
 21
-8.312651276823316
 31
0.0
  0
LINE
  5
D2E
330
19
100
AcDbEntity
  8
TitleBlock&Notes
  6
Continuous
 62
     3
100
AcDbLine
 10
20.79247518247747
 20
-8.735562959359747
 30
0.0
 11
21.28816807311534
 21
-8.726910607422507
 31
0.0
  0
LINE
  5
D2F
330
19
100
AcDbEntity
  8
TitleBlock&Notes
  6
Continuous
 62
     3
100
AcDbLine
 10
20.79247518247747
 20
-8.753517006997437
 30
0.0
 11
21.28816807311534
 21
-8.744864655060212
 31
0.0
  0
LINE
  5
D30
330
19
100
AcDbEntity
  8
TitleBlock&Notes
  6
Continuous
 62
     3
100
AcDbLine
 10
20.79247518247747
 20
-8.771471054635135
 30
0.0
 11
21.28816807311534
 21
-8.762818702697906
 31
0.0
  0
LINE
  5
D31
330
19
100
AcDbEntity
  8
TitleBlock&Notes
  6
Continuous
 62
     3
100
AcDbLine
 10
20.79247518247747
 20
-8.78942510227284
 30
0.0
 11
21.28816807311534
 21
-8.780772750335614
 31
0.0
  0
LINE
  5
D32
330
19
100
AcDbEntity
  8
TitleBlock&Notes
  6
Continuous
 62
     3
100
AcDbLine
 10
20.79247518247747
 20
-8.807379149910534
 30
0.0
 11
21.28816807311534
 21
-8.798726797973309
 31
0.0
  0
LINE
  5
D33
330
19
100
AcDbEntity
  8
TitleBlock&Notes
  6
Continuous
 62
     3
100
AcDbLine
 10
20.79247518247747
 20
-8.825333152669958
 30
0.0
 11
21.28816807311534
 21
-8.816680800732747
 31
0.0
  0
LINE
  5
D34
330
19
100
AcDbEntity
  8
TitleBlock&Notes
  6
Continuous
 62
     3
100
AcDbLine
 10
20.79247518247747
 20
-8.591930578258139
 30
0.0
 11
21.28816807311534
 21
-8.58327822632091
 31
0.0
  0
LINE
  5
D35
330
19
100
AcDbEntity
  8
TitleBlock&Notes
  6
Continuous
 62
     3
100
AcDbLine
 10
20.79247518247747
 20
-8.609884625895833
 30
0.0
 11
21.28816807311534
 21
-8.601232273958615
 31
0.0
  0
LINE
  5
D36
330
19
100
AcDbEntity
  8
TitleBlock&Notes
  6
Continuous
 62
     3
100
AcDbLine
 10
20.79247518247747
 20
-8.627838673533538
 30
0.0
 11
21.28816807311534
 21
-8.619186321596309
 31
0.0
  0
LINE
  5
D37
330
19
100
AcDbEntity
  8
TitleBlock&Notes
  6
Continuous
 62
     3
100
AcDbLine
 10
20.79247518247747
 20
-8.645792721171243
 30
0.0
 11
21.28816807311534
 21
-8.637140369234003
 31
0.0
  0
LINE
  5
D38
330
19
100
AcDbEntity
  8
TitleBlock&Notes
  6
Continuous
 62
     3
100
AcDbLine
 10
20.79247518247747
 20
-8.663746768808938
 30
0.0
 11
21.28816807311534
 21
-8.655094416871722
 31
0.0
  0
LINE
  5
D39
330
19
100
AcDbEntity
  8
TitleBlock&Notes
  6
Continuous
 62
     3
100
AcDbLine
 10
20.79247518247747
 20
-8.681700816446628
 30
0.0
 11
21.28816807311534
 21
-8.673048464509417
 31
0.0
  0
LINE
  5
D3A
330
19
100
AcDbEntity
  8
TitleBlock&Notes
  6
Continuous
 62
     3
100
AcDbLine
 10
20.79247518247747
 20
-8.699654864084326
 30
0.0
 11
21.28816807311534
 21
-8.691002512147122
 31
0.0
  0
LINE
  5
D3B
330
19
100
AcDbEntity
  8
TitleBlock&Notes
  6
Continuous
 62
     3
100
AcDbLine
 10
20.79247518247747
 20
-8.717608911722027
 30
0.0
 11
21.28816807311534
 21
-8.708956559784812
 31
0.0
  0
LINE
  5
D3C
330
19
100
AcDbEntity
  8
TitleBlock&Notes
  6
Continuous
 62
     3
100
AcDbLine
 10
20.79247518247747
 20
-9.005397762422525
 30
0.0
 11
20.79247518247747
 21
-8.579054148428291
 31
0.0
  0
LINE
  5
D3D
330
19
100
AcDbEntity
  8
TitleBlock&Notes
  6
Continuous
 62
     3
100
AcDbLine
 10
20.77003604489877
 20
-8.982958624843881
 30
0.0
 11
20.77003604489877
 21
-8.601493286006927
 31
0.0
  0
LINE
  5
D3E
330
19
100
AcDbEntity
  8
TitleBlock&Notes
  6
Continuous
 62
     3
100
AcDbLine
 10
20.74759690732013
 20
-8.960519487265244
 30
0.0
 11
20.74759690732013
 21
-8.623932423585571
 31
0.0
  0
LINE
  5
D3F
330
19
100
AcDbEntity
  8
TitleBlock&Notes
  6
Continuous
 62
     3
100
AcDbLine
 10
21.28816807311534
 20
-7.553391238152812
 30
0.0
 11
20.52733141576025
 21
-7.553391238152812
 31
0.0
  0
LINE
  5
D40
330
19
100
AcDbEntity
  8
TitleBlock&Notes
  6
Continuous
 62
     3
100
AcDbLine
 10
21.28816807311534
 20
-7.530952100574175
 30
0.0
 11
20.59662369699452
 21
-7.530952100574175
 31
0.0
  0
TEXT
  5
D41
330
19
100
AcDbEntity
  8
TitleBlock&Notes
  6
Continuous
 62
     3
100
AcDbText
 10
20.84697670617671
 20
-7.414680208704965
 30
0.0
 40
0.1121956878932201
  1
INC.
 41
1.282051279999999
100
AcDbText
  0
LINE
  5
D42
330
19
100
AcDbEntity
  8
TitleBlock&Notes
  6
Continuous
 62
     3
100
AcDbLine
 10
21.28816807311534
 20
-7.221044632936223
 30
0.0
 11
20.75102699876867
 21
-7.221044632936223
 31
0.0
  0
LINE
  5
D43
330
19
100
AcDbEntity
  8
TitleBlock&Notes
  6
Continuous
 62
     3
100
AcDbLine
 10
21.28816807311534
 20
-7.153727220200277
 30
0.0
 11
20.72795714191103
 21
-7.153727220200277
 31
0.0
  0
LINE
  5
D44
330
19
100
AcDbEntity
  8
TitleBlock&Notes
  6
Continuous
 62
     3
100
AcDbLine
 10
21.28816807311534
 20
-7.176166357778942
 30
0.0
 11
20.73780751940351
 21
-7.176166357778942
 31
0.0
  0
LINE
  5
D45
330
19
100
AcDbEntity
  8
TitleBlock&Notes
  6
Continuous
 62
     3
100
AcDbLine
 10
21.28816807311534
 20
-7.198605495357579
 30
0.0
 11
20.74543579397992
 21
-7.198605495357579
 31
0.0
  0
LINE
  5
D46
330
19
100
AcDbEntity
  8
TitleBlock&Notes
  6
Continuous
 62
     3
100
AcDbLine
 10
21.28816807311534
 20
-7.486073825416895
 30
0.0
 11
20.66392872332651
 21
-7.486073825416895
 31
0.0
  0
LINE
  5
D47
330
19
100
AcDbEntity
  8
TitleBlock&Notes
  6
Continuous
 62
     3
100
AcDbLine
 10
21.28816807311534
 20
-7.508512962995524
 30
0.0
 11
20.63549995163224
 21
-7.508512962995524
 31
0.0
  0
LINE
  5
D48
330
19
100
AcDbEntity
  8
TitleBlock&Notes
  6
Continuous
 62
     3
100
AcDbLine
 10
20.95328957024917
 20
-7.883617569259612
 30
0.0
 11
21.28816807311534
 21
-7.877772263676931
 31
0.0
  0
TEXT
  5
D49
330
19
100
AcDbEntity
  8
TitleBlock&Notes
  6
Continuous
 62
     3
100
AcDbText
 10
20.33613923768252
 20
-7.451474246010253
 30
0.0
 40
0.3365870636796602
  1
R
 41
1.1965812
100
AcDbText
  0
LINE
  5
D4A
330
19
100
AcDbEntity
  8
TitleBlock&Notes
 62
     3
100
AcDbLine
 10
30.23732019430058
 20
-1.578252050665343
 30
0.0
 11
30.23732019430058
 21
-10.63550394604528
 31
0.0
  0
CIRCLE
  5
D4B
330
19
100
AcDbEntity
  8
TitleBlock&Notes
  6
Continuous
 62
     3
100
AcDbCircle
 10
27.19934999275514
 20
-6.456747402222955
 30
0.0
 40
0.2019522382077961
  0
TEXT
  5
D4C
330
19
100
AcDbEntity
  8
TitleBlock&Notes
  6
Continuous
 62
     3
100
AcDbText
 10
27.10557854218842
 20
-6.579602937057735
 30
0.0
 40
0.2468305133650842
  1
R
 41
1.165501169999999
100
AcDbText
  0
TEXT
  5
D4D
330
19
100
AcDbEntity
  8
TitleBlock&Notes
  6
Continuous
 62
     3
100
AcDbText
 10
24.05740320304074
 20
-8.135838965755812
 30
0.0
 40
0.3590262012583044
  1
 Bolton, Ontario
 41
0.7000000000000001
100
AcDbText
  0
TEXT
  5
D4E
330
19
100
AcDbEntity
  8
TitleBlock&Notes
  6
Continuous
 62
     3
100
AcDbText
 10
21.77519610849331
 20
-8.73642731760529
 30
0.0
 40
0.3590262012583044
  1
          Canada L7E 5R1
 41
0.7000000000000001
100
AcDbText
  0
MTEXT
  5
D87
330
19
100
AcDbEntity
  8
0
  6
Continuous
 62
     1
100
AcDbMText
 10
5.456749337406389
 20
5.276806220773309
 30
0.0
 40
0.25
 41
0.0
 71
     1
 72
     1
  1
\A1;75mm-1.5mm THREAD
 73
     1
 44
1.0
  0
LINE
  5
D88
330
19
100
AcDbEntity
  8
0
  6
Continuous
 62
     7
100
AcDbLine
 10
3.986399999999999
 20
10.135
 30
0.0
 11
3.986399999999999
 21
1.134999999999999
 31
0.0
  0
LINE
  5
D89
330
19
100
AcDbEntity
  8
0
  6
Continuous
 62
     7
100
AcDbLine
 10
1.033599999999999
 20
10.135
 30
0.0
 11
1.033599999999999
 21
1.134999999999999
 31
0.0
  0
DIMENSION
  5
D8A
330
19
100
AcDbEntity
  8
0
  6
Continuous
 62
     7
100
AcDbDimension
  2
*D17
 10
-0.0012553729661562
 20
6.106234
 30
0.0
 11
-0.0012553729661573
 21
3.620616999999999
 31
0.0
 70
    32
 71
     5
 42
4.971234000000002
  3
STANDARD
100
AcDbAlignedDimension
 13
1.033599999999999
 23
1.134999999999998
 33
0.0
 14
1.030000000000001
 24
6.106234
 34
0.0
 50
90.0
100
AcDbRotatedDimension
1001
ACAD
1000
DSTYLE
1002
{
1070
    41
1040
0.25
1070
    42
1040
0.1
1070
    43
1040
0.3
1070
    44
1040
0.1
1070
    45
1040
0.000001
1070
   140
1040
0.25
1070
   171
1070
     6
1070
   176
1070
     1
1070
   177
1070
     1
1070
   178
1070
     1
1070
   271
1070
     3
1070
   272
1070
     3
1070
   274
1070
     6
1070
   277
1070
     5
1002
}
  0
DIMENSION
  5
D8B
330
19
100
AcDbEntity
  8
0
  6
Continuous
 62
     7
100
AcDbDimension
  2
*D18
 10
0.3787944164167527
 20
1.134999999999998
 30
0.0
 11
0.3787944164167525
 21
0.5724999999999991
 31
0.0
 70
    32
 71
     5
 42
1.124999999999998
  3
STANDARD
100
AcDbAlignedDimension
 13
1.684999999999998
 23
0.0099999999999996
 33
0.0
 14
1.033599999999999
 24
1.134999999999998
 34
0.0
 50
90.0
100
AcDbRotatedDimension
1001
ACAD
1000
DSTYLE
1002
{
1070
    41
1040
0.25
1070
    42
1040
0.1
1070
    43
1040
0.3
1070
    44
1040
0.1
1070
    45
1040
0.000001
1070
   140
1040
0.25
1070
   171
1070
     6
1070
   176
1070
     1
1070
   177
1070
     1
1070
   178
1070
     1
1070
   271
1070
     3
1070
   272
1070
     3
1070
   274
1070
     6
1070
   277
1070
     5
1002
}
  0
LINE
  5
D8C
330
19
100
AcDbEntity
  8
0
  6
Continuous
 62
   255
100
AcDbLine
 10
1.635000000000001
 20
0.8849999999999997
 30
0.0
 11
1.635000000000001
 21
0.0599999999999987
 31
0.0
  0
LINE
  5
D8D
330
19
100
AcDbEntity
  8
0
  6
Continuous
 62
   255
100
AcDbLine
 10
3.385000000000001
 20
0.0599999999999987
 30
0.0
 11
3.385000000000001
 21
0.8849999999999997
 31
0.0
  0
LINE
  5
D8E
330
19
100
AcDbEntity
  8
0
  6
Continuous
 62
   255
100
AcDbLine
 10
1.684999999999998
 20
0.0099999999999998
 30
0.0
 11
3.335
 21
0.0099999999999998
 31
0.0
  0
LINE
  5
D8F
330
19
100
AcDbEntity
  8
0
  6
Continuous
 62
   255
100
AcDbLine
 10
1.635000000000001
 20
0.0599999999999987
 30
0.0
 11
1.684999999999998
 21
0.0099999999999998
 31
0.0
  0
CIRCLE
  5
D90
330
19
100
AcDbEntity
  8
0
  6
Continuous
 62
   255
100
AcDbCircle
 10
2.510000000000001
 20
0.6349999999999998
 30
0.0
 40
0.065
  0
CIRCLE
  5
D91
330
19
100
AcDbEntity
  8
0
  6
Continuous
 62
   255
100
AcDbCircle
 10
2.510000000000001
 20
0.6349999999999998
 30
0.0
 40
0.045
  0
LINE
  5
D92
330
19
100
AcDbEntity
  8
0
  6
Continuous
 62
   255
100
AcDbLine
 10
3.385000000000001
 20
0.0599999999999987
 30
0.0
 11
3.335
 21
0.0099999999999998
 31
0.0
  0
LINE
  5
D93
330
19
100
AcDbEntity
  8
0
  6
Continuous
 62
   255
100
AcDbLine
 10
1.352499999999999
 20
0.8849999999999997
 30
0.0
 11
3.6675
 21
0.8849999999999997
 31
0.0
  0
LINE
  5
D94
330
19
100
AcDbEntity
  8
0
  6
Continuous
 62
     7
100
AcDbLine
 10
3.986399999999999
 20
1.134999999999999
 30
0.0
 11
1.033599999999999
 21
1.134999999999999
 31
0.0
  0
LINE
  5
D95
330
19
100
AcDbEntity
  8
0
  6
Continuous
 62
     7
100
AcDbLine
 10
1.030000000000001
 20
6.106234
 30
0.0
 11
3.962724999999998
 21
6.106234
 31
0.0
  0
LINE
  5
D96
330
19
100
AcDbEntity
  8
0
  6
HIDDEN
 62
     7
100
AcDbLine
 10
1.061250000000001
 20
6.106234
 30
0.0
 11
1.061250000000001
 21
1.134999999999999
 31
0.0
  0
LINE
  5
D97
330
19
100
AcDbEntity
  8
0
  6
Continuous
 62
   255
100
AcDbLine
 10
1.322499999999999
 20
1.134999999999999
 30
0.0
 11
1.322499999999999
 21
0.9149999999999991
 31
0.0
  0
LINE
  5
D98
330
19
100
AcDbEntity
  8
0
  6
Continuous
 62
   255
100
AcDbLine
 10
1.322499999999999
 20
0.9149999999999991
 30
0.0
 11
1.352499999999999
 21
0.8849999999999997
 31
0.0
  0
LINE
  5
D99
330
19
100
AcDbEntity
  8
0
  6
Continuous
 62
     1
100
AcDbLine
 10
4.084505181829534
 20
3.81830808085399
 30
0.0
 11
5.116749337406389
 21
5.151806220773309
 31
0.0
  0
LINE
  5
D9A
330
19
100
AcDbEntity
  8
0
  6
HIDDEN
 62
     7
100
AcDbLine
 10
3.931474999999998
 20
6.106234
 30
0.0
 11
3.931474999999998
 21
1.134999999999999
 31
0.0
  0
LINE
  5
D9B
330
19
100
AcDbEntity
  8
0
  6
Continuous
 62
   255
100
AcDbLine
 10
3.697499999999998
 20
1.134999999999999
 30
0.0
 11
3.697499999999998
 21
0.9149999999999991
 31
0.0
  0
LINE
  5
D9C
330
19
100
AcDbEntity
  8
0
  6
Continuous
 62
   255
100
AcDbLine
 10
3.697499999999998
 20
0.9149999999999991
 30
0.0
 11
3.6675
 21
0.8849999999999997
 31
0.0
  0
SOLID
  5
D9D
330
19
100
AcDbEntity
  8
0
  6
Continuous
 62
     1
100
AcDbTrace
 10
4.117453695305201
 20
3.792803050549068
 30
0.0
 11
4.051556668353871
 21
3.843813111158913
 31
0.0
 12
3.931474999999998
 22
3.620617
 32
0.0
 13
3.931474999999998
 23
3.620617
 33
0.0
  0
LINE
  5
D9E
330
19
100
AcDbEntity
  8
0
  6
Continuous
 62
     1
100
AcDbLine
 10
5.116749337406389
 20
5.151806220773309
 30
0.0
 11
5.366749337406389
 21
5.151806220773309
 31
0.0
  0
MTEXT
  5
DEB
330
19
100
AcDbEntity
  8
0
  6
Continuous
 62
     1
100
AcDbMText
 10
5.627015396318467
 20
24.78608941566306
 30
0.0
 40
0.25
 41
0.0
 71
     1
 72
     1
  1
\A1;3/8 NPT INLET FOR INCOMING AIR
 73
     1
 44
1.0
  0
DIMENSION
  5
DEC
330
19
100
AcDbEntity
  8
0
  6
Continuous
 62
     7
100
AcDbDimension
  2
*D20
 10
4.884999999999999
 20
23.53753227581666
 30
0.0
 11
2.509999999999999
 21
23.53753227581666
 31
0.0
 70
    32
 71
     5
 42
4.75
  3
STANDARD
100
AcDbAlignedDimension
 13
0.135
 23
22.51
 33
0.0
 14
4.884999999999999
 24
22.51
 34
0.0
100
AcDbRotatedDimension
1001
ACAD
1000
DSTYLE
1002
{
1070
    41
1040
0.25
1070
    42
1040
0.1
1070
    43
1040
0.3
1070
    44
1040
0.1
1070
    45
1040
0.000001
1070
   140
1040
0.25
1070
   171
1070
     6
1070
   176
1070
     1
1070
   177
1070
     1
1070
   178
1070
     1
1070
   271
1070
     3
1070
   272
1070
     3
1070
   274
1070
     6
1070
   277
1070
     5
1002
}
  0
LINE
  5
DED
330
19
100
AcDbEntity
  8
0
  6
Continuous
 62
     1
100
AcDbLine
 10
2.707641577162282
 20
22.66309411150272
 30
0.0
 11
5.287015396318467
 21
24.66108941566306
 31
0.0
  0
LINE
  5
DEE
330
19
100
AcDbEntity
  8
0
  6
Continuous
 62
     1
100
AcDbLine
 10
5.287015396318467
 20
24.66108941566306
 30
0.0
 11
5.537015396318467
 21
24.66108941566306
 31
0.0
  0
SOLID
  5
DEF
330
19
100
AcDbEntity
  8
0
  6
Continuous
 62
     1
100
AcDbTrace
 10
2.733157262412734
 20
22.63015384864233
 30
0.0
 11
2.682125891911829
 21
22.69603437436309
 31
0.0
 12
2.51
 22
22.51
 32
0.0
 13
2.51
 23
22.51
 33
0.0
  0
LINE
  5
DF0
330
19
100
AcDbEntity
  8
0
  6
HIDDEN
 62
     7
 48
0.625
100
AcDbLine
 10
2.3225
 20
22.51
 30
0.0
 11
2.3225
 21
22.135
 31
0.0
  0
LINE
  5
DF1
330
19
100
AcDbEntity
  8
0
  6
HIDDEN
 62
     7
 48
0.625
100
AcDbLine
 10
2.6975
 20
22.51
 30
0.0
 11
2.6975
 21
22.135
 31
0.0
  0
TEXT
  5
DF3
330
19
100
AcDbEntity
  8
0
100
AcDbText
 10
-12.22104910948098
 20
20.89154541908016
 30
0.0
 40
0.325
  1
12 1/2 TON MAX OUTPUT
100
AcDbText
  0
TEXT
  5
DF4
330
19
100
AcDbEntity
  8
0
100
AcDbText
 10
-12.22104910948098
 20
21.48726601386059
 30
0.0
 40
0.325
  1
9/32 POWER STROKE
100
AcDbText
  0
TEXT
  5
DF5
330
19
100
AcDbEntity
  8
0
100
AcDbText
 10
-12.22104910948098
 20
22.02893268052726
 30
0.0
 40
0.325
  1
5/8 OVERALL STROKE
100
AcDbText
  0
TEXT
  5
DF6
330
19
100
AcDbEntity
  8
0
100
AcDbText
 10
-12.22104910948098
 20
23.11016573400801
 30
0.0
 40
0.325
  1
XL 25-5-9 CYLINDER
100
AcDbText
  0
LINE
  5
DF7
330
19
100
AcDbEntity
  8
0
100
AcDbLine
 10
-12.31175505676094
 20
22.93904243195503
 30
0.0
 11
-6.683965715989173
 21
22.93904243195503
 31
0.0
  0
LINE
  5
E24
330
19
100
AcDbEntity
  8
0
  6
Continuous
 62
   255
100
AcDbLine
 10
1.033599999999999
 20
10.135
 30
0.0
 11
3.986399999999999
 21
10.135
 31
0.0
  0
DIMENSION
  5
E45
330
19
100
AcDbEntity
  8
0
  6
Continuous
 62
     7
100
AcDbDimension
  2
*D21
 10
-1.348192750472532
 20
22.945
 30
0.0
 11
-1.348192750472536
 21
11.4775
 31
0.0
 70
    32
 71
     5
 42
22.93499999999999
  3
STANDARD
100
AcDbAlignedDimension
 13
1.684999999999998
 23
0.0099999999999998
 33
0.0
 14
0.3425
 24
22.945
 34
0.0
 50
90.0
100
AcDbRotatedDimension
1001
ACAD
1000
DSTYLE
1002
{
1070
    41
1040
0.25
1070
    42
1040
0.1
1070
    43
1040
0.3
1070
    44
1040
0.1
1070
    45
1040
0.000001
1070
   140
1040
0.35
1070
   171
1070
     6
1070
   176
1070
     1
1070
   177
1070
     1
1070
   178
1070
     1
1070
   271
1070
     1
1070
   272
1070
     1
1070
   274
1070
     6
1070
   277
1070
     5
1002
}
  0
LINE
  5
E56
330
19
100
AcDbEntity
  8
0
  6
Continuous
 62
   255
100
AcDbLine
 10
0.135
 20
10.135
 30
0.0
 11
0.135
 21
22.51
 31
0.0
  0
LINE
  5
E57
330
19
100
AcDbEntity
  8
0
  6
Continuous
 62
   255
100
AcDbLine
 10
4.885
 20
10.135
 30
0.0
 11
4.884999999999999
 21
22.51
 31
0.0
  0
ENDSEC
  0
SECTION
  2
OBJECTS
  0
DICTIONARY
  5
C
330
0
100
AcDbDictionary
281
     1
  3
ACAD_GROUP
350
D
  3
ACAD_LAYOUT
350
3C7
  3
ACAD_MLINESTYLE
350
E
  3
ACAD_PLOTSETTINGS
350
3C8
  3
ACAD_PLOTSTYLENAME
350
3C5
  3
ASE_INDEX_DICTIONARY
350
3D5
  0
DICTIONARY
  5
D
102
{ACAD_REACTORS
330
C
102
}
330
C
100
AcDbDictionary
281
     1
  0
DICTIONARY
  5
3C7
102
{ACAD_REACTORS
330
C
102
}
330
C
100
AcDbDictionary
281
     1
  3
Layout1
350
3CA
  3
Model
350
3C9
  0
DICTIONARY
  5
E
102
{ACAD_REACTORS
330
C
102
}
330
C
100
AcDbDictionary
281
     1
  3
STANDARD
350
1C
  0
DICTIONARY
  5
3C8
102
{ACAD_REACTORS
330
C
102
}
330
C
100
AcDbDictionary
281
     1
  0
ACDBDICTIONARYWDFLT
  5
3C5
102
{ACAD_REACTORS
330
C
102
}
330
C
100
AcDbDictionary
281
     1
  3
Normal
350
3C6
100
AcDbDictionaryWithDefault
340
3C6
  0
DICTIONARY
  5
3D5
102
{ACAD_REACTORS
330
C
102
}
330
C
100
AcDbDictionary
281
     1
  3
ASEBlockHierarchyIndexRecord
350
3D7
1001
DCO15
1040
1374489788.039999
  0
LAYOUT
  5
3CA
102
{ACAD_REACTORS
330
3C7
102
}
330
3C7
100
AcDbPlotSettings
  1

  2
HP LaserJet III
  4

  6

 40
0.0
 41
0.0
 42
0.0
 43
0.0
 44
0.0
 45
0.0
 46
0.0
 47
0.0
 48
0.0
 49
0.0
140
0.0
141
0.0
142
1.0
143
1.0
 70
   688
 72
     0
 73
     0
 74
     5
  7

 75
    16
147
1.0
148
0.0
149
0.0
100
AcDbLayout
  1
Layout1
 70
     1
 71
     1
 10
0.0
 20
0.0
 11
12.0
 21
9.0
 12
0.0
 22
0.0
 32
0.0
 14
1.000000000000000E+20
 24
1.000000000000000E+20
 34
1.000000000000000E+20
 15
-1.000000000000000E+20
 25
-1.000000000000000E+20
 35
-1.000000000000000E+20
146
0.0
 13
0.0
 23
0.0
 33
0.0
 16
1.0
 26
0.0
 36
0.0
 17
0.0
 27
1.0
 37
0.0
 76
     0
330
16
  0
LAYOUT
  5
3C9
102
{ACAD_REACTORS
330
3C7
102
}
330
3C7
100
AcDbPlotSettings
  1

  2
HP LaserJet III
  4

  6

 40
0.0
 41
0.0
 42
0.0
 43
0.0
 44
0.0
 45
0.0
 46
0.0
 47
0.0
 48
0.0
 49
0.0
140
0.0
141
0.0
142
1.0
143
1.0
 70
  1712
 72
     0
 73
     0
 74
     0
  7

 75
     0
147
1.0
148
0.0
149
0.0
100
AcDbLayout
  1
Model
 70
     1
 71
     0
 10
0.0
 20
0.0
 11
12.0
 21
9.0
 12
0.0
 22
0.0
 32
0.0
 14
0.0
 24
0.0
 34
0.0
 15
0.0
 25
0.0
 35
0.0
146
0.0
 13
0.0
 23
0.0
 33
0.0
 16
1.0
 26
0.0
 36
0.0
 17
0.0
 27
1.0
 37
0.0
 76
     0
330
19
  0
MLINESTYLE
  5
1C
102
{ACAD_REACTORS
330
E
102
}
330
E
100
AcDbMlineStyle
  2
STANDARD
 70
     0
  3

 62
     0
 51
90.0
 52
90.0
 71
     2
 49
0.5
 62
   256
  6
BYLAYER
 49
-0.5
 62
   256
  6
BYLAYER
  0
ACDBPLACEHOLDER
  5
3C6
102
{ACAD_REACTORS
330
3C5
102
}
330
3C5
  0
XRECORD
  5
3D7
102
{ACAD_REACTORS
330
3D5
102
}
330
3D5
100
AcDbXrecord
280
     1
  0
ENDSEC
  0
EOF
