  0
SECTION
  2
HEADER
  9
$ACADVER
  1
AC1015
  9
$ACADMAINTVER
 70
     6
  9
$DWGCODEPAGE
  3
ANSI_1252
  9
$INSBASE
 10
0.0
 20
0.0
 30
0.0
  9
$EXTMIN
 10
33.00668587281543
 20
45.7846513374869
 30
0.0
  9
$EXTMAX
 10
85.80668587281545
 20
86.58856859123332
 30
0.0
  9
$LIMMIN
 10
39.425148
 20
35.40259199999999
  9
$LIMMAX
 10
81.03339699999999
 20
82.60000899999999
  9
$ORTHOMODE
 70
     0
  9
$REGENMODE
 70
     1
  9
$FILLMODE
 70
     1
  9
$QTEXTMODE
 70
     0
  9
$MIRRTEXT
 70
     1
  9
$LTSCALE
 40
1.0
  9
$ATTMODE
 70
     1
  9
$TEXTSIZE
 40
0.25
  9
$TRACEWID
 40
0.05
  9
$TEXTSTYLE
  7
STANDARD
  9
$CLAYER
  8
DIMENSIONS
  9
$CELTYPE
  6
CONTINUOUS
  9
$CECOLOR
 62
   256
  9
$CELTSCALE
 40
1.0
  9
$DISPSILH
 70
     0
  9
$DIMSCALE
 40
1.0
  9
$DIMASZ
 40
0.35
  9
$DIMEXO
 40
0.125
  9
$DIMDLI
 40
0.65
  9
$DIMRND
 40
0.000001
  9
$DIMDLE
 40
0.0
  9
$DIMEXE
 40
0.125
  9
$DIMTP
 40
0.0
  9
$DIMTM
 40
0.0
  9
$DIMTXT
 40
0.36
  9
$DIMCEN
 40
0.18
  9
$DIMTSZ
 40
0.0
  9
$DIMTOL
 70
     0
  9
$DIMLIM
 70
     0
  9
$DIMTIH
 70
     1
  9
$DIMTOH
 70
     1
  9
$DIMSE1
 70
     0
  9
$DIMSE2
 70
     0
  9
$DIMTAD
 70
     0
  9
$DIMZIN
 70
     0
  9
$DIMBLK
  1

  9
$DIMASO
 70
     1
  9
$DIMSHO
 70
     1
  9
$DIMPOST
  1

  9
$DIMAPOST
  1

  9
$DIMALT
 70
     0
  9
$DIMALTD
 70
     6
  9
$DIMALTF
 40
25.4
  9
$DIMLFAC
 40
1.0
  9
$DIMTOFL
 70
     0
  9
$DIMTVP
 40
0.0
  9
$DIMTIX
 70
     0
  9
$DIMSOXD
 70
     0
  9
$DIMSAH
 70
     0
  9
$DIMBLK1
  1

  9
$DIMBLK2
  1

  9
$DIMSTYLE
  2
STANDARD
  9
$DIMCLRD
 70
   256
  9
$DIMCLRE
 70
   256
  9
$DIMCLRT
 70
   256
  9
$DIMTFAC
 40
1.0
  9
$DIMGAP
 40
0.18
  9
$DIMJUST
 70
     0
  9
$DIMSD1
 70
     0
  9
$DIMSD2
 70
     0
  9
$DIMTOLJ
 70
     1
  9
$DIMTZIN
 70
     0
  9
$DIMALTZ
 70
     0
  9
$DIMALTTZ
 70
     0
  9
$DIMUPT
 70
     1
  9
$DIMDEC
 70
     4
  9
$DIMTDEC
 70
     4
  9
$DIMALTU
 70
     2
  9
$DIMALTTD
 70
     6
  9
$DIMTXSTY
  7
STANDARD
  9
$DIMAUNIT
 70
     0
  9
$DIMADEC
 70
     0
  9
$DIMALTRND
 40
0.0
  9
$DIMAZIN
 70
     0
  9
$DIMDSEP
 70
    46
  9
$DIMATFIT
 70
     3
  9
$DIMFRAC
 70
     0
  9
$DIMLDRBLK
  1

  9
$DIMLUNIT
 70
     5
  9
$DIMLWD
 70
    -2
  9
$DIMLWE
 70
    -2
  9
$DIMTMOVE
 70
     0
  9
$LUNITS
 70
     2
  9
$LUPREC
 70
     6
  9
$SKETCHINC
 40
0.1
  9
$FILLETRAD
 40
0.5
  9
$AUNITS
 70
     0
  9
$AUPREC
 70
     3
  9
$MENU
  1
.
  9
$ELEVATION
 40
0.0
  9
$PELEVATION
 40
0.0
  9
$THICKNESS
 40
0.0
  9
$LIMCHECK
 70
     0
  9
$CHAMFERA
 40
2.5
  9
$CHAMFERB
 40
2.5
  9
$CHAMFERC
 40
0.0
  9
$CHAMFERD
 40
0.0
  9
$SKPOLY
 70
     1
  9
$TDCREATE
 40
2444971.791666666
  9
$TDUCREATE
 40
2444972.000000000
  9
$TDUPDATE
 40
2452345.648890625
  9
$TDUUPDATE
 40
2452345.857223958
  9
$TDINDWG
 40
0.0869519676
  9
$TDUSRTIMER
 40
0.0869519676
  9
$USRTIMER
 70
     1
  9
$ANGBASE
 50
0.0
  9
$ANGDIR
 70
     0
  9
$PDMODE
 70
     0
  9
$PDSIZE
 40
-1.0
  9
$PLINEWID
 40
0.0
  9
$SPLFRAME
 70
     0
  9
$SPLINETYPE
 70
     6
  9
$SPLINESEGS
 70
     8
  9
$HANDSEED
  5
E19
  9
$SURFTAB1
 70
     6
  9
$SURFTAB2
 70
     6
  9
$SURFTYPE
 70
     6
  9
$SURFU
 70
     6
  9
$SURFV
 70
     6
  9
$UCSBASE
  2

  9
$UCSNAME
  2

  9
$UCSORG
 10
0.0
 20
0.0
 30
0.0
  9
$UCSXDIR
 10
1.0
 20
0.0
 30
0.0
  9
$UCSYDIR
 10
0.0
 20
1.0
 30
0.0
  9
$UCSORTHOREF
  2

  9
$UCSORTHOVIEW
 70
     0
  9
$UCSORGTOP
 10
0.0
 20
0.0
 30
0.0
  9
$UCSORGBOTTOM
 10
0.0
 20
0.0
 30
0.0
  9
$UCSORGLEFT
 10
0.0
 20
0.0
 30
0.0
  9
$UCSORGRIGHT
 10
0.0
 20
0.0
 30
0.0
  9
$UCSORGFRONT
 10
0.0
 20
0.0
 30
0.0
  9
$UCSORGBACK
 10
0.0
 20
0.0
 30
0.0
  9
$PUCSBASE
  2

  9
$PUCSNAME
  2

  9
$PUCSORG
 10
0.0
 20
0.0
 30
0.0
  9
$PUCSXDIR
 10
1.0
 20
0.0
 30
0.0
  9
$PUCSYDIR
 10
0.0
 20
1.0
 30
0.0
  9
$PUCSORTHOREF
  2

  9
$PUCSORTHOVIEW
 70
     0
  9
$PUCSORGTOP
 10
0.0
 20
0.0
 30
0.0
  9
$PUCSORGBOTTOM
 10
0.0
 20
0.0
 30
0.0
  9
$PUCSORGLEFT
 10
0.0
 20
0.0
 30
0.0
  9
$PUCSORGRIGHT
 10
0.0
 20
0.0
 30
0.0
  9
$PUCSORGFRONT
 10
0.0
 20
0.0
 30
0.0
  9
$PUCSORGBACK
 10
0.0
 20
0.0
 30
0.0
  9
$USERI1
 70
     0
  9
$USERI2
 70
     0
  9
$USERI3
 70
     0
  9
$USERI4
 70
     0
  9
$USERI5
 70
     0
  9
$USERR1
 40
0.0
  9
$USERR2
 40
0.0
  9
$USERR3
 40
0.0
  9
$USERR4
 40
0.0
  9
$USERR5
 40
0.0
  9
$WORLDVIEW
 70
     1
  9
$SHADEDGE
 70
     3
  9
$SHADEDIF
 70
    70
  9
$TILEMODE
 70
     1
  9
$MAXACTVP
 70
    16
  9
$PINSBASE
 10
0.0
 20
0.0
 30
0.0
  9
$PLIMCHECK
 70
     0
  9
$PEXTMIN
 10
1.000000000000000E+20
 20
1.000000000000000E+20
 30
1.000000000000000E+20
  9
$PEXTMAX
 10
-1.000000000000000E+20
 20
-1.000000000000000E+20
 30
-1.000000000000000E+20
  9
$PLIMMIN
 10
0.0
 20
0.0
  9
$PLIMMAX
 10
12.0
 20
9.0
  9
$UNITMODE
 70
     1
  9
$VISRETAIN
 70
     0
  9
$PLINEGEN
 70
     1
  9
$PSLTSCALE
 70
     1
  9
$TREEDEPTH
 70
  3020
  9
$CMLSTYLE
  2
STANDARD
  9
$CMLJUST
 70
     0
  9
$CMLSCALE
 40
1.0
  9
$PROXYGRAPHICS
 70
     1
  9
$MEASUREMENT
 70
     0
  9
$CELWEIGHT
370
    -1
  9
$ENDCAPS
280
     0
  9
$JOINSTYLE
280
     0
  9
$LWDISPLAY
290
     0
  9
$INSUNITS
 70
     0
  9
$HYPERLINKBASE
  1

  9
$STYLESHEET
  1

  9
$XEDIT
290
     1
  9
$CEPSNTYPE
380
     0
  9
$PSTYLEMODE
290
     1
  9
$FINGERPRINTGUID
  2
{CA12BC54-2594-11D4-8360-004F4908EF25}
  9
$VERSIONGUID
  2
{43F50C14-4C04-11D4-8360-004F4908EF25}
  9
$EXTNAMES
290
     1
  9
$PSVPSCALE
 40
0.0
  9
$OLESTARTUP
290
     0
  0
ENDSEC
  0
SECTION
  2
CLASSES
  0
CLASS
  1
ACDBDICTIONARYWDFLT
  2
AcDbDictionaryWithDefault
  3
AutoCAD 2000
 90
        0
280
     0
281
     0
  0
CLASS
  1
ACDBPLACEHOLDER
  2
AcDbPlaceHolder
  3
AutoCAD 2000
 90
        0
280
     0
281
     0
  0
CLASS
  1
LAYOUT
  2
AcDbLayout
  3
AutoCAD 2000
 90
        0
280
     0
281
     0
  0
ENDSEC
  0
SECTION
  2
TABLES
  0
TABLE
  2
VPORT
  5
8
330
0
100
AcDbSymbolTable
 70
     2
  0
VPORT
  5
E18
330
8
100
AcDbSymbolTableRecord
100
AcDbViewportTableRecord
  2
*Active
 70
     0
 10
0.0
 20
0.0
 11
1.0
 21
1.0
 12
58.36294562204506
 22
65.50069637214527
 13
0.0
 23
0.0
 14
1.0
 24
1.0
 15
0.0
 25
0.0
 16
0.0
 26
0.0
 36
1.0
 17
0.0
 27
0.0
 37
0.0
 40
52.37101645205026
 41
1.378947368421052
 42
50.0
 43
0.0
 44
0.0
 50
0.0
 51
0.0
 71
     0
 72
   100
 73
     1
 74
     1
 75
     0
 76
     0
 77
     0
 78
     0
281
     0
 65
     1
110
0.0
120
0.0
130
0.0
111
1.0
121
0.0
131
0.0
112
0.0
122
1.0
132
0.0
 79
     0
146
0.0
  0
ENDTAB
  0
TABLE
  2
LTYPE
  5
5
330
0
100
AcDbSymbolTable
 70
     4
  0
LTYPE
  5
13
330
5
100
AcDbSymbolTableRecord
100
AcDbLinetypeTableRecord
  2
BYBLOCK
 70
     0
  3

 72
    65
 73
     0
 40
0.0
  0
LTYPE
  5
14
330
5
100
AcDbSymbolTableRecord
100
AcDbLinetypeTableRecord
  2
BYLAYER
 70
     0
  3

 72
    65
 73
     0
 40
0.0
  0
LTYPE
  5
15
330
5
100
AcDbSymbolTableRecord
100
AcDbLinetypeTableRecord
  2
CONTINUOUS
 70
     0
  3
Solid line
 72
    65
 73
     0
 40
0.0
  0
LTYPE
  5
1F
330
5
100
AcDbSymbolTableRecord
100
AcDbLinetypeTableRecord
  2
HIDDEN
 70
     0
  3
_____________________                     _____________________
 72
    65
 73
     2
 40
0.375
 49
0.25
 74
     0
 49
-0.125
 74
     0
  0
LTYPE
  5
20
330
5
100
AcDbSymbolTableRecord
100
AcDbLinetypeTableRecord
  2
CENTER
 70
     0
  3
____________________        ________        ____________________
 72
    65
 73
     4
 40
2.0
 49
1.25
 74
     0
 49
-0.25
 74
     0
 49
0.25
 74
     0
 49
-0.25
 74
     0
  0
LTYPE
  5
21
330
5
100
AcDbSymbolTableRecord
100
AcDbLinetypeTableRecord
  2
PHANTOM
 70
     0
  3
________________      ______      ______      ________________
 72
    65
 73
     6
 40
2.5
 49
1.290322999999999
 74
     0
 49
-0.241935
 74
     0
 49
0.241935
 74
     0
 49
-0.241935
 74
     0
 49
0.241935
 74
     0
 49
-0.241935
 74
     0
  0
ENDTAB
  0
TABLE
  2
LAYER
  5
2
330
0
100
AcDbSymbolTable
 70
     7
  0
LAYER
  5
F
330
2
100
AcDbSymbolTableRecord
100
AcDbLayerTableRecord
  2
0
 70
     0
 62
     7
  6
CONTINUOUS
370
    -3
390
24D
  0
LAYER
  5
1E
330
2
100
AcDbSymbolTableRecord
100
AcDbLayerTableRecord
  2
N0
 70
     0
 62
   255
  6
CONTINUOUS
370
    -3
390
24D
  0
LAYER
  5
22
330
2
100
AcDbSymbolTableRecord
100
AcDbLayerTableRecord
  2
OBJ
 70
     0
 62
   255
  6
CONTINUOUS
370
    -3
390
24D
  0
LAYER
  5
26
330
2
100
AcDbSymbolTableRecord
100
AcDbLayerTableRecord
  2
DEFPOINTS
 70
     0
 62
   255
  6
CONTINUOUS
290
     0
370
    -3
390
24D
  0
LAYER
  5
283
330
2
100
AcDbSymbolTableRecord
100
AcDbLayerTableRecord
  2
TitleBlock&Notes
 70
     0
 62
     3
  6
CONTINUOUS
370
    -3
390
24D
  0
LAYER
  5
284
330
2
100
AcDbSymbolTableRecord
100
AcDbLayerTableRecord
  2
B.O.M
 70
     0
 62
    -3
  6
CONTINUOUS
370
    -3
390
24D
  0
LAYER
  5
C89
330
2
100
AcDbSymbolTableRecord
100
AcDbLayerTableRecord
  2
DIMENSIONS
 70
     0
 62
     1
  6
CONTINUOUS
370
    -3
390
24D
  0
ENDTAB
  0
TABLE
  2
STYLE
  5
3
330
0
100
AcDbSymbolTable
 70
     2
  0
STYLE
  5
10
330
3
100
AcDbSymbolTableRecord
100
AcDbTextStyleTableRecord
  2
STANDARD
 70
     0
 40
0.0
 41
1.0
 50
0.0
 71
     0
 42
0.25
  3
SIMPLEX.SHX
  4

  0
STYLE
  5
C8A
330
3
100
AcDbSymbolTableRecord
100
AcDbTextStyleTableRecord
  2
HAND
 70
     0
 40
0.0
 41
1.0
 50
0.0
 71
     0
 42
0.3135
  3
DAUPHINN.TTF
  4

1001
ACAD
1000
Dauphin
1071
       18
  0
ENDTAB
  0
TABLE
  2
VIEW
  5
6
330
0
100
AcDbSymbolTable
 70
     0
  0
ENDTAB
  0
TABLE
  2
UCS
  5
7
330
0
100
AcDbSymbolTable
 70
     0
  0
ENDTAB
  0
TABLE
  2
APPID
  5
9
330
0
100
AcDbSymbolTable
 70
     1
  0
APPID
  5
11
330
9
100
AcDbSymbolTableRecord
100
AcDbRegAppTableRecord
  2
ACAD
 70
     0
  0
ENDTAB
  0
TABLE
  2
DIMSTYLE
  5
A
330
0
100
AcDbSymbolTable
 70
     1
100
AcDbDimStyleTable
 71
     1
340
249
  0
DIMSTYLE
105
249
102
{ACAD_REACTORS
330
D66
330
D74
330
D82
330
D90
330
D9E
330
DAC
102
}
330
A
100
AcDbSymbolTableRecord
100
AcDbDimStyleTableRecord
  2
STANDARD
 70
     0
340
10
  0
ENDTAB
  0
TABLE
  2
BLOCK_RECORD
  5
1
330
0
100
AcDbSymbolTable
 70
    19
  0
BLOCK_RECORD
  5
19
330
1
100
AcDbSymbolTableRecord
100
AcDbBlockTableRecord
  2
*MODEL_SPACE
340
250
  0
BLOCK_RECORD
  5
16
330
1
100
AcDbSymbolTableRecord
100
AcDbBlockTableRecord
  2
*PAPER_SPACE
340
251
  0
BLOCK_RECORD
  5
29
330
1
100
AcDbSymbolTableRecord
100
AcDbBlockTableRecord
  2
_X65
340
0
  0
BLOCK_RECORD
  5
37
330
1
100
AcDbSymbolTableRecord
100
AcDbBlockTableRecord
  2
_D66
340
0
  0
BLOCK_RECORD
  5
44
330
1
100
AcDbSymbolTableRecord
100
AcDbBlockTableRecord
  2
_D67
340
0
  0
BLOCK_RECORD
  5
51
330
1
100
AcDbSymbolTableRecord
100
AcDbBlockTableRecord
  2
_D68
340
0
  0
BLOCK_RECORD
  5
5E
330
1
100
AcDbSymbolTableRecord
100
AcDbBlockTableRecord
  2
_D69
340
0
  0
BLOCK_RECORD
  5
6B
330
1
100
AcDbSymbolTableRecord
100
AcDbBlockTableRecord
  2
_D70
340
0
  0
BLOCK_RECORD
  5
78
330
1
100
AcDbSymbolTableRecord
100
AcDbBlockTableRecord
  2
_D71
340
0
  0
BLOCK_RECORD
  5
85
330
1
100
AcDbSymbolTableRecord
100
AcDbBlockTableRecord
  2
_D72
340
0
  0
BLOCK_RECORD
  5
92
330
1
100
AcDbSymbolTableRecord
100
AcDbBlockTableRecord
  2
_D73
340
0
  0
BLOCK_RECORD
  5
9F
330
1
100
AcDbSymbolTableRecord
100
AcDbBlockTableRecord
  2
_D74
340
0
  0
BLOCK_RECORD
  5
AC
330
1
100
AcDbSymbolTableRecord
100
AcDbBlockTableRecord
  2
_D75
340
0
  0
BLOCK_RECORD
  5
B9
330
1
100
AcDbSymbolTableRecord
100
AcDbBlockTableRecord
  2
_D76
340
0
  0
BLOCK_RECORD
  5
C6
330
1
100
AcDbSymbolTableRecord
100
AcDbBlockTableRecord
  2
_D77
340
0
  0
BLOCK_RECORD
  5
D67
330
1
100
AcDbSymbolTableRecord
100
AcDbBlockTableRecord
  2
*D13
340
0
  0
BLOCK_RECORD
  5
D75
330
1
100
AcDbSymbolTableRecord
100
AcDbBlockTableRecord
  2
*D14
340
0
  0
BLOCK_RECORD
  5
D83
330
1
100
AcDbSymbolTableRecord
100
AcDbBlockTableRecord
  2
*D15
340
0
  0
BLOCK_RECORD
  5
D91
330
1
100
AcDbSymbolTableRecord
100
AcDbBlockTableRecord
  2
*D16
340
0
  0
BLOCK_RECORD
  5
D9F
330
1
100
AcDbSymbolTableRecord
100
AcDbBlockTableRecord
  2
*D17
340
0
  0
BLOCK_RECORD
  5
DAD
330
1
100
AcDbSymbolTableRecord
100
AcDbBlockTableRecord
  2
*D18
340
0
  0
ENDTAB
  0
ENDSEC
  0
SECTION
  2
BLOCKS
  0
BLOCK
  5
1A
330
19
100
AcDbEntity
  8
0
100
AcDbBlockBegin
  2
*MODEL_SPACE
 70
     0
 10
0.0
 20
0.0
 30
0.0
  3
*MODEL_SPACE
  1

  0
ENDBLK
  5
1B
330
19
100
AcDbEntity
  8
0
100
AcDbBlockEnd
  0
BLOCK
  5
17
330
16
100
AcDbEntity
 67
     1
  8
0
100
AcDbBlockBegin
  2
*PAPER_SPACE
 70
     0
 10
0.0
 20
0.0
 30
0.0
  3
*PAPER_SPACE
  1

  0
ENDBLK
  5
18
330
16
100
AcDbEntity
 67
     1
  8
0
100
AcDbBlockEnd
  0
BLOCK
  5
2A
330
29
100
AcDbEntity
  8
0
100
AcDbBlockBegin
  2
_X65
 70
     0
 10
0.0
 20
0.0
 30
0.0
  3
_X65
  1

  0
LINE
  5
2B
330
29
100
AcDbEntity
  8
N0
  6
Continuous
 62
   255
100
AcDbLine
 10
30.822314
 20
14.984444
 30
0.0
 11
31.26895499999999
 21
15.431085
 31
0.0
  0
LINE
  5
2C
330
29
100
AcDbEntity
  8
N0
  6
Continuous
 62
   255
100
AcDbLine
 10
30.636459
 20
15.063754
 30
0.0
 11
30.984281
 21
15.411576
 31
0.0
  0
LINE
  5
2D
330
29
100
AcDbEntity
  8
N0
  6
Continuous
 62
   255
100
AcDbLine
 10
30.474024
 20
15.166484
 30
0.0
 11
30.543629
 21
15.236089
 31
0.0
  0
LINE
  5
2E
330
29
100
AcDbEntity
  8
N0
  6
Continuous
 62
   255
100
AcDbLine
 10
31.036955
 20
14.93392
 30
0.0
 11
31.500674
 21
15.397639
 31
0.0
  0
LINE
  5
2F
330
29
100
AcDbEntity
  8
N0
  6
Continuous
 62
   255
100
AcDbLine
 10
31.292644
 20
14.924444
 30
0.0
 11
31.69916699999999
 21
15.330967
 31
0.0
  0
LINE
  5
30
330
29
100
AcDbEntity
  8
N0
  6
Continuous
 62
   255
100
AcDbLine
 10
31.628446
 20
14.99508099999999
 30
0.0
 11
31.872211
 21
15.23884599999999
 31
0.0
  0
LINE
  5
31
330
29
100
AcDbEntity
  8
N0
  6
Continuous
 62
   255
100
AcDbLine
 10
30.95724
 20
14.94795499999999
 30
0.0
 11
31.423164
 21
15.413879
 31
0.0
  0
LINE
  5
32
330
29
100
AcDbEntity
  8
N0
  6
Continuous
 62
   255
100
AcDbLine
 10
30.753678
 20
15.00955799999999
 30
0.0
 11
31.17614899999999
 21
15.432028
 31
0.0
  0
LINE
  5
33
330
29
100
AcDbEntity
  8
N0
  6
Continuous
 62
   255
100
AcDbLine
 10
30.57652299999999
 20
15.09756799999999
 30
0.0
 11
30.860761
 21
15.381806
 31
0.0
  0
LINE
  5
34
330
29
100
AcDbEntity
  8
N0
  6
Continuous
 62
   255
100
AcDbLine
 10
31.196194
 20
14.921744
 30
0.0
 11
31.632175
 21
15.357725
 31
0.0
  0
LINE
  5
35
330
29
100
AcDbEntity
  8
N0
  6
Continuous
 62
   255
100
AcDbLine
 10
31.4947
 20
14.955085
 30
0.0
 11
31.813658
 21
15.27404299999999
 31
0.0
  0
ENDBLK
  5
36
330
29
100
AcDbEntity
  8
0
100
AcDbBlockEnd
  0
BLOCK
  5
38
330
37
100
AcDbEntity
  8
0
100
AcDbBlockBegin
  2
_D66
 70
     0
 10
0.0
 20
0.0
 30
0.0
  3
_D66
  1

  0
LINE
  5
39
330
37
100
AcDbEntity
  8
N0
  6
Continuous
 62
   255
100
AcDbLine
 10
75.12969100000001
 20
60.65625999999999
 30
0.0
 11
77.365952
 21
60.65625999999999
 31
0.0
  0
LINE
  5
3A
330
37
100
AcDbEntity
  8
N0
  6
Continuous
 62
   255
100
AcDbLine
 10
71.129691
 20
69.78126
 30
0.0
 11
77.365952
 21
69.78126
 31
0.0
  0
LINE
  5
3B
330
37
100
AcDbEntity
  8
N0
  6
Continuous
 62
   255
100
AcDbLine
 10
77.239952
 20
60.81625999999999
 30
0.0
 11
77.239952
 21
65.015427
 31
0.0
  0
LINE
  5
3C
330
37
100
AcDbEntity
  8
N0
  6
Continuous
 62
   255
100
AcDbLine
 10
77.239952
 20
69.62125999999999
 30
0.0
 11
77.239952
 21
65.422093
 31
0.0
  0
SOLID
  5
3D
330
37
100
AcDbEntity
  8
N0
  6
Continuous
 62
   255
100
AcDbTrace
 10
77.213285
 20
60.81625999999999
 30
0.0
 11
77.26661899999999
 21
60.81625999999999
 31
0.0
 12
77.239952
 22
60.65625999999999
 32
0.0
 13
77.239952
 23
60.65625999999999
 33
0.0
  0
SOLID
  5
3E
330
37
100
AcDbEntity
  8
N0
  6
Continuous
 62
   255
100
AcDbTrace
 10
77.213285
 20
69.62125999999999
 30
0.0
 11
77.26661899999999
 21
69.62125999999999
 31
0.0
 12
77.239952
 22
69.78126
 32
0.0
 13
77.239952
 23
69.78126
 33
0.0
  0
TEXT
  5
3F
330
37
100
AcDbEntity
  8
N0
  6
Continuous
 62
   255
100
AcDbText
 10
77.364952
 20
65.13542700000001
 30
0.0
 40
0.4945962488156946
  1
B
 50
90.0
 41
1.073420999999999
 72
     3
 11
77.364952
 21
65.489367
 31
0.0
100
AcDbText
  0
POINT
  5
40
330
37
100
AcDbEntity
  8
DEFPOINTS
  6
Continuous
 62
   255
100
AcDbPoint
 10
75.003691
 20
60.65625999999999
 30
0.0
  0
POINT
  5
41
330
37
100
AcDbEntity
  8
DEFPOINTS
  6
Continuous
 62
   255
100
AcDbPoint
 10
71.003691
 20
69.78126
 30
0.0
  0
POINT
  5
42
330
37
100
AcDbEntity
  8
DEFPOINTS
  6
Continuous
 62
   255
100
AcDbPoint
 10
77.239952
 20
69.78126
 30
0.0
  0
ENDBLK
  5
43
330
37
100
AcDbEntity
  8
0
100
AcDbBlockEnd
  0
BLOCK
  5
45
330
44
100
AcDbEntity
  8
0
100
AcDbBlockBegin
  2
_D67
 70
     0
 10
0.0
 20
0.0
 30
0.0
  3
_D67
  1

  0
LINE
  5
46
330
44
100
AcDbEntity
  8
N0
  6
Continuous
 62
   255
100
AcDbLine
 10
67.503691
 20
72.53026
 30
0.0
 11
67.503691
 21
67.88267799999999
 31
0.0
  0
LINE
  5
47
330
44
100
AcDbEntity
  8
N0
  6
Continuous
 62
   255
100
AcDbLine
 10
72.503691
 20
66.78225999999999
 30
0.0
 11
72.503691
 21
68.13467800000001
 31
0.0
  0
LINE
  5
48
330
44
100
AcDbEntity
  8
N0
  6
Continuous
 62
   255
100
AcDbLine
 10
67.663691
 20
68.008678
 30
0.0
 11
69.80035699999999
 21
68.008678
 31
0.0
  0
LINE
  5
49
330
44
100
AcDbEntity
  8
N0
  6
Continuous
 62
   255
100
AcDbLine
 10
72.34369100000001
 20
68.008678
 30
0.0
 11
70.20702400000001
 21
68.008678
 31
0.0
  0
SOLID
  5
4A
330
44
100
AcDbEntity
  8
N0
  6
Continuous
 62
   255
100
AcDbTrace
 10
67.663691
 20
68.03534499999999
 30
0.0
 11
67.663691
 21
67.98201099999999
 31
0.0
 12
67.503691
 22
68.008678
 32
0.0
 13
67.503691
 23
68.008678
 33
0.0
  0
SOLID
  5
4B
330
44
100
AcDbEntity
  8
N0
  6
Continuous
 62
   255
100
AcDbTrace
 10
72.34369100000001
 20
68.03534499999999
 30
0.0
 11
72.34369100000001
 21
67.98201099999999
 31
0.0
 12
72.503691
 22
68.008678
 32
0.0
 13
72.503691
 23
68.008678
 33
0.0
  0
TEXT
  5
4C
330
44
100
AcDbEntity
  8
N0
  6
Continuous
 62
   255
100
AcDbText
 10
69.92035699999999
 20
67.883678
 30
0.0
 40
0.4768606166639363
  1
C
 41
1.073420999999999
 72
     3
 11
70.28598000000001
 21
67.883678
 31
0.0
100
AcDbText
  0
POINT
  5
4D
330
44
100
AcDbEntity
  8
DEFPOINTS
  6
Continuous
 62
   255
100
AcDbPoint
 10
67.503691
 20
72.65626000000001
 30
0.0
  0
POINT
  5
4E
330
44
100
AcDbEntity
  8
DEFPOINTS
  6
Continuous
 62
   255
100
AcDbPoint
 10
72.503691
 20
66.65626
 30
0.0
  0
POINT
  5
4F
330
44
100
AcDbEntity
  8
DEFPOINTS
  6
Continuous
 62
   255
100
AcDbPoint
 10
72.503691
 20
68.008678
 30
0.0
  0
ENDBLK
  5
50
330
44
100
AcDbEntity
  8
0
100
AcDbBlockEnd
  0
BLOCK
  5
52
330
51
100
AcDbEntity
  8
0
100
AcDbBlockBegin
  2
_D68
 70
     0
 10
0.0
 20
0.0
 30
0.0
  3
_D68
  1

  0
LINE
  5
53
330
51
100
AcDbEntity
  8
N0
  6
Continuous
 62
   255
100
AcDbLine
 10
67.503691
 20
70.14346899999999
 30
0.0
 11
67.503691
 21
67.88267799999999
 31
0.0
  0
LINE
  5
54
330
51
100
AcDbEntity
  8
N0
  6
Continuous
 62
   255
100
AcDbLine
 10
66.503691
 20
72.53026
 30
0.0
 11
66.503691
 21
67.88267799999999
 31
0.0
  0
LINE
  5
55
330
51
100
AcDbEntity
  8
N0
  6
Continuous
 62
   255
100
AcDbLine
 10
67.663691
 20
68.008678
 30
0.0
 11
67.823691
 21
68.008678
 31
0.0
  0
LINE
  5
56
330
51
100
AcDbEntity
  8
N0
  6
Continuous
 62
   255
100
AcDbLine
 10
66.343691
 20
68.008678
 30
0.0
 11
66.18369100000001
 21
68.008678
 31
0.0
  0
SOLID
  5
57
330
51
100
AcDbEntity
  8
N0
  6
Continuous
 62
   255
100
AcDbTrace
 10
67.663691
 20
68.03534499999999
 30
0.0
 11
67.663691
 21
67.98201099999999
 31
0.0
 12
67.503691
 22
68.008678
 32
0.0
 13
67.503691
 23
68.008678
 33
0.0
  0
SOLID
  5
58
330
51
100
AcDbEntity
  8
N0
  6
Continuous
 62
   255
100
AcDbTrace
 10
66.343691
 20
68.03534499999999
 30
0.0
 11
66.343691
 21
67.98201099999999
 31
0.0
 12
66.503691
 22
68.008678
 32
0.0
 13
66.503691
 23
68.008678
 33
0.0
  0
TEXT
  5
59
330
51
100
AcDbEntity
  8
N0
  6
Continuous
 62
   255
100
AcDbText
 10
66.79535699999999
 20
67.883678
 30
0.0
 40
0.4175961291473281
  1
%%cK
 41
1.073420999999999
 72
     3
 11
67.49976
 21
67.883678
 31
0.0
100
AcDbText
  0
POINT
  5
5A
330
51
100
AcDbEntity
  8
DEFPOINTS
  6
Continuous
 62
   255
100
AcDbPoint
 10
67.503691
 20
70.269469
 30
0.0
  0
POINT
  5
5B
330
51
100
AcDbEntity
  8
DEFPOINTS
  6
Continuous
 62
   255
100
AcDbPoint
 10
66.503691
 20
72.65626000000001
 30
0.0
  0
POINT
  5
5C
330
51
100
AcDbEntity
  8
DEFPOINTS
  6
Continuous
 62
   255
100
AcDbPoint
 10
66.503691
 20
68.008678
 30
0.0
  0
ENDBLK
  5
5D
330
51
100
AcDbEntity
  8
0
100
AcDbBlockEnd
  0
BLOCK
  5
5F
330
5E
100
AcDbEntity
  8
0
100
AcDbBlockBegin
  2
_D69
 70
     0
 10
0.0
 20
0.0
 30
0.0
  3
_D69
  1

  0
LINE
  5
60
330
5E
100
AcDbEntity
  8
N0
  6
Continuous
 62
   255
100
AcDbLine
 10
64.877691
 20
60.65625999999999
 30
0.0
 11
63.66550400000001
 21
60.65625999999999
 31
0.0
  0
LINE
  5
61
330
5E
100
AcDbEntity
  8
N0
  6
Continuous
 62
   255
100
AcDbLine
 10
64.877691
 20
61.40626
 30
0.0
 11
63.66550400000001
 21
61.40626
 31
0.0
  0
LINE
  5
62
330
5E
100
AcDbEntity
  8
N0
  6
Continuous
 62
   255
100
AcDbLine
 10
63.791504
 20
60.81625999999999
 30
0.0
 11
63.791504
 21
61.24626
 31
0.0
  0
LINE
  5
63
330
5E
100
AcDbEntity
  8
N0
  6
Continuous
 62
   255
100
AcDbLine
 10
63.791504
 20
61.40626
 30
0.0
 11
63.791504
 21
61.56626
 31
0.0
  0
SOLID
  5
64
330
5E
100
AcDbEntity
  8
N0
  6
Continuous
 62
   255
100
AcDbTrace
 10
63.764837
 20
60.81625999999999
 30
0.0
 11
63.81816999999999
 21
60.81625999999999
 31
0.0
 12
63.791504
 22
60.65625999999999
 32
0.0
 13
63.791504
 23
60.65625999999999
 33
0.0
  0
SOLID
  5
65
330
5E
100
AcDbEntity
  8
N0
  6
Continuous
 62
   255
100
AcDbTrace
 10
63.764837
 20
61.24626
 30
0.0
 11
63.81816999999999
 21
61.24626
 31
0.0
 12
63.791504
 22
61.40626
 32
0.0
 13
63.791504
 23
61.40626
 33
0.0
  0
TEXT
  5
66
330
5E
100
AcDbEntity
  8
N0
  6
Continuous
 62
   255
100
AcDbText
 10
63.916504
 20
61.68625999999999
 30
0.0
 40
0.3777978611325279
  1
3/4
 50
90.0
 41
1.073420999999999
 72
     3
 11
63.916504
 21
62.787001
 31
0.0
100
AcDbText
  0
POINT
  5
67
330
5E
100
AcDbEntity
  8
DEFPOINTS
  6
Continuous
 62
   255
100
AcDbPoint
 10
65.003691
 20
60.65625999999999
 30
0.0
  0
POINT
  5
68
330
5E
100
AcDbEntity
  8
DEFPOINTS
  6
Continuous
 62
   255
100
AcDbPoint
 10
65.003691
 20
61.40626
 30
0.0
  0
POINT
  5
69
330
5E
100
AcDbEntity
  8
DEFPOINTS
  6
Continuous
 62
   255
100
AcDbPoint
 10
63.791504
 20
61.40626
 30
0.0
  0
ENDBLK
  5
6A
330
5E
100
AcDbEntity
  8
0
100
AcDbBlockEnd
  0
BLOCK
  5
6C
330
6B
100
AcDbEntity
  8
0
100
AcDbBlockBegin
  2
_D70
 70
     0
 10
0.0
 20
0.0
 30
0.0
  3
_D70
  1

  0
LINE
  5
6D
330
6B
100
AcDbEntity
  8
N0
  6
Continuous
 62
   255
100
AcDbLine
 10
59.450885
 20
56.07938100000001
 30
0.0
 11
59.450885
 21
55.157927
 31
0.0
  0
LINE
  5
6E
330
6B
100
AcDbEntity
  8
N0
  6
Continuous
 62
   255
100
AcDbLine
 10
43.93526
 20
56.07938100000001
 30
0.0
 11
43.93526
 21
55.157927
 31
0.0
  0
LINE
  5
6F
330
6B
100
AcDbEntity
  8
N0
  6
Continuous
 62
   255
100
AcDbLine
 10
59.29088499999999
 20
55.283927
 30
0.0
 11
51.896405
 21
55.283927
 31
0.0
  0
LINE
  5
70
330
6B
100
AcDbEntity
  8
N0
  6
Continuous
 62
   255
100
AcDbLine
 10
44.09525999999999
 20
55.283927
 30
0.0
 11
51.489739
 21
55.283927
 31
0.0
  0
SOLID
  5
71
330
6B
100
AcDbEntity
  8
N0
  6
Continuous
 62
   255
100
AcDbTrace
 10
59.29088499999999
 20
55.310594
 30
0.0
 11
59.29088499999999
 21
55.25725999999999
 31
0.0
 12
59.450885
 22
55.283927
 32
0.0
 13
59.450885
 23
55.283927
 33
0.0
  0
SOLID
  5
72
330
6B
100
AcDbEntity
  8
N0
  6
Continuous
 62
   255
100
AcDbTrace
 10
44.09525999999999
 20
55.310594
 30
0.0
 11
44.09525999999999
 21
55.25725999999999
 31
0.0
 12
43.93526
 22
55.283927
 32
0.0
 13
43.93526
 23
55.283927
 33
0.0
  0
TEXT
  5
73
330
6B
100
AcDbEntity
  8
N0
  6
Continuous
 62
   255
100
AcDbText
 10
51.60973900000001
 20
55.158927
 30
0.0
 40
0.5036894621530964
  1
F
 41
1.073420999999999
 72
     3
 11
51.94444
 21
55.158927
 31
0.0
100
AcDbText
  0
POINT
  5
74
330
6B
100
AcDbEntity
  8
DEFPOINTS
  6
Continuous
 62
   255
100
AcDbPoint
 10
59.450885
 20
56.205381
 30
0.0
  0
POINT
  5
75
330
6B
100
AcDbEntity
  8
DEFPOINTS
  6
Continuous
 62
   255
100
AcDbPoint
 10
43.93526
 20
56.205381
 30
0.0
  0
POINT
  5
76
330
6B
100
AcDbEntity
  8
DEFPOINTS
  6
Continuous
 62
   255
100
AcDbPoint
 10
43.93526
 20
55.283927
 30
0.0
  0
ENDBLK
  5
77
330
6B
100
AcDbEntity
  8
0
100
AcDbBlockEnd
  0
BLOCK
  5
79
330
78
100
AcDbEntity
  8
0
100
AcDbBlockBegin
  2
_D71
 70
     0
 10
0.0
 20
0.0
 30
0.0
  3
_D71
  1

  0
LINE
  5
7A
330
78
100
AcDbEntity
  8
N0
  6
Continuous
 62
   255
100
AcDbLine
 10
65.628691
 20
56.07938100000001
 30
0.0
 11
65.628691
 21
55.714635
 31
0.0
  0
LINE
  5
7B
330
78
100
AcDbEntity
  8
N0
  6
Continuous
 62
   255
100
AcDbLine
 10
74.378691
 20
56.07938100000001
 30
0.0
 11
74.378691
 21
55.714635
 31
0.0
  0
LINE
  5
7C
330
78
100
AcDbEntity
  8
N0
  6
Continuous
 62
   255
100
AcDbLine
 10
65.788691
 20
55.840635
 30
0.0
 11
69.80035699999999
 21
55.840635
 31
0.0
  0
LINE
  5
7D
330
78
100
AcDbEntity
  8
N0
  6
Continuous
 62
   255
100
AcDbLine
 10
74.21869100000001
 20
55.840635
 30
0.0
 11
70.20702400000001
 21
55.840635
 31
0.0
  0
SOLID
  5
7E
330
78
100
AcDbEntity
  8
N0
  6
Continuous
 62
   255
100
AcDbTrace
 10
65.788691
 20
55.867302
 30
0.0
 11
65.788691
 21
55.813968
 31
0.0
 12
65.628691
 22
55.840635
 32
0.0
 13
65.628691
 23
55.840635
 33
0.0
  0
SOLID
  5
7F
330
78
100
AcDbEntity
  8
N0
  6
Continuous
 62
   255
100
AcDbTrace
 10
74.21869100000001
 20
55.867302
 30
0.0
 11
74.21869100000001
 21
55.813968
 31
0.0
 12
74.378691
 22
55.840635
 32
0.0
 13
74.378691
 23
55.840635
 33
0.0
  0
TEXT
  5
80
330
78
100
AcDbEntity
  8
N0
  6
Continuous
 62
   255
100
AcDbText
 10
69.92035699999999
 20
55.71563499999999
 30
0.0
 40
0.5067790091392189
  1
E
 41
1.073420999999999
 72
     3
 11
70.25711099999999
 21
55.71563499999999
 31
0.0
100
AcDbText
  0
POINT
  5
81
330
78
100
AcDbEntity
  8
DEFPOINTS
  6
Continuous
 62
   255
100
AcDbPoint
 10
65.628691
 20
56.205381
 30
0.0
  0
POINT
  5
82
330
78
100
AcDbEntity
  8
DEFPOINTS
  6
Continuous
 62
   255
100
AcDbPoint
 10
74.378691
 20
56.205381
 30
0.0
  0
POINT
  5
83
330
78
100
AcDbEntity
  8
DEFPOINTS
  6
Continuous
 62
   255
100
AcDbPoint
 10
74.378691
 20
55.840635
 30
0.0
  0
ENDBLK
  5
84
330
78
100
AcDbEntity
  8
0
100
AcDbBlockEnd
  0
BLOCK
  5
86
330
85
100
AcDbEntity
  8
0
100
AcDbBlockBegin
  2
_D72
 70
     0
 10
0.0
 20
0.0
 30
0.0
  3
_D72
  1

  0
LINE
  5
87
330
85
100
AcDbEntity
  8
N0
  6
Continuous
 62
   255
100
AcDbLine
 10
65.003691
 20
56.65525999999999
 30
0.0
 11
65.003691
 21
55.157927
 31
0.0
  0
LINE
  5
88
330
85
100
AcDbEntity
  8
N0
  6
Continuous
 62
   255
100
AcDbLine
 10
75.003691
 20
56.65525999999999
 30
0.0
 11
75.003691
 21
55.157927
 31
0.0
  0
LINE
  5
89
330
85
100
AcDbEntity
  8
N0
  6
Continuous
 62
   255
100
AcDbLine
 10
65.163691
 20
55.283927
 30
0.0
 11
69.80035699999999
 21
55.283927
 31
0.0
  0
LINE
  5
8A
330
85
100
AcDbEntity
  8
N0
  6
Continuous
 62
   255
100
AcDbLine
 10
74.84369100000001
 20
55.283927
 30
0.0
 11
70.20702400000001
 21
55.283927
 31
0.0
  0
SOLID
  5
8B
330
85
100
AcDbEntity
  8
N0
  6
Continuous
 62
   255
100
AcDbTrace
 10
65.163691
 20
55.310594
 30
0.0
 11
65.163691
 21
55.25725999999999
 31
0.0
 12
65.003691
 22
55.283927
 32
0.0
 13
65.003691
 23
55.283927
 33
0.0
  0
SOLID
  5
8C
330
85
100
AcDbEntity
  8
N0
  6
Continuous
 62
   255
100
AcDbTrace
 10
74.84369100000001
 20
55.310594
 30
0.0
 11
74.84369100000001
 21
55.25725999999999
 31
0.0
 12
75.003691
 22
55.283927
 32
0.0
 13
75.003691
 23
55.283927
 33
0.0
  0
TEXT
  5
8D
330
85
100
AcDbEntity
  8
N0
  6
Continuous
 62
   255
100
AcDbText
 10
69.92035699999999
 20
55.158927
 30
0.0
 40
0.4744862453781023
  1
D
 41
1.073420999999999
 72
     3
 11
70.259906
 21
55.158927
 31
0.0
100
AcDbText
  0
POINT
  5
8E
330
85
100
AcDbEntity
  8
DEFPOINTS
  6
Continuous
 62
   255
100
AcDbPoint
 10
65.003691
 20
56.78125999999999
 30
0.0
  0
POINT
  5
8F
330
85
100
AcDbEntity
  8
DEFPOINTS
  6
Continuous
 62
   255
100
AcDbPoint
 10
75.003691
 20
56.78125999999999
 30
0.0
  0
POINT
  5
90
330
85
100
AcDbEntity
  8
DEFPOINTS
  6
Continuous
 62
   255
100
AcDbPoint
 10
75.003691
 20
55.283927
 30
0.0
  0
ENDBLK
  5
91
330
85
100
AcDbEntity
  8
0
100
AcDbBlockEnd
  0
BLOCK
  5
93
330
92
100
AcDbEntity
  8
0
100
AcDbBlockBegin
  2
_D73
 70
     0
 10
0.0
 20
0.0
 30
0.0
  3
_D73
  1

  0
LINE
  5
94
330
92
100
AcDbEntity
  8
N0
  6
Continuous
 62
   255
100
AcDbLine
 10
45.56807199999999
 20
72.53026
 30
0.0
 11
45.56807199999999
 21
66.292084
 31
0.0
  0
LINE
  5
95
330
92
100
AcDbEntity
  8
N0
  6
Continuous
 62
   255
100
AcDbLine
 10
57.81807199999999
 20
72.53026
 30
0.0
 11
57.81807199999999
 21
66.292084
 31
0.0
  0
LINE
  5
96
330
92
100
AcDbEntity
  8
N0
  6
Continuous
 62
   255
100
AcDbLine
 10
45.72807199999999
 20
66.41808399999999
 30
0.0
 11
51.489739
 21
66.41808399999999
 31
0.0
  0
LINE
  5
97
330
92
100
AcDbEntity
  8
N0
  6
Continuous
 62
   255
100
AcDbLine
 10
57.658072
 20
66.41808399999999
 30
0.0
 11
51.896405
 21
66.41808399999999
 31
0.0
  0
SOLID
  5
98
330
92
100
AcDbEntity
  8
N0
  6
Continuous
 62
   255
100
AcDbTrace
 10
45.72807199999999
 20
66.444751
 30
0.0
 11
45.72807199999999
 21
66.391417
 31
0.0
 12
45.56807199999999
 22
66.41808399999999
 32
0.0
 13
45.56807199999999
 23
66.41808399999999
 33
0.0
  0
SOLID
  5
99
330
92
100
AcDbEntity
  8
N0
  6
Continuous
 62
   255
100
AcDbTrace
 10
57.658072
 20
66.444751
 30
0.0
 11
57.658072
 21
66.391417
 31
0.0
 12
57.81807199999999
 22
66.41808399999999
 32
0.0
 13
57.81807199999999
 23
66.41808399999999
 33
0.0
  0
TEXT
  5
9A
330
92
100
AcDbEntity
  8
N0
  6
Continuous
 62
   255
100
AcDbText
 10
51.60973900000001
 20
66.29308399999999
 30
0.0
 40
0.4834268194864803
  1
A
 41
1.073420999999999
 72
     3
 11
52.005107
 21
66.29308399999999
 31
0.0
100
AcDbText
  0
POINT
  5
9B
330
92
100
AcDbEntity
  8
DEFPOINTS
  6
Continuous
 62
   255
100
AcDbPoint
 10
45.56807199999999
 20
72.65626000000001
 30
0.0
  0
POINT
  5
9C
330
92
100
AcDbEntity
  8
DEFPOINTS
  6
Continuous
 62
   255
100
AcDbPoint
 10
57.81807199999999
 20
72.65626000000001
 30
0.0
  0
POINT
  5
9D
330
92
100
AcDbEntity
  8
DEFPOINTS
  6
Continuous
 62
   255
100
AcDbPoint
 10
57.81807199999999
 20
66.41808399999999
 30
0.0
  0
ENDBLK
  5
9E
330
92
100
AcDbEntity
  8
0
100
AcDbBlockEnd
  0
BLOCK
  5
A0
330
9F
100
AcDbEntity
  8
0
100
AcDbBlockBegin
  2
_D74
 70
     0
 10
0.0
 20
0.0
 30
0.0
  3
_D74
  1

  0
LINE
  5
A1
330
9F
100
AcDbEntity
  8
N0
  6
Continuous
 62
   255
100
AcDbLine
 10
49.411822
 20
68.923209
 30
0.0
 11
49.411822
 21
68.04173699999999
 31
0.0
  0
LINE
  5
A2
330
9F
100
AcDbEntity
  8
N0
  6
Continuous
 62
   255
100
AcDbLine
 10
53.97432199999999
 20
68.923209
 30
0.0
 11
53.97432199999999
 21
68.04173699999999
 31
0.0
  0
LINE
  5
A3
330
9F
100
AcDbEntity
  8
N0
  6
Continuous
 62
   255
100
AcDbLine
 10
49.571822
 20
68.167737
 30
0.0
 11
50.906405
 21
68.167737
 31
0.0
  0
LINE
  5
A4
330
9F
100
AcDbEntity
  8
N0
  6
Continuous
 62
   255
100
AcDbLine
 10
53.81432199999999
 20
68.167737
 30
0.0
 11
52.479739
 21
68.167737
 31
0.0
  0
SOLID
  5
A5
330
9F
100
AcDbEntity
  8
N0
  6
Continuous
 62
   255
100
AcDbTrace
 10
49.571822
 20
68.19440400000001
 30
0.0
 11
49.571822
 21
68.141071
 31
0.0
 12
49.411822
 22
68.167737
 32
0.0
 13
49.411822
 23
68.167737
 33
0.0
  0
SOLID
  5
A6
330
9F
100
AcDbEntity
  8
N0
  6
Continuous
 62
   255
100
AcDbTrace
 10
53.81432199999999
 20
68.19440400000001
 30
0.0
 11
53.81432199999999
 21
68.141071
 31
0.0
 12
53.97432199999999
 22
68.167737
 32
0.0
 13
53.97432199999999
 23
68.167737
 33
0.0
  0
TEXT
  5
A7
330
9F
100
AcDbEntity
  8
N0
  6
Continuous
 62
   255
100
AcDbText
 10
51.02640499999999
 20
68.042737
 30
0.0
 40
0.3129944355476564
  1
4 9/16
 41
1.073420999999999
 72
     3
 11
52.786273
 21
68.042737
 31
0.0
100
AcDbText
  0
POINT
  5
A8
330
9F
100
AcDbEntity
  8
DEFPOINTS
  6
Continuous
 62
   255
100
AcDbPoint
 10
49.411822
 20
69.04920899999999
 30
0.0
  0
POINT
  5
A9
330
9F
100
AcDbEntity
  8
DEFPOINTS
  6
Continuous
 62
   255
100
AcDbPoint
 10
53.97432199999999
 20
69.04920899999999
 30
0.0
  0
POINT
  5
AA
330
9F
100
AcDbEntity
  8
DEFPOINTS
  6
Continuous
 62
   255
100
AcDbPoint
 10
53.97432199999999
 20
68.167737
 30
0.0
  0
ENDBLK
  5
AB
330
9F
100
AcDbEntity
  8
0
100
AcDbBlockEnd
  0
BLOCK
  5
AD
330
AC
100
AcDbEntity
  8
0
100
AcDbBlockBegin
  2
_D75
 70
     0
 10
0.0
 20
0.0
 30
0.0
  3
_D75
  1

  0
LINE
  5
AE
330
AC
100
AcDbEntity
  8
N0
  6
Continuous
 62
   255
100
AcDbLine
 10
44.442072
 20
57.65626
 30
0.0
 11
42.94953999999999
 21
57.65626
 31
0.0
  0
LINE
  5
AF
330
AC
100
AcDbEntity
  8
N0
  6
Continuous
 62
   255
100
AcDbLine
 10
44.442072
 20
60.65625999999999
 30
0.0
 11
42.94953999999999
 21
60.65625999999999
 31
0.0
  0
LINE
  5
B0
330
AC
100
AcDbEntity
  8
N0
  6
Continuous
 62
   255
100
AcDbLine
 10
43.07554
 20
57.81626
 30
0.0
 11
43.07554
 21
58.952927
 31
0.0
  0
LINE
  5
B1
330
AC
100
AcDbEntity
  8
N0
  6
Continuous
 62
   255
100
AcDbLine
 10
43.07554
 20
60.49625999999999
 30
0.0
 11
43.07554
 21
59.359593
 31
0.0
  0
SOLID
  5
B2
330
AC
100
AcDbEntity
  8
N0
  6
Continuous
 62
   255
100
AcDbTrace
 10
43.04887299999999
 20
57.81626
 30
0.0
 11
43.102206
 21
57.81626
 31
0.0
 12
43.07554
 22
57.65626
 32
0.0
 13
43.07554
 23
57.65626
 33
0.0
  0
SOLID
  5
B3
330
AC
100
AcDbEntity
  8
N0
  6
Continuous
 62
   255
100
AcDbTrace
 10
43.04887299999999
 20
60.49625999999999
 30
0.0
 11
43.102206
 21
60.49625999999999
 31
0.0
 12
43.07554
 22
60.65625999999999
 32
0.0
 13
43.07554
 23
60.65625999999999
 33
0.0
  0
TEXT
  5
B4
330
AC
100
AcDbEntity
  8
N0
  6
Continuous
 62
   255
100
AcDbText
 10
43.20054
 20
59.072927
 30
0.0
 40
0.4711604300642468
  1
H
 50
90.0
 41
1.073420999999999
 72
     3
 11
43.20054
 21
59.410096
 31
0.0
100
AcDbText
  0
POINT
  5
B5
330
AC
100
AcDbEntity
  8
DEFPOINTS
  6
Continuous
 62
   255
100
AcDbPoint
 10
44.56807199999999
 20
57.65626
 30
0.0
  0
POINT
  5
B6
330
AC
100
AcDbEntity
  8
DEFPOINTS
  6
Continuous
 62
   255
100
AcDbPoint
 10
44.56807199999999
 20
60.65625999999999
 30
0.0
  0
POINT
  5
B7
330
AC
100
AcDbEntity
  8
DEFPOINTS
  6
Continuous
 62
   255
100
AcDbPoint
 10
43.07554
 20
60.65625999999999
 30
0.0
  0
ENDBLK
  5
B8
330
AC
100
AcDbEntity
  8
0
100
AcDbBlockEnd
  0
BLOCK
  5
BA
330
B9
100
AcDbEntity
  8
0
100
AcDbBlockBegin
  2
_D76
 70
     0
 10
0.0
 20
0.0
 30
0.0
  3
_D76
  1

  0
LINE
  5
BB
330
B9
100
AcDbEntity
  8
N0
  6
Continuous
 62
   255
100
AcDbLine
 10
44.442072
 20
60.65625999999999
 30
0.0
 11
42.94953999999999
 21
60.65625999999999
 31
0.0
  0
LINE
  5
BC
330
B9
100
AcDbEntity
  8
N0
  6
Continuous
 62
   255
100
AcDbLine
 10
44.442072
 20
72.65626000000001
 30
0.0
 11
42.94953999999999
 21
72.65626000000001
 31
0.0
  0
LINE
  5
BD
330
B9
100
AcDbEntity
  8
N0
  6
Continuous
 62
   255
100
AcDbLine
 10
43.07554
 20
60.81625999999999
 30
0.0
 11
43.07554
 21
66.452927
 31
0.0
  0
LINE
  5
BE
330
B9
100
AcDbEntity
  8
N0
  6
Continuous
 62
   255
100
AcDbLine
 10
43.07554
 20
72.49625999999999
 30
0.0
 11
43.07554
 21
66.859593
 31
0.0
  0
SOLID
  5
BF
330
B9
100
AcDbEntity
  8
N0
  6
Continuous
 62
   255
100
AcDbTrace
 10
43.04887299999999
 20
60.81625999999999
 30
0.0
 11
43.102206
 21
60.81625999999999
 31
0.0
 12
43.07554
 22
60.65625999999999
 32
0.0
 13
43.07554
 23
60.65625999999999
 33
0.0
  0
SOLID
  5
C0
330
B9
100
AcDbEntity
  8
N0
  6
Continuous
 62
   255
100
AcDbTrace
 10
43.04887299999999
 20
72.49625999999999
 30
0.0
 11
43.102206
 21
72.49625999999999
 31
0.0
 12
43.07554
 22
72.65626000000001
 32
0.0
 13
43.07554
 23
72.65626000000001
 33
0.0
  0
TEXT
  5
C1
330
B9
100
AcDbEntity
  8
N0
  6
Continuous
 62
   255
100
AcDbText
 10
43.20054
 20
66.57292700000001
 30
0.0
 40
0.459477688623548
  1
G
 50
90.0
 41
1.073420999999999
 72
     3
 11
43.20054
 21
66.92522199999999
 31
0.0
100
AcDbText
  0
POINT
  5
C2
330
B9
100
AcDbEntity
  8
DEFPOINTS
  6
Continuous
 62
   255
100
AcDbPoint
 10
44.56807199999999
 20
60.65625999999999
 30
0.0
  0
POINT
  5
C3
330
B9
100
AcDbEntity
  8
DEFPOINTS
  6
Continuous
 62
   255
100
AcDbPoint
 10
44.56807199999999
 20
72.65626000000001
 30
0.0
  0
POINT
  5
C4
330
B9
100
AcDbEntity
  8
DEFPOINTS
  6
Continuous
 62
   255
100
AcDbPoint
 10
43.07554
 20
72.65626000000001
 30
0.0
  0
ENDBLK
  5
C5
330
B9
100
AcDbEntity
  8
0
100
AcDbBlockEnd
  0
BLOCK
  5
C7
330
C6
100
AcDbEntity
  8
0
100
AcDbBlockBegin
  2
_D77
 70
     0
 10
0.0
 20
0.0
 30
0.0
  3
_D77
  1

  0
LINE
  5
C8
330
C6
100
AcDbEntity
  8
N0
  6
Continuous
 62
   255
100
AcDbLine
 10
44.442072
 20
72.65626000000001
 30
0.0
 11
42.94953999999999
 21
72.65626000000001
 31
0.0
  0
LINE
  5
C9
330
C6
100
AcDbEntity
  8
N0
  6
Continuous
 62
   255
100
AcDbLine
 10
44.442072
 20
75.65626
 30
0.0
 11
42.94953999999999
 21
75.65626
 31
0.0
  0
LINE
  5
CA
330
C6
100
AcDbEntity
  8
N0
  6
Continuous
 62
   255
100
AcDbLine
 10
43.07554
 20
72.81626
 30
0.0
 11
43.07554
 21
73.952927
 31
0.0
  0
LINE
  5
CB
330
C6
100
AcDbEntity
  8
N0
  6
Continuous
 62
   255
100
AcDbLine
 10
43.07554
 20
75.49625999999999
 30
0.0
 11
43.07554
 21
74.359593
 31
0.0
  0
SOLID
  5
CC
330
C6
100
AcDbEntity
  8
N0
  6
Continuous
 62
   255
100
AcDbTrace
 10
43.04887299999999
 20
72.81626
 30
0.0
 11
43.102206
 21
72.81626
 31
0.0
 12
43.07554
 22
72.65626000000001
 32
0.0
 13
43.07554
 23
72.65626000000001
 33
0.0
  0
SOLID
  5
CD
330
C6
100
AcDbEntity
  8
N0
  6
Continuous
 62
   255
100
AcDbTrace
 10
43.04887299999999
 20
75.49625999999999
 30
0.0
 11
43.102206
 21
75.49625999999999
 31
0.0
 12
43.07554
 22
75.65626
 32
0.0
 13
43.07554
 23
75.65626
 33
0.0
  0
TEXT
  5
CE
330
C6
100
AcDbEntity
  8
N0
  6
Continuous
 62
   255
100
AcDbText
 10
43.20054
 20
74.07292700000001
 30
0.0
 40
0.4711604300642369
  1
H
 50
90.0
 41
1.073420999999999
 72
     3
 11
43.20054
 21
74.410096
 31
0.0
100
AcDbText
  0
POINT
  5
CF
330
C6
100
AcDbEntity
  8
DEFPOINTS
  6
Continuous
 62
   255
100
AcDbPoint
 10
44.56807199999999
 20
72.65626000000001
 30
0.0
  0
POINT
  5
D0
330
C6
100
AcDbEntity
  8
DEFPOINTS
  6
Continuous
 62
   255
100
AcDbPoint
 10
44.56807199999999
 20
75.65626
 30
0.0
  0
POINT
  5
D1
330
C6
100
AcDbEntity
  8
DEFPOINTS
  6
Continuous
 62
   255
100
AcDbPoint
 10
43.07554
 20
75.65626
 30
0.0
  0
ENDBLK
  5
D2
330
C6
100
AcDbEntity
  8
0
100
AcDbBlockEnd
  0
BLOCK
  5
D72
330
D67
100
AcDbEntity
  8
0
100
AcDbBlockBegin
  2
*D13
 70
     1
 10
0.0
 20
0.0
 30
0.0
  3
*D13
  1

  0
LINE
  5
DC4
330
D67
100
AcDbEntity
  8
DIMENSIONS
  6
Continuous
370
    -2
100
AcDbLine
 10
42.56807199999999
 20
66.53126
 30
0.0
 11
42.56807199999999
 21
66.43251087942926
 31
0.0
  0
LINE
  5
DC5
330
D67
100
AcDbEntity
  8
DIMENSIONS
  6
Continuous
370
    -2
100
AcDbLine
 10
60.818072
 20
66.53126
 30
0.0
 11
60.818072
 21
66.43251087942926
 31
0.0
  0
LINE
  5
DC6
330
D67
100
AcDbEntity
  8
DIMENSIONS
  6
Continuous
370
    -2
100
AcDbLine
 10
42.918072
 20
66.55751087942926
 30
0.0
 11
51.24534217224481
 21
66.55751087942926
 31
0.0
  0
LINE
  5
DC7
330
D67
100
AcDbEntity
  8
DIMENSIONS
  6
Continuous
370
    -2
100
AcDbLine
 10
60.46807199999999
 20
66.55751087942926
 30
0.0
 11
52.47962788653053
 21
66.55751087942926
 31
0.0
  0
SOLID
  5
DC8
330
D67
100
AcDbEntity
  8
DIMENSIONS
  6
Continuous
100
AcDbTrace
 10
42.918072
 20
66.61584421276259
 30
0.0
 11
42.918072
 21
66.49917754609592
 31
0.0
 12
42.56807199999999
 22
66.55751087942926
 32
0.0
 13
42.56807199999999
 23
66.55751087942926
 33
0.0
  0
SOLID
  5
DC9
330
D67
100
AcDbEntity
  8
DIMENSIONS
  6
Continuous
100
AcDbTrace
 10
60.46807199999999
 20
66.61584421276259
 30
0.0
 11
60.46807199999999
 21
66.49917754609592
 31
0.0
 12
60.818072
 22
66.55751087942926
 32
0.0
 13
60.818072
 23
66.55751087942926
 33
0.0
  0
MTEXT
  5
DCA
330
D67
100
AcDbEntity
  8
DIMENSIONS
  6
Continuous
100
AcDbMText
 10
51.86248502938767
 20
66.55751087942926
 30
0.0
 40
0.36
 41
0.0
 71
     5
 72
     1
  1
\A1;18{\H1.000000x;\S1/4;}
 73
     1
 44
1.0
  0
POINT
  5
DCB
330
D67
100
AcDbEntity
  8
DEFPOINTS
  6
Continuous
 62
     0
100
AcDbPoint
 10
42.56807199999999
 20
66.65626
 30
0.0
  0
POINT
  5
DCC
330
D67
100
AcDbEntity
  8
DEFPOINTS
  6
Continuous
 62
     0
100
AcDbPoint
 10
60.818072
 20
66.65626
 30
0.0
  0
POINT
  5
DCD
330
D67
100
AcDbEntity
  8
DEFPOINTS
  6
Continuous
 62
     0
100
AcDbPoint
 10
60.818072
 20
66.55751087942926
 30
0.0
  0
ENDBLK
  5
D73
330
D67
100
AcDbEntity
  8
0
100
AcDbBlockEnd
  0
BLOCK
  5
D80
330
D75
100
AcDbEntity
  8
0
100
AcDbBlockBegin
  2
*D14
 70
     1
 10
0.0
 20
0.0
 30
0.0
  3
*D14
  1

  0
LINE
  5
DCE
330
D75
100
AcDbEntity
  8
DIMENSIONS
  6
Continuous
370
    -2
100
AcDbLine
 10
63.075885
 20
55.53125999999998
 30
0.0
 11
63.075885
 21
53.9906174795697
 31
0.0
  0
LINE
  5
DCF
330
D75
100
AcDbEntity
  8
DIMENSIONS
  6
Continuous
370
    -2
100
AcDbLine
 10
40.31025999999999
 20
55.53126000000001
 30
0.0
 11
40.31025999999999
 21
53.9906174795697
 31
0.0
  0
LINE
  5
DD0
330
D75
100
AcDbEntity
  8
DIMENSIONS
  6
Continuous
370
    -2
100
AcDbLine
 10
62.725885
 20
54.1156174795697
 30
0.0
 11
52.23103029290744
 21
54.1156174795697
 31
0.0
  0
LINE
  5
DD1
330
D75
100
AcDbEntity
  8
DIMENSIONS
  6
Continuous
370
    -2
100
AcDbLine
 10
40.66025999999999
 20
54.1156174795697
 30
0.0
 11
50.92817315005029
 21
54.1156174795697
 31
0.0
  0
SOLID
  5
DD2
330
D75
100
AcDbEntity
  8
DIMENSIONS
  6
Continuous
100
AcDbTrace
 10
62.725885
 20
54.17395081290304
 30
0.0
 11
62.725885
 21
54.05728414623638
 31
0.0
 12
63.075885
 22
54.1156174795697
 32
0.0
 13
63.075885
 23
54.1156174795697
 33
0.0
  0
SOLID
  5
DD3
330
D75
100
AcDbEntity
  8
DIMENSIONS
  6
Continuous
100
AcDbTrace
 10
40.66025999999999
 20
54.17395081290304
 30
0.0
 11
40.66025999999999
 21
54.05728414623638
 31
0.0
 12
40.31025999999999
 22
54.1156174795697
 32
0.0
 13
40.31025999999999
 23
54.1156174795697
 33
0.0
  0
MTEXT
  5
DD4
330
D75
100
AcDbEntity
  8
DIMENSIONS
  6
Continuous
100
AcDbMText
 10
51.57960172147887
 20
54.1156174795697
 30
0.0
 40
0.36
 41
0.0
 71
     5
 72
     1
  1
\A1;22{\H1.000000x;\S3/4;}
 73
     1
 44
1.0
  0
POINT
  5
DD5
330
D75
100
AcDbEntity
  8
DEFPOINTS
  6
Continuous
 62
     0
100
AcDbPoint
 10
63.075885
 20
55.65625999999999
 30
0.0
  0
POINT
  5
DD6
330
D75
100
AcDbEntity
  8
DEFPOINTS
  6
Continuous
 62
     0
100
AcDbPoint
 10
40.31025999999999
 20
55.65626000000001
 30
0.0
  0
POINT
  5
DD7
330
D75
100
AcDbEntity
  8
DEFPOINTS
  6
Continuous
 62
     0
100
AcDbPoint
 10
40.31025999999999
 20
54.1156174795697
 30
0.0
  0
ENDBLK
  5
D81
330
D75
100
AcDbEntity
  8
0
100
AcDbBlockEnd
  0
BLOCK
  5
D8E
330
D83
100
AcDbEntity
  8
0
100
AcDbBlockBegin
  2
*D15
 70
     1
 10
0.0
 20
0.0
 30
0.0
  3
*D15
  1

  0
LINE
  5
DD8
330
D83
100
AcDbEntity
  8
DIMENSIONS
  6
Continuous
370
    -2
100
AcDbLine
 10
67.68719732014395
 20
55.53125999999998
 30
0.0
 11
67.68719732014395
 21
53.89636065753679
 31
0.0
  0
LINE
  5
DD9
330
D83
100
AcDbEntity
  8
DIMENSIONS
  6
Continuous
370
    -2
100
AcDbLine
 10
79.68719732014395
 20
55.53125999999998
 30
0.0
 11
79.68719732014395
 21
53.89636065753679
 31
0.0
  0
LINE
  5
DDA
330
D83
100
AcDbEntity
  8
DIMENSIONS
  6
Continuous
370
    -2
100
AcDbLine
 10
68.03719732014394
 20
54.02136065753679
 30
0.0
 11
73.3016538895436
 21
54.02136065753679
 31
0.0
  0
LINE
  5
DDB
330
D83
100
AcDbEntity
  8
DIMENSIONS
  6
Continuous
370
    -2
100
AcDbLine
 10
79.33719732014395
 20
54.02136065753679
 30
0.0
 11
74.17593960382932
 21
54.02136065753679
 31
0.0
  0
SOLID
  5
DDC
330
D83
100
AcDbEntity
  8
DIMENSIONS
  6
Continuous
100
AcDbTrace
 10
68.03719732014394
 20
54.07969399087011
 30
0.0
 11
68.03719732014394
 21
53.96302732420346
 31
0.0
 12
67.68719732014395
 22
54.02136065753679
 32
0.0
 13
67.68719732014395
 23
54.02136065753679
 33
0.0
  0
SOLID
  5
DDD
330
D83
100
AcDbEntity
  8
DIMENSIONS
  6
Continuous
100
AcDbTrace
 10
79.33719732014395
 20
54.07969399087011
 30
0.0
 11
79.33719732014395
 21
53.96302732420346
 31
0.0
 12
79.68719732014395
 22
54.02136065753679
 32
0.0
 13
79.68719732014395
 23
54.02136065753679
 33
0.0
  0
MTEXT
  5
DDE
330
D83
100
AcDbEntity
  8
DIMENSIONS
  6
Continuous
100
AcDbMText
 10
73.73879674668646
 20
54.02136065753679
 30
0.0
 40
0.36
 41
0.0
 71
     5
 72
     1
  1
\A1;12
 73
     1
 44
1.0
  0
POINT
  5
DDF
330
D83
100
AcDbEntity
  8
DEFPOINTS
  6
Continuous
 62
     0
100
AcDbPoint
 10
67.68719732014395
 20
55.65625999999999
 30
0.0
  0
POINT
  5
DE0
330
D83
100
AcDbEntity
  8
DEFPOINTS
  6
Continuous
 62
     0
100
AcDbPoint
 10
79.68719732014395
 20
55.65625999999998
 30
0.0
  0
POINT
  5
DE1
330
D83
100
AcDbEntity
  8
DEFPOINTS
  6
Continuous
 62
     0
100
AcDbPoint
 10
79.68719732014395
 20
54.02136065753679
 30
0.0
  0
ENDBLK
  5
D8F
330
D83
100
AcDbEntity
  8
0
100
AcDbBlockEnd
  0
BLOCK
  5
D9C
330
D91
100
AcDbEntity
  8
0
100
AcDbBlockBegin
  2
*D16
 70
     1
 10
0.0
 20
0.0
 30
0.0
  3
*D16
  1

  0
LINE
  5
DE2
330
D91
100
AcDbEntity
  8
DIMENSIONS
  6
Continuous
370
    -2
100
AcDbLine
 10
71.18719732014395
 20
66.53126
 30
0.0
 11
71.18719732014395
 21
66.33825417787915
 31
0.0
  0
LINE
  5
DE3
330
D91
100
AcDbEntity
  8
DIMENSIONS
  6
Continuous
370
    -2
100
AcDbLine
 10
76.18719732014395
 20
66.53126
 30
0.0
 11
76.18719732014395
 21
66.33825417787915
 31
0.0
  0
LINE
  5
DE4
330
D91
100
AcDbEntity
  8
DIMENSIONS
  6
Continuous
370
    -2
100
AcDbLine
 10
71.53719732014394
 20
66.46325417787915
 30
0.0
 11
73.53309128555013
 21
66.46325417787915
 31
0.0
  0
LINE
  5
DE5
330
D91
100
AcDbEntity
  8
DIMENSIONS
  6
Continuous
370
    -2
100
AcDbLine
 10
75.83719732014396
 20
66.46325417787915
 30
0.0
 11
74.13309128555012
 21
66.46325417787915
 31
0.0
  0
SOLID
  5
DE6
330
D91
100
AcDbEntity
  8
DIMENSIONS
  6
Continuous
100
AcDbTrace
 10
71.53719732014394
 20
66.52158751121248
 30
0.0
 11
71.53719732014394
 21
66.40492084454582
 31
0.0
 12
71.18719732014395
 22
66.46325417787915
 32
0.0
 13
71.18719732014395
 23
66.46325417787915
 33
0.0
  0
SOLID
  5
DE7
330
D91
100
AcDbEntity
  8
DIMENSIONS
  6
Continuous
100
AcDbTrace
 10
75.83719732014396
 20
66.52158751121248
 30
0.0
 11
75.83719732014396
 21
66.40492084454582
 31
0.0
 12
76.18719732014395
 22
66.46325417787915
 32
0.0
 13
76.18719732014395
 23
66.46325417787915
 33
0.0
  0
MTEXT
  5
DE8
330
D91
100
AcDbEntity
  8
DIMENSIONS
  6
Continuous
100
AcDbMText
 10
73.83309128555012
 20
66.46325417787915
 30
0.0
 40
0.36
 41
0.0
 71
     5
 72
     1
  1
\A1;5
 73
     1
 44
1.0
  0
POINT
  5
DE9
330
D91
100
AcDbEntity
  8
DEFPOINTS
  6
Continuous
 62
     0
100
AcDbPoint
 10
71.18719732014395
 20
66.65626
 30
0.0
  0
POINT
  5
DEA
330
D91
100
AcDbEntity
  8
DEFPOINTS
  6
Continuous
 62
     0
100
AcDbPoint
 10
76.18719732014395
 20
66.65626
 30
0.0
  0
POINT
  5
DEB
330
D91
100
AcDbEntity
  8
DEFPOINTS
  6
Continuous
 62
     0
100
AcDbPoint
 10
76.18719732014395
 20
66.46325417787915
 30
0.0
  0
ENDBLK
  5
D9D
330
D91
100
AcDbEntity
  8
0
100
AcDbBlockEnd
  0
BLOCK
  5
DAA
330
D9F
100
AcDbEntity
  8
0
100
AcDbBlockBegin
  2
*D17
 70
     1
 10
0.0
 20
0.0
 30
0.0
  3
*D17
  1

  0
LINE
  5
DEC
330
D9F
100
AcDbEntity
  8
DIMENSIONS
  6
Continuous
370
    -2
100
AcDbLine
 10
40.18526
 20
55.65626000000001
 30
0.0
 11
38.33170009790777
 21
55.65626000000001
 31
0.0
  0
LINE
  5
DED
330
D9F
100
AcDbEntity
  8
DIMENSIONS
  6
Continuous
370
    -2
100
AcDbLine
 10
41.39619699999999
 20
77.28126
 30
0.0
 11
38.33170009790777
 21
77.28126
 31
0.0
  0
LINE
  5
DEE
330
D9F
100
AcDbEntity
  8
DIMENSIONS
  6
Continuous
370
    -2
100
AcDbLine
 10
38.45670009790778
 20
56.00626000000001
 30
0.0
 11
38.45670009790778
 21
65.9034291654251
 31
0.0
  0
LINE
  5
DEF
330
D9F
100
AcDbEntity
  8
DIMENSIONS
  6
Continuous
370
    -2
100
AcDbLine
 10
38.45670009790778
 20
76.93126000000001
 30
0.0
 11
38.45670009790778
 21
67.10342916542508
 31
0.0
  0
SOLID
  5
DF0
330
D9F
100
AcDbEntity
  8
DIMENSIONS
  6
Continuous
100
AcDbTrace
 10
38.39836676457444
 20
56.00626000000001
 30
0.0
 11
38.51503343124111
 21
56.00626000000001
 31
0.0
 12
38.45670009790778
 22
55.65626000000001
 32
0.0
 13
38.45670009790778
 23
55.65626000000001
 33
0.0
  0
SOLID
  5
DF1
330
D9F
100
AcDbEntity
  8
DIMENSIONS
  6
Continuous
100
AcDbTrace
 10
38.39836676457444
 20
76.93126000000001
 30
0.0
 11
38.51503343124111
 21
76.93126000000001
 31
0.0
 12
38.45670009790778
 22
77.28126
 32
0.0
 13
38.45670009790778
 23
77.28126
 33
0.0
  0
MTEXT
  5
DF2
330
D9F
100
AcDbEntity
  8
DIMENSIONS
  6
Continuous
100
AcDbMText
 10
38.45670009790777
 20
66.5034291654251
 30
0.0
 40
0.36
 41
0.0
 71
     5
 72
     1
  1
\A1;21{\H1.000000x;\S5/8;}
 73
     1
 44
1.0
  0
POINT
  5
DF3
330
D9F
100
AcDbEntity
  8
DEFPOINTS
  6
Continuous
 62
     0
100
AcDbPoint
 10
40.31025999999999
 20
55.65626000000001
 30
0.0
  0
POINT
  5
DF4
330
D9F
100
AcDbEntity
  8
DEFPOINTS
  6
Continuous
 62
     0
100
AcDbPoint
 10
41.52119699999999
 20
77.28126
 30
0.0
  0
POINT
  5
DF5
330
D9F
100
AcDbEntity
  8
DEFPOINTS
  6
Continuous
 62
     0
100
AcDbPoint
 10
38.45670009790778
 20
77.28126
 30
0.0
  0
ENDBLK
  5
DAB
330
D9F
100
AcDbEntity
  8
0
100
AcDbBlockEnd
  0
BLOCK
  5
DB8
330
DAD
100
AcDbEntity
  8
0
100
AcDbBlockBegin
  2
*D18
 70
     1
 10
0.0
 20
0.0
 30
0.0
  3
*D18
  1

  0
LINE
  5
E0A
330
DAD
100
AcDbEntity
  8
DIMENSIONS
  6
Continuous
370
    -2
100
AcDbLine
 10
49.31807199999999
 20
71.40626000000001
 30
0.0
 11
46.72029907960027
 21
71.40626000000001
 31
0.0
  0
LINE
  5
E0B
330
DAD
100
AcDbEntity
  8
DIMENSIONS
  6
Continuous
370
    -2
100
AcDbLine
 10
46.84529907960027
 20
71.05626
 30
0.0
 11
46.84529907960027
 21
68.3725476845852
 31
0.0
  0
LINE
  5
E0C
330
DAD
100
AcDbEntity
  8
DIMENSIONS
  6
Continuous
370
    -2
100
AcDbLine
 10
46.84529907960027
 20
61.00626
 30
0.0
 11
46.84529907960027
 21
67.17254768458521
 31
0.0
  0
SOLID
  5
E0D
330
DAD
100
AcDbEntity
  8
DIMENSIONS
  6
Continuous
100
AcDbTrace
 10
46.78696574626694
 20
71.05626
 30
0.0
 11
46.9036324129336
 21
71.05626
 31
0.0
 12
46.84529907960027
 22
71.40626000000001
 32
0.0
 13
46.84529907960027
 23
71.40626000000001
 33
0.0
  0
SOLID
  5
E0E
330
DAD
100
AcDbEntity
  8
DIMENSIONS
  6
Continuous
100
AcDbTrace
 10
46.78696574626694
 20
61.00626
 30
0.0
 11
46.9036324129336
 21
61.00626
 31
0.0
 12
46.84529907960027
 22
60.65626
 32
0.0
 13
46.84529907960027
 23
60.65626
 33
0.0
  0
MTEXT
  5
E0F
330
DAD
100
AcDbEntity
  8
DIMENSIONS
  6
Continuous
100
AcDbMText
 10
46.84529907960026
 20
67.77254768458522
 30
0.0
 40
0.36
 41
0.0
 71
     5
 72
     1
  1
\A1;10{\H1.000000x;\S3/4;}
 73
     1
 44
1.0
  0
POINT
  5
E10
330
DAD
100
AcDbEntity
  8
DEFPOINTS
  6
Continuous
 62
     0
100
AcDbPoint
 10
49.44307199999999
 20
71.40626000000001
 30
0.0
  0
POINT
  5
E11
330
DAD
100
AcDbEntity
  8
DEFPOINTS
  6
Continuous
 62
     0
100
AcDbPoint
 10
49.87829500680174
 20
60.65625999999999
 30
0.0
  0
POINT
  5
E12
330
DAD
100
AcDbEntity
  8
DEFPOINTS
  6
Continuous
 62
     0
100
AcDbPoint
 10
46.84529907960027
 20
60.65626
 30
0.0
  0
ENDBLK
  5
DB9
330
DAD
100
AcDbEntity
  8
0
100
AcDbBlockEnd
  0
ENDSEC
  0
SECTION
  2
ENTITIES
  0
LINE
  5
D4
330
19
100
AcDbEntity
  8
OBJ
  6
Continuous
 62
   255
100
AcDbLine
 10
41.31807199999999
 20
72.65626000000001
 30
0.0
 11
62.068072
 21
72.65626000000001
 31
0.0
  0
LINE
  5
D5
330
19
100
AcDbEntity
  8
OBJ
  6
Continuous
 62
   255
100
AcDbLine
 10
41.31807199999999
 20
76.65626
 30
0.0
 11
62.06807199999999
 21
76.65625999999999
 31
0.0
  0
LINE
  5
D7
330
19
100
AcDbEntity
  8
OBJ
  6
Continuous
 62
   255
100
AcDbLine
 10
41.31807199999999
 20
60.65625999999999
 30
0.0
 11
62.068072
 21
60.65626
 31
0.0
  0
LINE
  5
D8
330
19
100
AcDbEntity
  8
OBJ
  6
Continuous
 62
   255
100
AcDbLine
 10
41.56807199999999
 20
56.65625999999999
 30
0.0
 11
61.81807199999998
 21
56.65625999999998
 31
0.0
  0
LINE
  5
DC
330
19
100
AcDbEntity
  8
OBJ
  6
Continuous
 62
   255
100
AcDbLine
 10
42.56807199999999
 20
72.65626000000001
 30
0.0
 11
42.56807199999999
 21
60.65625999999999
 31
0.0
  0
LINE
  5
DD
330
19
100
AcDbEntity
  8
OBJ
  6
Continuous
 62
   255
100
AcDbLine
 10
60.818072
 20
72.65626000000001
 30
0.0
 11
60.818072
 21
60.65625999999999
 31
0.0
  0
LINE
  5
111
330
19
100
AcDbEntity
  8
OBJ
  6
Continuous
 62
   255
100
AcDbLine
 10
41.44307199999999
 20
56.53125999999999
 30
0.0
 11
42.44307199999999
 21
56.53125999999999
 31
0.0
  0
LINE
  5
113
330
19
100
AcDbEntity
  8
OBJ
  6
Continuous
 62
   255
100
AcDbLine
 10
40.31025999999999
 20
55.65626000000001
 30
0.0
 11
41.44307199999999
 21
55.65626000000001
 31
0.0
  0
LINE
  5
114
330
19
100
AcDbEntity
  8
OBJ
  6
Continuous
 62
   255
100
AcDbLine
 10
41.31807199999999
 20
56.65625999999999
 30
0.0
 11
41.31807199999999
 21
55.78126000000001
 31
0.0
  0
LINE
  5
115
330
19
100
AcDbEntity
  8
OBJ
  6
Continuous
 62
   255
100
AcDbLine
 10
40.31025999999999
 20
55.78126000000001
 30
0.0
 11
41.31807199999999
 21
55.78126000000001
 31
0.0
  0
LINE
  5
117
330
19
100
AcDbEntity
  8
OBJ
  6
Continuous
 62
   255
100
AcDbLine
 10
42.56807199999999
 20
56.65625999999999
 30
0.0
 11
41.31807199999999
 21
56.65625999999999
 31
0.0
  0
LINE
  5
118
330
19
100
AcDbEntity
  8
OBJ
  6
Continuous
 62
   255
100
AcDbLine
 10
41.44307199999999
 20
56.53125999999999
 30
0.0
 11
41.44307199999999
 21
55.65626
 31
0.0
  0
LINE
  5
119
330
19
100
AcDbEntity
  8
OBJ
  6
Continuous
 62
   255
100
AcDbLine
 10
42.44307199999999
 20
56.53125999999999
 30
0.0
 11
42.443072
 21
55.65626
 31
0.0
  0
LINE
  5
11A
330
19
100
AcDbEntity
  8
OBJ
  6
Continuous
 62
   255
100
AcDbLine
 10
42.56807199999999
 20
56.65625999999999
 30
0.0
 11
42.56807199999999
 21
55.65626000000001
 31
0.0
  0
LINE
  5
11C
330
19
100
AcDbEntity
  8
OBJ
  6
Continuous
 62
   255
100
AcDbLine
 10
61.94307199999999
 20
56.53125999999999
 30
0.0
 11
61.94307199999999
 21
55.65625999999999
 31
0.0
  0
LINE
  5
11D
330
19
100
AcDbEntity
  8
OBJ
  6
Continuous
 62
   255
100
AcDbLine
 10
63.075885
 20
55.78125999999999
 30
0.0
 11
62.068072
 21
55.78125999999999
 31
0.0
  0
LINE
  5
11E
330
19
100
AcDbEntity
  8
OBJ
  6
Continuous
 62
   255
100
AcDbLine
 10
63.075885
 20
55.65625999999999
 30
0.0
 11
61.94307199999999
 21
55.65625999999999
 31
0.0
  0
LINE
  5
11F
330
19
100
AcDbEntity
  8
OBJ
  6
Continuous
 62
   255
100
AcDbLine
 10
63.075885
 20
55.65625999999999
 30
0.0
 11
63.075885
 21
55.78125999999999
 31
0.0
  0
LINE
  5
120
330
19
100
AcDbEntity
  8
OBJ
  6
Continuous
 62
   255
100
AcDbLine
 10
61.94307199999999
 20
56.53125999999999
 30
0.0
 11
60.94307199999999
 21
56.53125999999999
 31
0.0
  0
LINE
  5
121
330
19
100
AcDbEntity
  8
OBJ
  6
Continuous
 62
   255
100
AcDbLine
 10
60.818072
 20
56.65625999999999
 30
0.0
 11
62.068072
 21
56.65625999999999
 31
0.0
  0
LINE
  5
123
330
19
100
AcDbEntity
  8
OBJ
  6
Continuous
 62
   255
100
AcDbLine
 10
62.068072
 20
56.65625999999999
 30
0.0
 11
62.068072
 21
55.78125999999999
 31
0.0
  0
LINE
  5
124
330
19
100
AcDbEntity
  8
OBJ
  6
Continuous
 62
   255
100
AcDbLine
 10
60.94307199999999
 20
56.53125999999999
 30
0.0
 11
60.943072
 21
55.65625999999999
 31
0.0
  0
LINE
  5
125
330
19
100
AcDbEntity
  8
OBJ
  6
Continuous
 62
   255
100
AcDbLine
 10
60.818072
 20
56.65625999999999
 30
0.0
 11
60.81807199999998
 21
55.65625999999999
 31
0.0
  0
LINE
  5
12D
330
19
100
AcDbEntity
  8
OBJ
  6
Continuous
 62
   255
100
AcDbLine
 10
67.68719732014395
 20
56.65625999999999
 30
0.0
 11
79.68719732014395
 21
56.65625999999998
 31
0.0
  0
LINE
  5
130
330
19
100
AcDbEntity
  8
OBJ
  6
Continuous
 62
   255
100
AcDbLine
 10
69.93719732014395
 20
72.65625999999999
 30
0.0
 11
77.43719732014395
 21
72.65626000000001
 31
0.0
  0
LINE
  5
131
330
19
100
AcDbEntity
  8
OBJ
  6
Continuous
 62
   255
100
AcDbLine
 10
71.18719732014395
 20
72.65626000000001
 30
0.0
 11
71.18719732014395
 21
60.65625999999999
 31
0.0
  0
LINE
  5
132
330
19
100
AcDbEntity
  8
OBJ
  6
Continuous
 62
   255
100
AcDbLine
 10
69.93719732014395
 20
72.65626000000001
 30
0.0
 11
69.93719732014395
 21
60.65625999999999
 31
0.0
  0
LINE
  5
133
330
19
100
AcDbEntity
  8
OBJ
  6
Continuous
 62
   255
100
AcDbLine
 10
69.93719732014395
 20
60.65625999999999
 30
0.0
 11
69.93719732014395
 21
56.65625999999999
 31
0.0
  0
LINE
  5
134
330
19
100
AcDbEntity
  8
OBJ
  6
Continuous
 62
   255
100
AcDbLine
 10
67.68719732014395
 20
55.78125999999999
 30
0.0
 11
79.68719732014395
 21
55.78125999999998
 31
0.0
  0
LINE
  5
135
330
19
100
AcDbEntity
  8
OBJ
  6
Continuous
 62
   255
100
AcDbLine
 10
67.68719732014395
 20
55.65625999999999
 30
0.0
 11
79.68719732014395
 21
55.65625999999998
 31
0.0
  0
LINE
  5
13A
330
19
100
AcDbEntity
  8
OBJ
  6
Continuous
 62
   255
100
AcDbLine
 10
69.93719732014395
 20
76.65626
 30
0.0
 11
69.93719732014395
 21
72.65626000000001
 31
0.0
  0
LINE
  5
14A
330
19
100
AcDbEntity
  8
OBJ
  6
Continuous
 62
   255
100
AcDbLine
 10
77.43719732014395
 20
72.65626000000001
 30
0.0
 11
77.43719732014395
 21
60.65625999999999
 31
0.0
  0
LINE
  5
14B
330
19
100
AcDbEntity
  8
OBJ
  6
Continuous
 62
   255
100
AcDbLine
 10
76.18719732014395
 20
72.65626000000001
 30
0.0
 11
76.18719732014395
 21
60.65625999999999
 31
0.0
  0
LINE
  5
14C
330
19
100
AcDbEntity
  8
OBJ
  6
Continuous
 62
   255
100
AcDbLine
 10
77.43719732014395
 20
60.65625999999999
 30
0.0
 11
77.43719732014395
 21
56.65625999999999
 31
0.0
  0
LINE
  5
150
330
19
100
AcDbEntity
  8
OBJ
  6
Continuous
 62
   255
100
AcDbLine
 10
77.43719732014395
 20
76.65626
 30
0.0
 11
77.43719732014395
 21
72.65626000000001
 31
0.0
  0
LINE
  5
158
330
19
100
AcDbEntity
  8
OBJ
  6
Continuous
 62
   255
100
AcDbLine
 10
71.18719732014395
 20
60.65625999999999
 30
0.0
 11
71.18719732014395
 21
56.65625999999999
 31
0.0
  0
LINE
  5
159
330
19
100
AcDbEntity
  8
OBJ
  6
Continuous
 62
   255
100
AcDbLine
 10
76.18719732014395
 20
60.65625999999999
 30
0.0
 11
76.18719732014395
 21
56.65625999999999
 31
0.0
  0
LINE
  5
190
330
19
100
AcDbEntity
  8
N0
  6
Continuous
 62
   255
100
AcDbLine
 10
42.41182199999999
 20
77.234385
 30
0.0
 11
42.36494699999999
 21
77.28126
 31
0.0
  0
LINE
  5
191
330
19
100
AcDbEntity
  8
N0
  6
Continuous
 62
   255
100
AcDbLine
 10
42.36494699999999
 20
77.28126
 30
0.0
 11
41.52119699999999
 21
77.28126
 31
0.0
  0
LINE
  5
192
330
19
100
AcDbEntity
  8
N0
  6
Continuous
 62
   255
100
AcDbLine
 10
41.52119699999999
 20
77.28126
 30
0.0
 11
41.47432199999999
 21
77.234385
 31
0.0
  0
LINE
  5
193
330
19
100
AcDbEntity
  8
N0
  6
Continuous
 62
   255
100
AcDbLine
 10
41.47432199999999
 20
77.234385
 30
0.0
 11
41.47432199999999
 21
76.65626
 31
0.0
  0
LINE
  5
194
330
19
100
AcDbEntity
  8
N0
  6
Continuous
 62
   255
100
AcDbLine
 10
41.47432199999999
 20
76.65626
 30
0.0
 11
42.41182199999999
 21
76.65626
 31
0.0
  0
LINE
  5
195
330
19
100
AcDbEntity
  8
N0
  6
Continuous
 62
   255
100
AcDbLine
 10
42.41182199999999
 20
76.65626
 30
0.0
 11
42.41182199999999
 21
77.234385
 31
0.0
  0
LINE
  5
196
330
19
100
AcDbEntity
  8
N0
  6
Continuous
 62
   255
100
AcDbLine
 10
42.41182199999999
 20
77.234385
 30
0.0
 11
41.47432199999999
 21
77.234385
 31
0.0
  0
LINE
  5
19C
330
19
100
AcDbEntity
  8
N0
  6
Continuous
 62
   255
100
AcDbLine
 10
42.41182199999999
 20
55.95313499999999
 30
0.0
 11
42.36494699999999
 21
55.90625999999999
 31
0.0
  0
LINE
  5
19D
330
19
100
AcDbEntity
  8
N0
  6
Continuous
 62
   255
100
AcDbLine
 10
42.36494699999999
 20
55.90625999999999
 30
0.0
 11
41.52119699999999
 21
55.90625999999999
 31
0.0
  0
LINE
  5
19E
330
19
100
AcDbEntity
  8
N0
  6
Continuous
 62
   255
100
AcDbLine
 10
41.52119699999999
 20
55.90625999999999
 30
0.0
 11
41.47432199999999
 21
55.95313499999999
 31
0.0
  0
LINE
  5
19F
330
19
100
AcDbEntity
  8
N0
  6
Continuous
 62
   255
100
AcDbLine
 10
41.47432199999999
 20
55.95313499999999
 30
0.0
 11
41.47432199999999
 21
56.53125999999999
 31
0.0
  0
LINE
  5
1A0
330
19
100
AcDbEntity
  8
N0
  6
Continuous
 62
   255
100
AcDbLine
 10
41.47432199999999
 20
56.53125999999999
 30
0.0
 11
42.41182199999999
 21
56.53125999999999
 31
0.0
  0
LINE
  5
1A1
330
19
100
AcDbEntity
  8
N0
  6
Continuous
 62
   255
100
AcDbLine
 10
42.41182199999999
 20
56.53125999999999
 30
0.0
 11
42.41182199999999
 21
55.95313499999999
 31
0.0
  0
LINE
  5
1A2
330
19
100
AcDbEntity
  8
N0
  6
Continuous
 62
   255
100
AcDbLine
 10
42.41182199999999
 20
55.95313499999999
 30
0.0
 11
41.47432199999999
 21
55.95313499999999
 31
0.0
  0
LINE
  5
1AD
330
19
100
AcDbEntity
  8
N0
  6
Continuous
 62
   255
100
AcDbLine
 10
61.911822
 20
77.234385
 30
0.0
 11
61.86494699999999
 21
77.28126
 31
0.0
  0
LINE
  5
1AE
330
19
100
AcDbEntity
  8
N0
  6
Continuous
 62
   255
100
AcDbLine
 10
61.86494699999999
 20
77.28126
 30
0.0
 11
61.02119699999999
 21
77.28126
 31
0.0
  0
LINE
  5
1AF
330
19
100
AcDbEntity
  8
N0
  6
Continuous
 62
   255
100
AcDbLine
 10
61.02119699999999
 20
77.28126
 30
0.0
 11
60.974322
 21
77.234385
 31
0.0
  0
LINE
  5
1B0
330
19
100
AcDbEntity
  8
N0
  6
Continuous
 62
   255
100
AcDbLine
 10
60.974322
 20
77.234385
 30
0.0
 11
60.974322
 21
76.65626
 31
0.0
  0
LINE
  5
1B1
330
19
100
AcDbEntity
  8
N0
  6
Continuous
 62
   255
100
AcDbLine
 10
60.974322
 20
76.65626
 30
0.0
 11
61.911822
 21
76.65626
 31
0.0
  0
LINE
  5
1B2
330
19
100
AcDbEntity
  8
N0
  6
Continuous
 62
   255
100
AcDbLine
 10
61.911822
 20
76.65626
 30
0.0
 11
61.911822
 21
77.234385
 31
0.0
  0
LINE
  5
1B3
330
19
100
AcDbEntity
  8
N0
  6
Continuous
 62
   255
100
AcDbLine
 10
61.911822
 20
77.234385
 30
0.0
 11
60.974322
 21
77.234385
 31
0.0
  0
LINE
  5
1B9
330
19
100
AcDbEntity
  8
N0
  6
Continuous
 62
   255
100
AcDbLine
 10
71.03094732014395
 20
77.234385
 30
0.0
 11
70.98407232014395
 21
77.28126
 31
0.0
  0
LINE
  5
1BA
330
19
100
AcDbEntity
  8
N0
  6
Continuous
 62
   255
100
AcDbLine
 10
70.98407232014395
 20
77.28126
 30
0.0
 11
70.14032232014395
 21
77.28126
 31
0.0
  0
LINE
  5
1BB
330
19
100
AcDbEntity
  8
N0
  6
Continuous
 62
   255
100
AcDbLine
 10
70.14032232014395
 20
77.28126
 30
0.0
 11
70.09344732014395
 21
77.234385
 31
0.0
  0
LINE
  5
1BC
330
19
100
AcDbEntity
  8
N0
  6
Continuous
 62
   255
100
AcDbLine
 10
70.09344732014395
 20
77.234385
 30
0.0
 11
70.09344732014395
 21
76.65626
 31
0.0
  0
LINE
  5
1BD
330
19
100
AcDbEntity
  8
N0
  6
Continuous
 62
   255
100
AcDbLine
 10
70.09344732014395
 20
76.65626
 30
0.0
 11
71.03094732014395
 21
76.65626
 31
0.0
  0
LINE
  5
1BE
330
19
100
AcDbEntity
  8
N0
  6
Continuous
 62
   255
100
AcDbLine
 10
71.03094732014395
 20
76.65626
 30
0.0
 11
71.03094732014395
 21
77.234385
 31
0.0
  0
LINE
  5
1BF
330
19
100
AcDbEntity
  8
N0
  6
Continuous
 62
   255
100
AcDbLine
 10
71.03094732014395
 20
77.234385
 30
0.0
 11
70.09344732014395
 21
77.234385
 31
0.0
  0
LINE
  5
1C5
330
19
100
AcDbEntity
  8
N0
  6
Continuous
 62
   255
100
AcDbLine
 10
77.28094732014395
 20
77.234385
 30
0.0
 11
77.23407232014395
 21
77.28126
 31
0.0
  0
LINE
  5
1C6
330
19
100
AcDbEntity
  8
N0
  6
Continuous
 62
   255
100
AcDbLine
 10
77.23407232014395
 20
77.28126
 30
0.0
 11
76.39032232014395
 21
77.28126
 31
0.0
  0
LINE
  5
1C7
330
19
100
AcDbEntity
  8
N0
  6
Continuous
 62
   255
100
AcDbLine
 10
76.39032232014395
 20
77.28126
 30
0.0
 11
76.34344732014395
 21
77.234385
 31
0.0
  0
LINE
  5
1C8
330
19
100
AcDbEntity
  8
N0
  6
Continuous
 62
   255
100
AcDbLine
 10
76.34344732014395
 20
77.234385
 30
0.0
 11
76.34344732014395
 21
76.65626
 31
0.0
  0
LINE
  5
1C9
330
19
100
AcDbEntity
  8
N0
  6
Continuous
 62
   255
100
AcDbLine
 10
76.34344732014395
 20
76.65626
 30
0.0
 11
77.28094732014395
 21
76.65626
 31
0.0
  0
LINE
  5
1CA
330
19
100
AcDbEntity
  8
N0
  6
Continuous
 62
   255
100
AcDbLine
 10
77.28094732014395
 20
76.65626
 30
0.0
 11
77.28094732014395
 21
77.234385
 31
0.0
  0
LINE
  5
1CB
330
19
100
AcDbEntity
  8
N0
  6
Continuous
 62
   255
100
AcDbLine
 10
77.28094732014395
 20
77.234385
 30
0.0
 11
76.34344732014395
 21
77.234385
 31
0.0
  0
LINE
  5
257
330
19
100
AcDbEntity
  8
N0
  6
Continuous
 62
   255
100
AcDbLine
 10
61.911822
 20
55.95313499999999
 30
0.0
 11
60.974322
 21
55.95313499999999
 31
0.0
  0
LINE
  5
258
330
19
100
AcDbEntity
  8
N0
  6
Continuous
 62
   255
100
AcDbLine
 10
61.86494699999999
 20
55.90625999999999
 30
0.0
 11
61.02119699999999
 21
55.90625999999999
 31
0.0
  0
LINE
  5
259
330
19
100
AcDbEntity
  8
N0
  6
Continuous
 62
   255
100
AcDbLine
 10
60.974322
 20
55.95313499999999
 30
0.0
 11
60.974322
 21
56.53125999999999
 31
0.0
  0
LINE
  5
25A
330
19
100
AcDbEntity
  8
N0
  6
Continuous
 62
   255
100
AcDbLine
 10
61.02119699999999
 20
55.90625999999999
 30
0.0
 11
60.974322
 21
55.95313499999999
 31
0.0
  0
LINE
  5
25B
330
19
100
AcDbEntity
  8
N0
  6
Continuous
 62
   255
100
AcDbLine
 10
61.911822
 20
56.53125999999999
 30
0.0
 11
61.911822
 21
55.95313499999999
 31
0.0
  0
LINE
  5
25C
330
19
100
AcDbEntity
  8
OBJ
  6
Continuous
 62
   255
100
AcDbLine
 10
61.94307199999999
 20
56.53125999999999
 30
0.0
 11
61.94307199999999
 21
55.90625999999999
 31
0.0
  0
LINE
  5
25D
330
19
100
AcDbEntity
  8
N0
  6
Continuous
 62
   255
100
AcDbLine
 10
61.911822
 20
55.95313499999999
 30
0.0
 11
61.86494699999999
 21
55.90625999999999
 31
0.0
  0
LINE
  5
25E
330
19
100
AcDbEntity
  8
N0
  6
Continuous
 62
   255
100
AcDbLine
 10
69.93719732014395
 20
60.65625999999999
 30
0.0
 11
71.18719732014395
 21
60.65625999999999
 31
0.0
  0
LINE
  5
25F
330
19
100
AcDbEntity
  8
N0
  6
Continuous
 62
   255
100
AcDbLine
 10
76.18719732014395
 20
60.65625999999999
 30
0.0
 11
77.43719732014395
 21
60.65625999999998
 31
0.0
  0
LINE
  5
264
330
19
100
AcDbEntity
  8
OBJ
  6
Continuous
 62
   255
100
AcDbLine
 10
49.44307199999999
 20
72.65626000000001
 30
0.0
 11
49.44307199999999
 21
71.40626000000001
 31
0.0
  0
LINE
  5
267
330
19
100
AcDbEntity
  8
OBJ
  6
Continuous
 62
   255
100
AcDbLine
 10
53.943072
 20
72.65626000000001
 30
0.0
 11
53.943072
 21
71.40626000000001
 31
0.0
  0
LINE
  5
26A
330
19
100
AcDbEntity
  8
N0
  6
Continuous
 62
   255
100
AcDbLine
 10
71.18719732014395
 20
72.65626000000001
 30
0.0
 11
71.18719732014395
 21
76.65626000000002
 31
0.0
  0
LINE
  5
26B
330
19
100
AcDbEntity
  8
N0
  6
Continuous
 62
   255
100
AcDbLine
 10
76.18719732014395
 20
72.65626000000001
 30
0.0
 11
76.18719732014395
 21
76.65626
 31
0.0
  0
LINE
  5
270
330
19
100
AcDbEntity
  8
N0
  6
Continuous
 62
   255
100
AcDbLine
 10
71.18719732014395
 20
76.65626000000002
 30
0.0
 11
69.93719732014395
 21
76.65626
 31
0.0
  0
LINE
  5
271
330
19
100
AcDbEntity
  8
N0
  6
Continuous
 62
   255
100
AcDbLine
 10
77.43719732014395
 20
76.65626
 30
0.0
 11
76.18719732014395
 21
76.65626
 31
0.0
  0
LINE
  5
272
330
19
100
AcDbEntity
  8
N0
  6
Continuous
 62
   255
100
AcDbLine
 10
42.443072
 20
55.65626
 30
0.0
 11
42.56807199999999
 21
55.65626
 31
0.0
  0
LINE
  5
273
330
19
100
AcDbEntity
  8
N0
  6
Continuous
 62
   255
100
AcDbLine
 10
60.81807199999999
 20
55.65625999999999
 30
0.0
 11
60.943072
 21
55.65625999999999
 31
0.0
  0
LWPOLYLINE
  5
778
330
19
100
AcDbEntity
  8
TitleBlock&Notes
100
AcDbPolyline
 90
        4
 70
     1
 43
0.0
 10
33.00668587281543
 20
45.78856859123332
 10
85.80668587281543
 20
45.7885685912333
 10
85.80668587281545
 20
86.5885685912333
 10
33.00668587281544
 20
86.58856859123332
  0
LINE
  5
779
330
19
100
AcDbEntity
  8
TitleBlock&Notes
  6
Continuous
 62
     3
100
AcDbLine
 10
70.74499738833535
 20
47.78805375539331
 30
0.0
 11
71.23876601841537
 21
47.79667250531331
 31
0.0
  0
LINE
  5
77A
330
19
100
AcDbEntity
  8
TitleBlock&Notes
  6
Continuous
 62
     3
100
AcDbLine
 10
70.74499738833535
 20
47.7690428566733
 30
0.0
 11
71.25664380273537
 21
47.77797367043331
 31
0.0
  0
LINE
  5
77B
330
19
100
AcDbEntity
  8
TitleBlock&Notes
  6
Continuous
 62
     3
100
AcDbLine
 10
70.74499738833535
 20
47.7500319579533
 30
0.0
 11
71.27559834273539
 21
47.75929360595331
 31
0.0
  0
LINE
  5
77C
330
19
100
AcDbEntity
  8
TitleBlock&Notes
  6
Continuous
 62
     3
100
AcDbLine
 10
70.74499738833535
 20
47.73102105923332
 30
0.0
 11
71.29572971553537
 21
47.7406341176333
 31
0.0
  0
LINE
  5
77D
330
19
100
AcDbEntity
  8
TitleBlock&Notes
  6
Continuous
 62
     3
100
AcDbLine
 10
70.74499738833535
 20
47.7120101605133
 30
0.0
 11
71.31715847937539
 21
47.72199724883331
 31
0.0
  0
LINE
  5
77E
330
19
100
AcDbEntity
  8
TitleBlock&Notes
  6
Continuous
 62
     3
100
AcDbLine
 10
70.74499738833535
 20
47.69299926179331
 30
0.0
 11
71.34003189873538
 21
47.7033856131533
 31
0.0
  0
LINE
  5
77F
330
19
100
AcDbEntity
  8
TitleBlock&Notes
  6
Continuous
 62
     3
100
AcDbLine
 10
70.74499738833535
 20
47.67398836307329
 30
0.0
 11
71.36453316321534
 21
47.68480239443331
 31
0.0
  0
LINE
  5
780
330
19
100
AcDbEntity
  8
TitleBlock&Notes
  6
Continuous
 62
     3
100
AcDbLine
 10
70.74499738833535
 20
47.65497746435331
 30
0.0
 11
71.3908949307354
 21
47.66625163187331
 31
0.0
  0
LINE
  5
781
330
19
100
AcDbEntity
  8
TitleBlock&Notes
  6
Continuous
 62
     3
100
AcDbLine
 10
70.74499738833535
 20
47.63596656563332
 30
0.0
 11
71.41942047393534
 21
47.6477386477133
 31
0.0
  0
LINE
  5
782
330
19
100
AcDbEntity
  8
TitleBlock&Notes
  6
Continuous
 62
     3
100
AcDbLine
 10
70.74499738833535
 20
47.61695566691329
 30
0.0
 11
71.45051789457536
 21
47.6292705699533
 31
0.0
  0
LINE
  5
783
330
19
100
AcDbEntity
  8
TitleBlock&Notes
  6
Continuous
 62
     3
100
AcDbLine
 10
70.74499738833535
 20
47.5979447681933
 30
0.0
 11
71.48475971361534
 21
47.61085737779331
 31
0.0
  0
LINE
  5
784
330
19
100
AcDbEntity
  8
TitleBlock&Notes
  6
Continuous
 62
     3
100
AcDbLine
 10
70.74499738833535
 20
47.5789338694733
 30
0.0
 11
71.52299482833543
 21
47.59251389747329
 31
0.0
  0
LINE
  5
785
330
19
100
AcDbEntity
  8
TitleBlock&Notes
  6
Continuous
 62
     3
100
AcDbLine
 10
70.74499738833535
 20
47.5599229707533
 30
0.0
 11
71.56658335617539
 21
47.57426384147331
 31
0.0
  0
LINE
  5
786
330
19
100
AcDbEntity
  8
TitleBlock&Notes
  6
Continuous
 62
     3
100
AcDbLine
 10
70.74499738833535
 20
47.54091207203329
 30
0.0
 11
71.61797742417535
 21
47.55615002531331
 31
0.0
  0
LINE
  5
787
330
19
100
AcDbEntity
  8
TitleBlock&Notes
  6
Continuous
 62
     3
100
AcDbLine
 10
70.74499738833535
 20
47.52190117331331
 30
0.0
 11
71.68259939697539
 21
47.5382671088333
 31
0.0
  0
LINE
  5
788
330
19
100
AcDbEntity
  8
TitleBlock&Notes
  6
Continuous
 62
     3
100
AcDbLine
 10
70.74499738833535
 20
48.14118276371331
 30
0.0
 11
71.04093674193538
 21
48.14118276371331
 31
0.0
  0
LINE
  5
789
330
19
100
AcDbEntity
  8
TitleBlock&Notes
  6
Continuous
 62
     3
100
AcDbLine
 10
70.74499738833535
 20
48.13024983731331
 30
0.0
 11
71.04269631249538
 21
48.13544619683331
 31
0.0
  0
LINE
  5
78A
330
19
100
AcDbEntity
  8
TitleBlock&Notes
  6
Continuous
 62
     3
100
AcDbLine
 10
70.74499738833535
 20
48.1112389385933
 30
0.0
 11
71.04879940113537
 21
48.1165418379533
 31
0.0
  0
LINE
  5
78B
330
19
100
AcDbEntity
  8
TitleBlock&Notes
  6
Continuous
 62
     3
100
AcDbLine
 10
70.74499738833535
 20
48.09222803987331
 30
0.0
 11
71.0553746960154
 21
48.0976457000333
 31
0.0
  0
LINE
  5
78C
330
19
100
AcDbEntity
  8
TitleBlock&Notes
  6
Continuous
 62
     3
100
AcDbLine
 10
70.74499738833535
 20
48.07321714115332
 30
0.0
 11
71.06243303169536
 21
48.0787580206733
 31
0.0
  0
LINE
  5
78D
330
19
100
AcDbEntity
  8
TitleBlock&Notes
  6
Continuous
 62
     3
100
AcDbLine
 10
70.74499738833535
 20
48.05420628995332
 30
0.0
 11
71.06998614561536
 21
48.0598789899533
 31
0.0
  0
LINE
  5
78E
330
19
100
AcDbEntity
  8
TitleBlock&Notes
  6
Continuous
 62
     3
100
AcDbLine
 10
70.74499738833535
 20
48.0351953912333
 30
0.0
 11
71.07804729585541
 21
48.04100879795331
 31
0.0
  0
LINE
  5
78F
330
19
100
AcDbEntity
  8
TitleBlock&Notes
  6
Continuous
 62
     3
100
AcDbLine
 10
70.74499738833535
 20
48.01618449251332
 30
0.0
 11
71.08663107105536
 21
48.0221477297933
 31
0.0
  0
LINE
  5
790
330
19
100
AcDbEntity
  8
TitleBlock&Notes
  6
Continuous
 62
     3
100
AcDbLine
 10
70.74499738833535
 20
47.99717359379331
 30
0.0
 11
71.09575372305539
 21
48.00329607059331
 31
0.0
  0
LINE
  5
791
330
19
100
AcDbEntity
  8
TitleBlock&Notes
  6
Continuous
 62
     3
100
AcDbLine
 10
70.74499738833535
 20
47.97816269507331
 30
0.0
 11
71.10543330945541
 21
47.9844541054733
 31
0.0
  0
LINE
  5
792
330
19
100
AcDbEntity
  8
TitleBlock&Notes
  6
Continuous
 62
     3
100
AcDbLine
 10
70.74499738833535
 20
47.95915179635332
 30
0.0
 11
71.11568997873536
 21
47.96562226211331
 31
0.0
  0
LINE
  5
793
330
19
100
AcDbEntity
  8
TitleBlock&Notes
  6
Continuous
 62
     3
100
AcDbLine
 10
70.74499738833535
 20
47.94014089763329
 30
0.0
 11
71.12654606529542
 21
47.9468008731533
 31
0.0
  0
LINE
  5
794
330
19
100
AcDbEntity
  8
TitleBlock&Notes
  6
Continuous
 62
     3
100
AcDbLine
 10
70.74499738833535
 20
47.92112999891331
 30
0.0
 11
71.13802670721537
 21
47.92799036627331
 31
0.0
  0
LINE
  5
795
330
19
100
AcDbEntity
  8
TitleBlock&Notes
  6
Continuous
 62
     3
100
AcDbLine
 10
70.74499738833535
 20
47.90211910019332
 30
0.0
 11
71.15015994129541
 21
47.90919126419331
 31
0.0
  0
LINE
  5
796
330
19
100
AcDbEntity
  8
TitleBlock&Notes
  6
Continuous
 62
     3
100
AcDbLine
 10
70.74499738833535
 20
47.8831082014733
 30
0.0
 11
71.16297736833542
 21
47.89040408963329
 31
0.0
  0
LINE
  5
797
330
19
100
AcDbEntity
  8
TitleBlock&Notes
  6
Continuous
 62
     3
100
AcDbLine
 10
70.74499738833535
 20
47.86409730275329
 30
0.0
 11
71.17651467585537
 21
47.87162946035332
 31
0.0
  0
LINE
  5
798
330
19
100
AcDbEntity
  8
TitleBlock&Notes
  6
Continuous
 62
     3
100
AcDbLine
 10
70.74499738833535
 20
47.8450864040333
 30
0.0
 11
71.19081239841538
 21
47.85286813667329
 31
0.0
  0
LINE
  5
799
330
19
100
AcDbEntity
  8
TitleBlock&Notes
  6
Continuous
 62
     3
100
AcDbLine
 10
70.74499738833535
 20
47.82607550531331
 30
0.0
 11
71.20591677297537
 21
47.83412087891331
 31
0.0
  0
LINE
  5
79A
330
19
100
AcDbEntity
  8
TitleBlock&Notes
  6
Continuous
 62
     3
100
AcDbLine
 10
70.74499738833535
 20
47.80706460659331
 30
0.0
 11
71.22188087937541
 21
47.8153886374733
 31
0.0
  0
LINE
  5
79B
330
19
100
AcDbEntity
  8
TitleBlock&Notes
  6
Continuous
 62
     3
100
AcDbLine
 10
70.74499738833535
 20
48.9363008518733
 30
0.0
 11
71.00852981265538
 21
48.9363008518733
 31
0.0
  0
LINE
  5
79C
330
19
100
AcDbEntity
  8
TitleBlock&Notes
  6
Continuous
 62
     3
100
AcDbLine
 10
70.74499738833535
 20
48.7024426241933
 30
0.0
 11
71.00635738833538
 21
48.7024426241933
 31
0.0
  0
LINE
  5
79D
330
19
100
AcDbEntity
  8
TitleBlock&Notes
  6
Continuous
 62
     3
100
AcDbLine
 10
70.74499738833535
 20
48.6088993141133
 30
0.0
 11
71.00635738833538
 21
48.6088993141133
 31
0.0
  0
LINE
  5
79E
330
19
100
AcDbEntity
  8
TitleBlock&Notes
  6
Continuous
 62
     3
100
AcDbLine
 10
70.74499738833535
 20
48.58790512067329
 30
0.0
 11
71.00635738833538
 21
48.5924671832333
 31
0.0
  0
LINE
  5
79F
330
19
100
AcDbEntity
  8
TitleBlock&Notes
  6
Continuous
 62
     3
100
AcDbLine
 10
70.74499738833535
 20
48.5688942219533
 30
0.0
 11
71.00635738833538
 21
48.5734562845133
 31
0.0
  0
LINE
  5
7A0
330
19
100
AcDbEntity
  8
TitleBlock&Notes
  6
Continuous
 62
     3
100
AcDbLine
 10
70.74499738833535
 20
48.54988332323332
 30
0.0
 11
71.00635738833538
 21
48.5544453857933
 31
0.0
  0
LINE
  5
7A1
330
19
100
AcDbEntity
  8
TitleBlock&Notes
  6
Continuous
 62
     3
100
AcDbLine
 10
70.74499738833535
 20
48.5308724245133
 30
0.0
 11
71.00635738833538
 21
48.53543448707331
 31
0.0
  0
LINE
  5
7A2
330
19
100
AcDbEntity
  8
TitleBlock&Notes
  6
Continuous
 62
     3
100
AcDbLine
 10
70.74499738833535
 20
48.5118615257933
 30
0.0
 11
71.00635738833538
 21
48.51642358835331
 31
0.0
  0
LINE
  5
7A3
330
19
100
AcDbEntity
  8
TitleBlock&Notes
  6
Continuous
 62
     3
100
AcDbLine
 10
70.74499738833535
 20
48.4928506270733
 30
0.0
 11
71.00635738833538
 21
48.49741268963331
 31
0.0
  0
LINE
  5
7A4
330
19
100
AcDbEntity
  8
TitleBlock&Notes
  6
Continuous
 62
     3
100
AcDbLine
 10
70.74499738833535
 20
48.47383972835331
 30
0.0
 11
71.00635738833538
 21
48.47840179091331
 31
0.0
  0
LINE
  5
7A5
330
19
100
AcDbEntity
  8
TitleBlock&Notes
  6
Continuous
 62
     3
100
AcDbLine
 10
70.74499738833535
 20
48.4548288296333
 30
0.0
 11
71.00635738833538
 21
48.45939089219331
 31
0.0
  0
LINE
  5
7A6
330
19
100
AcDbEntity
  8
TitleBlock&Notes
  6
Continuous
 62
     3
100
AcDbLine
 10
70.74499738833535
 20
48.4358179309133
 30
0.0
 11
71.00635738833538
 21
48.44037999347331
 31
0.0
  0
LINE
  5
7A7
330
19
100
AcDbEntity
  8
TitleBlock&Notes
  6
Continuous
 62
     3
100
AcDbLine
 10
70.74499738833535
 20
48.4168070321933
 30
0.0
 11
71.00635738833538
 21
48.42136909475332
 31
0.0
  0
LINE
  5
7A8
330
19
100
AcDbEntity
  8
TitleBlock&Notes
  6
Continuous
 62
     3
100
AcDbLine
 10
70.74499738833535
 20
48.39779613347331
 30
0.0
 11
71.00635738833538
 21
48.40235819603332
 31
0.0
  0
LINE
  5
7A9
330
19
100
AcDbEntity
  8
TitleBlock&Notes
  6
Continuous
 62
     3
100
AcDbLine
 10
70.74499738833535
 20
48.37878528227331
 30
0.0
 11
71.00635738833538
 21
48.38334729731331
 31
0.0
  0
LINE
  5
7AA
330
19
100
AcDbEntity
  8
TitleBlock&Notes
  6
Continuous
 62
     3
100
AcDbLine
 10
70.74499738833535
 20
48.35977438355332
 30
0.0
 11
71.00635738833538
 21
48.36433639859331
 31
0.0
  0
LINE
  5
7AB
330
19
100
AcDbEntity
  8
TitleBlock&Notes
  6
Continuous
 62
     3
100
AcDbLine
 10
70.74499738833535
 20
48.3407634848333
 30
0.0
 11
71.00635738833538
 21
48.34532554739332
 31
0.0
  0
LINE
  5
7AC
330
19
100
AcDbEntity
  8
TitleBlock&Notes
  6
Continuous
 62
     3
100
AcDbLine
 10
70.74499738833535
 20
48.32175258611332
 30
0.0
 11
71.00635738833538
 21
48.32631464867332
 31
0.0
  0
LINE
  5
7AD
330
19
100
AcDbEntity
  8
TitleBlock&Notes
  6
Continuous
 62
     3
100
AcDbLine
 10
70.74499738833535
 20
48.30274168739332
 30
0.0
 11
71.00759357361536
 21
48.30732532403331
 31
0.0
  0
LINE
  5
7AE
330
19
100
AcDbEntity
  8
TitleBlock&Notes
  6
Continuous
 62
     3
100
AcDbLine
 10
70.74499738833535
 20
48.28373078867329
 30
0.0
 11
71.00974128753541
 21
48.2883519185933
 31
0.0
  0
LINE
  5
7AF
330
19
100
AcDbEntity
  8
TitleBlock&Notes
  6
Continuous
 62
     3
100
AcDbLine
 10
70.74499738833535
 20
48.26471988995333
 30
0.0
 11
71.01230541921541
 21
48.26938578371332
 31
0.0
  0
LINE
  5
7B0
330
19
100
AcDbEntity
  8
TitleBlock&Notes
  6
Continuous
 62
     3
100
AcDbLine
 10
70.74499738833535
 20
48.91530670595331
 30
0.0
 11
71.00641906929542
 21
48.91986981395331
 31
0.0
  0
LINE
  5
7B1
330
19
100
AcDbEntity
  8
TitleBlock&Notes
  6
Continuous
 62
     3
100
AcDbLine
 10
70.74499738833535
 20
48.8962958072333
 30
0.0
 11
71.00635738833538
 21
48.9008578697933
 31
0.0
  0
LINE
  5
7B2
330
19
100
AcDbEntity
  8
TitleBlock&Notes
  6
Continuous
 62
     3
100
AcDbLine
 10
70.74499738833535
 20
48.8772849085133
 30
0.0
 11
71.00635738833538
 21
48.8818469710733
 31
0.0
  0
LINE
  5
7B3
330
19
100
AcDbEntity
  8
TitleBlock&Notes
  6
Continuous
 62
     3
100
AcDbLine
 10
70.74499738833535
 20
48.8582740097933
 30
0.0
 11
71.00635738833538
 21
48.86283607235331
 31
0.0
  0
LINE
  5
7B4
330
19
100
AcDbEntity
  8
TitleBlock&Notes
  6
Continuous
 62
     3
100
AcDbLine
 10
70.74499738833535
 20
48.8392631110733
 30
0.0
 11
71.00635738833538
 21
48.84382517363331
 31
0.0
  0
LINE
  5
7B5
330
19
100
AcDbEntity
  8
TitleBlock&Notes
  6
Continuous
 62
     3
100
AcDbLine
 10
70.74499738833535
 20
48.82025221235331
 30
0.0
 11
71.00635738833538
 21
48.82481427491331
 31
0.0
  0
LINE
  5
7B6
330
19
100
AcDbEntity
  8
TitleBlock&Notes
  6
Continuous
 62
     3
100
AcDbLine
 10
70.74499738833535
 20
48.80124131363331
 30
0.0
 11
71.00635738833538
 21
48.8058033761933
 31
0.0
  0
LINE
  5
7B7
330
19
100
AcDbEntity
  8
TitleBlock&Notes
  6
Continuous
 62
     3
100
AcDbLine
 10
70.74499738833535
 20
48.7822304149133
 30
0.0
 11
71.00635738833538
 21
48.78679247747331
 31
0.0
  0
LINE
  5
7B8
330
19
100
AcDbEntity
  8
TitleBlock&Notes
  6
Continuous
 62
     3
100
AcDbLine
 10
70.74499738833535
 20
48.7632195161933
 30
0.0
 11
71.00635738833538
 21
48.76778157875332
 31
0.0
  0
LINE
  5
7B9
330
19
100
AcDbEntity
  8
TitleBlock&Notes
  6
Continuous
 62
     3
100
AcDbLine
 10
70.74499738833535
 20
48.74420861747331
 30
0.0
 11
71.00635738833538
 21
48.74877068003331
 31
0.0
  0
LINE
  5
7BA
330
19
100
AcDbEntity
  8
TitleBlock&Notes
  6
Continuous
 62
     3
100
AcDbLine
 10
70.74499738833535
 20
48.72519771875331
 30
0.0
 11
71.00635738833538
 21
48.72975978131332
 31
0.0
  0
LINE
  5
7BB
330
19
100
AcDbEntity
  8
TitleBlock&Notes
  6
Continuous
 62
     3
100
AcDbLine
 10
70.74499738833535
 20
48.70618682003331
 30
0.0
 11
71.00635738833538
 21
48.71074888259331
 31
0.0
  0
LINE
  5
7BC
330
19
100
AcDbEntity
  8
TitleBlock&Notes
  6
Continuous
 62
     3
100
AcDbLine
 10
70.74499738833535
 20
48.23472607379331
 30
0.0
 11
71.01808157025534
 21
48.23472607379331
 31
0.0
  0
LINE
  5
7BD
330
19
100
AcDbEntity
  8
TitleBlock&Notes
  6
Continuous
 62
     3
100
AcDbLine
 10
70.74499738833535
 20
48.2457089912333
 30
0.0
 11
71.01528915249542
 21
48.25042696691331
 31
0.0
  0
LINE
  5
7BE
330
19
100
AcDbEntity
  8
TitleBlock&Notes
  6
Continuous
 62
     3
100
AcDbLine
 10
70.74499738833535
 20
49.02984416195329
 30
0.0
 11
71.02661259825541
 21
49.02984416195329
 31
0.0
  0
LINE
  5
7BF
330
19
100
AcDbEntity
  8
TitleBlock&Notes
  6
Continuous
 62
     3
100
AcDbLine
 10
70.74499738833535
 20
49.05210747203331
 30
0.0
 11
71.03248264881536
 21
49.05210747203331
 31
0.0
  0
LINE
  5
7C0
330
19
100
AcDbEntity
  8
TitleBlock&Notes
  6
Continuous
 62
     3
100
AcDbLine
 10
70.74499738833535
 20
49.40401740227331
 30
0.0
 11
71.2243508739354
 21
49.40401740227331
 31
0.0
  0
LINE
  5
7C1
330
19
100
AcDbEntity
  8
TitleBlock&Notes
  6
Continuous
 62
     3
100
AcDbLine
 10
70.74499738833535
 20
49.1233874720333
 30
0.0
 11
71.05556192481538
 21
49.1233874720333
 31
0.0
  0
LINE
  5
7C2
330
19
100
AcDbEntity
  8
TitleBlock&Notes
  6
Continuous
 62
     3
100
AcDbLine
 10
70.74499738833535
 20
49.47529740227333
 30
0.0
 11
71.29549468161537
 21
49.47529740227333
 31
0.0
  0
LINE
  5
7C3
330
19
100
AcDbEntity
  8
TitleBlock&Notes
  6
Continuous
 62
     3
100
AcDbLine
 10
70.74499738833535
 20
49.4515374022733
 30
0.0
 11
71.26994650401539
 21
49.4515374022733
 31
0.0
  0
LINE
  5
7C4
330
19
100
AcDbEntity
  8
TitleBlock&Notes
  6
Continuous
 62
     3
100
AcDbLine
 10
70.74499738833535
 20
49.42777740227331
 30
0.0
 11
71.2462999342554
 21
49.42777740227331
 31
0.0
  0
LINE
  5
7C5
330
19
100
AcDbEntity
  8
TitleBlock&Notes
  6
Continuous
 62
     3
100
AcDbLine
 10
70.74499738833535
 20
49.09962747203332
 30
0.0
 11
71.04712451121542
 21
49.09962747203332
 31
0.0
  0
LINE
  5
7C6
330
19
100
AcDbEntity
  8
TitleBlock&Notes
  6
Continuous
 62
     3
100
AcDbLine
 10
70.74499738833535
 20
49.07586747203331
 30
0.0
 11
71.03943819873541
 21
49.07586747203331
 31
0.0
  0
TEXT
  5
7C7
330
19
100
AcDbEntity
  8
TitleBlock&Notes
  6
Continuous
 62
     3
100
AcDbText
 10
70.01226241569542
 20
46.40748589331332
 30
0.0
 40
0.33264
  1
 POWER
 41
0.8
 51
11.0
100
AcDbText
  0
LINE
  5
7C8
330
19
100
AcDbEntity
  8
TitleBlock&Notes
  6
Continuous
 62
     3
100
AcDbLine
 10
70.05882545793543
 20
47.20574971043331
 30
0.0
 11
76.33074885633539
 21
47.3152265240333
 31
0.0
  0
LINE
  5
7CB
330
19
100
AcDbEntity
  8
TitleBlock&Notes
  6
Continuous
 62
     3
100
AcDbLine
 10
63.23468587281542
 20
47.37179732579329
 30
0.0
 11
71.77999776705537
 21
47.5209562856333
 31
0.0
  0
LINE
  5
7CC
330
19
100
AcDbEntity
  8
TitleBlock&Notes
  6
Continuous
 62
     3
100
AcDbLine
 10
63.23468587281542
 20
47.3527864270733
 30
0.0
 11
73.26355738833537
 21
47.5278410307533
 31
0.0
  0
LINE
  5
7CD
330
19
100
AcDbEntity
  8
TitleBlock&Notes
  6
Continuous
 62
     3
100
AcDbLine
 10
63.23468587281542
 20
47.3337755283533
 30
0.0
 11
73.59581366433534
 21
47.5146297104333
 31
0.0
  0
LINE
  5
7CE
330
19
100
AcDbEntity
  8
TitleBlock&Notes
  6
Continuous
 62
     3
100
AcDbLine
 10
76.33074885633539
 20
50.2926788480333
 30
0.0
 11
63.23468587281542
 21
50.2926788480333
 31
0.0
  0
LINE
  5
7CF
330
19
100
AcDbEntity
  8
TitleBlock&Notes
  6
Continuous
 62
     3
100
AcDbLine
 10
76.33074885633539
 20
49.82496229763331
 30
0.0
 11
63.23468587281542
 21
49.82496229763331
 31
0.0
  0
LINE
  5
7D0
330
19
100
AcDbEntity
  8
TitleBlock&Notes
  6
Continuous
 62
     3
100
AcDbLine
 10
63.23468587281542
 20
47.20574971043331
 30
0.0
 11
76.33074885633539
 21
47.20574971043331
 31
0.0
  0
LINE
  5
7D1
330
19
100
AcDbEntity
  8
TitleBlock&Notes
  6
Continuous
 62
     3
100
AcDbLine
 10
63.23468587281542
 20
47.3147646296333
 30
0.0
 11
74.68494711633536
 21
47.5146297104333
 31
0.0
  0
LINE
  5
7D2
330
19
100
AcDbEntity
  8
TitleBlock&Notes
  6
Continuous
 62
     3
100
AcDbLine
 10
63.23468587281542
 20
47.2957537309133
 30
0.0
 11
75.77408061585536
 21
47.5146297104333
 31
0.0
  0
LINE
  5
7D3
330
19
100
AcDbEntity
  8
TitleBlock&Notes
  6
Continuous
 62
     3
100
AcDbLine
 10
63.23468587281542
 20
47.27674283219331
 30
0.0
 11
76.33074885633539
 21
47.50533546371332
 31
0.0
  0
LINE
  5
7D4
330
19
100
AcDbEntity
  8
TitleBlock&Notes
  6
Continuous
 62
     3
100
AcDbLine
 10
63.23468587281542
 20
47.25773193347331
 30
0.0
 11
76.33074885633539
 21
47.48632456499329
 31
0.0
  0
LINE
  5
7D5
330
19
100
AcDbEntity
  8
TitleBlock&Notes
  6
Continuous
 62
     3
100
AcDbLine
 10
63.23468587281542
 20
47.23872103475331
 30
0.0
 11
76.33074885633539
 21
47.46731366627329
 31
0.0
  0
LINE
  5
7D6
330
19
100
AcDbEntity
  8
TitleBlock&Notes
  6
Continuous
 62
     3
100
AcDbLine
 10
63.23468587281542
 20
47.21971018355332
 30
0.0
 11
76.33074885633539
 21
47.4483028150733
 31
0.0
  0
LINE
  5
7D7
330
19
100
AcDbEntity
  8
TitleBlock&Notes
  6
Continuous
 62
     3
100
AcDbLine
 10
63.52402460337541
 20
47.20574971043331
 30
0.0
 11
76.33074885633539
 21
47.4292919163533
 31
0.0
  0
LINE
  5
7D8
330
19
100
AcDbEntity
  8
TitleBlock&Notes
  6
Continuous
 62
     3
100
AcDbLine
 10
64.61315810289535
 20
47.20574971043331
 30
0.0
 11
76.33074885633539
 21
47.4102810176333
 31
0.0
  0
LINE
  5
7D9
330
19
100
AcDbEntity
  8
TitleBlock&Notes
  6
Continuous
 62
     3
100
AcDbLine
 10
65.70229155489537
 20
47.20574971043331
 30
0.0
 11
76.33074885633539
 21
47.39127011891331
 31
0.0
  0
LINE
  5
7DA
330
19
100
AcDbEntity
  8
TitleBlock&Notes
  6
Continuous
 62
     3
100
AcDbLine
 10
66.7914250068954
 20
47.20574971043331
 30
0.0
 11
76.33074885633539
 21
47.37225922019331
 31
0.0
  0
LINE
  5
7DB
330
19
100
AcDbEntity
  8
TitleBlock&Notes
  6
Continuous
 62
     3
100
AcDbLine
 10
67.8805585064154
 20
47.20574971043331
 30
0.0
 11
76.33074885633539
 21
47.3532483214733
 31
0.0
  0
LINE
  5
7DC
330
19
100
AcDbEntity
  8
TitleBlock&Notes
  6
Continuous
 62
     3
100
AcDbLine
 10
68.96969195841535
 20
47.20574971043331
 30
0.0
 11
76.33074885633539
 21
47.33423742275332
 31
0.0
  0
LINE
  5
7DF
330
19
100
AcDbEntity
  8
TitleBlock&Notes
  6
Continuous
 62
     3
100
AcDbLine
 10
63.23468587281542
 20
51.1345685912333
 30
0.0
 11
85.80668587281541
 21
51.1345685912333
 31
0.0
  0
LINE
  5
7E0
330
19
100
AcDbEntity
  8
TitleBlock&Notes
 62
     3
100
AcDbLine
 10
63.23468587281542
 20
45.78856859123329
 30
0.0
 11
85.80668587281541
 21
45.78856859123331
 31
0.0
  0
LINE
  5
7E6
330
19
100
AcDbEntity
  8
TitleBlock&Notes
 62
     3
100
AcDbLine
 10
70.75868587281542
 20
45.78856859123329
 30
0.0
 11
59.60031662164517
 21
45.7846513374869
 31
0.0
  0
LINE
  5
7ED
330
19
100
AcDbEntity
  8
TitleBlock&Notes
  6
Continuous
 62
     3
100
AcDbLine
 10
69.61639738833536
 20
47.69231036435331
 30
0.0
 11
70.29355738833534
 21
47.7041302515533
 31
0.0
  0
LINE
  5
7EE
330
19
100
AcDbEntity
  8
TitleBlock&Notes
  6
Continuous
 62
     3
100
AcDbLine
 10
69.56887738833541
 20
49.29662971043331
 30
0.0
 11
69.56887738833541
 21
47.56214971043329
 31
0.0
  0
LINE
  5
7EF
330
19
100
AcDbEntity
  8
TitleBlock&Notes
  6
Continuous
 62
     3
100
AcDbLine
 10
70.34107738833538
 20
49.6530297104333
 30
0.0
 11
70.34107738833538
 21
47.56214971043329
 31
0.0
  0
LINE
  5
7F0
330
19
100
AcDbEntity
  8
TitleBlock&Notes
  6
Continuous
 62
     3
100
AcDbLine
 10
70.69747738833538
 20
49.6530297104333
 30
0.0
 11
70.69747738833538
 21
47.56214971043329
 31
0.0
  0
LINE
  5
7F1
330
19
100
AcDbEntity
  8
TitleBlock&Notes
  6
Continuous
 62
     3
100
AcDbLine
 10
69.61639738833536
 20
47.5146297104333
 30
0.0
 11
69.61639738833536
 21
49.24910971043331
 31
0.0
  0
LINE
  5
7F2
330
19
100
AcDbEntity
  8
TitleBlock&Notes
  6
Continuous
 62
     3
100
AcDbLine
 10
70.29355738833534
 20
49.70054971043332
 30
0.0
 11
70.29355738833534
 21
47.5146297104333
 31
0.0
  0
LINE
  5
7F3
330
19
100
AcDbEntity
  8
TitleBlock&Notes
  6
Continuous
 62
     3
100
AcDbLine
 10
70.74499738833535
 20
47.5146297104333
 30
0.0
 11
70.74499738833535
 21
49.70054971043332
 31
0.0
  0
LINE
  5
7F4
330
19
100
AcDbEntity
  8
TitleBlock&Notes
  6
Continuous
 62
     3
100
AcDbLine
 10
70.72123738833536
 20
49.6767897104333
 30
0.0
 11
70.72123738833536
 21
47.53838971043329
 31
0.0
  0
LINE
  5
7F5
330
19
100
AcDbEntity
  8
TitleBlock&Notes
  6
Continuous
 62
     3
100
AcDbLine
 10
70.31731738833539
 20
49.6767897104333
 30
0.0
 11
70.31731738833539
 21
47.53838971043329
 31
0.0
  0
LINE
  5
7F6
330
19
100
AcDbEntity
  8
TitleBlock&Notes
  6
Continuous
 62
     3
100
AcDbLine
 10
69.59263738833539
 20
49.27286971043331
 30
0.0
 11
69.59263738833539
 21
47.53838971043329
 31
0.0
  0
LINE
  5
7F7
330
19
100
AcDbEntity
  8
TitleBlock&Notes
  6
Continuous
 62
     3
100
AcDbLine
 10
68.96299738833537
 20
47.5146297104333
 30
0.0
 11
68.96299738833537
 21
47.9660697104333
 31
0.0
  0
LINE
  5
7F8
330
19
100
AcDbEntity
  8
TitleBlock&Notes
  6
Continuous
 62
     3
100
AcDbLine
 10
68.91547738833541
 20
47.56214971043329
 30
0.0
 11
68.91547738833541
 21
47.9185497104333
 31
0.0
  0
LINE
  5
7F9
330
19
100
AcDbEntity
  8
TitleBlock&Notes
  6
Continuous
 62
     3
100
AcDbLine
 10
68.93923738833539
 20
47.9423097104333
 30
0.0
 11
68.93923738833539
 21
47.53838971043329
 31
0.0
  0
LINE
  5
7FA
330
19
100
AcDbEntity
  8
TitleBlock&Notes
  6
Continuous
 62
     3
100
AcDbLine
 10
67.21615781649536
 20
47.6884358211533
 30
0.0
 11
67.60867738833536
 21
47.6952872547533
 31
0.0
  0
LINE
  5
7FB
330
19
100
AcDbEntity
  8
TitleBlock&Notes
  6
Continuous
 62
     3
100
AcDbLine
 10
69.2124773883354
 20
49.29662971043331
 30
0.0
 11
69.2124773883354
 21
47.56214971043329
 31
0.0
  0
LINE
  5
7FC
330
19
100
AcDbEntity
  8
TitleBlock&Notes
  6
Continuous
 62
     3
100
AcDbLine
 10
69.16495738833535
 20
49.24910971043331
 30
0.0
 11
69.16495738833535
 21
47.5146297104333
 31
0.0
  0
LINE
  5
7FD
330
19
100
AcDbEntity
  8
TitleBlock&Notes
  6
Continuous
 62
     3
100
AcDbLine
 10
69.18871738833542
 20
49.27286971043331
 30
0.0
 11
69.18871738833542
 21
47.53838971043329
 31
0.0
  0
LINE
  5
7FE
330
19
100
AcDbEntity
  8
TitleBlock&Notes
  6
Continuous
 62
     3
100
AcDbLine
 10
67.65619738833539
 20
47.56214971043329
 30
0.0
 11
67.65619738833539
 21
49.6530297104333
 31
0.0
  0
LINE
  5
7FF
330
19
100
AcDbEntity
  8
TitleBlock&Notes
  6
Continuous
 62
     3
100
AcDbLine
 10
67.60867738833536
 20
49.70054971043332
 30
0.0
 11
67.60867738833536
 21
47.5146297104333
 31
0.0
  0
LINE
  5
800
330
19
100
AcDbEntity
  8
TitleBlock&Notes
  6
Continuous
 62
     3
100
AcDbLine
 10
67.63243738833534
 20
47.53838971043329
 30
0.0
 11
67.63243738833534
 21
49.6767897104333
 31
0.0
  0
ARC
  5
801
330
19
100
AcDbEntity
  8
TitleBlock&Notes
  6
Continuous
 62
     3
100
AcDbCircle
 10
66.53947738833541
 20
48.15614971043331
 30
0.0
 40
0.5940000000000002
100
AcDbArc
 50
180.0000000000004
 51
269.9999931700005
  0
ARC
  5
802
330
19
100
AcDbEntity
  8
TitleBlock&Notes
  6
Continuous
 62
     3
100
AcDbCircle
 10
66.53947738833541
 20
48.15614971043331
 30
0.0
 40
0.6415200000000001
100
AcDbArc
 50
180.0000000000004
 51
269.9999934300003
  0
ARC
  5
803
330
19
100
AcDbEntity
  8
TitleBlock&Notes
  6
Continuous
 62
     3
100
AcDbCircle
 10
66.53947738833541
 20
48.15614971043331
 30
0.0
 40
0.61776
100
AcDbArc
 50
180.0000000000004
 51
269.9999934300003
  0
LINE
  5
804
330
19
100
AcDbEntity
  8
TitleBlock&Notes
  6
Continuous
 62
     3
100
AcDbLine
 10
64.87627738833541
 20
47.56214971043329
 30
0.0
 11
65.23267738833538
 21
48.58382971043332
 31
0.0
  0
LINE
  5
805
330
19
100
AcDbEntity
  8
TitleBlock&Notes
  6
Continuous
 62
     3
100
AcDbLine
 10
65.23267738833538
 20
47.56214971043329
 30
0.0
 11
65.23267738833538
 21
48.58382971043332
 31
0.0
  0
LINE
  5
806
330
19
100
AcDbEntity
  8
TitleBlock&Notes
  6
Continuous
 62
     3
100
AcDbLine
 10
64.91002894353542
 20
47.5146297104333
 30
0.0
 11
65.18515738833542
 21
48.3033312205133
 31
0.0
  0
LINE
  5
807
330
19
100
AcDbEntity
  8
TitleBlock&Notes
  6
Continuous
 62
     3
100
AcDbLine
 10
65.18515738833542
 20
48.3033312205133
 30
0.0
 11
65.18515738833542
 21
47.5146297104333
 31
0.0
  0
LINE
  5
808
330
19
100
AcDbEntity
  8
TitleBlock&Notes
  6
Continuous
 62
     3
100
AcDbLine
 10
65.20891738833539
 20
48.44358046547331
 30
0.0
 11
64.89315316593541
 21
47.53838971043329
 31
0.0
  0
LINE
  5
809
330
19
100
AcDbEntity
  8
TitleBlock&Notes
  6
Continuous
 62
     3
100
AcDbLine
 10
65.20891738833539
 20
48.44358046547331
 30
0.0
 11
65.20891738833539
 21
47.53838971043329
 31
0.0
  0
LINE
  5
80A
330
19
100
AcDbEntity
  8
TitleBlock&Notes
  6
Continuous
 62
     3
100
AcDbLine
 10
65.58907738833539
 20
47.56214971043329
 30
0.0
 11
65.58907738833539
 21
49.6530297104333
 31
0.0
  0
LINE
  5
80B
330
19
100
AcDbEntity
  8
TitleBlock&Notes
  6
Continuous
 62
     3
100
AcDbLine
 10
65.6365973883354
 20
47.5146297104333
 30
0.0
 11
65.6365973883354
 21
49.70054971043332
 31
0.0
  0
LINE
  5
80C
330
19
100
AcDbEntity
  8
TitleBlock&Notes
  6
Continuous
 62
     3
100
AcDbLine
 10
65.61283738833541
 20
49.6767897104333
 30
0.0
 11
65.61283738833541
 21
47.53838971043329
 31
0.0
  0
ARC
  5
80D
330
19
100
AcDbEntity
  8
TitleBlock&Notes
  6
Continuous
 62
     3
100
AcDbCircle
 10
66.77707738833539
 20
48.15614971043331
 30
0.0
 40
0.5940000000000002
100
AcDbArc
 50
270.0000000000008
 51
0.0000000000008142
  0
ARC
  5
80E
330
19
100
AcDbEntity
  8
TitleBlock&Notes
  6
Continuous
 62
     3
100
AcDbCircle
 10
66.77707738833539
 20
48.15614971043331
 30
0.0
 40
0.6415200000000001
100
AcDbArc
 50
270.0000000000008
 51
0.0000000000008142
  0
ARC
  5
80F
330
19
100
AcDbEntity
  8
TitleBlock&Notes
  6
Continuous
 62
     3
100
AcDbCircle
 10
66.77707738833539
 20
48.15614971043331
 30
0.0
 40
0.61776
100
AcDbArc
 50
270.0000000000008
 51
0.0000000000008142
  0
LINE
  5
810
330
19
100
AcDbEntity
  8
TitleBlock&Notes
  6
Continuous
 62
     3
100
AcDbLine
 10
64.1634773883354
 20
47.56214971043329
 30
0.0
 11
64.1634773883354
 21
48.58382971043332
 31
0.0
  0
LINE
  5
811
330
19
100
AcDbEntity
  8
TitleBlock&Notes
  6
Continuous
 62
     3
100
AcDbLine
 10
64.21099738833536
 20
47.5146297104333
 30
0.0
 11
64.21099738833536
 21
48.3033312205133
 31
0.0
  0
LINE
  5
812
330
19
100
AcDbEntity
  8
TitleBlock&Notes
  6
Continuous
 62
     3
100
AcDbLine
 10
64.18723738833536
 20
48.44358046547331
 30
0.0
 11
64.18723738833536
 21
47.53838971043329
 31
0.0
  0
LINE
  5
813
330
19
100
AcDbEntity
  8
TitleBlock&Notes
  6
Continuous
 62
     3
100
AcDbLine
 10
63.75955738833535
 20
47.5146297104333
 30
0.0
 11
63.75955738833535
 21
49.70054971043332
 31
0.0
  0
LINE
  5
814
330
19
100
AcDbEntity
  8
TitleBlock&Notes
  6
Continuous
 62
     3
100
AcDbLine
 10
63.80707738833539
 20
47.56214971043329
 30
0.0
 11
63.80707738833539
 21
49.6530297104333
 31
0.0
  0
LINE
  5
815
330
19
100
AcDbEntity
  8
TitleBlock&Notes
  6
Continuous
 62
     3
100
AcDbLine
 10
63.78331738833541
 20
47.53838971043329
 30
0.0
 11
63.78331738833541
 21
49.6767897104333
 31
0.0
  0
LINE
  5
816
330
19
100
AcDbEntity
  8
TitleBlock&Notes
  6
Continuous
 62
     3
100
AcDbLine
 10
64.1634773883354
 20
48.58382971043332
 30
0.0
 11
64.5198773883354
 21
47.56214971043329
 31
0.0
  0
LINE
  5
817
330
19
100
AcDbEntity
  8
TitleBlock&Notes
  6
Continuous
 62
     3
100
AcDbLine
 10
64.48612578561537
 20
47.5146297104333
 30
0.0
 11
64.21099738833536
 21
48.3033312205133
 31
0.0
  0
LINE
  5
818
330
19
100
AcDbEntity
  8
TitleBlock&Notes
  6
Continuous
 62
     3
100
AcDbLine
 10
64.18723738833536
 20
48.44358046547331
 30
0.0
 11
64.50300156321538
 21
47.53838971043329
 31
0.0
  0
LINE
  5
819
330
19
100
AcDbEntity
  8
TitleBlock&Notes
  6
Continuous
 62
     3
100
AcDbLine
 10
64.21099738833536
 20
47.69301323267329
 30
0.0
 11
64.42261045857541
 21
47.69670696227332
 31
0.0
  0
LINE
  5
81A
330
19
100
AcDbEntity
  8
TitleBlock&Notes
  6
Continuous
 62
     3
100
AcDbLine
 10
63.23468587281542
 20
45.78856859123329
 30
0.0
 11
63.23468587281542
 21
51.1345685912333
 31
0.0
  0
LINE
  5
81B
330
19
100
AcDbEntity
  8
TitleBlock&Notes
  6
Continuous
 62
     3
100
AcDbLine
 10
64.5198773883354
 20
47.56214971043329
 30
0.0
 11
64.87627738833541
 21
47.56214971043329
 31
0.0
  0
LINE
  5
81C
330
19
100
AcDbEntity
  8
TitleBlock&Notes
  6
Continuous
 62
     3
100
AcDbLine
 10
64.48612578561537
 20
47.5146297104333
 30
0.0
 11
64.91002894353542
 21
47.5146297104333
 31
0.0
  0
LINE
  5
81D
330
19
100
AcDbEntity
  8
TitleBlock&Notes
  6
Continuous
 62
     3
100
AcDbLine
 10
64.50300156321538
 20
47.53838971043329
 30
0.0
 11
64.89315316593541
 21
47.53838971043329
 31
0.0
  0
TEXT
  5
81E
330
19
100
AcDbEntity
  8
TitleBlock&Notes
  6
Continuous
 62
     3
100
AcDbText
 10
64.16424868545536
 20
46.4074858933133
 30
0.0
 40
0.33264
  1
 SPEED
 41
0.8
 51
11.0
100
AcDbText
  0
LINE
  5
81F
330
19
100
AcDbEntity
  8
TitleBlock&Notes
  6
Continuous
 62
     3
100
AcDbLine
 10
63.23468587281542
 20
47.44784092067331
 30
0.0
 11
67.60867738833536
 21
47.52418921379329
 31
0.0
  0
LINE
  5
820
330
19
100
AcDbEntity
  8
TitleBlock&Notes
  6
Continuous
 62
     3
100
AcDbLine
 10
63.23468587281542
 20
47.42883002195329
 30
0.0
 11
68.15014630929542
 21
47.5146297104333
 31
0.0
  0
LINE
  5
821
330
19
100
AcDbEntity
  8
TitleBlock&Notes
  6
Continuous
 62
     3
100
AcDbLine
 10
63.23468587281542
 20
47.40981912323329
 30
0.0
 11
69.23927976129537
 21
47.5146297104333
 31
0.0
  0
LINE
  5
822
330
19
100
AcDbEntity
  8
TitleBlock&Notes
  6
Continuous
 62
     3
100
AcDbLine
 10
63.23468587281542
 20
47.48586271811331
 30
0.0
 11
64.88274590577541
 21
47.5146297104333
 31
0.0
  0
LINE
  5
823
330
19
100
AcDbEntity
  8
TitleBlock&Notes
  6
Continuous
 62
     3
100
AcDbLine
 10
63.23468587281542
 20
47.46685181939331
 30
0.0
 11
66.43667846529542
 21
47.52274280003331
 31
0.0
  0
LINE
  5
824
330
19
100
AcDbEntity
  8
TitleBlock&Notes
  6
Continuous
 62
     3
100
AcDbLine
 10
63.23468587281542
 20
47.3908082245133
 30
0.0
 11
70.32841326081537
 21
47.5146297104333
 31
0.0
  0
TEXT
  5
825
330
19
100
AcDbEntity
  8
TitleBlock&Notes
  6
Continuous
 62
     3
100
AcDbText
 10
63.28629487377536
 20
46.40748589331332
 30
0.0
 40
0.33264
  1
The
 41
0.8
 51
11.0
100
AcDbText
  0
LINE
  5
826
330
19
100
AcDbEntity
  8
TitleBlock&Notes
  6
Continuous
 62
     3
100
AcDbLine
 10
63.75955738833535
 20
47.5146297104333
 30
0.0
 11
64.21099738833536
 21
47.5146297104333
 31
0.0
  0
LINE
  5
827
330
19
100
AcDbEntity
  8
TitleBlock&Notes
  6
Continuous
 62
     3
100
AcDbLine
 10
63.80707738833539
 20
47.56214971043329
 30
0.0
 11
64.1634773883354
 21
47.56214971043329
 31
0.0
  0
LINE
  5
828
330
19
100
AcDbEntity
  8
TitleBlock&Notes
  6
Continuous
 62
     3
100
AcDbLine
 10
63.78331738833541
 20
47.53838971043329
 30
0.0
 11
64.18723738833536
 21
47.53838971043329
 31
0.0
  0
LINE
  5
829
330
19
100
AcDbEntity
  8
TitleBlock&Notes
  6
Continuous
 62
     3
100
AcDbLine
 10
63.23468587281542
 20
47.5048736168333
 30
0.0
 11
63.79361245377537
 21
47.5146297104333
 31
0.0
  0
LINE
  5
82A
330
19
100
AcDbEntity
  8
TitleBlock&Notes
  6
Continuous
 62
     3
100
AcDbLine
 10
63.23468587281542
 20
47.6759716577933
 30
0.0
 11
63.75955738833535
 21
47.68513332371329
 31
0.0
  0
LINE
  5
82B
330
19
100
AcDbEntity
  8
TitleBlock&Notes
  6
Continuous
 62
     3
100
AcDbLine
 10
63.23468587281542
 20
47.65696075907331
 30
0.0
 11
63.75955738833535
 21
47.66612242499332
 31
0.0
  0
LINE
  5
82C
330
19
100
AcDbEntity
  8
TitleBlock&Notes
  6
Continuous
 62
     3
100
AcDbLine
 10
63.23468587281542
 20
47.6379498603533
 30
0.0
 11
63.75955738833535
 21
47.64711152627329
 31
0.0
  0
LINE
  5
82D
330
19
100
AcDbEntity
  8
TitleBlock&Notes
  6
Continuous
 62
     3
100
AcDbLine
 10
63.23468587281542
 20
47.6189389616333
 30
0.0
 11
63.75955738833535
 21
47.62810062755329
 31
0.0
  0
LINE
  5
82E
330
19
100
AcDbEntity
  8
TitleBlock&Notes
  6
Continuous
 62
     3
100
AcDbLine
 10
63.23468587281542
 20
47.59992806291329
 30
0.0
 11
63.75955738833535
 21
47.6090897288333
 31
0.0
  0
LINE
  5
82F
330
19
100
AcDbEntity
  8
TitleBlock&Notes
  6
Continuous
 62
     3
100
AcDbLine
 10
63.23468587281542
 20
47.5809171641933
 30
0.0
 11
63.75955738833535
 21
47.5900788301133
 31
0.0
  0
LINE
  5
830
330
19
100
AcDbEntity
  8
TitleBlock&Notes
  6
Continuous
 62
     3
100
AcDbLine
 10
63.23468587281542
 20
47.56190626547331
 30
0.0
 11
63.75955738833535
 21
47.5710679313933
 31
0.0
  0
LINE
  5
831
330
19
100
AcDbEntity
  8
TitleBlock&Notes
  6
Continuous
 62
     3
100
AcDbLine
 10
63.23468587281542
 20
47.54289536675329
 30
0.0
 11
63.75955738833535
 21
47.5520570326733
 31
0.0
  0
LINE
  5
832
330
19
100
AcDbEntity
  8
TitleBlock&Notes
  6
Continuous
 62
     3
100
AcDbLine
 10
63.23468587281542
 20
47.52388446803331
 30
0.0
 11
63.75955738833535
 21
47.5330461339533
 31
0.0
  0
LINE
  5
833
330
19
100
AcDbEntity
  8
TitleBlock&Notes
  6
Continuous
 62
     3
100
AcDbLine
 10
64.21099738833536
 20
47.6740023339533
 30
0.0
 11
64.42920205281538
 21
47.67781110947329
 31
0.0
  0
LINE
  5
834
330
19
100
AcDbEntity
  8
TitleBlock&Notes
  6
Continuous
 62
     3
100
AcDbLine
 10
64.21099738833536
 20
47.6549914352333
 30
0.0
 11
64.43579359953543
 21
47.6589152566733
 31
0.0
  0
LINE
  5
835
330
19
100
AcDbEntity
  8
TitleBlock&Notes
  6
Continuous
 62
     3
100
AcDbLine
 10
64.21099738833536
 20
47.6359805365133
 30
0.0
 11
64.44238519377538
 21
47.64001945139331
 31
0.0
  0
LINE
  5
836
330
19
100
AcDbEntity
  8
TitleBlock&Notes
  6
Continuous
 62
     3
100
AcDbLine
 10
64.21099738833536
 20
47.6169696377933
 30
0.0
 11
64.44897678801538
 21
47.6211235985933
 31
0.0
  0
LINE
  5
837
330
19
100
AcDbEntity
  8
TitleBlock&Notes
  6
Continuous
 62
     3
100
AcDbLine
 10
64.21099738833536
 20
47.5979587390733
 30
0.0
 11
64.45556833473538
 21
47.60222774579331
 31
0.0
  0
LINE
  5
838
330
19
100
AcDbEntity
  8
TitleBlock&Notes
  6
Continuous
 62
     3
100
AcDbLine
 10
64.21099738833536
 20
47.57894784035331
 30
0.0
 11
64.46215992897539
 21
47.58333194051331
 31
0.0
  0
LINE
  5
839
330
19
100
AcDbEntity
  8
TitleBlock&Notes
  6
Continuous
 62
     3
100
AcDbLine
 10
64.21099738833536
 20
47.55993698915331
 30
0.0
 11
64.46875147569537
 21
47.5644360877133
 31
0.0
  0
LINE
  5
83A
330
19
100
AcDbEntity
  8
TitleBlock&Notes
  6
Continuous
 62
     3
100
AcDbLine
 10
64.21099738833536
 20
47.5409260904333
 30
0.0
 11
64.4753430699354
 21
47.5455402349133
 31
0.0
  0
LINE
  5
83B
330
19
100
AcDbEntity
  8
TitleBlock&Notes
  6
Continuous
 62
     3
100
AcDbLine
 10
64.21099738833536
 20
47.5219151917133
 30
0.0
 11
64.48193461665539
 21
47.5266443821133
 31
0.0
  0
LINE
  5
83C
330
19
100
AcDbEntity
  8
TitleBlock&Notes
  6
Continuous
 62
     3
100
AcDbLine
 10
67.65619738833539
 20
47.56214971043329
 30
0.0
 11
68.91547738833541
 21
47.56214971043329
 31
0.0
  0
LINE
  5
83D
330
19
100
AcDbEntity
  8
TitleBlock&Notes
  6
Continuous
 62
     3
100
AcDbLine
 10
68.93923738833539
 20
47.53838971043329
 30
0.0
 11
67.63243738833534
 21
47.53838971043329
 31
0.0
  0
LINE
  5
83E
330
19
100
AcDbEntity
  8
TitleBlock&Notes
  6
Continuous
 62
     3
100
AcDbLine
 10
67.60867738833536
 20
47.5146297104333
 30
0.0
 11
68.96299738833537
 21
47.5146297104333
 31
0.0
  0
LINE
  5
83F
330
19
100
AcDbEntity
  8
TitleBlock&Notes
  6
Continuous
 62
     3
100
AcDbLine
 10
65.6365973883354
 20
47.52778823603331
 30
0.0
 11
66.3588707379354
 21
47.54039552963331
 31
0.0
  0
TEXT
  5
840
330
19
100
AcDbEntity
  8
TitleBlock&Notes
  6
Continuous
 62
     3
100
AcDbText
 10
65.59982436897539
 20
46.40748589331332
 30
0.0
 40
0.33264
  1
 of
 41
1.098901099999999
 51
11.0
100
AcDbText
  0
LINE
  5
841
330
19
100
AcDbEntity
  8
TitleBlock&Notes
  6
Continuous
 62
     3
100
AcDbLine
 10
65.58907738833539
 20
47.56214971043329
 30
0.0
 11
65.23267738833538
 21
47.56214971043329
 31
0.0
  0
LINE
  5
842
330
19
100
AcDbEntity
  8
TitleBlock&Notes
  6
Continuous
 62
     3
100
AcDbLine
 10
65.18515738833542
 20
47.5146297104333
 30
0.0
 11
65.6365973883354
 21
47.5146297104333
 31
0.0
  0
LINE
  5
843
330
19
100
AcDbEntity
  8
TitleBlock&Notes
  6
Continuous
 62
     3
100
AcDbLine
 10
65.20891738833539
 20
47.53838971043329
 30
0.0
 11
65.61283738833541
 21
47.53838971043329
 31
0.0
  0
LINE
  5
844
330
19
100
AcDbEntity
  8
TitleBlock&Notes
  6
Continuous
 62
     3
100
AcDbLine
 10
64.97024709537543
 20
47.68725509171331
 30
0.0
 11
65.18515738833542
 21
47.69100636803331
 31
0.0
  0
LINE
  5
845
330
19
100
AcDbEntity
  8
TitleBlock&Notes
  6
Continuous
 62
     3
100
AcDbLine
 10
64.96357476465536
 20
47.66812772147331
 30
0.0
 11
65.18515738833542
 21
47.6719954693133
 31
0.0
  0
LINE
  5
846
330
19
100
AcDbEntity
  8
TitleBlock&Notes
  6
Continuous
 62
     3
100
AcDbLine
 10
64.95690243393539
 20
47.64900035123331
 30
0.0
 11
65.18515738833542
 21
47.6529845705933
 31
0.0
  0
LINE
  5
847
330
19
100
AcDbEntity
  8
TitleBlock&Notes
  6
Continuous
 62
     3
100
AcDbLine
 10
64.9502301032154
 20
47.62987302851331
 30
0.0
 11
65.18515738833542
 21
47.63397367187329
 31
0.0
  0
LINE
  5
848
330
19
100
AcDbEntity
  8
TitleBlock&Notes
  6
Continuous
 62
     3
100
AcDbLine
 10
64.94355777249538
 20
47.61074565827331
 30
0.0
 11
65.18515738833542
 21
47.61496277315329
 31
0.0
  0
LINE
  5
849
330
19
100
AcDbEntity
  8
TitleBlock&Notes
  6
Continuous
 62
     3
100
AcDbLine
 10
64.93688544177539
 20
47.59161828803331
 30
0.0
 11
65.18515738833542
 21
47.59595187443331
 31
0.0
  0
LINE
  5
84A
330
19
100
AcDbEntity
  8
TitleBlock&Notes
  6
Continuous
 62
     3
100
AcDbLine
 10
64.93021306353537
 20
47.57249091779331
 30
0.0
 11
65.18515738833542
 21
47.5769409757133
 31
0.0
  0
LINE
  5
84B
330
19
100
AcDbEntity
  8
TitleBlock&Notes
  6
Continuous
 62
     3
100
AcDbLine
 10
64.92354073281538
 20
47.55336354755331
 30
0.0
 11
65.18515738833542
 21
47.5579300769933
 31
0.0
  0
LINE
  5
84C
330
19
100
AcDbEntity
  8
TitleBlock&Notes
  6
Continuous
 62
     3
100
AcDbLine
 10
64.91686840209538
 20
47.53423617731331
 30
0.0
 11
65.18515738833542
 21
47.5389191782733
 31
0.0
  0
LINE
  5
84D
330
19
100
AcDbEntity
  8
TitleBlock&Notes
  6
Continuous
 62
     3
100
AcDbLine
 10
64.91019607137535
 20
47.51510885459332
 30
0.0
 11
65.18515738833542
 21
47.5199083270733
 31
0.0
  0
LINE
  5
84E
330
19
100
AcDbEntity
  8
TitleBlock&Notes
  6
Continuous
 62
     3
100
AcDbLine
 10
65.6365973883354
 20
47.6798753782733
 30
0.0
 11
66.10063284945536
 21
47.68797516227332
 31
0.0
  0
LINE
  5
84F
330
19
100
AcDbEntity
  8
TitleBlock&Notes
  6
Continuous
 62
     3
100
AcDbLine
 10
65.6365973883354
 20
47.66086447955331
 30
0.0
 11
66.12141562641543
 21
47.6693270312333
 31
0.0
  0
LINE
  5
850
330
19
100
AcDbEntity
  8
TitleBlock&Notes
  6
Continuous
 62
     3
100
AcDbLine
 10
65.6365973883354
 20
47.64185358083331
 30
0.0
 11
66.14412291585539
 21
47.6507124968333
 31
0.0
  0
LINE
  5
851
330
19
100
AcDbEntity
  8
TitleBlock&Notes
  6
Continuous
 62
     3
100
AcDbLine
 10
65.6365973883354
 20
47.6228426821133
 30
0.0
 11
66.16909496097536
 21
47.63213749907331
 31
0.0
  0
LINE
  5
852
330
19
100
AcDbEntity
  8
TitleBlock&Notes
  6
Continuous
 62
     3
100
AcDbLine
 10
65.6365973883354
 20
47.6038317833933
 30
0.0
 11
66.19680710433536
 21
47.6136103064333
 31
0.0
  0
LINE
  5
853
330
19
100
AcDbEntity
  8
TitleBlock&Notes
  6
Continuous
 62
     3
100
AcDbLine
 10
65.6365973883354
 20
47.58482088467331
 30
0.0
 11
66.22795917297537
 21
47.59514317907331
 31
0.0
  0
LINE
  5
854
330
19
100
AcDbEntity
  8
TitleBlock&Notes
  6
Continuous
 62
     3
100
AcDbLine
 10
65.6365973883354
 20
47.56581003347331
 30
0.0
 11
66.26366175681536
 21
47.57675545763329
 31
0.0
  0
LINE
  5
855
330
19
100
AcDbEntity
  8
TitleBlock&Notes
  6
Continuous
 62
     3
100
AcDbLine
 10
65.6365973883354
 20
47.54679913475331
 30
0.0
 11
66.3058863656154
 21
47.55848159411331
 31
0.0
  0
TEXT
  5
856
330
19
100
AcDbEntity
  8
TitleBlock&Notes
  6
Continuous
 62
     3
100
AcDbText
 10
66.4577878472154
 20
46.40748589331332
 30
0.0
 40
0.33264
  1
 AIR
 41
1.098901099999999
 51
11.0
100
AcDbText
  0
LINE
  5
857
330
19
100
AcDbEntity
  8
TitleBlock&Notes
  6
Continuous
 62
     3
100
AcDbLine
 10
67.08067644321539
 20
47.59101649475332
 30
0.0
 11
67.60867738833536
 21
47.60023280867331
 31
0.0
  0
LINE
  5
858
330
19
100
AcDbEntity
  8
TitleBlock&Notes
  6
Continuous
 62
     3
100
AcDbLine
 10
67.04072172225536
 20
47.57130819251329
 30
0.0
 11
67.60867738833536
 21
47.58122190995329
 31
0.0
  0
LINE
  5
859
330
19
100
AcDbEntity
  8
TitleBlock&Notes
  6
Continuous
 62
     3
100
AcDbLine
 10
66.9912417598554
 20
47.55143361779331
 30
0.0
 11
67.60867738833536
 21
47.5622110112333
 31
0.0
  0
LINE
  5
85A
330
19
100
AcDbEntity
  8
TitleBlock&Notes
  6
Continuous
 62
     3
100
AcDbLine
 10
66.92200321905537
 20
47.53121419043331
 30
0.0
 11
67.60867738833536
 21
47.54320011251332
 31
0.0
  0
LINE
  5
85B
330
19
100
AcDbEntity
  8
TitleBlock&Notes
  6
Continuous
 62
     3
100
AcDbLine
 10
66.53947729329541
 20
47.56214971043329
 30
0.0
 11
66.77707738833539
 21
47.56214971043329
 31
0.0
  0
LINE
  5
85C
330
19
100
AcDbEntity
  8
TitleBlock&Notes
  6
Continuous
 62
     3
100
AcDbLine
 10
66.53947729329541
 20
47.5146297104333
 30
0.0
 11
66.77707738833539
 21
47.5146297104333
 31
0.0
  0
LINE
  5
85D
330
19
100
AcDbEntity
  8
TitleBlock&Notes
  6
Continuous
 62
     3
100
AcDbLine
 10
66.53947729329541
 20
47.53838971043329
 30
0.0
 11
66.77707738833539
 21
47.53838971043329
 31
0.0
  0
LINE
  5
85E
330
19
100
AcDbEntity
  8
TitleBlock&Notes
  6
Continuous
 62
     3
100
AcDbLine
 10
67.19454538785537
 20
47.6690476611533
 30
0.0
 11
67.60867738833536
 21
47.67627635603331
 31
0.0
  0
LINE
  5
85F
330
19
100
AcDbEntity
  8
TitleBlock&Notes
  6
Continuous
 62
     3
100
AcDbLine
 10
67.17074855985541
 20
47.64962139011331
 30
0.0
 11
67.60867738833536
 21
47.6572655048333
 31
0.0
  0
LINE
  5
860
330
19
100
AcDbEntity
  8
TitleBlock&Notes
  6
Continuous
 62
     3
100
AcDbLine
 10
67.14432591921539
 20
47.63014930979331
 30
0.0
 11
67.60867738833536
 21
47.63825460611331
 31
0.0
  0
LINE
  5
861
330
19
100
AcDbEntity
  8
TitleBlock&Notes
  6
Continuous
 62
     3
100
AcDbLine
 10
67.11463542321542
 20
47.61062015795331
 30
0.0
 11
67.60867738833536
 21
47.61924370739332
 31
0.0
  0
TEXT
  5
862
330
19
100
AcDbEntity
  8
TitleBlock&Notes
  6
Continuous
 62
     3
100
AcDbText
 10
67.72353603201543
 20
46.40748589331332
 30
0.0
 40
0.33264
  1
 with the
 41
0.8
 51
11.0
100
AcDbText
  0
LINE
  5
863
330
19
100
AcDbEntity
  8
TitleBlock&Notes
  6
Continuous
 62
     3
100
AcDbLine
 10
69.16495738833535
 20
47.5146297104333
 30
0.0
 11
69.61639738833536
 21
47.5146297104333
 31
0.0
  0
LINE
  5
864
330
19
100
AcDbEntity
  8
TitleBlock&Notes
  6
Continuous
 62
     3
100
AcDbLine
 10
69.18871738833542
 20
47.53838971043329
 30
0.0
 11
69.59263738833539
 21
47.53838971043329
 31
0.0
  0
LINE
  5
865
330
19
100
AcDbEntity
  8
TitleBlock&Notes
  6
Continuous
 62
     3
100
AcDbLine
 10
69.2124773883354
 20
47.56214971043329
 30
0.0
 11
69.56887738833541
 21
47.56214971043329
 31
0.0
  0
LINE
  5
866
330
19
100
AcDbEntity
  8
TitleBlock&Notes
  6
Continuous
 62
     3
100
AcDbLine
 10
68.96299738833537
 20
47.68090523171332
 30
0.0
 11
69.16495738833535
 21
47.6844304553933
 31
0.0
  0
LINE
  5
867
330
19
100
AcDbEntity
  8
TitleBlock&Notes
  6
Continuous
 62
     3
100
AcDbLine
 10
68.96299738833537
 20
47.6618943329933
 30
0.0
 11
69.16495738833535
 21
47.66541955667331
 31
0.0
  0
LINE
  5
868
330
19
100
AcDbEntity
  8
TitleBlock&Notes
  6
Continuous
 62
     3
100
AcDbLine
 10
68.96299738833537
 20
47.6428834342733
 30
0.0
 11
69.16495738833535
 21
47.64640865795331
 31
0.0
  0
LINE
  5
869
330
19
100
AcDbEntity
  8
TitleBlock&Notes
  6
Continuous
 62
     3
100
AcDbLine
 10
68.96299738833537
 20
47.6238725355533
 30
0.0
 11
69.16495738833535
 21
47.62739775923331
 31
0.0
  0
LINE
  5
86A
330
19
100
AcDbEntity
  8
TitleBlock&Notes
  6
Continuous
 62
     3
100
AcDbLine
 10
68.96299738833537
 20
47.60486163683331
 30
0.0
 11
69.16495738833535
 21
47.60838686051329
 31
0.0
  0
LINE
  5
86B
330
19
100
AcDbEntity
  8
TitleBlock&Notes
  6
Continuous
 62
     3
100
AcDbLine
 10
68.96299738833537
 20
47.58585073811331
 30
0.0
 11
69.16495738833535
 21
47.58937596179329
 31
0.0
  0
LINE
  5
86C
330
19
100
AcDbEntity
  8
TitleBlock&Notes
  6
Continuous
 62
     3
100
AcDbLine
 10
68.96299738833537
 20
47.5668398393933
 30
0.0
 11
69.16495738833535
 21
47.57036506307331
 31
0.0
  0
LINE
  5
86D
330
19
100
AcDbEntity
  8
TitleBlock&Notes
  6
Continuous
 62
     3
100
AcDbLine
 10
68.96299738833537
 20
47.54782894067331
 30
0.0
 11
69.16495738833535
 21
47.55135416435329
 31
0.0
  0
LINE
  5
86E
330
19
100
AcDbEntity
  8
TitleBlock&Notes
  6
Continuous
 62
     3
100
AcDbLine
 10
68.96299738833537
 20
47.52881804195332
 30
0.0
 11
69.16495738833535
 21
47.5323432656333
 31
0.0
  0
LINE
  5
86F
330
19
100
AcDbEntity
  8
TitleBlock&Notes
  6
Continuous
 62
     3
100
AcDbLine
 10
69.61639738833536
 20
47.67329946563329
 30
0.0
 11
70.29355738833534
 21
47.68511935283331
 31
0.0
  0
LINE
  5
870
330
19
100
AcDbEntity
  8
TitleBlock&Notes
  6
Continuous
 62
     3
100
AcDbLine
 10
69.61639738833536
 20
47.65428856691332
 30
0.0
 11
70.29355738833534
 21
47.6661084541133
 31
0.0
  0
LINE
  5
871
330
19
100
AcDbEntity
  8
TitleBlock&Notes
  6
Continuous
 62
     3
100
AcDbLine
 10
69.61639738833536
 20
47.63527766819332
 30
0.0
 11
70.29355738833534
 21
47.64709755539331
 31
0.0
  0
LINE
  5
872
330
19
100
AcDbEntity
  8
TitleBlock&Notes
  6
Continuous
 62
     3
100
AcDbLine
 10
69.61639738833536
 20
47.61626676947329
 30
0.0
 11
70.29355738833534
 21
47.62808665667328
 31
0.0
  0
LINE
  5
873
330
19
100
AcDbEntity
  8
TitleBlock&Notes
  6
Continuous
 62
     3
100
AcDbLine
 10
69.61639738833536
 20
47.5972558707533
 30
0.0
 11
70.29355738833534
 21
47.6090757579533
 31
0.0
  0
LINE
  5
874
330
19
100
AcDbEntity
  8
TitleBlock&Notes
  6
Continuous
 62
     3
100
AcDbLine
 10
69.61639738833536
 20
47.5782449720333
 30
0.0
 11
70.29355738833534
 21
47.59006485923332
 31
0.0
  0
LINE
  5
875
330
19
100
AcDbEntity
  8
TitleBlock&Notes
  6
Continuous
 62
     3
100
AcDbLine
 10
69.61639738833536
 20
47.5592340733133
 30
0.0
 11
70.29355738833534
 21
47.57105396051329
 31
0.0
  0
LINE
  5
876
330
19
100
AcDbEntity
  8
TitleBlock&Notes
  6
Continuous
 62
     3
100
AcDbLine
 10
69.61639738833536
 20
47.5402232221133
 30
0.0
 11
70.29355738833534
 21
47.55204306179331
 31
0.0
  0
LINE
  5
877
330
19
100
AcDbEntity
  8
TitleBlock&Notes
  6
Continuous
 62
     3
100
AcDbLine
 10
69.61639738833536
 20
47.52121232339331
 30
0.0
 11
70.29355738833534
 21
47.5330321630733
 31
0.0
  0
LINE
  5
878
330
19
100
AcDbEntity
  8
TitleBlock&Notes
  6
Continuous
 62
     3
100
AcDbLine
 10
70.34107738833538
 20
47.56214971043329
 30
0.0
 11
70.69747738833538
 21
47.56214971043329
 31
0.0
  0
LINE
  5
879
330
19
100
AcDbEntity
  8
TitleBlock&Notes
  6
Continuous
 62
     3
100
AcDbLine
 10
70.29355738833534
 20
47.5146297104333
 30
0.0
 11
70.74499738833535
 21
47.5146297104333
 31
0.0
  0
LINE
  5
87A
330
19
100
AcDbEntity
  8
TitleBlock&Notes
  6
Continuous
 62
     3
100
AcDbLine
 10
70.72123738833536
 20
47.53838971043329
 30
0.0
 11
70.31731738833539
 21
47.53838971043329
 31
0.0
  0
LINE
  5
87B
330
19
100
AcDbEntity
  8
TitleBlock&Notes
  6
Continuous
 62
     3
100
AcDbLine
 10
64.61778935457537
 20
48.7024426241933
 30
0.0
 11
64.77836537457538
 21
48.7024426241933
 31
0.0
  0
LINE
  5
87C
330
19
100
AcDbEntity
  8
TitleBlock&Notes
  6
Continuous
 62
     3
100
AcDbLine
 10
64.61533727505541
 20
48.71325860387329
 30
0.0
 11
64.78147489329535
 21
48.71615855939332
 31
0.0
  0
LINE
  5
87D
330
19
100
AcDbEntity
  8
TitleBlock&Notes
  6
Continuous
 62
     3
100
AcDbLine
 10
64.56477171825537
 20
48.9363008518733
 30
0.0
 11
64.83138301089536
 21
48.9363008518733
 31
0.0
  0
LINE
  5
87E
330
19
100
AcDbEntity
  8
TitleBlock&Notes
  6
Continuous
 62
     3
100
AcDbLine
 10
64.56811489281543
 20
48.92155416035329
 30
0.0
 11
64.82907249345538
 21
48.9261091899533
 31
0.0
  0
LINE
  5
87F
330
19
100
AcDbEntity
  8
TitleBlock&Notes
  6
Continuous
 62
     3
100
AcDbLine
 10
64.57240784961538
 20
48.90261820067331
 30
0.0
 11
64.82474546481544
 21
48.9070227819533
 31
0.0
  0
LINE
  5
880
330
19
100
AcDbEntity
  8
TitleBlock&Notes
  6
Continuous
 62
     3
100
AcDbLine
 10
64.5767008064154
 20
48.88368224099332
 30
0.0
 11
64.82041838865538
 21
48.8879363739533
 31
0.0
  0
LINE
  5
881
330
19
100
AcDbEntity
  8
TitleBlock&Notes
  6
Continuous
 62
     3
100
AcDbLine
 10
64.58099371569542
 20
48.86474628131331
 30
0.0
 11
64.81609136001537
 21
48.86884991843331
 31
0.0
  0
LINE
  5
882
330
19
100
AcDbEntity
  8
TitleBlock&Notes
  6
Continuous
 62
     3
100
AcDbLine
 10
64.58528667249542
 20
48.84581032163331
 30
0.0
 11
64.81176428385538
 21
48.84976351043331
 31
0.0
  0
LINE
  5
883
330
19
100
AcDbEntity
  8
TitleBlock&Notes
  6
Continuous
 62
     3
100
AcDbLine
 10
64.58957962929542
 20
48.8268743619533
 30
0.0
 11
64.80743725521539
 21
48.8306771024333
 31
0.0
  0
LINE
  5
884
330
19
100
AcDbEntity
  8
TitleBlock&Notes
  6
Continuous
 62
     3
100
AcDbLine
 10
64.59387253857535
 20
48.80793840227332
 30
0.0
 11
64.80311017905539
 21
48.8115906469133
 31
0.0
  0
LINE
  5
885
330
19
100
AcDbEntity
  8
TitleBlock&Notes
  6
Continuous
 62
     3
100
AcDbLine
 10
64.59816549537535
 20
48.7890024425933
 30
0.0
 11
64.79878310289535
 21
48.79250423891331
 31
0.0
  0
LINE
  5
886
330
19
100
AcDbEntity
  8
TitleBlock&Notes
  6
Continuous
 62
     3
100
AcDbLine
 10
64.60245845217532
 20
48.77006648291329
 30
0.0
 11
64.79445607425541
 21
48.77341783091329
 31
0.0
  0
LINE
  5
887
330
19
100
AcDbEntity
  8
TitleBlock&Notes
  6
Continuous
 62
     3
100
AcDbLine
 10
64.60675136145535
 20
48.75113052323332
 30
0.0
 11
64.79012899809537
 21
48.75433137539331
 31
0.0
  0
LINE
  5
888
330
19
100
AcDbEntity
  8
TitleBlock&Notes
  6
Continuous
 62
     3
100
AcDbLine
 10
64.61104431825543
 20
48.73219456355331
 30
0.0
 11
64.78580196945542
 21
48.7352449673933
 31
0.0
  0
LINE
  5
889
330
19
100
AcDbEntity
  8
TitleBlock&Notes
  6
Continuous
 62
     3
100
AcDbLine
 10
64.54356463521541
 20
49.02984416195329
 30
0.0
 11
64.85259009393537
 21
49.02984416195329
 31
0.0
  0
LINE
  5
88A
330
19
100
AcDbEntity
  8
TitleBlock&Notes
  6
Continuous
 62
     3
100
AcDbLine
 10
64.85797667601537
 20
49.05360416195332
 30
0.0
 11
64.53817805313533
 21
49.05360416195332
 31
0.0
  0
LINE
  5
88B
330
19
100
AcDbEntity
  8
TitleBlock&Notes
  6
Continuous
 62
     3
100
AcDbLine
 10
64.52235759969537
 20
49.1233874720333
 30
0.0
 11
64.87379712945534
 21
49.1233874720333
 31
0.0
  0
LINE
  5
88C
330
19
100
AcDbEntity
  8
TitleBlock&Notes
  6
Continuous
 62
     3
100
AcDbLine
 10
64.45873644561538
 20
49.40401740227331
 30
0.0
 11
64.93741828353541
 21
49.40401740227331
 31
0.0
  0
LINE
  5
88D
330
19
100
AcDbEntity
  8
TitleBlock&Notes
  6
Continuous
 62
     3
100
AcDbLine
 10
64.4425766518554
 20
49.47529740227333
 30
0.0
 11
64.95357807729539
 21
49.47529740227333
 31
0.0
  0
LINE
  5
88E
330
19
100
AcDbEntity
  8
TitleBlock&Notes
  6
Continuous
 62
     3
100
AcDbLine
 10
64.94280491313538
 20
49.42777740227331
 30
0.0
 11
64.4533498635354
 21
49.42777740227331
 31
0.0
  0
LINE
  5
88F
330
19
100
AcDbEntity
  8
TitleBlock&Notes
  6
Continuous
 62
     3
100
AcDbLine
 10
64.94819149521541
 20
49.4515374022733
 30
0.0
 11
64.44796323393538
 21
49.4515374022733
 31
0.0
  0
LINE
  5
890
330
19
100
AcDbEntity
  8
TitleBlock&Notes
  6
Continuous
 62
     3
100
AcDbLine
 10
64.52774418177535
 20
49.09962747203332
 30
0.0
 11
64.86841054737536
 21
49.09962747203332
 31
0.0
  0
LINE
  5
891
330
19
100
AcDbEntity
  8
TitleBlock&Notes
  6
Continuous
 62
     3
100
AcDbLine
 10
64.53279147105536
 20
49.07736416195331
 30
0.0
 11
64.86336325809535
 21
49.07736416195331
 31
0.0
  0
LINE
  5
892
330
19
100
AcDbEntity
  8
TitleBlock&Notes
  6
Continuous
 62
     3
100
AcDbLine
 10
65.00464468497539
 20
49.70054971043332
 30
0.0
 11
64.69807738833537
 21
48.34829592755331
 31
0.0
  0
LINE
  5
893
330
19
100
AcDbEntity
  8
TitleBlock&Notes
  6
Continuous
 62
     3
100
AcDbLine
 10
65.02362103665539
 20
49.6767897104333
 30
0.0
 11
64.69807738833537
 21
48.24083215619331
 31
0.0
  0
LINE
  5
894
330
19
100
AcDbEntity
  8
TitleBlock&Notes
  6
Continuous
 62
     3
100
AcDbLine
 10
64.69807738833537
 20
48.13336838483332
 30
0.0
 11
65.04259738833543
 21
49.6530297104333
 31
0.0
  0
LINE
  5
898
330
19
100
AcDbEntity
  8
TitleBlock&Notes
  6
Continuous
 62
     3
100
AcDbLine
 10
64.69807738833537
 20
48.34829592755331
 30
0.0
 11
64.39151009169536
 21
49.70054971043332
 31
0.0
  0
LINE
  5
899
330
19
100
AcDbEntity
  8
TitleBlock&Notes
  6
Continuous
 62
     3
100
AcDbLine
 10
64.69807738833537
 20
48.24083215619331
 30
0.0
 11
64.3725337400154
 21
49.6767897104333
 31
0.0
  0
LINE
  5
89A
330
19
100
AcDbEntity
  8
TitleBlock&Notes
  6
Continuous
 62
     3
100
AcDbLine
 10
64.69807738833537
 20
48.13336838483332
 30
0.0
 11
64.35355738833536
 21
49.6530297104333
 31
0.0
  0
LINE
  5
89B
330
19
100
AcDbEntity
  8
TitleBlock&Notes
  6
Continuous
 62
     3
100
AcDbLine
 10
63.23468587281542
 20
48.14118276371331
 30
0.0
 11
63.75955738833535
 21
48.14118276371331
 31
0.0
  0
LINE
  5
89C
330
19
100
AcDbEntity
  8
TitleBlock&Notes
  6
Continuous
 62
     3
100
AcDbLine
 10
63.23468587281542
 20
48.1322331320333
 30
0.0
 11
63.7474092804954
 21
48.14118276371331
 31
0.0
  0
LINE
  5
89D
330
19
100
AcDbEntity
  8
TitleBlock&Notes
  6
Continuous
 62
     3
100
AcDbLine
 10
63.23468587281542
 20
48.1132222333133
 30
0.0
 11
63.75955738833535
 21
48.1223838992333
 31
0.0
  0
LINE
  5
89E
330
19
100
AcDbEntity
  8
TitleBlock&Notes
  6
Continuous
 62
     3
100
AcDbLine
 10
63.23468587281542
 20
48.09421133459331
 30
0.0
 11
63.75955738833535
 21
48.10337300051331
 31
0.0
  0
LINE
  5
89F
330
19
100
AcDbEntity
  8
TitleBlock&Notes
  6
Continuous
 62
     3
100
AcDbLine
 10
63.23468587281542
 20
48.07520043587331
 30
0.0
 11
63.75955738833535
 21
48.0843621017933
 31
0.0
  0
LINE
  5
8A0
330
19
100
AcDbEntity
  8
TitleBlock&Notes
  6
Continuous
 62
     3
100
AcDbLine
 10
63.23468587281542
 20
48.05618958467332
 30
0.0
 11
63.75955738833535
 21
48.06535125059332
 31
0.0
  0
LINE
  5
8A1
330
19
100
AcDbEntity
  8
TitleBlock&Notes
  6
Continuous
 62
     3
100
AcDbLine
 10
63.23468587281542
 20
48.03717868595331
 30
0.0
 11
63.75955738833535
 21
48.04634035187333
 31
0.0
  0
LINE
  5
8A2
330
19
100
AcDbEntity
  8
TitleBlock&Notes
  6
Continuous
 62
     3
100
AcDbLine
 10
63.23468587281542
 20
48.01816778723332
 30
0.0
 11
63.75955738833535
 21
48.02732945315331
 31
0.0
  0
LINE
  5
8A3
330
19
100
AcDbEntity
  8
TitleBlock&Notes
  6
Continuous
 62
     3
100
AcDbLine
 10
63.23468587281542
 20
47.99915688851332
 30
0.0
 11
63.75955738833535
 21
48.00831855443329
 31
0.0
  0
LINE
  5
8A4
330
19
100
AcDbEntity
  8
TitleBlock&Notes
  6
Continuous
 62
     3
100
AcDbLine
 10
63.23468587281542
 20
47.9801459897933
 30
0.0
 11
63.75955738833535
 21
47.9893076557133
 31
0.0
  0
LINE
  5
8A5
330
19
100
AcDbEntity
  8
TitleBlock&Notes
  6
Continuous
 62
     3
100
AcDbLine
 10
63.23468587281542
 20
47.9611350910733
 30
0.0
 11
63.75955738833535
 21
47.97029675699332
 31
0.0
  0
LINE
  5
8A6
330
19
100
AcDbEntity
  8
TitleBlock&Notes
  6
Continuous
 62
     3
100
AcDbLine
 10
63.23468587281542
 20
47.9421241923533
 30
0.0
 11
63.75955738833535
 21
47.95128585827329
 31
0.0
  0
LINE
  5
8A7
330
19
100
AcDbEntity
  8
TitleBlock&Notes
  6
Continuous
 62
     3
100
AcDbLine
 10
63.23468587281542
 20
47.92311329363331
 30
0.0
 11
63.75955738833535
 21
47.9322749595533
 31
0.0
  0
LINE
  5
8A8
330
19
100
AcDbEntity
  8
TitleBlock&Notes
  6
Continuous
 62
     3
100
AcDbLine
 10
63.23468587281542
 20
47.90410239491331
 30
0.0
 11
63.75955738833535
 21
47.9132640608333
 31
0.0
  0
LINE
  5
8A9
330
19
100
AcDbEntity
  8
TitleBlock&Notes
  6
Continuous
 62
     3
100
AcDbLine
 10
63.23468587281542
 20
47.88509149619331
 30
0.0
 11
63.75955738833535
 21
47.8942531621133
 31
0.0
  0
LINE
  5
8AA
330
19
100
AcDbEntity
  8
TitleBlock&Notes
  6
Continuous
 62
     3
100
AcDbLine
 10
63.23468587281542
 20
47.86608059747329
 30
0.0
 11
63.75955738833535
 21
47.87524226339331
 31
0.0
  0
LINE
  5
8AB
330
19
100
AcDbEntity
  8
TitleBlock&Notes
  6
Continuous
 62
     3
100
AcDbLine
 10
63.23468587281542
 20
47.84706969875331
 30
0.0
 11
63.75955738833535
 21
47.8562313646733
 31
0.0
  0
LINE
  5
8AC
330
19
100
AcDbEntity
  8
TitleBlock&Notes
  6
Continuous
 62
     3
100
AcDbLine
 10
63.23468587281542
 20
47.82805880003332
 30
0.0
 11
63.75955738833535
 21
47.83722046595331
 31
0.0
  0
LINE
  5
8AD
330
19
100
AcDbEntity
  8
TitleBlock&Notes
  6
Continuous
 62
     3
100
AcDbLine
 10
63.23468587281542
 20
47.8090479013133
 30
0.0
 11
63.75955738833535
 21
47.81820956723329
 31
0.0
  0
LINE
  5
8AE
330
19
100
AcDbEntity
  8
TitleBlock&Notes
  6
Continuous
 62
     3
100
AcDbLine
 10
63.23468587281542
 20
47.79003700259331
 30
0.0
 11
63.75955738833535
 21
47.7991986685133
 31
0.0
  0
LINE
  5
8AF
330
19
100
AcDbEntity
  8
TitleBlock&Notes
  6
Continuous
 62
     3
100
AcDbLine
 10
63.23468587281542
 20
47.77102615139329
 30
0.0
 11
63.75955738833535
 21
47.7801878173133
 31
0.0
  0
LINE
  5
8B0
330
19
100
AcDbEntity
  8
TitleBlock&Notes
  6
Continuous
 62
     3
100
AcDbLine
 10
63.23468587281542
 20
47.75201525267331
 30
0.0
 11
63.75955738833535
 21
47.7611769185933
 31
0.0
  0
LINE
  5
8B1
330
19
100
AcDbEntity
  8
TitleBlock&Notes
  6
Continuous
 62
     3
100
AcDbLine
 10
63.23468587281542
 20
47.73300435395332
 30
0.0
 11
63.75955738833535
 21
47.74216601987331
 31
0.0
  0
LINE
  5
8B2
330
19
100
AcDbEntity
  8
TitleBlock&Notes
  6
Continuous
 62
     3
100
AcDbLine
 10
63.23468587281542
 20
47.7139934552333
 30
0.0
 11
63.75955738833535
 21
47.72315512115331
 31
0.0
  0
LINE
  5
8B3
330
19
100
AcDbEntity
  8
TitleBlock&Notes
  6
Continuous
 62
     3
100
AcDbLine
 10
63.23468587281542
 20
47.69498255651329
 30
0.0
 11
63.75955738833535
 21
47.70414422243331
 31
0.0
  0
LINE
  5
8B4
330
19
100
AcDbEntity
  8
TitleBlock&Notes
  6
Continuous
 62
     3
100
AcDbLine
 10
63.23468587281542
 20
48.6088993141133
 30
0.0
 11
63.75955738833535
 21
48.6088993141133
 31
0.0
  0
LINE
  5
8B5
330
19
100
AcDbEntity
  8
TitleBlock&Notes
  6
Continuous
 62
     3
100
AcDbLine
 10
63.23468587281542
 20
48.7024426241933
 30
0.0
 11
63.75955738833535
 21
48.7024426241933
 31
0.0
  0
LINE
  5
8B6
330
19
100
AcDbEntity
  8
TitleBlock&Notes
  6
Continuous
 62
     3
100
AcDbLine
 10
63.23468587281542
 20
48.5898884153933
 30
0.0
 11
63.75955738833535
 21
48.59905008131329
 31
0.0
  0
LINE
  5
8B7
330
19
100
AcDbEntity
  8
TitleBlock&Notes
  6
Continuous
 62
     3
100
AcDbLine
 10
63.23468587281542
 20
48.5708775166733
 30
0.0
 11
63.75955738833535
 21
48.58003918259329
 31
0.0
  0
LINE
  5
8B8
330
19
100
AcDbEntity
  8
TitleBlock&Notes
  6
Continuous
 62
     3
100
AcDbLine
 10
63.23468587281542
 20
48.55186661795329
 30
0.0
 11
63.75955738833535
 21
48.5610282838733
 31
0.0
  0
LINE
  5
8B9
330
19
100
AcDbEntity
  8
TitleBlock&Notes
  6
Continuous
 62
     3
100
AcDbLine
 10
63.23468587281542
 20
48.5328557192333
 30
0.0
 11
63.75955738833535
 21
48.5420173851533
 31
0.0
  0
LINE
  5
8BA
330
19
100
AcDbEntity
  8
TitleBlock&Notes
  6
Continuous
 62
     3
100
AcDbLine
 10
63.23468587281542
 20
48.51384482051329
 30
0.0
 11
63.75955738833535
 21
48.5230064864333
 31
0.0
  0
LINE
  5
8BB
330
19
100
AcDbEntity
  8
TitleBlock&Notes
  6
Continuous
 62
     3
100
AcDbLine
 10
63.23468587281542
 20
48.4948339217933
 30
0.0
 11
63.75955738833535
 21
48.5039955877133
 31
0.0
  0
LINE
  5
8BC
330
19
100
AcDbEntity
  8
TitleBlock&Notes
  6
Continuous
 62
     3
100
AcDbLine
 10
63.23468587281542
 20
48.47582302307331
 30
0.0
 11
63.75955738833535
 21
48.48498468899331
 31
0.0
  0
LINE
  5
8BD
330
19
100
AcDbEntity
  8
TitleBlock&Notes
  6
Continuous
 62
     3
100
AcDbLine
 10
63.23468587281542
 20
48.4568121243533
 30
0.0
 11
63.75955738833535
 21
48.46597379027331
 31
0.0
  0
LINE
  5
8BE
330
19
100
AcDbEntity
  8
TitleBlock&Notes
  6
Continuous
 62
     3
100
AcDbLine
 10
63.23468587281542
 20
48.4378012256333
 30
0.0
 11
63.75955738833535
 21
48.44696289155331
 31
0.0
  0
LINE
  5
8BF
330
19
100
AcDbEntity
  8
TitleBlock&Notes
  6
Continuous
 62
     3
100
AcDbLine
 10
63.23468587281542
 20
48.41879032691331
 30
0.0
 11
63.75955738833535
 21
48.42795199283331
 31
0.0
  0
LINE
  5
8C0
330
19
100
AcDbEntity
  8
TitleBlock&Notes
  6
Continuous
 62
     3
100
AcDbLine
 10
63.23468587281542
 20
48.39977942819331
 30
0.0
 11
63.75955738833535
 21
48.4089410941133
 31
0.0
  0
LINE
  5
8C1
330
19
100
AcDbEntity
  8
TitleBlock&Notes
  6
Continuous
 62
     3
100
AcDbLine
 10
63.23468587281542
 20
48.38076857699332
 30
0.0
 11
63.75955738833535
 21
48.38993024291331
 31
0.0
  0
LINE
  5
8C2
330
19
100
AcDbEntity
  8
TitleBlock&Notes
  6
Continuous
 62
     3
100
AcDbLine
 10
63.23468587281542
 20
48.36175767827332
 30
0.0
 11
63.75955738833535
 21
48.37091934419331
 31
0.0
  0
LINE
  5
8C3
330
19
100
AcDbEntity
  8
TitleBlock&Notes
  6
Continuous
 62
     3
100
AcDbLine
 10
63.23468587281542
 20
48.34274677955329
 30
0.0
 11
63.75955738833535
 21
48.35190844547331
 31
0.0
  0
LINE
  5
8C4
330
19
100
AcDbEntity
  8
TitleBlock&Notes
  6
Continuous
 62
     3
100
AcDbLine
 10
63.23468587281542
 20
48.3237358808333
 30
0.0
 11
63.75955738833535
 21
48.33289754675331
 31
0.0
  0
LINE
  5
8C5
330
19
100
AcDbEntity
  8
TitleBlock&Notes
  6
Continuous
 62
     3
100
AcDbLine
 10
63.23468587281542
 20
48.3047249821133
 30
0.0
 11
63.75955738833535
 21
48.31388664803331
 31
0.0
  0
LINE
  5
8C6
330
19
100
AcDbEntity
  8
TitleBlock&Notes
  6
Continuous
 62
     3
100
AcDbLine
 10
63.23468587281542
 20
48.2857140833933
 30
0.0
 11
63.75955738833535
 21
48.29487574931331
 31
0.0
  0
LINE
  5
8C7
330
19
100
AcDbEntity
  8
TitleBlock&Notes
  6
Continuous
 62
     3
100
AcDbLine
 10
63.23468587281542
 20
48.2667031846733
 30
0.0
 11
63.75955738833535
 21
48.27586485059332
 31
0.0
  0
LINE
  5
8C8
330
19
100
AcDbEntity
  8
TitleBlock&Notes
  6
Continuous
 62
     3
100
AcDbLine
 10
63.23468587281542
 20
48.87926820323331
 30
0.0
 11
63.75955738833535
 21
48.88842986915332
 31
0.0
  0
LINE
  5
8C9
330
19
100
AcDbEntity
  8
TitleBlock&Notes
  6
Continuous
 62
     3
100
AcDbLine
 10
63.23468587281542
 20
48.86025730451331
 30
0.0
 11
63.75955738833535
 21
48.8694189704333
 31
0.0
  0
LINE
  5
8CA
330
19
100
AcDbEntity
  8
TitleBlock&Notes
  6
Continuous
 62
     3
100
AcDbLine
 10
63.23468587281542
 20
48.84124640579331
 30
0.0
 11
63.75955738833535
 21
48.8504080717133
 31
0.0
  0
LINE
  5
8CB
330
19
100
AcDbEntity
  8
TitleBlock&Notes
  6
Continuous
 62
     3
100
AcDbLine
 10
63.23468587281542
 20
48.8222355070733
 30
0.0
 11
63.75955738833535
 21
48.8313971729933
 31
0.0
  0
LINE
  5
8CC
330
19
100
AcDbEntity
  8
TitleBlock&Notes
  6
Continuous
 62
     3
100
AcDbLine
 10
63.23468587281542
 20
48.8032246083533
 30
0.0
 11
63.75955738833535
 21
48.81238627427331
 31
0.0
  0
LINE
  5
8CD
330
19
100
AcDbEntity
  8
TitleBlock&Notes
  6
Continuous
 62
     3
100
AcDbLine
 10
63.23468587281542
 20
48.7842137096333
 30
0.0
 11
63.75955738833535
 21
48.79337537555331
 31
0.0
  0
LINE
  5
8CE
330
19
100
AcDbEntity
  8
TitleBlock&Notes
  6
Continuous
 62
     3
100
AcDbLine
 10
63.23468587281542
 20
48.7652028109133
 30
0.0
 11
63.75955738833535
 21
48.77436447683331
 31
0.0
  0
LINE
  5
8CF
330
19
100
AcDbEntity
  8
TitleBlock&Notes
  6
Continuous
 62
     3
100
AcDbLine
 10
63.23468587281542
 20
48.74619191219331
 30
0.0
 11
63.75955738833535
 21
48.7553535781133
 31
0.0
  0
LINE
  5
8D0
330
19
100
AcDbEntity
  8
TitleBlock&Notes
  6
Continuous
 62
     3
100
AcDbLine
 10
63.23468587281542
 20
48.72718101347331
 30
0.0
 11
63.75955738833535
 21
48.73634267939331
 31
0.0
  0
LINE
  5
8D1
330
19
100
AcDbEntity
  8
TitleBlock&Notes
  6
Continuous
 62
     3
100
AcDbLine
 10
63.23468587281542
 20
48.70817011475331
 30
0.0
 11
63.75955738833535
 21
48.71733178067332
 31
0.0
  0
LINE
  5
8D2
330
19
100
AcDbEntity
  8
TitleBlock&Notes
  6
Continuous
 62
     3
100
AcDbLine
 10
63.23468587281542
 20
48.23472607379331
 30
0.0
 11
63.75955738833535
 21
48.23472607379331
 31
0.0
  0
LINE
  5
8D3
330
19
100
AcDbEntity
  8
TitleBlock&Notes
  6
Continuous
 62
     3
100
AcDbLine
 10
63.23468587281542
 20
48.2476922859533
 30
0.0
 11
63.75955738833535
 21
48.25685395187332
 31
0.0
  0
LINE
  5
8D4
330
19
100
AcDbEntity
  8
TitleBlock&Notes
  6
Continuous
 62
     3
100
AcDbLine
 10
63.5809854017754
 20
48.23472607379331
 30
0.0
 11
63.75955738833535
 21
48.23784305315331
 31
0.0
  0
LINE
  5
8D5
330
19
100
AcDbEntity
  8
TitleBlock&Notes
  6
Continuous
 62
     3
100
AcDbLine
 10
64.63899639009537
 20
48.6088993141133
 30
0.0
 11
64.75715833905542
 21
48.6088993141133
 31
0.0
  0
LINE
  5
8D6
330
19
100
AcDbEntity
  8
TitleBlock&Notes
  6
Continuous
 62
     3
100
AcDbLine
 10
64.6420470315354
 20
48.5954430757133
 30
0.0
 11
64.75455291249537
 21
48.59740688723329
 31
0.0
  0
LINE
  5
8D7
330
19
100
AcDbEntity
  8
TitleBlock&Notes
  6
Continuous
 62
     3
100
AcDbLine
 10
64.6463399883354
 20
48.5765071160333
 30
0.0
 11
64.75022588385536
 21
48.57832047923331
 31
0.0
  0
LINE
  5
8D8
330
19
100
AcDbEntity
  8
TitleBlock&Notes
  6
Continuous
 62
     3
100
AcDbLine
 10
64.65063289761542
 20
48.55757115635331
 30
0.0
 11
64.74589880769541
 21
48.55923402371331
 31
0.0
  0
LINE
  5
8D9
330
19
100
AcDbEntity
  8
TitleBlock&Notes
  6
Continuous
 62
     3
100
AcDbLine
 10
64.65492585441544
 20
48.5386351966733
 30
0.0
 11
64.74157177905539
 21
48.54014761571331
 31
0.0
  0
LINE
  5
8DA
330
19
100
AcDbEntity
  8
TitleBlock&Notes
  6
Continuous
 62
     3
100
AcDbLine
 10
64.65921881121539
 20
48.5196992369933
 30
0.0
 11
64.73724470289539
 21
48.52106120771331
 31
0.0
  0
LINE
  5
8DB
330
19
100
AcDbEntity
  8
TitleBlock&Notes
  6
Continuous
 62
     3
100
AcDbLine
 10
64.66351172049536
 20
48.50076327731329
 30
0.0
 11
64.73291767425539
 21
48.50197475219331
 31
0.0
  0
LINE
  5
8DC
330
19
100
AcDbEntity
  8
TitleBlock&Notes
  6
Continuous
 62
     3
100
AcDbLine
 10
64.66780467729535
 20
48.48182731763332
 30
0.0
 11
64.72859059809533
 21
48.48288834419332
 31
0.0
  0
LINE
  5
8DD
330
19
100
AcDbEntity
  8
TitleBlock&Notes
  6
Continuous
 62
     3
100
AcDbLine
 10
64.67209763409536
 20
48.4628913579533
 30
0.0
 11
64.7242635694554
 21
48.46380193619331
 31
0.0
  0
LINE
  5
8DE
330
19
100
AcDbEntity
  8
TitleBlock&Notes
  6
Continuous
 62
     3
100
AcDbLine
 10
64.67639054337539
 20
48.44395539827331
 30
0.0
 11
64.7199364932954
 21
48.44471548067331
 31
0.0
  0
LINE
  5
8DF
330
19
100
AcDbEntity
  8
TitleBlock&Notes
  6
Continuous
 62
     3
100
AcDbLine
 10
64.68068350017538
 20
48.42501943859332
 30
0.0
 11
64.71560946465541
 21
48.4256290726733
 31
0.0
  0
LINE
  5
8E0
330
19
100
AcDbEntity
  8
TitleBlock&Notes
  6
Continuous
 62
     3
100
AcDbLine
 10
64.68497645697538
 20
48.4060834789133
 30
0.0
 11
64.71128238849537
 21
48.40654266467331
 31
0.0
  0
LINE
  5
8E1
330
19
100
AcDbEntity
  8
TitleBlock&Notes
  6
Continuous
 62
     3
100
AcDbLine
 10
64.6892693662554
 20
48.3871475192333
 30
0.0
 11
64.70695531233538
 21
48.38745620915332
 31
0.0
  0
LINE
  5
8E2
330
19
100
AcDbEntity
  8
TitleBlock&Notes
  6
Continuous
 62
     3
100
AcDbLine
 10
64.69356232305537
 20
48.36821155955331
 30
0.0
 11
64.70262828369536
 21
48.36836980115331
 31
0.0
  0
LINE
  5
8E3
330
19
100
AcDbEntity
  8
TitleBlock&Notes
  6
Continuous
 62
     3
100
AcDbLine
 10
64.69785527985537
 20
48.34927559987329
 30
0.0
 11
64.69830120753539
 21
48.34928334563329
 31
0.0
  0
LINE
  5
8E4
330
19
100
AcDbEntity
  8
TitleBlock&Notes
  6
Continuous
 62
     3
100
AcDbLine
 10
64.21099738833536
 20
48.14927470691332
 30
0.0
 11
64.26441276705543
 21
48.15020709683331
 31
0.0
  0
LINE
  5
8E5
330
19
100
AcDbEntity
  8
TitleBlock&Notes
  6
Continuous
 62
     3
100
AcDbLine
 10
64.21099738833536
 20
48.1302638081933
 30
0.0
 11
64.27100431377541
 21
48.13131124403331
 31
0.0
  0
LINE
  5
8E6
330
19
100
AcDbEntity
  8
TitleBlock&Notes
  6
Continuous
 62
     3
100
AcDbLine
 10
64.21099738833536
 20
48.11125295699332
 30
0.0
 11
64.27759590801542
 21
48.11241543875329
 31
0.0
  0
LINE
  5
8E7
330
19
100
AcDbEntity
  8
TitleBlock&Notes
  6
Continuous
 62
     3
100
AcDbLine
 10
64.21099738833536
 20
48.0922420582733
 30
0.0
 11
64.28418745473542
 21
48.0935195859533
 31
0.0
  0
LINE
  5
8E8
330
19
100
AcDbEntity
  8
TitleBlock&Notes
  6
Continuous
 62
     3
100
AcDbLine
 10
64.21099738833536
 20
48.07323115955331
 30
0.0
 11
64.29077904897543
 21
48.0746237331533
 31
0.0
  0
LINE
  5
8E9
330
19
100
AcDbEntity
  8
TitleBlock&Notes
  6
Continuous
 62
     3
100
AcDbLine
 10
64.21099738833536
 20
48.05422026083329
 30
0.0
 11
64.29737059569541
 21
48.05572788035331
 31
0.0
  0
LINE
  5
8EA
330
19
100
AcDbEntity
  8
TitleBlock&Notes
  6
Continuous
 62
     3
100
AcDbLine
 10
64.21099738833536
 20
48.03520936211331
 30
0.0
 11
64.30396218993542
 21
48.0368320750733
 31
0.0
  0
LINE
  5
8EB
330
19
100
AcDbEntity
  8
TitleBlock&Notes
  6
Continuous
 62
     3
100
AcDbLine
 10
64.21099738833536
 20
48.01619846339332
 30
0.0
 11
64.3105537366554
 21
48.01793622227331
 31
0.0
  0
LINE
  5
8EC
330
19
100
AcDbEntity
  8
TitleBlock&Notes
  6
Continuous
 62
     3
100
AcDbLine
 10
64.21099738833536
 20
47.9971875646733
 30
0.0
 11
64.31714533089543
 21
47.99904036947329
 31
0.0
  0
LINE
  5
8ED
330
19
100
AcDbEntity
  8
TitleBlock&Notes
  6
Continuous
 62
     3
100
AcDbLine
 10
64.21099738833536
 20
48.30136189667332
 30
0.0
 11
64.21168020321542
 21
48.3013738241933
 31
0.0
  0
LINE
  5
8EE
330
19
100
AcDbEntity
  8
TitleBlock&Notes
  6
Continuous
 62
     3
100
AcDbLine
 10
64.21099738833536
 20
48.28235099795333
 30
0.0
 11
64.2182717499354
 21
48.2824779713933
 31
0.0
  0
LINE
  5
8EF
330
19
100
AcDbEntity
  8
TitleBlock&Notes
  6
Continuous
 62
     3
100
AcDbLine
 10
64.21099738833536
 20
48.2633400992333
 30
0.0
 11
64.22486334417541
 21
48.26358211859332
 31
0.0
  0
LINE
  5
8F0
330
19
100
AcDbEntity
  8
TitleBlock&Notes
  6
Continuous
 62
     3
100
AcDbLine
 10
64.21099738833536
 20
48.2443292005133
 30
0.0
 11
64.23145489089542
 21
48.24468626579331
 31
0.0
  0
LINE
  5
8F1
330
19
100
AcDbEntity
  8
TitleBlock&Notes
  6
Continuous
 62
     3
100
AcDbLine
 10
64.21099738833536
 20
48.2253183017933
 30
0.0
 11
64.23804648513544
 21
48.2257904605133
 31
0.0
  0
LINE
  5
8F2
330
19
100
AcDbEntity
  8
TitleBlock&Notes
  6
Continuous
 62
     3
100
AcDbLine
 10
64.21099738833536
 20
48.20630740307331
 30
0.0
 11
64.2446380318554
 21
48.2068946077133
 31
0.0
  0
LINE
  5
8F3
330
19
100
AcDbEntity
  8
TitleBlock&Notes
  6
Continuous
 62
     3
100
AcDbLine
 10
64.21099738833536
 20
48.18729650435331
 30
0.0
 11
64.25122962609541
 21
48.18799875491331
 31
0.0
  0
LINE
  5
8F4
330
19
100
AcDbEntity
  8
TitleBlock&Notes
  6
Continuous
 62
     3
100
AcDbLine
 10
64.21099738833536
 20
48.1682856056333
 30
0.0
 11
64.25782117281539
 21
48.16910294963332
 31
0.0
  0
LINE
  5
8F5
330
19
100
AcDbEntity
  8
TitleBlock&Notes
  6
Continuous
 62
     3
100
AcDbLine
 10
64.21099738833536
 20
47.78806772627331
 30
0.0
 11
64.38965262993537
 21
47.7911861312333
 31
0.0
  0
LINE
  5
8F6
330
19
100
AcDbEntity
  8
TitleBlock&Notes
  6
Continuous
 62
     3
100
AcDbLine
 10
64.21099738833536
 20
47.76905682755331
 30
0.0
 11
64.39624417665545
 21
47.77229032595331
 31
0.0
  0
LINE
  5
8F7
330
19
100
AcDbEntity
  8
TitleBlock&Notes
  6
Continuous
 62
     3
100
AcDbLine
 10
64.21099738833536
 20
47.75004592883331
 30
0.0
 11
64.40283577089537
 21
47.75339447315331
 31
0.0
  0
LINE
  5
8F8
330
19
100
AcDbEntity
  8
TitleBlock&Notes
  6
Continuous
 62
     3
100
AcDbLine
 10
64.21099738833536
 20
47.73103503011332
 30
0.0
 11
64.40942731761542
 21
47.73449862035332
 31
0.0
  0
LINE
  5
8F9
330
19
100
AcDbEntity
  8
TitleBlock&Notes
  6
Continuous
 62
     3
100
AcDbLine
 10
64.21099738833536
 20
47.71202413139329
 30
0.0
 11
64.41601891185538
 21
47.71560281507331
 31
0.0
  0
LINE
  5
8FA
330
19
100
AcDbEntity
  8
TitleBlock&Notes
  6
Continuous
 62
     3
100
AcDbLine
 10
64.21099738833536
 20
47.97817666595331
 30
0.0
 11
64.32373692513538
 21
47.9801445641933
 31
0.0
  0
LINE
  5
8FB
330
19
100
AcDbEntity
  8
TitleBlock&Notes
  6
Continuous
 62
     3
100
AcDbLine
 10
64.21099738833536
 20
47.9591657672333
 30
0.0
 11
64.33032847185543
 21
47.96124871139331
 31
0.0
  0
LINE
  5
8FC
330
19
100
AcDbEntity
  8
TitleBlock&Notes
  6
Continuous
 62
     3
100
AcDbLine
 10
64.21099738833536
 20
47.9401548685133
 30
0.0
 11
64.33692006609536
 21
47.94235285859332
 31
0.0
  0
LINE
  5
8FD
330
19
100
AcDbEntity
  8
TitleBlock&Notes
  6
Continuous
 62
     3
100
AcDbLine
 10
64.21099738833536
 20
47.92114396979331
 30
0.0
 11
64.34351161281544
 21
47.9234570057933
 31
0.0
  0
LINE
  5
8FE
330
19
100
AcDbEntity
  8
TitleBlock&Notes
  6
Continuous
 62
     3
100
AcDbLine
 10
64.21099738833536
 20
47.90213307107331
 30
0.0
 11
64.35010320705538
 21
47.90456120051331
 31
0.0
  0
LINE
  5
8FF
330
19
100
AcDbEntity
  8
TitleBlock&Notes
  6
Continuous
 62
     3
100
AcDbLine
 10
64.21099738833536
 20
47.88312217235329
 30
0.0
 11
64.35669475377541
 21
47.88566534771329
 31
0.0
  0
LINE
  5
900
330
19
100
AcDbEntity
  8
TitleBlock&Notes
  6
Continuous
 62
     3
100
AcDbLine
 10
64.21099738833536
 20
47.86411127363329
 30
0.0
 11
64.36328634801537
 21
47.86676949491329
 31
0.0
  0
LINE
  5
901
330
19
100
AcDbEntity
  8
TitleBlock&Notes
  6
Continuous
 62
     3
100
AcDbLine
 10
64.21099738833536
 20
47.8451003749133
 30
0.0
 11
64.36987789473544
 21
47.84787368963331
 31
0.0
  0
LINE
  5
902
330
19
100
AcDbEntity
  8
TitleBlock&Notes
  6
Continuous
 62
     3
100
AcDbLine
 10
64.21099738833536
 20
47.8260895237133
 30
0.0
 11
64.37646948897539
 21
47.8289778368333
 31
0.0
  0
LINE
  5
903
330
19
100
AcDbEntity
  8
TitleBlock&Notes
  6
Continuous
 62
     3
100
AcDbLine
 10
64.21099738833536
 20
47.80707862499331
 30
0.0
 11
64.38306103569542
 21
47.8100819840333
 31
0.0
  0
LINE
  5
904
330
19
100
AcDbEntity
  8
TitleBlock&Notes
  6
Continuous
 62
     3
100
AcDbLine
 10
63.75955738833535
 20
49.70054971043332
 30
0.0
 11
64.39151009169536
 21
49.70054971043332
 31
0.0
  0
LINE
  5
905
330
19
100
AcDbEntity
  8
TitleBlock&Notes
  6
Continuous
 62
     3
100
AcDbLine
 10
63.80707738833539
 20
49.6530297104333
 30
0.0
 11
64.35355738833536
 21
49.6530297104333
 31
0.0
  0
LINE
  5
906
330
19
100
AcDbEntity
  8
TitleBlock&Notes
  6
Continuous
 62
     3
100
AcDbLine
 10
64.3725337400154
 20
49.6767897104333
 30
0.0
 11
63.78331738833541
 21
49.6767897104333
 31
0.0
  0
LINE
  5
907
330
19
100
AcDbEntity
  8
TitleBlock&Notes
  6
Continuous
 62
     3
100
AcDbLine
 10
63.23468587281542
 20
48.9363008518733
 30
0.0
 11
63.75955738833535
 21
48.9363008518733
 31
0.0
  0
LINE
  5
908
330
19
100
AcDbEntity
  8
TitleBlock&Notes
  6
Continuous
 62
     3
100
AcDbLine
 10
63.23468587281542
 20
48.9172900006733
 30
0.0
 11
63.75955738833535
 21
48.92645166659329
 31
0.0
  0
LINE
  5
909
330
19
100
AcDbEntity
  8
TitleBlock&Notes
  6
Continuous
 62
     3
100
AcDbLine
 10
63.23468587281542
 20
48.89827910195331
 30
0.0
 11
63.75955738833535
 21
48.9074407678733
 31
0.0
  0
LINE
  5
90A
330
19
100
AcDbEntity
  8
TitleBlock&Notes
  6
Continuous
 62
     3
100
AcDbLine
 10
63.23468587281542
 20
49.1233874720333
 30
0.0
 11
63.75955738833535
 21
49.1233874720333
 31
0.0
  0
LINE
  5
90B
330
19
100
AcDbEntity
  8
TitleBlock&Notes
  6
Continuous
 62
     3
100
AcDbLine
 10
63.23468587281542
 20
49.40401740227331
 30
0.0
 11
63.75955738833535
 21
49.40401740227331
 31
0.0
  0
LINE
  5
90C
330
19
100
AcDbEntity
  8
TitleBlock&Notes
  6
Continuous
 62
     3
100
AcDbLine
 10
63.23468587281542
 20
49.47529740227333
 30
0.0
 11
63.75955738833535
 21
49.47529740227333
 31
0.0
  0
LINE
  5
90D
330
19
100
AcDbEntity
  8
TitleBlock&Notes
  6
Continuous
 62
     3
100
AcDbLine
 10
63.23468587281542
 20
49.4515374022733
 30
0.0
 11
63.75955738833535
 21
49.4515374022733
 31
0.0
  0
LINE
  5
90E
330
19
100
AcDbEntity
  8
TitleBlock&Notes
  6
Continuous
 62
     3
100
AcDbLine
 10
63.23468587281542
 20
49.42777740227331
 30
0.0
 11
63.75955738833535
 21
49.42777740227331
 31
0.0
  0
LINE
  5
90F
330
19
100
AcDbEntity
  8
TitleBlock&Notes
  6
Continuous
 62
     3
100
AcDbLine
 10
63.23468587281542
 20
49.09962747203332
 30
0.0
 11
63.75955738833535
 21
49.09962747203332
 31
0.0
  0
LINE
  5
910
330
19
100
AcDbEntity
  8
TitleBlock&Notes
  6
Continuous
 62
     3
100
AcDbLine
 10
63.23468587281542
 20
49.02984416195329
 30
0.0
 11
63.75955738833535
 21
49.02984416195329
 31
0.0
  0
LINE
  5
911
330
19
100
AcDbEntity
  8
TitleBlock&Notes
  6
Continuous
 62
     3
100
AcDbLine
 10
63.23468587281542
 20
49.05360416195332
 30
0.0
 11
63.75955738833535
 21
49.05360416195332
 31
0.0
  0
LINE
  5
912
330
19
100
AcDbEntity
  8
TitleBlock&Notes
  6
Continuous
 62
     3
100
AcDbLine
 10
63.23468587281542
 20
49.07586747203331
 30
0.0
 11
63.75955738833535
 21
49.07586747203331
 31
0.0
  0
LINE
  5
914
330
19
100
AcDbEntity
  8
TitleBlock&Notes
  6
Continuous
 62
     3
100
AcDbLine
 10
67.65619738833539
 20
49.6530297104333
 30
0.0
 11
68.0125973883354
 21
49.6530297104333
 31
0.0
  0
LINE
  5
915
330
19
100
AcDbEntity
  8
TitleBlock&Notes
  6
Continuous
 62
     3
100
AcDbLine
 10
67.60867738833536
 20
49.70054971043332
 30
0.0
 11
68.06011738833536
 21
49.70054971043332
 31
0.0
  0
LINE
  5
916
330
19
100
AcDbEntity
  8
TitleBlock&Notes
  6
Continuous
 62
     3
100
AcDbLine
 10
67.63243738833534
 20
49.6767897104333
 30
0.0
 11
68.0363573883354
 21
49.6767897104333
 31
0.0
  0
ARC
  5
917
330
19
100
AcDbEntity
  8
TitleBlock&Notes
  6
Continuous
 62
     3
100
AcDbCircle
 10
66.53947738833541
 20
48.15614971043331
 30
0.0
 40
0.2376
100
AcDbArc
 50
180.0000046800002
 51
269.9999931700005
  0
ARC
  5
918
330
19
100
AcDbEntity
  8
TitleBlock&Notes
  6
Continuous
 62
     3
100
AcDbCircle
 10
66.53947738833541
 20
48.15614971043331
 30
0.0
 40
0.19008
100
AcDbArc
 50
180.0000052300003
 51
269.9999947700005
  0
ARC
  5
919
330
19
100
AcDbEntity
  8
TitleBlock&Notes
  6
Continuous
 62
     3
100
AcDbCircle
 10
66.53947738833541
 20
48.15614971043331
 30
0.0
 40
0.21384
100
AcDbArc
 50
180.0000046800002
 51
269.9999931700005
  0
LINE
  5
91A
330
19
100
AcDbEntity
  8
TitleBlock&Notes
  6
Continuous
 62
     3
100
AcDbLine
 10
65.89795738833536
 20
49.70054971043332
 30
0.0
 11
66.34939738833536
 21
49.70054971043332
 31
0.0
  0
LINE
  5
91B
330
19
100
AcDbEntity
  8
TitleBlock&Notes
  6
Continuous
 62
     3
100
AcDbLine
 10
65.92171738833542
 20
49.6767897104333
 30
0.0
 11
66.32563738833539
 21
49.6767897104333
 31
0.0
  0
LINE
  5
91C
330
19
100
AcDbEntity
  8
TitleBlock&Notes
  6
Continuous
 62
     3
100
AcDbLine
 10
65.9454773883354
 20
49.6530297104333
 30
0.0
 11
65.9454773883354
 21
48.15614971043331
 31
0.0
  0
LINE
  5
91D
330
19
100
AcDbEntity
  8
TitleBlock&Notes
  6
Continuous
 62
     3
100
AcDbLine
 10
66.30187738833541
 20
49.6530297104333
 30
0.0
 11
66.30187738833541
 21
48.15614966291331
 31
0.0
  0
LINE
  5
91E
330
19
100
AcDbEntity
  8
TitleBlock&Notes
  6
Continuous
 62
     3
100
AcDbLine
 10
65.89795738833536
 20
49.70054971043332
 30
0.0
 11
65.89795738833536
 21
48.15614971043331
 31
0.0
  0
LINE
  5
91F
330
19
100
AcDbEntity
  8
TitleBlock&Notes
  6
Continuous
 62
     3
100
AcDbLine
 10
65.92171738833542
 20
48.15614971043331
 30
0.0
 11
65.92171738833542
 21
49.6767897104333
 31
0.0
  0
LINE
  5
920
330
19
100
AcDbEntity
  8
TitleBlock&Notes
  6
Continuous
 62
     3
100
AcDbLine
 10
65.01028112721539
 20
47.8020192656333
 30
0.0
 11
65.18515738833542
 21
47.8050717603533
 31
0.0
  0
LINE
  5
921
330
19
100
AcDbEntity
  8
TitleBlock&Notes
  6
Continuous
 62
     3
100
AcDbLine
 10
64.9902640875354
 20
47.7446371549133
 30
0.0
 11
65.18515738833542
 21
47.74803906419331
 31
0.0
  0
LINE
  5
922
330
19
100
AcDbEntity
  8
TitleBlock&Notes
  6
Continuous
 62
     3
100
AcDbLine
 10
64.98359175681539
 20
47.72550983219331
 30
0.0
 11
65.18515738833542
 21
47.72902816547329
 31
0.0
  0
LINE
  5
923
330
19
100
AcDbEntity
  8
TitleBlock&Notes
  6
Continuous
 62
     3
100
AcDbLine
 10
64.97691942609538
 20
47.70638246195331
 30
0.0
 11
65.18515738833542
 21
47.71001726675329
 31
0.0
  0
LINE
  5
924
330
19
100
AcDbEntity
  8
TitleBlock&Notes
  6
Continuous
 62
     3
100
AcDbLine
 10
65.00360879649541
 20
47.7828918953933
 30
0.0
 11
65.18515738833542
 21
47.78606086163331
 31
0.0
  0
LINE
  5
925
330
19
100
AcDbEntity
  8
TitleBlock&Notes
  6
Continuous
 62
     3
100
AcDbLine
 10
64.99693641825541
 20
47.7637645251533
 30
0.0
 11
65.18515738833542
 21
47.76704996291331
 31
0.0
  0
LINE
  5
926
330
19
100
AcDbEntity
  8
TitleBlock&Notes
  6
Continuous
 62
     3
100
AcDbLine
 10
65.13038312769541
 20
48.14631178739332
 30
0.0
 11
65.18515738833542
 21
48.14726784227331
 31
0.0
  0
LINE
  5
927
330
19
100
AcDbEntity
  8
TitleBlock&Notes
  6
Continuous
 62
     3
100
AcDbLine
 10
65.12371079697536
 20
48.1271844171533
 30
0.0
 11
65.18515738833542
 21
48.12825694355331
 31
0.0
  0
LINE
  5
928
330
19
100
AcDbEntity
  8
TitleBlock&Notes
  6
Continuous
 62
     3
100
AcDbLine
 10
65.11703846625536
 20
48.1080570469133
 30
0.0
 11
65.18515738833542
 21
48.10924604483331
 31
0.0
  0
LINE
  5
929
330
19
100
AcDbEntity
  8
TitleBlock&Notes
  6
Continuous
 62
     3
100
AcDbLine
 10
65.1103661355354
 20
48.0889296766733
 30
0.0
 11
65.18515738833542
 21
48.09023514611332
 31
0.0
  0
LINE
  5
92A
330
19
100
AcDbEntity
  8
TitleBlock&Notes
  6
Continuous
 62
     3
100
AcDbLine
 10
65.10369380481535
 20
48.06980230643332
 30
0.0
 11
65.18515738833542
 21
48.07122429491331
 31
0.0
  0
LINE
  5
92B
330
19
100
AcDbEntity
  8
TitleBlock&Notes
  6
Continuous
 62
     3
100
AcDbLine
 10
65.09702147409538
 20
48.05067498371332
 30
0.0
 11
65.18515738833542
 21
48.05221339619333
 31
0.0
  0
LINE
  5
92C
330
19
100
AcDbEntity
  8
TitleBlock&Notes
  6
Continuous
 62
     3
100
AcDbLine
 10
65.0903491433754
 20
48.03154761347331
 30
0.0
 11
65.18515738833542
 21
48.03320249747333
 31
0.0
  0
LINE
  5
92D
330
19
100
AcDbEntity
  8
TitleBlock&Notes
  6
Continuous
 62
     3
100
AcDbLine
 10
65.08367681265537
 20
48.01242024323329
 30
0.0
 11
65.18515738833542
 21
48.01419159875329
 31
0.0
  0
LINE
  5
92E
330
19
100
AcDbEntity
  8
TitleBlock&Notes
  6
Continuous
 62
     3
100
AcDbLine
 10
65.07700448193536
 20
47.99329287299331
 30
0.0
 11
65.18515738833542
 21
47.99518070003329
 31
0.0
  0
LINE
  5
92F
330
19
100
AcDbEntity
  8
TitleBlock&Notes
  6
Continuous
 62
     3
100
AcDbLine
 10
65.07033215121538
 20
47.97416550275331
 30
0.0
 11
65.18515738833542
 21
47.9761698013133
 31
0.0
  0
LINE
  5
930
330
19
100
AcDbEntity
  8
TitleBlock&Notes
  6
Continuous
 62
     3
100
AcDbLine
 10
65.06365977297535
 20
47.95503813251331
 30
0.0
 11
65.18515738833542
 21
47.9571589025933
 31
0.0
  0
LINE
  5
931
330
19
100
AcDbEntity
  8
TitleBlock&Notes
  6
Continuous
 62
     3
100
AcDbLine
 10
65.0569874422554
 20
47.93591080979331
 30
0.0
 11
65.18515738833542
 21
47.9381480038733
 31
0.0
  0
LINE
  5
932
330
19
100
AcDbEntity
  8
TitleBlock&Notes
  6
Continuous
 62
     3
100
AcDbLine
 10
65.05031511153541
 20
47.9167834395533
 30
0.0
 11
65.18515738833542
 21
47.91913710515331
 31
0.0
  0
LINE
  5
933
330
19
100
AcDbEntity
  8
TitleBlock&Notes
  6
Continuous
 62
     3
100
AcDbLine
 10
65.04364278081538
 20
47.8976560693133
 30
0.0
 11
65.18515738833542
 21
47.9001262064333
 31
0.0
  0
LINE
  5
934
330
19
100
AcDbEntity
  8
TitleBlock&Notes
  6
Continuous
 62
     3
100
AcDbLine
 10
65.03697045009539
 20
47.8785286990733
 30
0.0
 11
65.18515738833542
 21
47.8811153077133
 31
0.0
  0
LINE
  5
935
330
19
100
AcDbEntity
  8
TitleBlock&Notes
  6
Continuous
 62
     3
100
AcDbLine
 10
65.0302981193754
 20
47.85940132883331
 30
0.0
 11
65.18515738833542
 21
47.86210440899331
 31
0.0
  0
LINE
  5
936
330
19
100
AcDbEntity
  8
TitleBlock&Notes
  6
Continuous
 62
     3
100
AcDbLine
 10
65.02362578865541
 20
47.84027400611331
 30
0.0
 11
65.18515738833542
 21
47.84309351027331
 31
0.0
  0
LINE
  5
937
330
19
100
AcDbEntity
  8
TitleBlock&Notes
  6
Continuous
 62
     3
100
AcDbLine
 10
65.01695345793537
 20
47.8211466358733
 30
0.0
 11
65.18515738833542
 21
47.82408261155331
 31
0.0
  0
LINE
  5
938
330
19
100
AcDbEntity
  8
TitleBlock&Notes
  6
Continuous
 62
     3
100
AcDbLine
 10
65.18376182097542
 20
48.2993306542733
 30
0.0
 11
65.18515738833542
 21
48.2993550320333
 31
0.0
  0
LINE
  5
939
330
19
100
AcDbEntity
  8
TitleBlock&Notes
  6
Continuous
 62
     3
100
AcDbLine
 10
65.17708949025538
 20
48.28020328403332
 30
0.0
 11
65.18515738833542
 21
48.2803441333133
 31
0.0
  0
LINE
  5
93A
330
19
100
AcDbEntity
  8
TitleBlock&Notes
  6
Continuous
 62
     3
100
AcDbLine
 10
65.17041715953538
 20
48.2610759137933
 30
0.0
 11
65.18515738833542
 21
48.2613332345933
 31
0.0
  0
LINE
  5
93B
330
19
100
AcDbEntity
  8
TitleBlock&Notes
  6
Continuous
 62
     3
100
AcDbLine
 10
65.16374482881542
 20
48.24194859107331
 30
0.0
 11
65.18515738833542
 21
48.24232233587331
 31
0.0
  0
LINE
  5
93C
330
19
100
AcDbEntity
  8
TitleBlock&Notes
  6
Continuous
 62
     3
100
AcDbLine
 10
65.15707249809534
 20
48.22282122083329
 30
0.0
 11
65.18515738833542
 21
48.22331143715331
 31
0.0
  0
LINE
  5
93D
330
19
100
AcDbEntity
  8
TitleBlock&Notes
  6
Continuous
 62
     3
100
AcDbLine
 10
65.1504001673754
 20
48.20369385059331
 30
0.0
 11
65.18515738833542
 21
48.20430053843331
 31
0.0
  0
LINE
  5
93E
330
19
100
AcDbEntity
  8
TitleBlock&Notes
  6
Continuous
 62
     3
100
AcDbLine
 10
65.14372783665542
 20
48.18456648035329
 30
0.0
 11
65.18515738833542
 21
48.1852896397133
 31
0.0
  0
LINE
  5
93F
330
19
100
AcDbEntity
  8
TitleBlock&Notes
  6
Continuous
 62
     3
100
AcDbLine
 10
65.13705550593536
 20
48.16543911011331
 30
0.0
 11
65.18515738833542
 21
48.16627874099331
 31
0.0
  0
LINE
  5
940
330
19
100
AcDbEntity
  8
TitleBlock&Notes
  6
Continuous
 62
     3
100
AcDbLine
 10
65.6365973883354
 20
47.79394077059331
 30
0.0
 11
66.00543707889539
 21
47.8003788752333
 31
0.0
  0
LINE
  5
941
330
19
100
AcDbEntity
  8
TitleBlock&Notes
  6
Continuous
 62
     3
100
AcDbLine
 10
65.6365973883354
 20
47.77492987187329
 30
0.0
 11
66.01843931121539
 21
47.7815949320333
 31
0.0
  0
LINE
  5
942
330
19
100
AcDbEntity
  8
TitleBlock&Notes
  6
Continuous
 62
     3
100
AcDbLine
 10
65.6365973883354
 20
47.75591897315329
 30
0.0
 11
66.03245614305541
 21
47.76282871379331
 31
0.0
  0
LINE
  5
943
330
19
100
AcDbEntity
  8
TitleBlock&Notes
  6
Continuous
 62
     3
100
AcDbLine
 10
65.6365973883354
 20
47.73690807443331
 30
0.0
 11
66.04757101953535
 21
47.74408164611331
 31
0.0
  0
LINE
  5
944
330
19
100
AcDbEntity
  8
TitleBlock&Notes
  6
Continuous
 62
     3
100
AcDbLine
 10
65.6365973883354
 20
47.7178971757133
 30
0.0
 11
66.06388482561539
 21
47.7253554872333
 31
0.0
  0
LINE
  5
945
330
19
100
AcDbEntity
  8
TitleBlock&Notes
  6
Continuous
 62
     3
100
AcDbLine
 10
65.6365973883354
 20
47.6988862769933
 30
0.0
 11
66.08152087569536
 21
47.70665247059331
 31
0.0
  0
LINE
  5
946
330
19
100
AcDbEntity
  8
TitleBlock&Notes
  6
Continuous
 62
     3
100
AcDbLine
 10
65.89795738833536
 20
48.14118276371331
 30
0.0
 11
65.6365973883354
 21
48.14118276371331
 31
0.0
  0
LINE
  5
947
330
19
100
AcDbEntity
  8
TitleBlock&Notes
  6
Continuous
 62
     3
100
AcDbLine
 10
65.6365973883354
 20
48.13613685251332
 30
0.0
 11
65.89796884065541
 21
48.14069915267331
 31
0.0
  0
LINE
  5
948
330
19
100
AcDbEntity
  8
TitleBlock&Notes
  6
Continuous
 62
     3
100
AcDbLine
 10
65.6365973883354
 20
48.11712600131331
 30
0.0
 11
65.89870810929537
 21
48.12170113187331
 31
0.0
  0
LINE
  5
949
330
19
100
AcDbEntity
  8
TitleBlock&Notes
  6
Continuous
 62
     3
100
AcDbLine
 10
65.6365973883354
 20
48.09811510259333
 30
0.0
 11
65.90001163041541
 21
48.10271299523332
 31
0.0
  0
LINE
  5
94A
330
19
100
AcDbEntity
  8
TitleBlock&Notes
  6
Continuous
 62
     3
100
AcDbLine
 10
65.6365973883354
 20
48.07910420387329
 30
0.0
 11
65.90188187505541
 21
48.08373474275332
 31
0.0
  0
LINE
  5
94B
330
19
100
AcDbEntity
  8
TitleBlock&Notes
  6
Continuous
 62
     3
100
AcDbLine
 10
65.6365973883354
 20
48.06009330515331
 30
0.0
 11
65.90432302497537
 21
48.06476646947331
 31
0.0
  0
LINE
  5
94C
330
19
100
AcDbEntity
  8
TitleBlock&Notes
  6
Continuous
 62
     3
100
AcDbLine
 10
65.6365973883354
 20
48.0410824064333
 30
0.0
 11
65.90734078257536
 21
48.04580822291332
 31
0.0
  0
LINE
  5
94D
330
19
100
AcDbEntity
  8
TitleBlock&Notes
  6
Continuous
 62
     3
100
AcDbLine
 10
65.6365973883354
 20
48.0220715077133
 30
0.0
 11
65.91094246593539
 21
48.0268601931533
 31
0.0
  0
LINE
  5
94E
330
19
100
AcDbEntity
  8
TitleBlock&Notes
  6
Continuous
 62
     3
100
AcDbLine
 10
65.6365973883354
 20
48.0030606089933
 30
0.0
 11
65.9151371988954
 21
48.0079225227533
 31
0.0
  0
LINE
  5
94F
330
19
100
AcDbEntity
  8
TitleBlock&Notes
  6
Continuous
 62
     3
100
AcDbLine
 10
65.6365973883354
 20
47.9840497102733
 30
0.0
 11
65.91993610113535
 21
47.9889954017933
 31
0.0
  0
LINE
  5
950
330
19
100
AcDbEntity
  8
TitleBlock&Notes
  6
Continuous
 62
     3
100
AcDbLine
 10
65.6365973883354
 20
47.96503881155331
 30
0.0
 11
65.92535228817538
 21
47.97007906787331
 31
0.0
  0
LINE
  5
951
330
19
100
AcDbEntity
  8
TitleBlock&Notes
  6
Continuous
 62
     3
100
AcDbLine
 10
65.6365973883354
 20
47.9460279128333
 30
0.0
 11
65.93140106145537
 21
47.95117375859331
 31
0.0
  0
LINE
  5
952
330
19
100
AcDbEntity
  8
TitleBlock&Notes
  6
Continuous
 62
     3
100
AcDbLine
 10
65.6365973883354
 20
47.9270170141133
 30
0.0
 11
65.93810047857536
 21
47.93227975907332
 31
0.0
  0
LINE
  5
953
330
19
100
AcDbEntity
  8
TitleBlock&Notes
  6
Continuous
 62
     3
100
AcDbLine
 10
65.6365973883354
 20
47.90800611539332
 30
0.0
 11
65.94547121073535
 21
47.9133975445133
 31
0.0
  0
LINE
  5
954
330
19
100
AcDbEntity
  8
TitleBlock&Notes
  6
Continuous
 62
     3
100
AcDbLine
 10
65.6365973883354
 20
47.88899521667331
 30
0.0
 11
65.95353735057535
 21
47.89452744755331
 31
0.0
  0
LINE
  5
955
330
19
100
AcDbEntity
  8
TitleBlock&Notes
  6
Continuous
 62
     3
100
AcDbLine
 10
65.6365973883354
 20
47.86998431795328
 30
0.0
 11
65.96232655473534
 21
47.8756699433933
 31
0.0
  0
LINE
  5
956
330
19
100
AcDbEntity
  8
TitleBlock&Notes
  6
Continuous
 62
     3
100
AcDbLine
 10
65.6365973883354
 20
47.8509734192333
 30
0.0
 11
65.9718709467354
 21
47.85682564979332
 31
0.0
  0
LINE
  5
957
330
19
100
AcDbEntity
  8
TitleBlock&Notes
  6
Continuous
 62
     3
100
AcDbLine
 10
65.6365973883354
 20
47.83196256803331
 30
0.0
 11
65.98220754465538
 21
47.8379951845133
 31
0.0
  0
LINE
  5
958
330
19
100
AcDbEntity
  8
TitleBlock&Notes
  6
Continuous
 62
     3
100
AcDbLine
 10
65.6365973883354
 20
47.81295166931329
 30
0.0
 11
65.99337949665541
 21
47.81917930787331
 31
0.0
  0
LINE
  5
959
330
19
100
AcDbEntity
  8
TitleBlock&Notes
  6
Continuous
 62
     3
100
AcDbLine
 10
65.89795738833536
 20
48.6088993141133
 30
0.0
 11
65.6365973883354
 21
48.6088993141133
 31
0.0
  0
LINE
  5
95A
330
19
100
AcDbEntity
  8
TitleBlock&Notes
  6
Continuous
 62
     3
100
AcDbLine
 10
65.89795738833536
 20
48.7024426241933
 30
0.0
 11
65.6365973883354
 21
48.7024426241933
 31
0.0
  0
LINE
  5
95B
330
19
100
AcDbEntity
  8
TitleBlock&Notes
  6
Continuous
 62
     3
100
AcDbLine
 10
65.6365973883354
 20
48.5937921358733
 30
0.0
 11
65.89795738833536
 21
48.59835419843332
 31
0.0
  0
LINE
  5
95C
330
19
100
AcDbEntity
  8
TitleBlock&Notes
  6
Continuous
 62
     3
100
AcDbLine
 10
65.6365973883354
 20
48.5747812371533
 30
0.0
 11
65.89795738833536
 21
48.57934329971331
 31
0.0
  0
LINE
  5
95D
330
19
100
AcDbEntity
  8
TitleBlock&Notes
  6
Continuous
 62
     3
100
AcDbLine
 10
65.6365973883354
 20
48.55577033843331
 30
0.0
 11
65.89795738833536
 21
48.56033240099332
 31
0.0
  0
LINE
  5
95E
330
19
100
AcDbEntity
  8
TitleBlock&Notes
  6
Continuous
 62
     3
100
AcDbLine
 10
65.6365973883354
 20
48.53675943971331
 30
0.0
 11
65.89795738833536
 21
48.5413215022733
 31
0.0
  0
LINE
  5
95F
330
19
100
AcDbEntity
  8
TitleBlock&Notes
  6
Continuous
 62
     3
100
AcDbLine
 10
65.6365973883354
 20
48.51774854099331
 30
0.0
 11
65.89795738833536
 21
48.52231060355331
 31
0.0
  0
LINE
  5
960
330
19
100
AcDbEntity
  8
TitleBlock&Notes
  6
Continuous
 62
     3
100
AcDbLine
 10
65.6365973883354
 20
48.49873764227331
 30
0.0
 11
65.89795738833536
 21
48.50329970483331
 31
0.0
  0
LINE
  5
961
330
19
100
AcDbEntity
  8
TitleBlock&Notes
  6
Continuous
 62
     3
100
AcDbLine
 10
65.6365973883354
 20
48.47972674355331
 30
0.0
 11
65.89795738833536
 21
48.48428880611331
 31
0.0
  0
LINE
  5
962
330
19
100
AcDbEntity
  8
TitleBlock&Notes
  6
Continuous
 62
     3
100
AcDbLine
 10
65.6365973883354
 20
48.46071584483332
 30
0.0
 11
65.89795738833536
 21
48.46527790739331
 31
0.0
  0
LINE
  5
963
330
19
100
AcDbEntity
  8
TitleBlock&Notes
  6
Continuous
 62
     3
100
AcDbLine
 10
65.6365973883354
 20
48.44170499363329
 30
0.0
 11
65.89795738833536
 21
48.4462670086733
 31
0.0
  0
LINE
  5
964
330
19
100
AcDbEntity
  8
TitleBlock&Notes
  6
Continuous
 62
     3
100
AcDbLine
 10
65.6365973883354
 20
48.42269409491331
 30
0.0
 11
65.89795738833536
 21
48.42725610995332
 31
0.0
  0
LINE
  5
965
330
19
100
AcDbEntity
  8
TitleBlock&Notes
  6
Continuous
 62
     3
100
AcDbLine
 10
65.6365973883354
 20
48.40368319619333
 30
0.0
 11
65.89795738833536
 21
48.4082452587533
 31
0.0
  0
LINE
  5
966
330
19
100
AcDbEntity
  8
TitleBlock&Notes
  6
Continuous
 62
     3
100
AcDbLine
 10
65.6365973883354
 20
48.38467229747333
 30
0.0
 11
65.89795738833536
 21
48.38923436003331
 31
0.0
  0
LINE
  5
967
330
19
100
AcDbEntity
  8
TitleBlock&Notes
  6
Continuous
 62
     3
100
AcDbLine
 10
65.6365973883354
 20
48.3656613987533
 30
0.0
 11
65.89795738833536
 21
48.37022346131329
 31
0.0
  0
LINE
  5
968
330
19
100
AcDbEntity
  8
TitleBlock&Notes
  6
Continuous
 62
     3
100
AcDbLine
 10
65.6365973883354
 20
48.3466505000333
 30
0.0
 11
65.89795738833536
 21
48.35121256259331
 31
0.0
  0
LINE
  5
969
330
19
100
AcDbEntity
  8
TitleBlock&Notes
  6
Continuous
 62
     3
100
AcDbLine
 10
65.6365973883354
 20
48.3276396013133
 30
0.0
 11
65.89795738833536
 21
48.33220166387332
 31
0.0
  0
LINE
  5
96A
330
19
100
AcDbEntity
  8
TitleBlock&Notes
  6
Continuous
 62
     3
100
AcDbLine
 10
65.6365973883354
 20
48.30862870259331
 30
0.0
 11
65.89795738833536
 21
48.3131907651533
 31
0.0
  0
LINE
  5
96B
330
19
100
AcDbEntity
  8
TitleBlock&Notes
  6
Continuous
 62
     3
100
AcDbLine
 10
65.6365973883354
 20
48.28961780387331
 30
0.0
 11
65.89795738833536
 21
48.29417986643331
 31
0.0
  0
LINE
  5
96C
330
19
100
AcDbEntity
  8
TitleBlock&Notes
  6
Continuous
 62
     3
100
AcDbLine
 10
65.6365973883354
 20
48.27060690515331
 30
0.0
 11
65.89795738833536
 21
48.2751689677133
 31
0.0
  0
LINE
  5
96D
330
19
100
AcDbEntity
  8
TitleBlock&Notes
  6
Continuous
 62
     3
100
AcDbLine
 10
65.6365973883354
 20
48.88317192371331
 30
0.0
 11
65.89795738833536
 21
48.88773398627331
 31
0.0
  0
LINE
  5
96E
330
19
100
AcDbEntity
  8
TitleBlock&Notes
  6
Continuous
 62
     3
100
AcDbLine
 10
65.6365973883354
 20
48.86416102499331
 30
0.0
 11
65.89795738833536
 21
48.86872308755332
 31
0.0
  0
LINE
  5
96F
330
19
100
AcDbEntity
  8
TitleBlock&Notes
  6
Continuous
 62
     3
100
AcDbLine
 10
65.6365973883354
 20
48.84515012627331
 30
0.0
 11
65.89795738833536
 21
48.84971218883331
 31
0.0
  0
LINE
  5
970
330
19
100
AcDbEntity
  8
TitleBlock&Notes
  6
Continuous
 62
     3
100
AcDbLine
 10
65.6365973883354
 20
48.82613922755331
 30
0.0
 11
65.89795738833536
 21
48.83070129011332
 31
0.0
  0
LINE
  5
971
330
19
100
AcDbEntity
  8
TitleBlock&Notes
  6
Continuous
 62
     3
100
AcDbLine
 10
65.6365973883354
 20
48.80712832883332
 30
0.0
 11
65.89795738833536
 21
48.81169039139329
 31
0.0
  0
LINE
  5
972
330
19
100
AcDbEntity
  8
TitleBlock&Notes
  6
Continuous
 62
     3
100
AcDbLine
 10
65.6365973883354
 20
48.7881174301133
 30
0.0
 11
65.89795738833536
 21
48.79267949267331
 31
0.0
  0
LINE
  5
973
330
19
100
AcDbEntity
  8
TitleBlock&Notes
  6
Continuous
 62
     3
100
AcDbLine
 10
65.6365973883354
 20
48.76910653139332
 30
0.0
 11
65.89795738833536
 21
48.77366859395332
 31
0.0
  0
LINE
  5
974
330
19
100
AcDbEntity
  8
TitleBlock&Notes
  6
Continuous
 62
     3
100
AcDbLine
 10
65.6365973883354
 20
48.75009563267332
 30
0.0
 11
65.89795738833536
 21
48.7546576952333
 31
0.0
  0
LINE
  5
975
330
19
100
AcDbEntity
  8
TitleBlock&Notes
  6
Continuous
 62
     3
100
AcDbLine
 10
65.6365973883354
 20
48.73108473395331
 30
0.0
 11
65.89795738833536
 21
48.73564679651332
 31
0.0
  0
LINE
  5
976
330
19
100
AcDbEntity
  8
TitleBlock&Notes
  6
Continuous
 62
     3
100
AcDbLine
 10
65.6365973883354
 20
48.7120738827533
 30
0.0
 11
65.89795738833536
 21
48.7166358977933
 31
0.0
  0
LINE
  5
977
330
19
100
AcDbEntity
  8
TitleBlock&Notes
  6
Continuous
 62
     3
100
AcDbLine
 10
65.89795738833536
 20
48.23472607379331
 30
0.0
 11
65.6365973883354
 21
48.23472607379331
 31
0.0
  0
LINE
  5
978
330
19
100
AcDbEntity
  8
TitleBlock&Notes
  6
Continuous
 62
     3
100
AcDbLine
 10
65.6365973883354
 20
48.2515960064333
 30
0.0
 11
65.89795738833536
 21
48.25615806899331
 31
0.0
  0
LINE
  5
979
330
19
100
AcDbEntity
  8
TitleBlock&Notes
  6
Continuous
 62
     3
100
AcDbLine
 10
65.75925235329535
 20
48.23472607379331
 30
0.0
 11
65.89795738833536
 21
48.23714717027332
 31
0.0
  0
LINE
  5
97A
330
19
100
AcDbEntity
  8
TitleBlock&Notes
  6
Continuous
 62
     3
100
AcDbLine
 10
65.58907738833539
 20
49.6530297104333
 30
0.0
 11
65.04259738833543
 21
49.6530297104333
 31
0.0
  0
LINE
  5
97B
330
19
100
AcDbEntity
  8
TitleBlock&Notes
  6
Continuous
 62
     3
100
AcDbLine
 10
65.6365973883354
 20
49.70054971043332
 30
0.0
 11
65.00464468497539
 21
49.70054971043332
 31
0.0
  0
LINE
  5
97C
330
19
100
AcDbEntity
  8
TitleBlock&Notes
  6
Continuous
 62
     3
100
AcDbLine
 10
65.02362103665539
 20
49.6767897104333
 30
0.0
 11
65.61283738833541
 21
49.6767897104333
 31
0.0
  0
LINE
  5
97D
330
19
100
AcDbEntity
  8
TitleBlock&Notes
  6
Continuous
 62
     3
100
AcDbLine
 10
65.89795738833536
 20
48.9363008518733
 30
0.0
 11
65.6365973883354
 21
48.9363008518733
 31
0.0
  0
LINE
  5
97E
330
19
100
AcDbEntity
  8
TitleBlock&Notes
  6
Continuous
 62
     3
100
AcDbLine
 10
65.6365973883354
 20
48.92119372115331
 30
0.0
 11
65.89795738833536
 21
48.92575578371332
 31
0.0
  0
LINE
  5
97F
330
19
100
AcDbEntity
  8
TitleBlock&Notes
  6
Continuous
 62
     3
100
AcDbLine
 10
65.6365973883354
 20
48.90218282243331
 30
0.0
 11
65.89795738833536
 21
48.9067448849933
 31
0.0
  0
LINE
  5
980
330
19
100
AcDbEntity
  8
TitleBlock&Notes
  6
Continuous
 62
     3
100
AcDbLine
 10
65.89795738833536
 20
49.02984416195329
 30
0.0
 11
65.6365973883354
 21
49.02984416195329
 31
0.0
  0
LINE
  5
981
330
19
100
AcDbEntity
  8
TitleBlock&Notes
  6
Continuous
 62
     3
100
AcDbLine
 10
65.89795738833536
 20
49.05360416195332
 30
0.0
 11
65.6365973883354
 21
49.05360416195332
 31
0.0
  0
LINE
  5
982
330
19
100
AcDbEntity
  8
TitleBlock&Notes
  6
Continuous
 62
     3
100
AcDbLine
 10
65.89795738833536
 20
49.1233874720333
 30
0.0
 11
65.6365973883354
 21
49.1233874720333
 31
0.0
  0
LINE
  5
983
330
19
100
AcDbEntity
  8
TitleBlock&Notes
  6
Continuous
 62
     3
100
AcDbLine
 10
65.89795738833536
 20
49.40401740227331
 30
0.0
 11
65.6365973883354
 21
49.40401740227331
 31
0.0
  0
LINE
  5
984
330
19
100
AcDbEntity
  8
TitleBlock&Notes
  6
Continuous
 62
     3
100
AcDbLine
 10
65.89795738833536
 20
49.47529740227333
 30
0.0
 11
65.6365973883354
 21
49.47529740227333
 31
0.0
  0
LINE
  5
985
330
19
100
AcDbEntity
  8
TitleBlock&Notes
  6
Continuous
 62
     3
100
AcDbLine
 10
65.89795738833536
 20
49.42777740227331
 30
0.0
 11
65.6365973883354
 21
49.42777740227331
 31
0.0
  0
LINE
  5
986
330
19
100
AcDbEntity
  8
TitleBlock&Notes
  6
Continuous
 62
     3
100
AcDbLine
 10
65.89795738833536
 20
49.4515374022733
 30
0.0
 11
65.6365973883354
 21
49.4515374022733
 31
0.0
  0
LINE
  5
987
330
19
100
AcDbEntity
  8
TitleBlock&Notes
  6
Continuous
 62
     3
100
AcDbLine
 10
65.89795738833536
 20
49.09962747203332
 30
0.0
 11
65.6365973883354
 21
49.09962747203332
 31
0.0
  0
LINE
  5
988
330
19
100
AcDbEntity
  8
TitleBlock&Notes
  6
Continuous
 62
     3
100
AcDbLine
 10
65.89795738833536
 20
49.07736416195331
 30
0.0
 11
65.6365973883354
 21
49.07736416195331
 31
0.0
  0
LINE
  5
989
330
19
100
AcDbEntity
  8
TitleBlock&Notes
  6
Continuous
 62
     3
100
AcDbLine
 10
65.9454773883354
 20
49.6530297104333
 30
0.0
 11
66.30187738833541
 21
49.6530297104333
 31
0.0
  0
LINE
  5
98A
330
19
100
AcDbEntity
  8
TitleBlock&Notes
  6
Continuous
 62
     3
100
AcDbLine
 10
67.01467738833537
 20
49.6530297104333
 30
0.0
 11
67.01467738833537
 21
48.15614966291331
 31
0.0
  0
LINE
  5
98B
330
19
100
AcDbEntity
  8
TitleBlock&Notes
  6
Continuous
 62
     3
100
AcDbLine
 10
66.96715738833541
 20
49.70054971043332
 30
0.0
 11
66.96715738833541
 21
48.15614971043331
 31
0.0
  0
LINE
  5
98C
330
19
100
AcDbEntity
  8
TitleBlock&Notes
  6
Continuous
 62
     3
100
AcDbLine
 10
66.99091738833539
 20
48.15614966291331
 30
0.0
 11
66.99091738833539
 21
49.6767897104333
 31
0.0
  0
LINE
  5
98D
330
19
100
AcDbEntity
  8
TitleBlock&Notes
  6
Continuous
 62
     3
100
AcDbLine
 10
67.3710773883354
 20
49.6530297104333
 30
0.0
 11
67.3710773883354
 21
48.15614971043331
 31
0.0
  0
LINE
  5
98E
330
19
100
AcDbEntity
  8
TitleBlock&Notes
  6
Continuous
 62
     3
100
AcDbLine
 10
67.41859738833539
 20
48.15614971043331
 30
0.0
 11
67.41859738833539
 21
49.70054971043332
 31
0.0
  0
LINE
  5
98F
330
19
100
AcDbEntity
  8
TitleBlock&Notes
  6
Continuous
 62
     3
100
AcDbLine
 10
67.39483738833543
 20
48.15614971043331
 30
0.0
 11
67.39483738833543
 21
49.6767897104333
 31
0.0
  0
LINE
  5
990
330
19
100
AcDbEntity
  8
TitleBlock&Notes
  6
Continuous
 62
     3
100
AcDbLine
 10
66.34939738833536
 20
48.15614966291331
 30
0.0
 11
66.34939738833536
 21
49.70054971043332
 31
0.0
  0
LINE
  5
991
330
19
100
AcDbEntity
  8
TitleBlock&Notes
  6
Continuous
 62
     3
100
AcDbLine
 10
66.32563738833539
 20
48.15614966291331
 30
0.0
 11
66.32563738833539
 21
49.6767897104333
 31
0.0
  0
LINE
  5
992
330
19
100
AcDbEntity
  8
TitleBlock&Notes
  6
Continuous
 62
     3
100
AcDbLine
 10
66.53947729329541
 20
47.9185497104333
 30
0.0
 11
66.77707738833539
 21
47.9185497104333
 31
0.0
  0
LINE
  5
993
330
19
100
AcDbEntity
  8
TitleBlock&Notes
  6
Continuous
 62
     3
100
AcDbLine
 10
66.77707738833539
 20
47.9660697104333
 30
0.0
 11
66.53947734081535
 21
47.9660697104333
 31
0.0
  0
LINE
  5
994
330
19
100
AcDbEntity
  8
TitleBlock&Notes
  6
Continuous
 62
     3
100
AcDbLine
 10
66.53947729329541
 20
47.9423097104333
 30
0.0
 11
66.77707738833539
 21
47.9423097104333
 31
0.0
  0
LINE
  5
995
330
19
100
AcDbEntity
  8
TitleBlock&Notes
  6
Continuous
 62
     3
100
AcDbLine
 10
66.49032654945537
 20
47.97253433123332
 30
0.0
 11
66.84528830913539
 21
47.97873022643331
 31
0.0
  0
LINE
  5
996
330
19
100
AcDbEntity
  8
TitleBlock&Notes
  6
Continuous
 62
     3
100
AcDbLine
 10
66.34939738833536
 20
48.60623410739329
 30
0.0
 11
66.5020862763354
 21
48.6088993141133
 31
0.0
  0
LINE
  5
997
330
19
100
AcDbEntity
  8
TitleBlock&Notes
  6
Continuous
 62
     3
100
AcDbLine
 10
66.96656718993541
 20
48.14118276371331
 30
0.0
 11
66.34998753921542
 21
48.14118276371331
 31
0.0
  0
LINE
  5
998
330
19
100
AcDbEntity
  8
TitleBlock&Notes
  6
Continuous
 62
     3
100
AcDbLine
 10
66.96715738833541
 20
48.23472607379331
 30
0.0
 11
66.34939738833536
 21
48.23472607379331
 31
0.0
  0
LINE
  5
999
330
19
100
AcDbEntity
  8
TitleBlock&Notes
  6
Continuous
 62
     3
100
AcDbLine
 10
66.96715738833541
 20
48.6088993141133
 30
0.0
 11
66.34939738833536
 21
48.6088993141133
 31
0.0
  0
LINE
  5
99A
330
19
100
AcDbEntity
  8
TitleBlock&Notes
  6
Continuous
 62
     3
100
AcDbLine
 10
66.96715738833541
 20
48.7024426241933
 30
0.0
 11
66.34939738833536
 21
48.7024426241933
 31
0.0
  0
LINE
  5
99B
330
19
100
AcDbEntity
  8
TitleBlock&Notes
  6
Continuous
 62
     3
100
AcDbLine
 10
66.34939738833536
 20
48.58722320867331
 30
0.0
 11
66.96715738833541
 21
48.5980062569933
 31
0.0
  0
LINE
  5
99C
330
19
100
AcDbEntity
  8
TitleBlock&Notes
  6
Continuous
 62
     3
100
AcDbLine
 10
66.34939738833536
 20
48.56821230995332
 30
0.0
 11
66.96715738833541
 21
48.57899535827329
 31
0.0
  0
LINE
  5
99D
330
19
100
AcDbEntity
  8
TitleBlock&Notes
  6
Continuous
 62
     3
100
AcDbLine
 10
66.34939738833536
 20
48.54920141123333
 30
0.0
 11
66.96715738833541
 21
48.5599844595533
 31
0.0
  0
LINE
  5
99E
330
19
100
AcDbEntity
  8
TitleBlock&Notes
  6
Continuous
 62
     3
100
AcDbLine
 10
66.34939738833536
 20
48.53019051251331
 30
0.0
 11
66.96715738833541
 21
48.54097356083331
 31
0.0
  0
LINE
  5
99F
330
19
100
AcDbEntity
  8
TitleBlock&Notes
  6
Continuous
 62
     3
100
AcDbLine
 10
66.34939738833536
 20
48.51117961379329
 30
0.0
 11
66.96715738833541
 21
48.5219626621133
 31
0.0
  0
LINE
  5
9A0
330
19
100
AcDbEntity
  8
TitleBlock&Notes
  6
Continuous
 62
     3
100
AcDbLine
 10
66.34939738833536
 20
48.4921687150733
 30
0.0
 11
66.96715738833541
 21
48.50295176339331
 31
0.0
  0
LINE
  5
9A1
330
19
100
AcDbEntity
  8
TitleBlock&Notes
  6
Continuous
 62
     3
100
AcDbLine
 10
66.34939738833536
 20
48.47315781635332
 30
0.0
 11
66.96715738833541
 21
48.4839408646733
 31
0.0
  0
LINE
  5
9A2
330
19
100
AcDbEntity
  8
TitleBlock&Notes
  6
Continuous
 62
     3
100
AcDbLine
 10
66.34939738833536
 20
48.4541469176333
 30
0.0
 11
66.96715738833541
 21
48.46492996595331
 31
0.0
  0
LINE
  5
9A3
330
19
100
AcDbEntity
  8
TitleBlock&Notes
  6
Continuous
 62
     3
100
AcDbLine
 10
66.34939738833536
 20
48.43513606643331
 30
0.0
 11
66.96715738833541
 21
48.44591906723332
 31
0.0
  0
LINE
  5
9A4
330
19
100
AcDbEntity
  8
TitleBlock&Notes
  6
Continuous
 62
     3
100
AcDbLine
 10
66.34939738833536
 20
48.41612516771331
 30
0.0
 11
66.96715738833541
 21
48.4269081685133
 31
0.0
  0
LINE
  5
9A5
330
19
100
AcDbEntity
  8
TitleBlock&Notes
  6
Continuous
 62
     3
100
AcDbLine
 10
66.34939738833536
 20
48.39711426899331
 30
0.0
 11
66.96715738833541
 21
48.40789731731328
 31
0.0
  0
LINE
  5
9A6
330
19
100
AcDbEntity
  8
TitleBlock&Notes
  6
Continuous
 62
     3
100
AcDbLine
 10
66.34939738833536
 20
48.37810337027332
 30
0.0
 11
66.96715738833541
 21
48.3888864185933
 31
0.0
  0
LINE
  5
9A7
330
19
100
AcDbEntity
  8
TitleBlock&Notes
  6
Continuous
 62
     3
100
AcDbLine
 10
66.34939738833536
 20
48.3590924715533
 30
0.0
 11
66.96715738833541
 21
48.36987551987331
 31
0.0
  0
LINE
  5
9A8
330
19
100
AcDbEntity
  8
TitleBlock&Notes
  6
Continuous
 62
     3
100
AcDbLine
 10
66.34939738833536
 20
48.3400815728333
 30
0.0
 11
66.96715738833541
 21
48.35086462115329
 31
0.0
  0
LINE
  5
9A9
330
19
100
AcDbEntity
  8
TitleBlock&Notes
  6
Continuous
 62
     3
100
AcDbLine
 10
66.34939738833536
 20
48.3210706741133
 30
0.0
 11
66.96715738833541
 21
48.33185372243331
 31
0.0
  0
LINE
  5
9AA
330
19
100
AcDbEntity
  8
TitleBlock&Notes
  6
Continuous
 62
     3
100
AcDbLine
 10
66.34939738833536
 20
48.30205977539331
 30
0.0
 11
66.96715738833541
 21
48.3128428237133
 31
0.0
  0
LINE
  5
9AB
330
19
100
AcDbEntity
  8
TitleBlock&Notes
  6
Continuous
 62
     3
100
AcDbLine
 10
66.34939738833536
 20
48.2830488766733
 30
0.0
 11
66.96715738833541
 21
48.2938319249933
 31
0.0
  0
LINE
  5
9AC
330
19
100
AcDbEntity
  8
TitleBlock&Notes
  6
Continuous
 62
     3
100
AcDbLine
 10
66.34939738833536
 20
48.26403797795331
 30
0.0
 11
66.96715738833541
 21
48.27482102627332
 31
0.0
  0
LINE
  5
9AD
330
19
100
AcDbEntity
  8
TitleBlock&Notes
  6
Continuous
 62
     3
100
AcDbLine
 10
66.34939738833536
 20
48.24502707923331
 30
0.0
 11
66.96715738833541
 21
48.2558101275533
 31
0.0
  0
LINE
  5
9AE
330
19
100
AcDbEntity
  8
TitleBlock&Notes
  6
Continuous
 62
     3
100
AcDbLine
 10
66.34939738833536
 20
48.87660299651328
 30
0.0
 11
66.96715738833541
 21
48.8873860448333
 31
0.0
  0
LINE
  5
9AF
330
19
100
AcDbEntity
  8
TitleBlock&Notes
  6
Continuous
 62
     3
100
AcDbLine
 10
66.34939738833536
 20
48.8575920977933
 30
0.0
 11
66.96715738833541
 21
48.86837514611331
 31
0.0
  0
LINE
  5
9B0
330
19
100
AcDbEntity
  8
TitleBlock&Notes
  6
Continuous
 62
     3
100
AcDbLine
 10
66.34939738833536
 20
48.83858119907332
 30
0.0
 11
66.96715738833541
 21
48.84936424739329
 31
0.0
  0
LINE
  5
9B1
330
19
100
AcDbEntity
  8
TitleBlock&Notes
  6
Continuous
 62
     3
100
AcDbLine
 10
66.34939738833536
 20
48.81957030035329
 30
0.0
 11
66.96715738833541
 21
48.8303533486733
 31
0.0
  0
LINE
  5
9B2
330
19
100
AcDbEntity
  8
TitleBlock&Notes
  6
Continuous
 62
     3
100
AcDbLine
 10
66.34939738833536
 20
48.8005594016333
 30
0.0
 11
66.96715738833541
 21
48.81134244995331
 31
0.0
  0
LINE
  5
9B3
330
19
100
AcDbEntity
  8
TitleBlock&Notes
  6
Continuous
 62
     3
100
AcDbLine
 10
66.34939738833536
 20
48.7815485029133
 30
0.0
 11
66.96715738833541
 21
48.7923315512333
 31
0.0
  0
LINE
  5
9B4
330
19
100
AcDbEntity
  8
TitleBlock&Notes
  6
Continuous
 62
     3
100
AcDbLine
 10
66.34939738833536
 20
48.7625376041933
 30
0.0
 11
66.96715738833541
 21
48.77332065251331
 31
0.0
  0
LINE
  5
9B5
330
19
100
AcDbEntity
  8
TitleBlock&Notes
  6
Continuous
 62
     3
100
AcDbLine
 10
66.34939738833536
 20
48.74352670547331
 30
0.0
 11
66.96715738833541
 21
48.7543097537933
 31
0.0
  0
LINE
  5
9B6
330
19
100
AcDbEntity
  8
TitleBlock&Notes
  6
Continuous
 62
     3
100
AcDbLine
 10
66.34939738833536
 20
48.7245158067533
 30
0.0
 11
66.96715738833541
 21
48.73529885507331
 31
0.0
  0
LINE
  5
9B7
330
19
100
AcDbEntity
  8
TitleBlock&Notes
  6
Continuous
 62
     3
100
AcDbLine
 10
66.34939738833536
 20
48.70550495555329
 30
0.0
 11
66.96715738833541
 21
48.71628795635332
 31
0.0
  0
LINE
  5
9B8
330
19
100
AcDbEntity
  8
TitleBlock&Notes
  6
Continuous
 62
     3
100
AcDbLine
 10
66.35245107105538
 20
48.12221487059331
 30
0.0
 11
66.96573254865544
 21
48.13291974851333
 31
0.0
  0
LINE
  5
9B9
330
19
100
AcDbEntity
  8
TitleBlock&Notes
  6
Continuous
 62
     3
100
AcDbLine
 10
66.35689761249537
 20
48.10328157203329
 30
0.0
 11
66.96239113233542
 21
48.1138504952333
 31
0.0
  0
LINE
  5
9BA
330
19
100
AcDbEntity
  8
TitleBlock&Notes
  6
Continuous
 62
     3
100
AcDbLine
 10
66.36346520913538
 20
48.08438533907331
 30
0.0
 11
66.95696582145538
 21
48.0947449366733
 31
0.0
  0
LINE
  5
9BB
330
19
100
AcDbEntity
  8
TitleBlock&Notes
  6
Continuous
 62
     3
100
AcDbLine
 10
66.37238903745544
 20
48.06553021091332
 30
0.0
 11
66.94924600737538
 21
48.07559927123332
 31
0.0
  0
LINE
  5
9BC
330
19
100
AcDbEntity
  8
TitleBlock&Notes
  6
Continuous
 62
     3
100
AcDbLine
 10
66.38405476977542
 20
48.04672293539329
 30
0.0
 11
66.93888560193541
 21
48.05640755891329
 31
0.0
  0
LINE
  5
9BD
330
19
100
AcDbEntity
  8
TitleBlock&Notes
  6
Continuous
 62
     3
100
AcDbLine
 10
66.39911485569538
 20
48.02797491731332
 30
0.0
 11
66.92530614417542
 21
48.03715963043332
 31
0.0
  0
LINE
  5
9BE
330
19
100
AcDbEntity
  8
TitleBlock&Notes
  6
Continuous
 62
     3
100
AcDbLine
 10
66.41878058001535
 20
48.00930730307332
 30
0.0
 11
66.90746171889538
 21
48.01783723811331
 31
0.0
  0
LINE
  5
9BF
330
19
100
AcDbEntity
  8
TitleBlock&Notes
  6
Continuous
 62
     3
100
AcDbLine
 10
66.44578001841534
 20
47.9907676601933
 30
0.0
 11
66.88312416081536
 21
47.9984015581133
 31
0.0
  0
ARC
  5
9C0
330
19
100
AcDbEntity
  8
TitleBlock&Notes
  6
Continuous
 62
     3
100
AcDbCircle
 10
66.77707738833539
 20
48.15614971043331
 30
0.0
 40
0.2376
100
AcDbArc
 50
270.0000000000008
 51
359.9999953200009
  0
ARC
  5
9C1
330
19
100
AcDbEntity
  8
TitleBlock&Notes
  6
Continuous
 62
     3
100
AcDbCircle
 10
66.77707738833539
 20
48.15614971043331
 30
0.0
 40
0.19008
100
AcDbArc
 50
270.0000000000008
 51
0.0000000000008142
  0
LINE
  5
9C2
330
19
100
AcDbEntity
  8
TitleBlock&Notes
  6
Continuous
 62
     3
100
AcDbLine
 10
66.84838580529536
 20
48.23472607379331
 30
0.0
 11
66.96715738833541
 21
48.2367992288333
 31
0.0
  0
ARC
  5
9C3
330
19
100
AcDbEntity
  8
TitleBlock&Notes
  6
Continuous
 62
     3
100
AcDbCircle
 10
66.77707738833539
 20
48.15614971043331
 30
0.0
 40
0.21384
100
AcDbArc
 50
270.0000000000008
 51
359.9999953200009
  0
LINE
  5
9C4
330
19
100
AcDbEntity
  8
TitleBlock&Notes
  6
Continuous
 62
     3
100
AcDbLine
 10
67.31343429777542
 20
47.8041991505933
 30
0.0
 11
67.60867738833536
 21
47.80935264707332
 31
0.0
  0
LINE
  5
9C5
330
19
100
AcDbEntity
  8
TitleBlock&Notes
  6
Continuous
 62
     3
100
AcDbLine
 10
67.3003033337754
 20
47.78495906291331
 30
0.0
 11
67.60867738833536
 21
47.79034174835333
 31
0.0
  0
LINE
  5
9C6
330
19
100
AcDbEntity
  8
TitleBlock&Notes
  6
Continuous
 62
     3
100
AcDbLine
 10
67.28609314305541
 20
47.76570010979329
 30
0.0
 11
67.60867738833536
 21
47.7713308496333
 31
0.0
  0
LINE
  5
9C7
330
19
100
AcDbEntity
  8
TitleBlock&Notes
  6
Continuous
 62
     3
100
AcDbLine
 10
67.27070683233534
 20
47.74642067555329
 30
0.0
 11
67.60867738833536
 21
47.7523199509133
 31
0.0
  0
LINE
  5
9C8
330
19
100
AcDbEntity
  8
TitleBlock&Notes
  6
Continuous
 62
     3
100
AcDbLine
 10
67.25402626689538
 20
47.7271186217933
 30
0.0
 11
67.60867738833536
 21
47.73330905219331
 31
0.0
  0
LINE
  5
9C9
330
19
100
AcDbEntity
  8
TitleBlock&Notes
  6
Continuous
 62
     3
100
AcDbLine
 10
67.23590494257533
 20
47.70779138243329
 30
0.0
 11
67.60867738833536
 21
47.71429815347331
 31
0.0
  0
LINE
  5
9CA
330
19
100
AcDbEntity
  8
TitleBlock&Notes
  6
Continuous
 62
     3
100
AcDbLine
 10
67.32556624881539
 20
47.82342179843332
 30
0.0
 11
67.60867738833536
 21
47.8283635457933
 31
0.0
  0
LINE
  5
9CB
330
19
100
AcDbEntity
  8
TitleBlock&Notes
  6
Continuous
 62
     3
100
AcDbLine
 10
67.60867738833536
 20
48.14118276371331
 30
0.0
 11
67.41842275233539
 21
48.14118276371331
 31
0.0
  0
LINE
  5
9CC
330
19
100
AcDbEntity
  8
TitleBlock&Notes
  6
Continuous
 62
     3
100
AcDbLine
 10
67.41803147265541
 20
48.12921014723331
 30
0.0
 11
67.60867738833536
 21
48.1325378777933
 31
0.0
  0
LINE
  5
9CD
330
19
100
AcDbEntity
  8
TitleBlock&Notes
  6
Continuous
 62
     3
100
AcDbLine
 10
67.41694825425536
 20
48.11018033555329
 30
0.0
 11
67.60867738833536
 21
48.1135269790733
 31
0.0
  0
LINE
  5
9CE
330
19
100
AcDbEntity
  8
TitleBlock&Notes
  6
Continuous
 62
     3
100
AcDbLine
 10
67.41529498593542
 20
48.09114059219332
 30
0.0
 11
67.60867738833536
 21
48.0945160803533
 31
0.0
  0
LINE
  5
9CF
330
19
100
AcDbEntity
  8
TitleBlock&Notes
  6
Continuous
 62
     3
100
AcDbLine
 10
67.4130663929754
 20
48.07209077459331
 30
0.0
 11
67.60867738833536
 21
48.0755051816333
 31
0.0
  0
LINE
  5
9D0
330
19
100
AcDbEntity
  8
TitleBlock&Notes
  6
Continuous
 62
     3
100
AcDbLine
 10
67.41025539489536
 20
48.05303083523331
 30
0.0
 11
67.60867738833536
 21
48.05649428291331
 31
0.0
  0
LINE
  5
9D1
330
19
100
AcDbEntity
  8
TitleBlock&Notes
  6
Continuous
 62
     3
100
AcDbLine
 10
67.40685329553537
 20
48.0339605365133
 30
0.0
 11
67.60867738833536
 21
48.03748338419331
 31
0.0
  0
LINE
  5
9D2
330
19
100
AcDbEntity
  8
TitleBlock&Notes
  6
Continuous
 62
     3
100
AcDbLine
 10
67.40284945041541
 20
48.01487973587331
 30
0.0
 11
67.60867738833536
 21
48.0184724854733
 31
0.0
  0
LINE
  5
9D3
330
19
100
AcDbEntity
  8
TitleBlock&Notes
  6
Continuous
 62
     3
100
AcDbLine
 10
67.3982312192154
 20
47.9957882432333
 30
0.0
 11
67.60867738833536
 21
47.99946158675331
 31
0.0
  0
LINE
  5
9D4
330
19
100
AcDbEntity
  8
TitleBlock&Notes
  6
Continuous
 62
     3
100
AcDbLine
 10
67.39298368065539
 20
47.97668577347331
 30
0.0
 11
67.60867738833536
 21
47.98045068803332
 31
0.0
  0
LINE
  5
9D5
330
19
100
AcDbEntity
  8
TitleBlock&Notes
  6
Continuous
 62
     3
100
AcDbLine
 10
67.38708948993539
 20
47.95757199395329
 30
0.0
 11
67.60867738833536
 21
47.96143978931332
 31
0.0
  0
LINE
  5
9D6
330
19
100
AcDbEntity
  8
TitleBlock&Notes
  6
Continuous
 62
     3
100
AcDbLine
 10
67.38052849857542
 20
47.93844657203331
 30
0.0
 11
67.60867738833536
 21
47.9424288905933
 31
0.0
  0
LINE
  5
9D7
330
19
100
AcDbEntity
  8
TitleBlock&Notes
  6
Continuous
 62
     3
100
AcDbLine
 10
67.37327737425542
 20
47.9193090800333
 30
0.0
 11
67.60867738833536
 21
47.92341803939331
 31
0.0
  0
LINE
  5
9D8
330
19
100
AcDbEntity
  8
TitleBlock&Notes
  6
Continuous
 62
     3
100
AcDbLine
 10
67.36530922065536
 20
47.9001591377933
 30
0.0
 11
67.60867738833536
 21
47.90440714067331
 31
0.0
  0
LINE
  5
9D9
330
19
100
AcDbEntity
  8
TitleBlock&Notes
  6
Continuous
 62
     3
100
AcDbLine
 10
67.3565930072154
 20
47.8809960800333
 30
0.0
 11
67.60867738833536
 21
47.88539624195331
 31
0.0
  0
LINE
  5
9DA
330
19
100
AcDbEntity
  8
TitleBlock&Notes
  6
Continuous
 62
     3
100
AcDbLine
 10
67.34709276129541
 20
47.8618193365133
 30
0.0
 11
67.60867738833536
 21
47.86638534323332
 31
0.0
  0
LINE
  5
9DB
330
19
100
AcDbEntity
  8
TitleBlock&Notes
  6
Continuous
 62
     3
100
AcDbLine
 10
67.33676676033538
 20
47.8426282419533
 30
0.0
 11
67.60867738833536
 21
47.84737444451329
 31
0.0
  0
LINE
  5
9DC
330
19
100
AcDbEntity
  8
TitleBlock&Notes
  6
Continuous
 62
     3
100
AcDbLine
 10
67.60867738833536
 20
48.6088993141133
 30
0.0
 11
67.41859738833539
 21
48.6088993141133
 31
0.0
  0
LINE
  5
9DD
330
19
100
AcDbEntity
  8
TitleBlock&Notes
  6
Continuous
 62
     3
100
AcDbLine
 10
67.60867738833536
 20
48.7024426241933
 30
0.0
 11
67.41859738833539
 21
48.7024426241933
 31
0.0
  0
LINE
  5
9DE
330
19
100
AcDbEntity
  8
TitleBlock&Notes
  6
Continuous
 62
     3
100
AcDbLine
 10
67.41859738833539
 20
48.60588616595331
 30
0.0
 11
67.5912197758554
 21
48.6088993141133
 31
0.0
  0
LINE
  5
9DF
330
19
100
AcDbEntity
  8
TitleBlock&Notes
  6
Continuous
 62
     3
100
AcDbLine
 10
67.41859738833539
 20
48.58687526723331
 30
0.0
 11
67.60867738833536
 21
48.59019311363331
 31
0.0
  0
LINE
  5
9E0
330
19
100
AcDbEntity
  8
TitleBlock&Notes
  6
Continuous
 62
     3
100
AcDbLine
 10
67.41859738833539
 20
48.5678643685133
 30
0.0
 11
67.60867738833536
 21
48.5711822149133
 31
0.0
  0
LINE
  5
9E1
330
19
100
AcDbEntity
  8
TitleBlock&Notes
  6
Continuous
 62
     3
100
AcDbLine
 10
67.41859738833539
 20
48.5488534697933
 30
0.0
 11
67.60867738833536
 21
48.55217131619331
 31
0.0
  0
LINE
  5
9E2
330
19
100
AcDbEntity
  8
TitleBlock&Notes
  6
Continuous
 62
     3
100
AcDbLine
 10
67.41859738833539
 20
48.5298425710733
 30
0.0
 11
67.60867738833536
 21
48.53316046499332
 31
0.0
  0
LINE
  5
9E3
330
19
100
AcDbEntity
  8
TitleBlock&Notes
  6
Continuous
 62
     3
100
AcDbLine
 10
67.41859738833539
 20
48.51083167235331
 30
0.0
 11
67.60867738833536
 21
48.5141495662733
 31
0.0
  0
LINE
  5
9E4
330
19
100
AcDbEntity
  8
TitleBlock&Notes
  6
Continuous
 62
     3
100
AcDbLine
 10
67.41859738833539
 20
48.49182077363332
 30
0.0
 11
67.60867738833536
 21
48.49513866755329
 31
0.0
  0
LINE
  5
9E5
330
19
100
AcDbEntity
  8
TitleBlock&Notes
  6
Continuous
 62
     3
100
AcDbLine
 10
67.41859738833539
 20
48.4728098749133
 30
0.0
 11
67.60867738833536
 21
48.47612776883329
 31
0.0
  0
LINE
  5
9E6
330
19
100
AcDbEntity
  8
TitleBlock&Notes
  6
Continuous
 62
     3
100
AcDbLine
 10
67.41859738833539
 20
48.45379902371329
 30
0.0
 11
67.60867738833536
 21
48.45711687011331
 31
0.0
  0
LINE
  5
9E7
330
19
100
AcDbEntity
  8
TitleBlock&Notes
  6
Continuous
 62
     3
100
AcDbLine
 10
67.41859738833539
 20
48.43478812499331
 30
0.0
 11
67.60867738833536
 21
48.4381059713933
 31
0.0
  0
LINE
  5
9E8
330
19
100
AcDbEntity
  8
TitleBlock&Notes
  6
Continuous
 62
     3
100
AcDbLine
 10
67.41859738833539
 20
48.41577722627332
 30
0.0
 11
67.60867738833536
 21
48.4190950726733
 31
0.0
  0
LINE
  5
9E9
330
19
100
AcDbEntity
  8
TitleBlock&Notes
  6
Continuous
 62
     3
100
AcDbLine
 10
67.41859738833539
 20
48.39676632755329
 30
0.0
 11
67.60867738833536
 21
48.4000841739533
 31
0.0
  0
LINE
  5
9EA
330
19
100
AcDbEntity
  8
TitleBlock&Notes
  6
Continuous
 62
     3
100
AcDbLine
 10
67.41859738833539
 20
48.3777554288333
 30
0.0
 11
67.60867738833536
 21
48.38107327523331
 31
0.0
  0
LINE
  5
9EB
330
19
100
AcDbEntity
  8
TitleBlock&Notes
  6
Continuous
 62
     3
100
AcDbLine
 10
67.41859738833539
 20
48.3587445301133
 30
0.0
 11
67.60867738833536
 21
48.36206237651331
 31
0.0
  0
LINE
  5
9EC
330
19
100
AcDbEntity
  8
TitleBlock&Notes
  6
Continuous
 62
     3
100
AcDbLine
 10
67.41859738833539
 20
48.3397336313933
 30
0.0
 11
67.60867738833536
 21
48.34305147779331
 31
0.0
  0
LINE
  5
9ED
330
19
100
AcDbEntity
  8
TitleBlock&Notes
  6
Continuous
 62
     3
100
AcDbLine
 10
67.41859738833539
 20
48.32072273267332
 30
0.0
 11
67.60867738833536
 21
48.32404057907331
 31
0.0
  0
LINE
  5
9EE
330
19
100
AcDbEntity
  8
TitleBlock&Notes
  6
Continuous
 62
     3
100
AcDbLine
 10
67.41859738833539
 20
48.3017118339533
 30
0.0
 11
67.60867738833536
 21
48.3050296803533
 31
0.0
  0
LINE
  5
9EF
330
19
100
AcDbEntity
  8
TitleBlock&Notes
  6
Continuous
 62
     3
100
AcDbLine
 10
67.41859738833539
 20
48.28270093523331
 30
0.0
 11
67.60867738833536
 21
48.2860187816333
 31
0.0
  0
LINE
  5
9F0
330
19
100
AcDbEntity
  8
TitleBlock&Notes
  6
Continuous
 62
     3
100
AcDbLine
 10
67.41859738833539
 20
48.26369003651331
 30
0.0
 11
67.60867738833536
 21
48.26700788291331
 31
0.0
  0
LINE
  5
9F1
330
19
100
AcDbEntity
  8
TitleBlock&Notes
  6
Continuous
 62
     3
100
AcDbLine
 10
67.41859738833539
 20
48.8762550550733
 30
0.0
 11
67.60867738833536
 21
48.87957290147331
 31
0.0
  0
LINE
  5
9F2
330
19
100
AcDbEntity
  8
TitleBlock&Notes
  6
Continuous
 62
     3
100
AcDbLine
 10
67.41859738833539
 20
48.85724415635332
 30
0.0
 11
67.60867738833536
 21
48.86056200275331
 31
0.0
  0
LINE
  5
9F3
330
19
100
AcDbEntity
  8
TitleBlock&Notes
  6
Continuous
 62
     3
100
AcDbLine
 10
67.41859738833539
 20
48.8382332576333
 30
0.0
 11
67.60867738833536
 21
48.84155110403331
 31
0.0
  0
LINE
  5
9F4
330
19
100
AcDbEntity
  8
TitleBlock&Notes
  6
Continuous
 62
     3
100
AcDbLine
 10
67.41859738833539
 20
48.8192223589133
 30
0.0
 11
67.60867738833536
 21
48.82254020531331
 31
0.0
  0
LINE
  5
9F5
330
19
100
AcDbEntity
  8
TitleBlock&Notes
  6
Continuous
 62
     3
100
AcDbLine
 10
67.41859738833539
 20
48.80021146019331
 30
0.0
 11
67.60867738833536
 21
48.80352930659332
 31
0.0
  0
LINE
  5
9F6
330
19
100
AcDbEntity
  8
TitleBlock&Notes
  6
Continuous
 62
     3
100
AcDbLine
 10
67.41859738833539
 20
48.78120056147331
 30
0.0
 11
67.60867738833536
 21
48.7845184553933
 31
0.0
  0
LINE
  5
9F7
330
19
100
AcDbEntity
  8
TitleBlock&Notes
  6
Continuous
 62
     3
100
AcDbLine
 10
67.41859738833539
 20
48.76218966275331
 30
0.0
 11
67.60867738833536
 21
48.7655075566733
 31
0.0
  0
LINE
  5
9F8
330
19
100
AcDbEntity
  8
TitleBlock&Notes
  6
Continuous
 62
     3
100
AcDbLine
 10
67.41859738833539
 20
48.74317876403331
 30
0.0
 11
67.60867738833536
 21
48.7464966579533
 31
0.0
  0
LINE
  5
9F9
330
19
100
AcDbEntity
  8
TitleBlock&Notes
  6
Continuous
 62
     3
100
AcDbLine
 10
67.41859738833539
 20
48.72416791283329
 30
0.0
 11
67.60867738833536
 21
48.7274857592333
 31
0.0
  0
LINE
  5
9FA
330
19
100
AcDbEntity
  8
TitleBlock&Notes
  6
Continuous
 62
     3
100
AcDbLine
 10
67.41859738833539
 20
48.7051570141133
 30
0.0
 11
67.60867738833536
 21
48.70847486051331
 31
0.0
  0
LINE
  5
9FB
330
19
100
AcDbEntity
  8
TitleBlock&Notes
  6
Continuous
 62
     3
100
AcDbLine
 10
67.60867738833536
 20
48.23472607379331
 30
0.0
 11
67.41859738833539
 21
48.23472607379331
 31
0.0
  0
LINE
  5
9FC
330
19
100
AcDbEntity
  8
TitleBlock&Notes
  6
Continuous
 62
     3
100
AcDbLine
 10
67.41859738833539
 20
48.24467913779331
 30
0.0
 11
67.60867738833536
 21
48.24799703171331
 31
0.0
  0
LINE
  5
9FD
330
19
100
AcDbEntity
  8
TitleBlock&Notes
  6
Continuous
 62
     3
100
AcDbLine
 10
67.3710773883354
 20
49.6530297104333
 30
0.0
 11
67.01467738833537
 21
49.6530297104333
 31
0.0
  0
LINE
  5
9FE
330
19
100
AcDbEntity
  8
TitleBlock&Notes
  6
Continuous
 62
     3
100
AcDbLine
 10
67.41859738833539
 20
49.70054971043332
 30
0.0
 11
66.96715738833541
 21
49.70054971043332
 31
0.0
  0
LINE
  5
9FF
330
19
100
AcDbEntity
  8
TitleBlock&Notes
  6
Continuous
 62
     3
100
AcDbLine
 10
66.99091738833539
 20
49.6767897104333
 30
0.0
 11
67.39483738833543
 21
49.6767897104333
 31
0.0
  0
LINE
  5
A00
330
19
100
AcDbEntity
  8
TitleBlock&Notes
  6
Continuous
 62
     3
100
AcDbLine
 10
66.34939738833536
 20
48.93363569267331
 30
0.0
 11
66.5020862763354
 21
48.9363008518733
 31
0.0
  0
LINE
  5
A01
330
19
100
AcDbEntity
  8
TitleBlock&Notes
  6
Continuous
 62
     3
100
AcDbLine
 10
66.96715738833541
 20
49.02984416195329
 30
0.0
 11
66.34939738833536
 21
49.02984416195329
 31
0.0
  0
LINE
  5
A02
330
19
100
AcDbEntity
  8
TitleBlock&Notes
  6
Continuous
 62
     3
100
AcDbLine
 10
66.96715738833541
 20
49.1233874720333
 30
0.0
 11
66.34939738833536
 21
49.1233874720333
 31
0.0
  0
LINE
  5
A03
330
19
100
AcDbEntity
  8
TitleBlock&Notes
  6
Continuous
 62
     3
100
AcDbLine
 10
66.96715738833541
 20
48.9363008518733
 30
0.0
 11
66.34939738833536
 21
48.9363008518733
 31
0.0
  0
LINE
  5
A04
330
19
100
AcDbEntity
  8
TitleBlock&Notes
  6
Continuous
 62
     3
100
AcDbLine
 10
66.96715738833541
 20
49.40401740227331
 30
0.0
 11
66.34939738833536
 21
49.40401740227331
 31
0.0
  0
LINE
  5
A05
330
19
100
AcDbEntity
  8
TitleBlock&Notes
  6
Continuous
 62
     3
100
AcDbLine
 10
66.96715738833541
 20
49.47529740227333
 30
0.0
 11
66.34939738833536
 21
49.47529740227333
 31
0.0
  0
LINE
  5
A06
330
19
100
AcDbEntity
  8
TitleBlock&Notes
  6
Continuous
 62
     3
100
AcDbLine
 10
66.34939738833536
 20
48.91462479395332
 30
0.0
 11
66.96715738833541
 21
48.9254078422733
 31
0.0
  0
LINE
  5
A07
330
19
100
AcDbEntity
  8
TitleBlock&Notes
  6
Continuous
 62
     3
100
AcDbLine
 10
66.34939738833536
 20
48.89561389523331
 30
0.0
 11
66.96715738833541
 21
48.90639694355332
 31
0.0
  0
LINE
  5
A08
330
19
100
AcDbEntity
  8
TitleBlock&Notes
  6
Continuous
 62
     3
100
AcDbLine
 10
66.96715738833541
 20
49.4515374022733
 30
0.0
 11
66.34939738833536
 21
49.4515374022733
 31
0.0
  0
LINE
  5
A09
330
19
100
AcDbEntity
  8
TitleBlock&Notes
  6
Continuous
 62
     3
100
AcDbLine
 10
66.96715738833541
 20
49.42777740227331
 30
0.0
 11
66.34939738833536
 21
49.42777740227331
 31
0.0
  0
LINE
  5
A0A
330
19
100
AcDbEntity
  8
TitleBlock&Notes
  6
Continuous
 62
     3
100
AcDbLine
 10
66.96715738833541
 20
49.09962747203332
 30
0.0
 11
66.34939738833536
 21
49.09962747203332
 31
0.0
  0
LINE
  5
A0B
330
19
100
AcDbEntity
  8
TitleBlock&Notes
  6
Continuous
 62
     3
100
AcDbLine
 10
66.96715738833541
 20
49.07586747203331
 30
0.0
 11
66.34939738833536
 21
49.07586747203331
 31
0.0
  0
LINE
  5
A0C
330
19
100
AcDbEntity
  8
TitleBlock&Notes
  6
Continuous
 62
     3
100
AcDbLine
 10
66.96715738833541
 20
49.05210747203331
 30
0.0
 11
66.34939738833536
 21
49.05210747203331
 31
0.0
  0
LINE
  5
A0D
330
19
100
AcDbEntity
  8
TitleBlock&Notes
  6
Continuous
 62
     3
100
AcDbLine
 10
67.60867738833536
 20
48.9363008518733
 30
0.0
 11
67.41859738833539
 21
48.9363008518733
 31
0.0
  0
LINE
  5
A0E
330
19
100
AcDbEntity
  8
TitleBlock&Notes
  6
Continuous
 62
     3
100
AcDbLine
 10
67.41859738833539
 20
48.9332877512333
 30
0.0
 11
67.5912197758554
 21
48.9363008518733
 31
0.0
  0
LINE
  5
A0F
330
19
100
AcDbEntity
  8
TitleBlock&Notes
  6
Continuous
 62
     3
100
AcDbLine
 10
67.41859738833539
 20
48.91427685251329
 30
0.0
 11
67.60867738833536
 21
48.9175946989133
 31
0.0
  0
LINE
  5
A10
330
19
100
AcDbEntity
  8
TitleBlock&Notes
  6
Continuous
 62
     3
100
AcDbLine
 10
67.41859738833539
 20
48.89526595379329
 30
0.0
 11
67.60867738833536
 21
48.89858380019331
 31
0.0
  0
LINE
  5
A11
330
19
100
AcDbEntity
  8
TitleBlock&Notes
  6
Continuous
 62
     3
100
AcDbLine
 10
67.60867738833536
 20
49.02984416195329
 30
0.0
 11
67.41859738833539
 21
49.02984416195329
 31
0.0
  0
LINE
  5
A12
330
19
100
AcDbEntity
  8
TitleBlock&Notes
  6
Continuous
 62
     3
100
AcDbLine
 10
67.60867738833536
 20
49.05210747203331
 30
0.0
 11
67.41859738833539
 21
49.05210747203331
 31
0.0
  0
LINE
  5
A13
330
19
100
AcDbEntity
  8
TitleBlock&Notes
  6
Continuous
 62
     3
100
AcDbLine
 10
67.60867738833536
 20
49.1233874720333
 30
0.0
 11
67.41859738833539
 21
49.1233874720333
 31
0.0
  0
LINE
  5
A14
330
19
100
AcDbEntity
  8
TitleBlock&Notes
  6
Continuous
 62
     3
100
AcDbLine
 10
67.60867738833536
 20
49.40401740227331
 30
0.0
 11
67.41859738833539
 21
49.40401740227331
 31
0.0
  0
LINE
  5
A15
330
19
100
AcDbEntity
  8
TitleBlock&Notes
  6
Continuous
 62
     3
100
AcDbLine
 10
67.60867738833536
 20
49.47529740227333
 30
0.0
 11
67.41859738833539
 21
49.47529740227333
 31
0.0
  0
LINE
  5
A16
330
19
100
AcDbEntity
  8
TitleBlock&Notes
  6
Continuous
 62
     3
100
AcDbLine
 10
67.60867738833536
 20
49.4515374022733
 30
0.0
 11
67.41859738833539
 21
49.4515374022733
 31
0.0
  0
LINE
  5
A17
330
19
100
AcDbEntity
  8
TitleBlock&Notes
  6
Continuous
 62
     3
100
AcDbLine
 10
67.60867738833536
 20
49.42777740227331
 30
0.0
 11
67.41859738833539
 21
49.42777740227331
 31
0.0
  0
LINE
  5
A18
330
19
100
AcDbEntity
  8
TitleBlock&Notes
  6
Continuous
 62
     3
100
AcDbLine
 10
67.60867738833536
 20
49.09962747203332
 30
0.0
 11
67.41859738833539
 21
49.09962747203332
 31
0.0
  0
LINE
  5
A19
330
19
100
AcDbEntity
  8
TitleBlock&Notes
  6
Continuous
 62
     3
100
AcDbLine
 10
67.60867738833536
 20
49.07586747203331
 30
0.0
 11
67.41859738833539
 21
49.07586747203331
 31
0.0
  0
LINE
  5
A1B
330
19
100
AcDbEntity
  8
TitleBlock&Notes
  6
Continuous
 62
     3
100
AcDbLine
 10
68.67787738833541
 20
49.6530297104333
 30
0.0
 11
70.10347738833537
 21
49.6530297104333
 31
0.0
  0
LINE
  5
A1C
330
19
100
AcDbEntity
  8
TitleBlock&Notes
  6
Continuous
 62
     3
100
AcDbLine
 10
68.63035738833538
 20
49.70054971043332
 30
0.0
 11
70.15099738833535
 21
49.70054971043332
 31
0.0
  0
LINE
  5
A1D
330
19
100
AcDbEntity
  8
TitleBlock&Notes
  6
Continuous
 62
     3
100
AcDbLine
 10
68.65411738833535
 20
49.6767897104333
 30
0.0
 11
70.12723738833537
 21
49.6767897104333
 31
0.0
  0
LINE
  5
A1E
330
19
100
AcDbEntity
  8
TitleBlock&Notes
  6
Continuous
 62
     3
100
AcDbLine
 10
68.06011738833536
 20
48.88745281043331
 30
0.0
 11
69.16495738833535
 21
48.90673789955332
 31
0.0
  0
LINE
  5
A1F
330
19
100
AcDbEntity
  8
TitleBlock&Notes
  6
Continuous
 62
     3
100
AcDbLine
 10
68.0125973883354
 20
49.6530297104333
 30
0.0
 11
68.0125973883354
 21
47.9185497104333
 31
0.0
  0
LINE
  5
A20
330
19
100
AcDbEntity
  8
TitleBlock&Notes
  6
Continuous
 62
     3
100
AcDbLine
 10
68.06011738833536
 20
47.9660697104333
 30
0.0
 11
68.06011738833536
 21
49.70054971043332
 31
0.0
  0
LINE
  5
A21
330
19
100
AcDbEntity
  8
TitleBlock&Notes
  6
Continuous
 62
     3
100
AcDbLine
 10
68.0363573883354
 20
47.9423097104333
 30
0.0
 11
68.0363573883354
 21
49.6767897104333
 31
0.0
  0
LINE
  5
A22
330
19
100
AcDbEntity
  8
TitleBlock&Notes
  6
Continuous
 62
     3
100
AcDbLine
 10
68.0125973883354
 20
47.9185497104333
 30
0.0
 11
68.91547738833541
 21
47.9185497104333
 31
0.0
  0
LINE
  5
A23
330
19
100
AcDbEntity
  8
TitleBlock&Notes
  6
Continuous
 62
     3
100
AcDbLine
 10
68.93923738833539
 20
47.9423097104333
 30
0.0
 11
68.0363573883354
 21
47.9423097104333
 31
0.0
  0
LINE
  5
A24
330
19
100
AcDbEntity
  8
TitleBlock&Notes
  6
Continuous
 62
     3
100
AcDbLine
 10
68.96299738833537
 20
47.9660697104333
 30
0.0
 11
68.06011738833536
 21
47.9660697104333
 31
0.0
  0
LINE
  5
A25
330
19
100
AcDbEntity
  8
TitleBlock&Notes
  6
Continuous
 62
     3
100
AcDbLine
 10
68.06011738833536
 20
48.14118276371331
 30
0.0
 11
69.16495738833535
 21
48.14118276371331
 31
0.0
  0
LINE
  5
A26
330
19
100
AcDbEntity
  8
TitleBlock&Notes
  6
Continuous
 62
     3
100
AcDbLine
 10
68.06011738833536
 20
48.12140688803331
 30
0.0
 11
69.16495738833535
 21
48.1406919296333
 31
0.0
  0
LINE
  5
A27
330
19
100
AcDbEntity
  8
TitleBlock&Notes
  6
Continuous
 62
     3
100
AcDbLine
 10
68.06011738833536
 20
48.10239598931331
 30
0.0
 11
69.16495738833535
 21
48.1216810309133
 31
0.0
  0
LINE
  5
A28
330
19
100
AcDbEntity
  8
TitleBlock&Notes
  6
Continuous
 62
     3
100
AcDbLine
 10
68.06011738833536
 20
48.08338509059331
 30
0.0
 11
69.16495738833535
 21
48.10267013219331
 31
0.0
  0
LINE
  5
A29
330
19
100
AcDbEntity
  8
TitleBlock&Notes
  6
Continuous
 62
     3
100
AcDbLine
 10
68.06011738833536
 20
48.0643741918733
 30
0.0
 11
69.16495738833535
 21
48.08365923347331
 31
0.0
  0
LINE
  5
A2A
330
19
100
AcDbEntity
  8
TitleBlock&Notes
  6
Continuous
 62
     3
100
AcDbLine
 10
68.06011738833536
 20
48.04536329315332
 30
0.0
 11
69.16495738833535
 21
48.06464838227331
 31
0.0
  0
LINE
  5
A2B
330
19
100
AcDbEntity
  8
TitleBlock&Notes
  6
Continuous
 62
     3
100
AcDbLine
 10
68.06011738833536
 20
48.02635239443332
 30
0.0
 11
69.16495738833535
 21
48.04563748355331
 31
0.0
  0
LINE
  5
A2C
330
19
100
AcDbEntity
  8
TitleBlock&Notes
  6
Continuous
 62
     3
100
AcDbLine
 10
68.06011738833536
 20
48.00734149571331
 30
0.0
 11
69.16495738833535
 21
48.02662658483331
 31
0.0
  0
LINE
  5
A2D
330
19
100
AcDbEntity
  8
TitleBlock&Notes
  6
Continuous
 62
     3
100
AcDbLine
 10
68.06011738833536
 20
47.98833059699332
 30
0.0
 11
69.16495738833535
 21
48.0076156861133
 31
0.0
  0
LINE
  5
A2E
330
19
100
AcDbEntity
  8
TitleBlock&Notes
  6
Continuous
 62
     3
100
AcDbLine
 10
68.06011738833536
 20
47.96931974579331
 30
0.0
 11
69.16495738833535
 21
47.98860478739331
 31
0.0
  0
LINE
  5
A2F
330
19
100
AcDbEntity
  8
TitleBlock&Notes
  6
Continuous
 62
     3
100
AcDbLine
 10
68.35222368369537
 20
48.7024426241933
 30
0.0
 11
69.16495738833535
 21
48.7166289123533
 31
0.0
  0
LINE
  5
A30
330
19
100
AcDbEntity
  8
TitleBlock&Notes
  6
Continuous
 62
     3
100
AcDbLine
 10
68.06011738833536
 20
48.59807302259331
 30
0.0
 11
68.68035322785542
 21
48.6088993141133
 31
0.0
  0
LINE
  5
A31
330
19
100
AcDbEntity
  8
TitleBlock&Notes
  6
Continuous
 62
     3
100
AcDbLine
 10
68.06011738833536
 20
48.23472607379331
 30
0.0
 11
69.16495738833535
 21
48.23472607379331
 31
0.0
  0
LINE
  5
A32
330
19
100
AcDbEntity
  8
TitleBlock&Notes
  6
Continuous
 62
     3
100
AcDbLine
 10
68.06011738833536
 20
48.6088993141133
 30
0.0
 11
69.16495738833535
 21
48.6088993141133
 31
0.0
  0
LINE
  5
A33
330
19
100
AcDbEntity
  8
TitleBlock&Notes
  6
Continuous
 62
     3
100
AcDbLine
 10
68.06011738833536
 20
48.7024426241933
 30
0.0
 11
69.16495738833535
 21
48.7024426241933
 31
0.0
  0
LINE
  5
A34
330
19
100
AcDbEntity
  8
TitleBlock&Notes
  6
Continuous
 62
     3
100
AcDbLine
 10
68.06011738833536
 20
48.57906212387331
 30
0.0
 11
69.16495738833535
 21
48.59834721299332
 31
0.0
  0
LINE
  5
A35
330
19
100
AcDbEntity
  8
TitleBlock&Notes
  6
Continuous
 62
     3
100
AcDbLine
 10
68.06011738833536
 20
48.56005127267332
 30
0.0
 11
69.16495738833535
 21
48.57933631427332
 31
0.0
  0
LINE
  5
A36
330
19
100
AcDbEntity
  8
TitleBlock&Notes
  6
Continuous
 62
     3
100
AcDbLine
 10
68.06011738833536
 20
48.54104037395329
 30
0.0
 11
69.16495738833535
 21
48.56032541555332
 31
0.0
  0
LINE
  5
A37
330
19
100
AcDbEntity
  8
TitleBlock&Notes
  6
Continuous
 62
     3
100
AcDbLine
 10
68.06011738833536
 20
48.5220294752333
 30
0.0
 11
69.16495738833535
 21
48.54131451683333
 31
0.0
  0
LINE
  5
A38
330
19
100
AcDbEntity
  8
TitleBlock&Notes
  6
Continuous
 62
     3
100
AcDbLine
 10
68.06011738833536
 20
48.50301857651331
 30
0.0
 11
69.16495738833535
 21
48.52230361811329
 31
0.0
  0
LINE
  5
A39
330
19
100
AcDbEntity
  8
TitleBlock&Notes
  6
Continuous
 62
     3
100
AcDbLine
 10
68.06011738833536
 20
48.4840076777933
 30
0.0
 11
69.16495738833535
 21
48.5032927193933
 31
0.0
  0
LINE
  5
A3A
330
19
100
AcDbEntity
  8
TitleBlock&Notes
  6
Continuous
 62
     3
100
AcDbLine
 10
68.06011738833536
 20
48.4649967790733
 30
0.0
 11
69.16495738833535
 21
48.4842818206733
 31
0.0
  0
LINE
  5
A3B
330
19
100
AcDbEntity
  8
TitleBlock&Notes
  6
Continuous
 62
     3
100
AcDbLine
 10
68.06011738833536
 20
48.44598588035331
 30
0.0
 11
69.16495738833535
 21
48.4652709219533
 31
0.0
  0
LINE
  5
A3C
330
19
100
AcDbEntity
  8
TitleBlock&Notes
  6
Continuous
 62
     3
100
AcDbLine
 10
68.06011738833536
 20
48.42697498163331
 30
0.0
 11
69.16495738833535
 21
48.4462600232333
 31
0.0
  0
LINE
  5
A3D
330
19
100
AcDbEntity
  8
TitleBlock&Notes
  6
Continuous
 62
     3
100
AcDbLine
 10
68.06011738833536
 20
48.40796408291331
 30
0.0
 11
69.16495738833535
 21
48.4272491245133
 31
0.0
  0
LINE
  5
A3E
330
19
100
AcDbEntity
  8
TitleBlock&Notes
  6
Continuous
 62
     3
100
AcDbLine
 10
68.06011738833536
 20
48.38895318419331
 30
0.0
 11
69.16495738833535
 21
48.40823822579331
 31
0.0
  0
LINE
  5
A3F
330
19
100
AcDbEntity
  8
TitleBlock&Notes
  6
Continuous
 62
     3
100
AcDbLine
 10
68.06011738833536
 20
48.3699422854733
 30
0.0
 11
69.16495738833535
 21
48.38922737459331
 31
0.0
  0
LINE
  5
A40
330
19
100
AcDbEntity
  8
TitleBlock&Notes
  6
Continuous
 62
     3
100
AcDbLine
 10
68.06011738833536
 20
48.3509313867533
 30
0.0
 11
69.16495738833535
 21
48.37021647587332
 31
0.0
  0
LINE
  5
A41
330
19
100
AcDbEntity
  8
TitleBlock&Notes
  6
Continuous
 62
     3
100
AcDbLine
 10
68.06011738833536
 20
48.3319204880333
 30
0.0
 11
69.16495738833535
 21
48.35120557715331
 31
0.0
  0
LINE
  5
A42
330
19
100
AcDbEntity
  8
TitleBlock&Notes
  6
Continuous
 62
     3
100
AcDbLine
 10
68.06011738833536
 20
48.3129095893133
 30
0.0
 11
69.16495738833535
 21
48.33219467843331
 31
0.0
  0
LINE
  5
A43
330
19
100
AcDbEntity
  8
TitleBlock&Notes
  6
Continuous
 62
     3
100
AcDbLine
 10
68.06011738833536
 20
48.29389873811329
 30
0.0
 11
69.16495738833535
 21
48.31318377971332
 31
0.0
  0
LINE
  5
A44
330
19
100
AcDbEntity
  8
TitleBlock&Notes
  6
Continuous
 62
     3
100
AcDbLine
 10
68.06011738833536
 20
48.27488783939331
 30
0.0
 11
69.16495738833535
 21
48.29417288099332
 31
0.0
  0
LINE
  5
A45
330
19
100
AcDbEntity
  8
TitleBlock&Notes
  6
Continuous
 62
     3
100
AcDbLine
 10
68.06011738833536
 20
48.25587694067332
 30
0.0
 11
69.16495738833535
 21
48.27516198227328
 31
0.0
  0
LINE
  5
A46
330
19
100
AcDbEntity
  8
TitleBlock&Notes
  6
Continuous
 62
     3
100
AcDbLine
 10
68.06011738833536
 20
48.2368660419533
 30
0.0
 11
69.16495738833535
 21
48.2561510835533
 31
0.0
  0
LINE
  5
A47
330
19
100
AcDbEntity
  8
TitleBlock&Notes
  6
Continuous
 62
     3
100
AcDbLine
 10
68.06011738833536
 20
48.86844191171332
 30
0.0
 11
69.16495738833535
 21
48.88772700083331
 31
0.0
  0
LINE
  5
A48
330
19
100
AcDbEntity
  8
TitleBlock&Notes
  6
Continuous
 62
     3
100
AcDbLine
 10
68.06011738833536
 20
48.84943101299329
 30
0.0
 11
69.16495738833535
 21
48.86871610211333
 31
0.0
  0
LINE
  5
A49
330
19
100
AcDbEntity
  8
TitleBlock&Notes
  6
Continuous
 62
     3
100
AcDbLine
 10
68.06011738833536
 20
48.8304201617933
 30
0.0
 11
69.16495738833535
 21
48.84970520339333
 31
0.0
  0
LINE
  5
A4A
330
19
100
AcDbEntity
  8
TitleBlock&Notes
  6
Continuous
 62
     3
100
AcDbLine
 10
68.06011738833536
 20
48.8114092630733
 30
0.0
 11
69.16495738833535
 21
48.8306943046733
 31
0.0
  0
LINE
  5
A4B
330
19
100
AcDbEntity
  8
TitleBlock&Notes
  6
Continuous
 62
     3
100
AcDbLine
 10
68.06011738833536
 20
48.7923983643533
 30
0.0
 11
69.16495738833535
 21
48.8116834059533
 31
0.0
  0
LINE
  5
A4C
330
19
100
AcDbEntity
  8
TitleBlock&Notes
  6
Continuous
 62
     3
100
AcDbLine
 10
68.06011738833536
 20
48.77338746563331
 30
0.0
 11
69.16495738833535
 21
48.7926725072333
 31
0.0
  0
LINE
  5
A4D
330
19
100
AcDbEntity
  8
TitleBlock&Notes
  6
Continuous
 62
     3
100
AcDbLine
 10
68.06011738833536
 20
48.75437656691331
 30
0.0
 11
69.16495738833535
 21
48.7736616085133
 31
0.0
  0
LINE
  5
A4E
330
19
100
AcDbEntity
  8
TitleBlock&Notes
  6
Continuous
 62
     3
100
AcDbLine
 10
68.06011738833536
 20
48.7353656681933
 30
0.0
 11
69.16495738833535
 21
48.75465070979331
 31
0.0
  0
LINE
  5
A4F
330
19
100
AcDbEntity
  8
TitleBlock&Notes
  6
Continuous
 62
     3
100
AcDbLine
 10
68.06011738833536
 20
48.71635476947331
 30
0.0
 11
69.16495738833535
 21
48.73563981107331
 31
0.0
  0
LINE
  5
A50
330
19
100
AcDbEntity
  8
TitleBlock&Notes
  6
Continuous
 62
     3
100
AcDbLine
 10
68.06011738833536
 20
48.1404177867533
 30
0.0
 11
68.10394318353536
 21
48.14118276371331
 31
0.0
  0
LINE
  5
A51
330
19
100
AcDbEntity
  8
TitleBlock&Notes
  6
Continuous
 62
     3
100
AcDbLine
 10
68.96299738833537
 20
47.7949705765133
 30
0.0
 11
69.16495738833535
 21
47.7984958001933
 31
0.0
  0
LINE
  5
A52
330
19
100
AcDbEntity
  8
TitleBlock&Notes
  6
Continuous
 62
     3
100
AcDbLine
 10
68.96299738833537
 20
47.77595972531331
 30
0.0
 11
69.16495738833535
 21
47.77948494899329
 31
0.0
  0
LINE
  5
A53
330
19
100
AcDbEntity
  8
TitleBlock&Notes
  6
Continuous
 62
     3
100
AcDbLine
 10
68.96299738833537
 20
47.7569488265933
 30
0.0
 11
69.16495738833535
 21
47.7604740502733
 31
0.0
  0
LINE
  5
A54
330
19
100
AcDbEntity
  8
TitleBlock&Notes
  6
Continuous
 62
     3
100
AcDbLine
 10
68.96299738833537
 20
47.73793792787332
 30
0.0
 11
69.16495738833535
 21
47.7414631515533
 31
0.0
  0
LINE
  5
A55
330
19
100
AcDbEntity
  8
TitleBlock&Notes
  6
Continuous
 62
     3
100
AcDbLine
 10
68.96299738833537
 20
47.71892702915332
 30
0.0
 11
69.16495738833535
 21
47.7224522528333
 31
0.0
  0
LINE
  5
A56
330
19
100
AcDbEntity
  8
TitleBlock&Notes
  6
Continuous
 62
     3
100
AcDbLine
 10
68.96299738833537
 20
47.69991613043332
 30
0.0
 11
69.16495738833535
 21
47.7034413541133
 31
0.0
  0
LINE
  5
A57
330
19
100
AcDbEntity
  8
TitleBlock&Notes
  6
Continuous
 62
     3
100
AcDbLine
 10
68.96299738833537
 20
47.96606866499331
 30
0.0
 11
69.16495738833535
 21
47.96959388867328
 31
0.0
  0
LINE
  5
A58
330
19
100
AcDbEntity
  8
TitleBlock&Notes
  6
Continuous
 62
     3
100
AcDbLine
 10
68.96299738833537
 20
47.9470577662733
 30
0.0
 11
69.16495738833535
 21
47.9505829899533
 31
0.0
  0
LINE
  5
A59
330
19
100
AcDbEntity
  8
TitleBlock&Notes
  6
Continuous
 62
     3
100
AcDbLine
 10
68.96299738833537
 20
47.92804686755331
 30
0.0
 11
69.16495738833535
 21
47.93157209123331
 31
0.0
  0
LINE
  5
A5A
330
19
100
AcDbEntity
  8
TitleBlock&Notes
  6
Continuous
 62
     3
100
AcDbLine
 10
68.96299738833537
 20
47.90903596883331
 30
0.0
 11
69.16495738833535
 21
47.91256119251329
 31
0.0
  0
LINE
  5
A5B
330
19
100
AcDbEntity
  8
TitleBlock&Notes
  6
Continuous
 62
     3
100
AcDbLine
 10
68.96299738833537
 20
47.89002507011331
 30
0.0
 11
69.16495738833535
 21
47.89355029379331
 31
0.0
  0
LINE
  5
A5C
330
19
100
AcDbEntity
  8
TitleBlock&Notes
  6
Continuous
 62
     3
100
AcDbLine
 10
68.96299738833537
 20
47.87101417139331
 30
0.0
 11
69.16495738833535
 21
47.87453939507329
 31
0.0
  0
LINE
  5
A5D
330
19
100
AcDbEntity
  8
TitleBlock&Notes
  6
Continuous
 62
     3
100
AcDbLine
 10
68.96299738833537
 20
47.8520032726733
 30
0.0
 11
69.16495738833535
 21
47.8555284963533
 31
0.0
  0
LINE
  5
A5E
330
19
100
AcDbEntity
  8
TitleBlock&Notes
  6
Continuous
 62
     3
100
AcDbLine
 10
68.96299738833537
 20
47.8329923739533
 30
0.0
 11
69.16495738833535
 21
47.83651759763332
 31
0.0
  0
LINE
  5
A5F
330
19
100
AcDbEntity
  8
TitleBlock&Notes
  6
Continuous
 62
     3
100
AcDbLine
 10
68.96299738833537
 20
47.8139814752333
 30
0.0
 11
69.16495738833535
 21
47.8175066989133
 31
0.0
  0
LINE
  5
A60
330
19
100
AcDbEntity
  8
TitleBlock&Notes
  6
Continuous
 62
     3
100
AcDbLine
 10
69.02665275681541
 20
48.23472607379331
 30
0.0
 11
69.16495738833535
 21
48.23714018483332
 31
0.0
  0
LINE
  5
A61
330
19
100
AcDbEntity
  8
TitleBlock&Notes
  6
Continuous
 62
     3
100
AcDbLine
 10
68.63035738833538
 20
49.24910971043331
 30
0.0
 11
69.16495738833535
 21
49.24910971043331
 31
0.0
  0
LINE
  5
A62
330
19
100
AcDbEntity
  8
TitleBlock&Notes
  6
Continuous
 62
     3
100
AcDbLine
 10
68.06011738833536
 20
48.92547460787331
 30
0.0
 11
68.68035322785542
 21
48.9363008518733
 31
0.0
  0
LINE
  5
A63
330
19
100
AcDbEntity
  8
TitleBlock&Notes
  6
Continuous
 62
     3
100
AcDbLine
 10
68.06011738833536
 20
48.9363008518733
 30
0.0
 11
69.16495738833535
 21
48.9363008518733
 31
0.0
  0
LINE
  5
A64
330
19
100
AcDbEntity
  8
TitleBlock&Notes
  6
Continuous
 62
     3
100
AcDbLine
 10
68.06011738833536
 20
49.02984416195329
 30
0.0
 11
69.16495738833535
 21
49.02984416195329
 31
0.0
  0
LINE
  5
A65
330
19
100
AcDbEntity
  8
TitleBlock&Notes
  6
Continuous
 62
     3
100
AcDbLine
 10
68.06011738833536
 20
49.1233874720333
 30
0.0
 11
69.16495738833535
 21
49.1233874720333
 31
0.0
  0
LINE
  5
A66
330
19
100
AcDbEntity
  8
TitleBlock&Notes
  6
Continuous
 62
     3
100
AcDbLine
 10
68.06011738833536
 20
48.90646370915331
 30
0.0
 11
69.16495738833535
 21
48.92574879827332
 31
0.0
  0
LINE
  5
A67
330
19
100
AcDbEntity
  8
TitleBlock&Notes
  6
Continuous
 62
     3
100
AcDbLine
 10
68.06011738833536
 20
49.09962747203332
 30
0.0
 11
69.16495738833535
 21
49.09962747203332
 31
0.0
  0
LINE
  5
A68
330
19
100
AcDbEntity
  8
TitleBlock&Notes
  6
Continuous
 62
     3
100
AcDbLine
 10
68.06011738833536
 20
49.07586747203331
 30
0.0
 11
69.16495738833535
 21
49.07586747203331
 31
0.0
  0
LINE
  5
A69
330
19
100
AcDbEntity
  8
TitleBlock&Notes
  6
Continuous
 62
     3
100
AcDbLine
 10
68.06011738833536
 20
49.05210747203331
 30
0.0
 11
69.16495738833535
 21
49.05210747203331
 31
0.0
  0
LINE
  5
A6A
330
19
100
AcDbEntity
  8
TitleBlock&Notes
  6
Continuous
 62
     3
100
AcDbLine
 10
68.63035738833538
 20
49.70054971043332
 30
0.0
 11
68.63035738833538
 21
49.24910971043331
 31
0.0
  0
LINE
  5
A6B
330
19
100
AcDbEntity
  8
TitleBlock&Notes
  6
Continuous
 62
     3
100
AcDbLine
 10
68.06011738833536
 20
49.40401740227331
 30
0.0
 11
68.63035738833538
 21
49.40401740227331
 31
0.0
  0
LINE
  5
A6C
330
19
100
AcDbEntity
  8
TitleBlock&Notes
  6
Continuous
 62
     3
100
AcDbLine
 10
68.06011738833536
 20
49.47529740227333
 30
0.0
 11
68.63035738833538
 21
49.47529740227333
 31
0.0
  0
LINE
  5
A6D
330
19
100
AcDbEntity
  8
TitleBlock&Notes
  6
Continuous
 62
     3
100
AcDbLine
 10
68.06011738833536
 20
49.4515374022733
 30
0.0
 11
68.63035738833538
 21
49.4515374022733
 31
0.0
  0
LINE
  5
A6E
330
19
100
AcDbEntity
  8
TitleBlock&Notes
  6
Continuous
 62
     3
100
AcDbLine
 10
68.06011738833536
 20
49.42777740227331
 30
0.0
 11
68.63035738833538
 21
49.42777740227331
 31
0.0
  0
LINE
  5
A6F
330
19
100
AcDbEntity
  8
TitleBlock&Notes
  6
Continuous
 62
     3
100
AcDbLine
 10
68.67787738833541
 20
49.29662971043331
 30
0.0
 11
69.2124773883354
 21
49.29662971043331
 31
0.0
  0
LINE
  5
A70
330
19
100
AcDbEntity
  8
TitleBlock&Notes
  6
Continuous
 62
     3
100
AcDbLine
 10
68.67787738833541
 20
49.29662971043331
 30
0.0
 11
68.67787738833541
 21
49.6530297104333
 31
0.0
  0
LINE
  5
A71
330
19
100
AcDbEntity
  8
TitleBlock&Notes
  6
Continuous
 62
     3
100
AcDbLine
 10
68.65411738833535
 20
49.6767897104333
 30
0.0
 11
68.65411738833535
 21
49.27286971043331
 31
0.0
  0
LINE
  5
A72
330
19
100
AcDbEntity
  8
TitleBlock&Notes
  6
Continuous
 62
     3
100
AcDbLine
 10
68.65411738833535
 20
49.27286971043331
 30
0.0
 11
69.18871738833542
 21
49.27286971043331
 31
0.0
  0
LINE
  5
A73
330
19
100
AcDbEntity
  8
TitleBlock&Notes
  6
Continuous
 62
     3
100
AcDbLine
 10
69.61639738833536
 20
47.7873648579533
 30
0.0
 11
70.29355738833534
 21
47.79918469763329
 31
0.0
  0
LINE
  5
A74
330
19
100
AcDbEntity
  8
TitleBlock&Notes
  6
Continuous
 62
     3
100
AcDbLine
 10
69.61639738833536
 20
47.7683539592333
 30
0.0
 11
70.29355738833534
 21
47.78017379891331
 31
0.0
  0
LINE
  5
A75
330
19
100
AcDbEntity
  8
TitleBlock&Notes
  6
Continuous
 62
     3
100
AcDbLine
 10
69.61639738833536
 20
47.7493430605133
 30
0.0
 11
70.29355738833534
 21
47.76116290019331
 31
0.0
  0
LINE
  5
A76
330
19
100
AcDbEntity
  8
TitleBlock&Notes
  6
Continuous
 62
     3
100
AcDbLine
 10
69.61639738833536
 20
47.73033216179331
 30
0.0
 11
70.29355738833534
 21
47.74215204899331
 31
0.0
  0
LINE
  5
A77
330
19
100
AcDbEntity
  8
TitleBlock&Notes
  6
Continuous
 62
     3
100
AcDbLine
 10
69.61639738833536
 20
47.71132126307331
 30
0.0
 11
70.29355738833534
 21
47.72314115027329
 31
0.0
  0
LINE
  5
A78
330
19
100
AcDbEntity
  8
TitleBlock&Notes
  6
Continuous
 62
     3
100
AcDbLine
 10
69.61639738833536
 20
48.14118276371331
 30
0.0
 11
70.29355738833534
 21
48.14118276371331
 31
0.0
  0
LINE
  5
A79
330
19
100
AcDbEntity
  8
TitleBlock&Notes
  6
Continuous
 62
     3
100
AcDbLine
 10
69.61639738833536
 20
48.12956093987331
 30
0.0
 11
70.28221008753533
 21
48.14118276371331
 31
0.0
  0
LINE
  5
A7A
330
19
100
AcDbEntity
  8
TitleBlock&Notes
  6
Continuous
 62
     3
100
AcDbLine
 10
69.61639738833536
 20
48.1105500411533
 30
0.0
 11
70.29355738833534
 21
48.1223699283533
 31
0.0
  0
LINE
  5
A7B
330
19
100
AcDbEntity
  8
TitleBlock&Notes
  6
Continuous
 62
     3
100
AcDbLine
 10
69.61639738833536
 20
48.09153918995331
 30
0.0
 11
70.29355738833534
 21
48.10335902963331
 31
0.0
  0
LINE
  5
A7C
330
19
100
AcDbEntity
  8
TitleBlock&Notes
  6
Continuous
 62
     3
100
AcDbLine
 10
69.61639738833536
 20
48.07252829123331
 30
0.0
 11
70.29355738833534
 21
48.08434813091331
 31
0.0
  0
LINE
  5
A7D
330
19
100
AcDbEntity
  8
TitleBlock&Notes
  6
Continuous
 62
     3
100
AcDbLine
 10
69.61639738833536
 20
48.05351739251332
 30
0.0
 11
70.29355738833534
 21
48.0653372321933
 31
0.0
  0
LINE
  5
A7E
330
19
100
AcDbEntity
  8
TitleBlock&Notes
  6
Continuous
 62
     3
100
AcDbLine
 10
69.61639738833536
 20
48.03450649379332
 30
0.0
 11
70.29355738833534
 21
48.0463263334733
 31
0.0
  0
LINE
  5
A7F
330
19
100
AcDbEntity
  8
TitleBlock&Notes
  6
Continuous
 62
     3
100
AcDbLine
 10
69.61639738833536
 20
48.01549559507328
 30
0.0
 11
70.29355738833534
 21
48.02731548227331
 31
0.0
  0
LINE
  5
A80
330
19
100
AcDbEntity
  8
TitleBlock&Notes
  6
Continuous
 62
     3
100
AcDbLine
 10
69.61639738833536
 20
47.9964846963533
 30
0.0
 11
70.29355738833534
 21
48.00830458355331
 31
0.0
  0
LINE
  5
A81
330
19
100
AcDbEntity
  8
TitleBlock&Notes
  6
Continuous
 62
     3
100
AcDbLine
 10
69.61639738833536
 20
47.97747379763332
 30
0.0
 11
70.29355738833534
 21
47.98929368483331
 31
0.0
  0
LINE
  5
A82
330
19
100
AcDbEntity
  8
TitleBlock&Notes
  6
Continuous
 62
     3
100
AcDbLine
 10
69.61639738833536
 20
47.95846289891329
 30
0.0
 11
70.29355738833534
 21
47.97028278611331
 31
0.0
  0
LINE
  5
A83
330
19
100
AcDbEntity
  8
TitleBlock&Notes
  6
Continuous
 62
     3
100
AcDbLine
 10
69.61639738833536
 20
47.93945200019329
 30
0.0
 11
70.29355738833534
 21
47.95127188739331
 31
0.0
  0
LINE
  5
A84
330
19
100
AcDbEntity
  8
TitleBlock&Notes
  6
Continuous
 62
     3
100
AcDbLine
 10
69.61639738833536
 20
47.9204411014733
 30
0.0
 11
70.29355738833534
 21
47.93226098867331
 31
0.0
  0
LINE
  5
A85
330
19
100
AcDbEntity
  8
TitleBlock&Notes
  6
Continuous
 62
     3
100
AcDbLine
 10
69.61639738833536
 20
47.9014302027533
 30
0.0
 11
70.29355738833534
 21
47.91325008995332
 31
0.0
  0
LINE
  5
A86
330
19
100
AcDbEntity
  8
TitleBlock&Notes
  6
Continuous
 62
     3
100
AcDbLine
 10
69.61639738833536
 20
47.8824193040333
 30
0.0
 11
70.29355738833534
 21
47.89423919123329
 31
0.0
  0
LINE
  5
A87
330
19
100
AcDbEntity
  8
TitleBlock&Notes
  6
Continuous
 62
     3
100
AcDbLine
 10
69.61639738833536
 20
47.8634084053133
 30
0.0
 11
70.29355738833534
 21
47.87522829251329
 31
0.0
  0
LINE
  5
A88
330
19
100
AcDbEntity
  8
TitleBlock&Notes
  6
Continuous
 62
     3
100
AcDbLine
 10
69.61639738833536
 20
47.8443975065933
 30
0.0
 11
70.29355738833534
 21
47.8562173937933
 31
0.0
  0
LINE
  5
A89
330
19
100
AcDbEntity
  8
TitleBlock&Notes
  6
Continuous
 62
     3
100
AcDbLine
 10
69.61639738833536
 20
47.8253866553933
 30
0.0
 11
70.29355738833534
 21
47.8372064950733
 31
0.0
  0
LINE
  5
A8A
330
19
100
AcDbEntity
  8
TitleBlock&Notes
  6
Continuous
 62
     3
100
AcDbLine
 10
69.61639738833536
 20
47.80637575667331
 30
0.0
 11
70.29355738833534
 21
47.8181955963533
 31
0.0
  0
LINE
  5
A8B
330
19
100
AcDbEntity
  8
TitleBlock&Notes
  6
Continuous
 62
     3
100
AcDbLine
 10
69.61639738833536
 20
48.7024426241933
 30
0.0
 11
70.29355738833534
 21
48.7024426241933
 31
0.0
  0
LINE
  5
A8C
330
19
100
AcDbEntity
  8
TitleBlock&Notes
  6
Continuous
 62
     3
100
AcDbLine
 10
69.61639738833536
 20
48.6088993141133
 30
0.0
 11
70.29355738833534
 21
48.6088993141133
 31
0.0
  0
LINE
  5
A8D
330
19
100
AcDbEntity
  8
TitleBlock&Notes
  6
Continuous
 62
     3
100
AcDbLine
 10
69.61639738833536
 20
48.23472607379331
 30
0.0
 11
70.29355738833534
 21
48.23472607379331
 31
0.0
  0
LINE
  5
A8E
330
19
100
AcDbEntity
  8
TitleBlock&Notes
  6
Continuous
 62
     3
100
AcDbLine
 10
69.61639738833536
 20
48.58721622323329
 30
0.0
 11
70.29355738833534
 21
48.59903611043332
 31
0.0
  0
LINE
  5
A8F
330
19
100
AcDbEntity
  8
TitleBlock&Notes
  6
Continuous
 62
     3
100
AcDbLine
 10
69.61639738833536
 20
48.5682053245133
 30
0.0
 11
70.29355738833534
 21
48.58002521171329
 31
0.0
  0
LINE
  5
A90
330
19
100
AcDbEntity
  8
TitleBlock&Notes
  6
Continuous
 62
     3
100
AcDbLine
 10
69.61639738833536
 20
48.5491944257933
 30
0.0
 11
70.29355738833534
 21
48.56101431299331
 31
0.0
  0
LINE
  5
A91
330
19
100
AcDbEntity
  8
TitleBlock&Notes
  6
Continuous
 62
     3
100
AcDbLine
 10
69.61639738833536
 20
48.5301835270733
 30
0.0
 11
70.29355738833534
 21
48.54200341427329
 31
0.0
  0
LINE
  5
A92
330
19
100
AcDbEntity
  8
TitleBlock&Notes
  6
Continuous
 62
     3
100
AcDbLine
 10
69.61639738833536
 20
48.5111726283533
 30
0.0
 11
70.29355738833534
 21
48.52299251555329
 31
0.0
  0
LINE
  5
A93
330
19
100
AcDbEntity
  8
TitleBlock&Notes
  6
Continuous
 62
     3
100
AcDbLine
 10
69.61639738833536
 20
48.4921617296333
 30
0.0
 11
70.29355738833534
 21
48.50398161683331
 31
0.0
  0
LINE
  5
A94
330
19
100
AcDbEntity
  8
TitleBlock&Notes
  6
Continuous
 62
     3
100
AcDbLine
 10
69.61639738833536
 20
48.47315083091331
 30
0.0
 11
70.29355738833534
 21
48.4849707181133
 31
0.0
  0
LINE
  5
A95
330
19
100
AcDbEntity
  8
TitleBlock&Notes
  6
Continuous
 62
     3
100
AcDbLine
 10
69.61639738833536
 20
48.45413993219331
 30
0.0
 11
70.29355738833534
 21
48.4659598193933
 31
0.0
  0
LINE
  5
A96
330
19
100
AcDbEntity
  8
TitleBlock&Notes
  6
Continuous
 62
     3
100
AcDbLine
 10
69.61639738833536
 20
48.43512903347331
 30
0.0
 11
70.29355738833534
 21
48.44694892067329
 31
0.0
  0
LINE
  5
A97
330
19
100
AcDbEntity
  8
TitleBlock&Notes
  6
Continuous
 62
     3
100
AcDbLine
 10
69.61639738833536
 20
48.41611818227329
 30
0.0
 11
70.29355738833534
 21
48.4279380219533
 31
0.0
  0
LINE
  5
A98
330
19
100
AcDbEntity
  8
TitleBlock&Notes
  6
Continuous
 62
     3
100
AcDbLine
 10
69.61639738833536
 20
48.39710728355331
 30
0.0
 11
70.29355738833534
 21
48.40892712323331
 31
0.0
  0
LINE
  5
A99
330
19
100
AcDbEntity
  8
TitleBlock&Notes
  6
Continuous
 62
     3
100
AcDbLine
 10
69.61639738833536
 20
48.37809638483332
 30
0.0
 11
70.29355738833534
 21
48.3899162245133
 31
0.0
  0
LINE
  5
A9A
330
19
100
AcDbEntity
  8
TitleBlock&Notes
  6
Continuous
 62
     3
100
AcDbLine
 10
69.61639738833536
 20
48.3590854861133
 30
0.0
 11
70.29355738833534
 21
48.37090532579331
 31
0.0
  0
LINE
  5
A9B
330
19
100
AcDbEntity
  8
TitleBlock&Notes
  6
Continuous
 62
     3
100
AcDbLine
 10
69.61639738833536
 20
48.34007458739332
 30
0.0
 11
70.29355738833534
 21
48.35189447459331
 31
0.0
  0
LINE
  5
A9C
330
19
100
AcDbEntity
  8
TitleBlock&Notes
  6
Continuous
 62
     3
100
AcDbLine
 10
69.61639738833536
 20
48.32106368867329
 30
0.0
 11
70.29355738833534
 21
48.33288357587331
 31
0.0
  0
LINE
  5
A9D
330
19
100
AcDbEntity
  8
TitleBlock&Notes
  6
Continuous
 62
     3
100
AcDbLine
 10
69.61639738833536
 20
48.30205278995331
 30
0.0
 11
70.29355738833534
 21
48.31387267715332
 31
0.0
  0
LINE
  5
A9E
330
19
100
AcDbEntity
  8
TitleBlock&Notes
  6
Continuous
 62
     3
100
AcDbLine
 10
69.61639738833536
 20
48.28304189123333
 30
0.0
 11
70.29355738833534
 21
48.29486177843332
 31
0.0
  0
LINE
  5
A9F
330
19
100
AcDbEntity
  8
TitleBlock&Notes
  6
Continuous
 62
     3
100
AcDbLine
 10
69.61639738833536
 20
48.26403099251329
 30
0.0
 11
70.29355738833534
 21
48.27585087971332
 31
0.0
  0
LINE
  5
AA0
330
19
100
AcDbEntity
  8
TitleBlock&Notes
  6
Continuous
 62
     3
100
AcDbLine
 10
69.61639738833536
 20
48.24502009379331
 30
0.0
 11
70.29355738833534
 21
48.25683998099332
 31
0.0
  0
LINE
  5
AA1
330
19
100
AcDbEntity
  8
TitleBlock&Notes
  6
Continuous
 62
     3
100
AcDbLine
 10
69.61639738833536
 20
48.87659601107332
 30
0.0
 11
70.29355738833534
 21
48.88841589827329
 31
0.0
  0
LINE
  5
AA2
330
19
100
AcDbEntity
  8
TitleBlock&Notes
  6
Continuous
 62
     3
100
AcDbLine
 10
69.61639738833536
 20
48.8575851123533
 30
0.0
 11
70.29355738833534
 21
48.86940499955331
 31
0.0
  0
LINE
  5
AA3
330
19
100
AcDbEntity
  8
TitleBlock&Notes
  6
Continuous
 62
     3
100
AcDbLine
 10
69.61639738833536
 20
48.8385742136333
 30
0.0
 11
70.29355738833534
 21
48.85039410083329
 31
0.0
  0
LINE
  5
AA4
330
19
100
AcDbEntity
  8
TitleBlock&Notes
  6
Continuous
 62
     3
100
AcDbLine
 10
69.61639738833536
 20
48.81956331491331
 30
0.0
 11
70.29355738833534
 21
48.8313832021133
 31
0.0
  0
LINE
  5
AA5
330
19
100
AcDbEntity
  8
TitleBlock&Notes
  6
Continuous
 62
     3
100
AcDbLine
 10
69.61639738833536
 20
48.80055241619331
 30
0.0
 11
70.29355738833534
 21
48.8123723033933
 31
0.0
  0
LINE
  5
AA6
330
19
100
AcDbEntity
  8
TitleBlock&Notes
  6
Continuous
 62
     3
100
AcDbLine
 10
69.61639738833536
 20
48.78154151747331
 30
0.0
 11
70.29355738833534
 21
48.7933614046733
 31
0.0
  0
LINE
  5
AA7
330
19
100
AcDbEntity
  8
TitleBlock&Notes
  6
Continuous
 62
     3
100
AcDbLine
 10
69.61639738833536
 20
48.7625306187533
 30
0.0
 11
70.29355738833534
 21
48.7743505059533
 31
0.0
  0
LINE
  5
AA8
330
19
100
AcDbEntity
  8
TitleBlock&Notes
  6
Continuous
 62
     3
100
AcDbLine
 10
69.61639738833536
 20
48.74351972003331
 30
0.0
 11
70.29355738833534
 21
48.75533960723331
 31
0.0
  0
LINE
  5
AA9
330
19
100
AcDbEntity
  8
TitleBlock&Notes
  6
Continuous
 62
     3
100
AcDbLine
 10
69.61639738833536
 20
48.72450882131332
 30
0.0
 11
70.29355738833534
 21
48.73632870851331
 31
0.0
  0
LINE
  5
AAA
330
19
100
AcDbEntity
  8
TitleBlock&Notes
  6
Continuous
 62
     3
100
AcDbLine
 10
69.61639738833536
 20
48.70549792259331
 30
0.0
 11
70.29355738833534
 21
48.7173178097933
 31
0.0
  0
LINE
  5
AAB
330
19
100
AcDbEntity
  8
TitleBlock&Notes
  6
Continuous
 62
     3
100
AcDbLine
 10
70.11578620881533
 20
48.23472607379331
 30
0.0
 11
70.29355738833534
 21
48.23782908227332
 31
0.0
  0
LINE
  5
AAC
330
19
100
AcDbEntity
  8
TitleBlock&Notes
  6
Continuous
 62
     3
100
AcDbLine
 10
69.61639738833536
 20
48.60622712195333
 30
0.0
 11
69.76948667985538
 21
48.6088993141133
 31
0.0
  0
LINE
  5
AAD
330
19
100
AcDbEntity
  8
TitleBlock&Notes
  6
Continuous
 62
     3
100
AcDbLine
 10
70.74499738833535
 20
48.60691601939329
 30
0.0
 11
70.85862017937542
 21
48.6088993141133
 31
0.0
  0
LINE
  5
AAE
330
19
100
AcDbEntity
  8
TitleBlock&Notes
  6
Continuous
 62
     3
100
AcDbLine
 10
69.61639738833536
 20
48.9363008518733
 30
0.0
 11
70.29355738833534
 21
48.9363008518733
 31
0.0
  0
LINE
  5
AAF
330
19
100
AcDbEntity
  8
TitleBlock&Notes
  6
Continuous
 62
     3
100
AcDbLine
 10
69.61639738833536
 20
48.91461780851333
 30
0.0
 11
70.29355738833534
 21
48.92643764819331
 31
0.0
  0
LINE
  5
AB0
330
19
100
AcDbEntity
  8
TitleBlock&Notes
  6
Continuous
 62
     3
100
AcDbLine
 10
69.61639738833536
 20
48.8956069097933
 30
0.0
 11
70.29355738833534
 21
48.90742674947332
 31
0.0
  0
LINE
  5
AB1
330
19
100
AcDbEntity
  8
TitleBlock&Notes
  6
Continuous
 62
     3
100
AcDbLine
 10
69.61639738833536
 20
49.1233874720333
 30
0.0
 11
70.29355738833534
 21
49.1233874720333
 31
0.0
  0
LINE
  5
AB2
330
19
100
AcDbEntity
  8
TitleBlock&Notes
  6
Continuous
 62
     3
100
AcDbLine
 10
69.61639738833536
 20
49.09962747203332
 30
0.0
 11
70.29355738833534
 21
49.09962747203332
 31
0.0
  0
LINE
  5
AB3
330
19
100
AcDbEntity
  8
TitleBlock&Notes
  6
Continuous
 62
     3
100
AcDbLine
 10
69.61639738833536
 20
49.02984416195329
 30
0.0
 11
70.29355738833534
 21
49.02984416195329
 31
0.0
  0
LINE
  5
AB4
330
19
100
AcDbEntity
  8
TitleBlock&Notes
  6
Continuous
 62
     3
100
AcDbLine
 10
69.61639738833536
 20
49.07586747203331
 30
0.0
 11
70.29355738833534
 21
49.07586747203331
 31
0.0
  0
LINE
  5
AB5
330
19
100
AcDbEntity
  8
TitleBlock&Notes
  6
Continuous
 62
     3
100
AcDbLine
 10
69.61639738833536
 20
49.05210747203331
 30
0.0
 11
70.29355738833534
 21
49.05210747203331
 31
0.0
  0
LINE
  5
AB6
330
19
100
AcDbEntity
  8
TitleBlock&Notes
  6
Continuous
 62
     3
100
AcDbLine
 10
70.15099738833535
 20
49.40401740227331
 30
0.0
 11
70.29355738833534
 21
49.40401740227331
 31
0.0
  0
LINE
  5
AB7
330
19
100
AcDbEntity
  8
TitleBlock&Notes
  6
Continuous
 62
     3
100
AcDbLine
 10
70.15099738833535
 20
49.47529740227333
 30
0.0
 11
70.29355738833534
 21
49.47529740227333
 31
0.0
  0
LINE
  5
AB8
330
19
100
AcDbEntity
  8
TitleBlock&Notes
  6
Continuous
 62
     3
100
AcDbLine
 10
70.15099738833535
 20
49.42777740227331
 30
0.0
 11
70.29355738833534
 21
49.42777740227331
 31
0.0
  0
LINE
  5
AB9
330
19
100
AcDbEntity
  8
TitleBlock&Notes
  6
Continuous
 62
     3
100
AcDbLine
 10
70.15099738833535
 20
49.4515374022733
 30
0.0
 11
70.29355738833534
 21
49.4515374022733
 31
0.0
  0
LINE
  5
ABA
330
19
100
AcDbEntity
  8
TitleBlock&Notes
  6
Continuous
 62
     3
100
AcDbLine
 10
69.61639738833536
 20
48.93362870723331
 30
0.0
 11
69.76948667985538
 21
48.9363008518733
 31
0.0
  0
LINE
  5
ABB
330
19
100
AcDbEntity
  8
TitleBlock&Notes
  6
Continuous
 62
     3
100
AcDbLine
 10
69.61639738833536
 20
49.24910971043331
 30
0.0
 11
70.15099738833535
 21
49.24910971043331
 31
0.0
  0
LINE
  5
ABC
330
19
100
AcDbEntity
  8
TitleBlock&Notes
  6
Continuous
 62
     3
100
AcDbLine
 10
69.59263738833539
 20
49.27286971043331
 30
0.0
 11
70.12723738833537
 21
49.27286971043331
 31
0.0
  0
LINE
  5
ABD
330
19
100
AcDbEntity
  8
TitleBlock&Notes
  6
Continuous
 62
     3
100
AcDbLine
 10
70.10347738833537
 20
49.29662971043331
 30
0.0
 11
69.56887738833541
 21
49.29662971043331
 31
0.0
  0
LINE
  5
ABE
330
19
100
AcDbEntity
  8
TitleBlock&Notes
  6
Continuous
 62
     3
100
AcDbLine
 10
70.10347738833537
 20
49.6530297104333
 30
0.0
 11
70.10347738833537
 21
49.29662971043331
 31
0.0
  0
LINE
  5
ABF
330
19
100
AcDbEntity
  8
TitleBlock&Notes
  6
Continuous
 62
     3
100
AcDbLine
 10
70.15099738833535
 20
49.24910971043331
 30
0.0
 11
70.15099738833535
 21
49.70054971043332
 31
0.0
  0
LINE
  5
AC0
330
19
100
AcDbEntity
  8
TitleBlock&Notes
  6
Continuous
 62
     3
100
AcDbLine
 10
70.12723738833537
 20
49.27286971043331
 30
0.0
 11
70.12723738833537
 21
49.6767897104333
 31
0.0
  0
LINE
  5
AC1
330
19
100
AcDbEntity
  8
TitleBlock&Notes
  6
Continuous
 62
     3
100
AcDbLine
 10
70.74499738833535
 20
48.93431760467329
 30
0.0
 11
70.85862017937542
 21
48.9363008518733
 31
0.0
  0
LINE
  5
AC2
330
19
100
AcDbEntity
  8
TitleBlock&Notes
  6
Continuous
 62
     3
100
AcDbLine
 10
70.34107738833538
 20
49.6530297104333
 30
0.0
 11
70.69747738833538
 21
49.6530297104333
 31
0.0
  0
LINE
  5
AC3
330
19
100
AcDbEntity
  8
TitleBlock&Notes
  6
Continuous
 62
     3
100
AcDbLine
 10
70.29355738833534
 20
49.70054971043332
 30
0.0
 11
70.74499738833535
 21
49.70054971043332
 31
0.0
  0
LINE
  5
AC4
330
19
100
AcDbEntity
  8
TitleBlock&Notes
  6
Continuous
 62
     3
100
AcDbLine
 10
70.31731738833539
 20
49.6767897104333
 30
0.0
 11
70.72123738833536
 21
49.6767897104333
 31
0.0
  0
LINE
  5
AC6
330
19
100
AcDbEntity
  8
TitleBlock&Notes
 62
     3
100
AcDbLine
 10
85.80668587281541
 20
54.57976859123331
 30
0.0
 11
85.80668587281541
 21
45.78856859123331
 31
0.0
  0
TEXT
  5
AC7
330
19
100
AcDbEntity
  8
TitleBlock&Notes
  6
Continuous
 62
     3
100
AcDbText
 10
78.08049082207251
 20
46.62736840759947
 30
0.0
 40
0.3041279999999999
  1
FAX (905) 951-0672
 41
1.282051279999999
100
AcDbText
  0
TEXT
  5
AC8
330
19
100
AcDbEntity
  8
TitleBlock&Notes
  6
Continuous
 62
     3
100
AcDbText
 10
78.91101388908509
 20
47.16184101048777
 30
0.0
 40
0.3041279999999999
  1
(905) 951-0670 
 41
1.282051279999999
100
AcDbText
  0
TEXT
  5
AC9
330
19
100
AcDbEntity
  8
TitleBlock&Notes
  6
Continuous
 62
     3
100
AcDbText
 10
77.55820447192366
 20
49.74337820042254
 30
0.0
 40
0.7128000000000001
  1
MULTICYL  Inc.
 41
0.85470085
100
AcDbText
  0
TEXT
  5
ACA
330
19
100
AcDbEntity
  8
TitleBlock&Notes
  6
Continuous
 62
     3
100
AcDbText
 10
78.17720665866506
 20
49.0237401156763
 30
0.0
 40
0.38016
  1
640 Hardwick Road, Unit 5
 41
0.7000000000000001
100
AcDbText
  0
LINE
  5
ACB
330
19
100
AcDbEntity
  8
TitleBlock&Notes
  6
Continuous
 62
     3
100
AcDbLine
 10
75.80587738833543
 20
47.5146297104333
 30
0.0
 11
75.80587738833543
 21
47.9660697104333
 31
0.0
  0
LINE
  5
ACC
330
19
100
AcDbEntity
  8
TitleBlock&Notes
  6
Continuous
 62
     3
100
AcDbLine
 10
75.78211738833537
 20
47.53838971043329
 30
0.0
 11
75.78211738833537
 21
47.9423097104333
 31
0.0
  0
LINE
  5
ACD
330
19
100
AcDbEntity
  8
TitleBlock&Notes
  6
Continuous
 62
     3
100
AcDbLine
 10
75.75835738833538
 20
47.56214971043329
 30
0.0
 11
75.75835738833538
 21
47.9185497104333
 31
0.0
  0
LINE
  5
ACE
330
19
100
AcDbEntity
  8
TitleBlock&Notes
  6
Continuous
 62
     3
100
AcDbLine
 10
75.80587738833543
 20
47.6862827849933
 30
0.0
 11
76.33074885633539
 21
47.69544445091331
 31
0.0
  0
LINE
  5
ACF
330
19
100
AcDbEntity
  8
TitleBlock&Notes
  6
Continuous
 62
     3
100
AcDbLine
 10
74.49907738833537
 20
47.56214971043329
 30
0.0
 11
74.49907738833537
 21
49.6530297104333
 31
0.0
  0
LINE
  5
AD0
330
19
100
AcDbEntity
  8
TitleBlock&Notes
  6
Continuous
 62
     3
100
AcDbLine
 10
74.45155738833534
 20
49.70054971043332
 30
0.0
 11
74.45155738833534
 21
47.5146297104333
 31
0.0
  0
LINE
  5
AD1
330
19
100
AcDbEntity
  8
TitleBlock&Notes
  6
Continuous
 62
     3
100
AcDbLine
 10
74.47531738833541
 20
49.6767897104333
 30
0.0
 11
74.47531738833541
 21
47.53838971043329
 31
0.0
  0
LINE
  5
AD2
330
19
100
AcDbEntity
  8
TitleBlock&Notes
  6
Continuous
 62
     3
100
AcDbLine
 10
72.40526445393536
 20
47.68395753635331
 30
0.0
 11
73.26355738833537
 21
47.69893907171331
 31
0.0
  0
LINE
  5
AD3
330
19
100
AcDbEntity
  8
TitleBlock&Notes
  6
Continuous
 62
     3
100
AcDbLine
 10
73.31107738833537
 20
47.56214971043329
 30
0.0
 11
73.31107738833537
 21
48.27494971043332
 31
0.0
  0
LINE
  5
AD4
330
19
100
AcDbEntity
  8
TitleBlock&Notes
  6
Continuous
 62
     3
100
AcDbLine
 10
73.66747738833538
 20
47.56214971043329
 30
0.0
 11
73.66747738833538
 21
48.27494971043332
 31
0.0
  0
LINE
  5
AD5
330
19
100
AcDbEntity
  8
TitleBlock&Notes
  6
Continuous
 62
     3
100
AcDbLine
 10
73.26355738833537
 20
48.26514433859331
 30
0.0
 11
73.26355738833537
 21
47.5146297104333
 31
0.0
  0
LINE
  5
AD6
330
19
100
AcDbEntity
  8
TitleBlock&Notes
  6
Continuous
 62
     3
100
AcDbLine
 10
73.71499738833534
 20
47.5146297104333
 30
0.0
 11
73.71499738833534
 21
48.26514433859331
 31
0.0
  0
LINE
  5
AD7
330
19
100
AcDbEntity
  8
TitleBlock&Notes
  6
Continuous
 62
     3
100
AcDbLine
 10
73.69123738833536
 20
48.27004702451332
 30
0.0
 11
73.69123738833536
 21
47.53838971043329
 31
0.0
  0
LINE
  5
AD8
330
19
100
AcDbEntity
  8
TitleBlock&Notes
  6
Continuous
 62
     3
100
AcDbLine
 10
73.28731738833541
 20
47.53838971043329
 30
0.0
 11
73.28731738833541
 21
48.27004702451332
 31
0.0
  0
ARC
  5
AD9
330
19
100
AcDbEntity
  8
TitleBlock&Notes
  6
Continuous
 62
     3
100
AcDbCircle
 10
71.8854773883354
 20
48.39709093667329
 30
0.0
 40
0.8349412737599999
100
AcDbArc
 50
185.1275404200005
 51
354.8724595800011
  0
ARC
  5
ADA
330
19
100
AcDbEntity
  8
TitleBlock&Notes
  6
Continuous
 62
     3
100
AcDbCircle
 10
71.8854773883354
 20
48.39709093667329
 30
0.0
 40
0.8824612737599998
100
AcDbArc
 50
184.9874829000006
 51
358.2401137300006
  0
ARC
  5
ADB
330
19
100
AcDbEntity
  8
TitleBlock&Notes
  6
Continuous
 62
     3
100
AcDbCircle
 10
71.8854773883354
 20
48.39709093667329
 30
0.0
 40
0.8587012737599998
100
AcDbArc
 50
184.9874829000006
 51
356.6043585300009
  0
LINE
  5
ADC
330
19
100
AcDbEntity
  8
TitleBlock&Notes
  6
Continuous
 62
     3
100
AcDbLine
 10
73.71499738833534
 20
47.68780812947331
 30
0.0
 11
74.45155738833534
 21
47.70066480803329
 31
0.0
  0
LINE
  5
ADD
330
19
100
AcDbEntity
  8
TitleBlock&Notes
  6
Continuous
 62
     3
100
AcDbLine
 10
76.33074885633539
 20
51.1345685912333
 30
0.0
 11
76.33074885633539
 21
45.78856859123329
 31
0.0
  0
TEXT
  5
ADE
330
19
100
AcDbEntity
  8
TitleBlock&Notes
  6
Continuous
 62
     3
100
AcDbText
 10
72.19126003473538
 20
46.40748589331332
 30
0.0
 40
0.33264
  1
 HYDRAULICS
 41
0.8
 51
11.0
100
AcDbText
  0
LINE
  5
ADF
330
19
100
AcDbEntity
  8
TitleBlock&Notes
  6
Continuous
 62
     3
100
AcDbLine
 10
71.14795890993537
 20
47.20574971043331
 30
0.0
 11
76.33074885633539
 21
47.29621562531331
 31
0.0
  0
LINE
  5
AE0
330
19
100
AcDbEntity
  8
TitleBlock&Notes
  6
Continuous
 62
     3
100
AcDbLine
 10
72.23709236193539
 20
47.20574971043331
 30
0.0
 11
76.33074885633539
 21
47.27720472659332
 31
0.0
  0
LINE
  5
AE1
330
19
100
AcDbEntity
  8
TitleBlock&Notes
  6
Continuous
 62
     3
100
AcDbLine
 10
73.32622586145538
 20
47.20574971043331
 30
0.0
 11
76.33074885633539
 21
47.25819382787331
 31
0.0
  0
LINE
  5
AE2
330
19
100
AcDbEntity
  8
TitleBlock&Notes
  6
Continuous
 62
     3
100
AcDbLine
 10
73.71499738833534
 20
47.66879723075333
 30
0.0
 11
74.45155738833534
 21
47.68165390931329
 31
0.0
  0
LINE
  5
AE3
330
19
100
AcDbEntity
  8
TitleBlock&Notes
  6
Continuous
 62
     3
100
AcDbLine
 10
73.71499738833534
 20
47.64978633203329
 30
0.0
 11
74.45155738833534
 21
47.66264301059329
 31
0.0
  0
LINE
  5
AE4
330
19
100
AcDbEntity
  8
TitleBlock&Notes
  6
Continuous
 62
     3
100
AcDbLine
 10
73.71499738833534
 20
47.6307754333133
 30
0.0
 11
74.45155738833534
 21
47.6436321118733
 31
0.0
  0
LINE
  5
AE5
330
19
100
AcDbEntity
  8
TitleBlock&Notes
  6
Continuous
 62
     3
100
AcDbLine
 10
73.71499738833534
 20
47.6117645345933
 30
0.0
 11
74.45155738833534
 21
47.6246212131533
 31
0.0
  0
LINE
  5
AE6
330
19
100
AcDbEntity
  8
TitleBlock&Notes
  6
Continuous
 62
     3
100
AcDbLine
 10
73.71499738833534
 20
47.5927536358733
 30
0.0
 11
74.45155738833534
 21
47.6056103144333
 31
0.0
  0
LINE
  5
AE7
330
19
100
AcDbEntity
  8
TitleBlock&Notes
  6
Continuous
 62
     3
100
AcDbLine
 10
73.71499738833534
 20
47.5737427371533
 30
0.0
 11
74.45155738833534
 21
47.58659946323331
 31
0.0
  0
LINE
  5
AE8
330
19
100
AcDbEntity
  8
TitleBlock&Notes
  6
Continuous
 62
     3
100
AcDbLine
 10
73.71499738833534
 20
47.55473183843331
 30
0.0
 11
74.45155738833534
 21
47.56758856451331
 31
0.0
  0
LINE
  5
AE9
330
19
100
AcDbEntity
  8
TitleBlock&Notes
  6
Continuous
 62
     3
100
AcDbLine
 10
73.71499738833534
 20
47.53572093971331
 30
0.0
 11
74.45155738833534
 21
47.5485776657933
 31
0.0
  0
LINE
  5
AEA
330
19
100
AcDbEntity
  8
TitleBlock&Notes
  6
Continuous
 62
     3
100
AcDbLine
 10
73.71499738833534
 20
47.5167100409933
 30
0.0
 11
74.45155738833534
 21
47.5295667670733
 31
0.0
  0
LINE
  5
AEB
330
19
100
AcDbEntity
  8
TitleBlock&Notes
  6
Continuous
 62
     3
100
AcDbLine
 10
72.3774023849754
 20
47.6644603179533
 30
0.0
 11
73.26355738833537
 21
47.67992822051332
 31
0.0
  0
LINE
  5
AEC
330
19
100
AcDbEntity
  8
TitleBlock&Notes
  6
Continuous
 62
     3
100
AcDbLine
 10
72.34696843857538
 20
47.6449181931533
 30
0.0
 11
73.26355738833537
 21
47.66091732179332
 31
0.0
  0
LINE
  5
AED
330
19
100
AcDbEntity
  8
TitleBlock&Notes
  6
Continuous
 62
     3
100
AcDbLine
 10
72.31339009377539
 20
47.62532118275331
 30
0.0
 11
73.26355738833537
 21
47.64190642307329
 31
0.0
  0
LINE
  5
AEE
330
19
100
AcDbEntity
  8
TitleBlock&Notes
  6
Continuous
 62
     3
100
AcDbLine
 10
72.27581845329542
 20
47.60565446051332
 30
0.0
 11
73.26355738833537
 21
47.62289552435329
 31
0.0
  0
LINE
  5
AEF
330
19
100
AcDbEntity
  8
TitleBlock&Notes
  6
Continuous
 62
     3
100
AcDbLine
 10
72.23289335217535
 20
47.58589431395331
 30
0.0
 11
73.26355738833537
 21
47.60388462563329
 31
0.0
  0
LINE
  5
AF0
330
19
100
AcDbEntity
  8
TitleBlock&Notes
  6
Continuous
 62
     3
100
AcDbLine
 10
72.18216275841538
 20
47.5659979275533
 30
0.0
 11
73.26355738833537
 21
47.58487372691329
 31
0.0
  0
LINE
  5
AF1
330
19
100
AcDbEntity
  8
TitleBlock&Notes
  6
Continuous
 62
     3
100
AcDbLine
 10
72.11820425985537
 20
47.54587059395331
 30
0.0
 11
73.26355738833537
 21
47.5658628281933
 31
0.0
  0
LINE
  5
AF2
330
19
100
AcDbEntity
  8
TitleBlock&Notes
  6
Continuous
 62
     3
100
AcDbLine
 10
72.02146936401537
 20
47.52517121459329
 30
0.0
 11
73.26355738833537
 21
47.5468519294733
 31
0.0
  0
TEXT
  5
AF3
330
19
100
AcDbEntity
  8
TitleBlock&Notes
  6
Continuous
 62
     3
100
AcDbText
 10
71.44439522769541
 20
46.40748589331332
 30
0.0
 40
0.33264
  1
 of
 41
0.8
 51
11.0
100
AcDbText
  0
LINE
  5
AF4
330
19
100
AcDbEntity
  8
TitleBlock&Notes
  6
Continuous
 62
     3
100
AcDbLine
 10
73.26355738833537
 20
47.5146297104333
 30
0.0
 11
73.71499738833534
 21
47.5146297104333
 31
0.0
  0
LINE
  5
AF5
330
19
100
AcDbEntity
  8
TitleBlock&Notes
  6
Continuous
 62
     3
100
AcDbLine
 10
73.31107738833537
 20
47.56214971043329
 30
0.0
 11
73.66747738833538
 21
47.56214971043329
 31
0.0
  0
LINE
  5
AF6
330
19
100
AcDbEntity
  8
TitleBlock&Notes
  6
Continuous
 62
     3
100
AcDbLine
 10
73.69123738833536
 20
47.53838971043329
 30
0.0
 11
73.28731738833541
 21
47.53838971043329
 31
0.0
  0
LINE
  5
AF7
330
19
100
AcDbEntity
  8
TitleBlock&Notes
  6
Continuous
 62
     3
100
AcDbLine
 10
74.49907738833537
 20
47.56214971043329
 30
0.0
 11
75.75835738833538
 21
47.56214971043329
 31
0.0
  0
LINE
  5
AF8
330
19
100
AcDbEntity
  8
TitleBlock&Notes
  6
Continuous
 62
     3
100
AcDbLine
 10
74.45155738833534
 20
47.5146297104333
 30
0.0
 11
75.80587738833543
 21
47.5146297104333
 31
0.0
  0
LINE
  5
AF9
330
19
100
AcDbEntity
  8
TitleBlock&Notes
  6
Continuous
 62
     3
100
AcDbLine
 10
74.47531738833541
 20
47.53838971043329
 30
0.0
 11
75.78211738833537
 21
47.53838971043329
 31
0.0
  0
LINE
  5
AFA
330
19
100
AcDbEntity
  8
TitleBlock&Notes
  6
Continuous
 62
     3
100
AcDbLine
 10
75.5044928129754
 20
47.20574971043331
 30
0.0
 11
76.33074885633539
 21
47.2201720304333
 31
0.0
  0
LINE
  5
AFB
330
19
100
AcDbEntity
  8
TitleBlock&Notes
  6
Continuous
 62
     3
100
AcDbLine
 10
74.4153593134554
 20
47.20574971043331
 30
0.0
 11
76.33074885633539
 21
47.23918292915328
 31
0.0
  0
LINE
  5
AFC
330
19
100
AcDbEntity
  8
TitleBlock&Notes
  6
Continuous
 62
     3
100
AcDbLine
 10
75.80587738833543
 20
47.66727188627331
 30
0.0
 11
76.33074885633539
 21
47.6764335521933
 31
0.0
  0
LINE
  5
AFD
330
19
100
AcDbEntity
  8
TitleBlock&Notes
  6
Continuous
 62
     3
100
AcDbLine
 10
75.80587738833543
 20
47.64826098755331
 30
0.0
 11
76.33074885633539
 21
47.6574226534733
 31
0.0
  0
LINE
  5
AFE
330
19
100
AcDbEntity
  8
TitleBlock&Notes
  6
Continuous
 62
     3
100
AcDbLine
 10
75.80587738833543
 20
47.62925008883328
 30
0.0
 11
76.33074885633539
 21
47.6384117547533
 31
0.0
  0
LINE
  5
AFF
330
19
100
AcDbEntity
  8
TitleBlock&Notes
  6
Continuous
 62
     3
100
AcDbLine
 10
75.80587738833543
 20
47.61023919011329
 30
0.0
 11
76.33074885633539
 21
47.6194008560333
 31
0.0
  0
LINE
  5
B00
330
19
100
AcDbEntity
  8
TitleBlock&Notes
  6
Continuous
 62
     3
100
AcDbLine
 10
75.80587738833543
 20
47.59122829139331
 30
0.0
 11
76.33074885633539
 21
47.6003899573133
 31
0.0
  0
LINE
  5
B01
330
19
100
AcDbEntity
  8
TitleBlock&Notes
  6
Continuous
 62
     3
100
AcDbLine
 10
75.80587738833543
 20
47.57221739267329
 30
0.0
 11
76.33074885633539
 21
47.58137905859331
 31
0.0
  0
LINE
  5
B02
330
19
100
AcDbEntity
  8
TitleBlock&Notes
  6
Continuous
 62
     3
100
AcDbLine
 10
75.80587738833543
 20
47.55320649395329
 30
0.0
 11
76.33074885633539
 21
47.56236815987331
 31
0.0
  0
LINE
  5
B03
330
19
100
AcDbEntity
  8
TitleBlock&Notes
  6
Continuous
 62
     3
100
AcDbLine
 10
75.80587738833543
 20
47.53419559523329
 30
0.0
 11
76.33074885633539
 21
47.54335726115331
 31
0.0
  0
LINE
  5
B04
330
19
100
AcDbEntity
  8
TitleBlock&Notes
  6
Continuous
 62
     3
100
AcDbLine
 10
75.80587738833543
 20
47.5151846965133
 30
0.0
 11
76.33074885633539
 21
47.52434636243331
 31
0.0
  0
LINE
  5
B06
330
19
100
AcDbEntity
  8
TitleBlock&Notes
  6
Continuous
 62
     3
100
AcDbLine
 10
74.0033661406554
 20
48.9341599333133
 30
0.0
 11
74.12602058289539
 21
48.9363008518733
 31
0.0
  0
LINE
  5
B07
330
19
100
AcDbEntity
  8
TitleBlock&Notes
  6
Continuous
 62
     3
100
AcDbLine
 10
73.86117499089539
 20
48.6042764259533
 30
0.0
 11
74.12602058289539
 21
48.6088993141133
 31
0.0
  0
LINE
  5
B08
330
19
100
AcDbEntity
  8
TitleBlock&Notes
  6
Continuous
 62
     3
100
AcDbLine
 10
74.33370655281539
 20
49.70054971043332
 30
0.0
 11
73.84211543169538
 21
49.70054971043332
 31
0.0
  0
LINE
  5
B09
330
19
100
AcDbEntity
  8
TitleBlock&Notes
  6
Continuous
 62
     3
100
AcDbLine
 10
73.85774723073537
 20
49.6767897104333
 30
0.0
 11
74.29759197057538
 21
49.6767897104333
 31
0.0
  0
LINE
  5
B0A
330
19
100
AcDbEntity
  8
TitleBlock&Notes
  6
Continuous
 62
     3
100
AcDbLine
 10
73.8733790772954
 20
49.6530297104333
 30
0.0
 11
74.26147738833538
 21
49.6530297104333
 31
0.0
  0
LINE
  5
B0B
330
19
100
AcDbEntity
  8
TitleBlock&Notes
  6
Continuous
 62
     3
100
AcDbLine
 10
73.66747738833538
 20
48.27494971043332
 30
0.0
 11
74.26147738833538
 21
49.6530297104333
 31
0.0
  0
LINE
  5
B0C
330
19
100
AcDbEntity
  8
TitleBlock&Notes
  6
Continuous
 62
     3
100
AcDbLine
 10
73.71499738833534
 20
48.26514433859331
 30
0.0
 11
74.33370655281539
 21
49.70054971043332
 31
0.0
  0
LINE
  5
B0D
330
19
100
AcDbEntity
  8
TitleBlock&Notes
  6
Continuous
 62
     3
100
AcDbLine
 10
73.69123738833536
 20
48.27004702451332
 30
0.0
 11
74.29759197057538
 21
49.6767897104333
 31
0.0
  0
LINE
  5
B0E
330
19
100
AcDbEntity
  8
TitleBlock&Notes
  6
Continuous
 62
     3
100
AcDbLine
 10
73.71499738833534
 20
47.80187347427331
 30
0.0
 11
74.45155738833534
 21
47.8147302003533
 31
0.0
  0
LINE
  5
B0F
330
19
100
AcDbEntity
  8
TitleBlock&Notes
  6
Continuous
 62
     3
100
AcDbLine
 10
73.71499738833534
 20
47.78286257555331
 30
0.0
 11
74.45155738833534
 21
47.79571930163331
 31
0.0
  0
LINE
  5
B10
330
19
100
AcDbEntity
  8
TitleBlock&Notes
  6
Continuous
 62
     3
100
AcDbLine
 10
73.71499738833534
 20
47.76385167683331
 30
0.0
 11
74.45155738833534
 21
47.77670840291331
 31
0.0
  0
LINE
  5
B11
330
19
100
AcDbEntity
  8
TitleBlock&Notes
  6
Continuous
 62
     3
100
AcDbLine
 10
73.71499738833534
 20
47.74484077811331
 30
0.0
 11
74.45155738833534
 21
47.75769750419331
 31
0.0
  0
LINE
  5
B12
330
19
100
AcDbEntity
  8
TitleBlock&Notes
  6
Continuous
 62
     3
100
AcDbLine
 10
73.71499738833534
 20
47.72582987939331
 30
0.0
 11
74.45155738833534
 21
47.73868660547331
 31
0.0
  0
LINE
  5
B13
330
19
100
AcDbEntity
  8
TitleBlock&Notes
  6
Continuous
 62
     3
100
AcDbLine
 10
73.71499738833534
 20
47.70681902819329
 30
0.0
 11
74.45155738833534
 21
47.71967570675329
 31
0.0
  0
LINE
  5
B14
330
19
100
AcDbEntity
  8
TitleBlock&Notes
  6
Continuous
 62
     3
100
AcDbLine
 10
74.00428897905538
 20
48.9363008518733
 30
0.0
 11
74.45155738833534
 21
48.9363008518733
 31
0.0
  0
LINE
  5
B15
330
19
100
AcDbEntity
  8
TitleBlock&Notes
  6
Continuous
 62
     3
100
AcDbLine
 10
74.04460936641541
 20
49.02984416195329
 30
0.0
 11
74.45155738833534
 21
49.02984416195329
 31
0.0
  0
LINE
  5
B16
330
19
100
AcDbEntity
  8
TitleBlock&Notes
  6
Continuous
 62
     3
100
AcDbLine
 10
73.99510968321536
 20
48.9150049064333
 30
0.0
 11
74.45155738833534
 21
48.9229722521933
 31
0.0
  0
LINE
  5
B17
330
19
100
AcDbEntity
  8
TitleBlock&Notes
  6
Continuous
 62
     3
100
AcDbLine
 10
73.98685322577538
 20
48.8958499270733
 30
0.0
 11
74.45155738833534
 21
48.9039613534733
 31
0.0
  0
LINE
  5
B18
330
19
100
AcDbEntity
  8
TitleBlock&Notes
  6
Continuous
 62
     3
100
AcDbLine
 10
73.97859672081537
 20
48.8766949001933
 30
0.0
 11
74.45155738833534
 21
48.8849504547533
 31
0.0
  0
LINE
  5
B19
330
19
100
AcDbEntity
  8
TitleBlock&Notes
  6
Continuous
 62
     3
100
AcDbLine
 10
73.97034026337538
 20
48.8575398733133
 30
0.0
 11
74.45155738833534
 21
48.86593955603331
 31
0.0
  0
LINE
  5
B1A
330
19
100
AcDbEntity
  8
TitleBlock&Notes
  6
Continuous
 62
     3
100
AcDbLine
 10
73.96208380593542
 20
48.83838484643331
 30
0.0
 11
74.45155738833534
 21
48.84692865731331
 31
0.0
  0
LINE
  5
B1B
330
19
100
AcDbEntity
  8
TitleBlock&Notes
  6
Continuous
 62
     3
100
AcDbLine
 10
73.95382734849538
 20
48.8192298670733
 30
0.0
 11
74.45155738833534
 21
48.82791775859331
 31
0.0
  0
LINE
  5
B1C
330
19
100
AcDbEntity
  8
TitleBlock&Notes
  6
Continuous
 62
     3
100
AcDbLine
 10
73.94557084353545
 20
48.80007484019331
 30
0.0
 11
74.45155738833534
 21
48.8089068598733
 31
0.0
  0
LINE
  5
B1D
330
19
100
AcDbEntity
  8
TitleBlock&Notes
  6
Continuous
 62
     3
100
AcDbLine
 10
73.93731438609538
 20
48.78091981331332
 30
0.0
 11
74.45155738833534
 21
48.78989596115332
 31
0.0
  0
LINE
  5
B1E
330
19
100
AcDbEntity
  8
TitleBlock&Notes
  6
Continuous
 62
     3
100
AcDbLine
 10
73.9290579286554
 20
48.7617648339533
 30
0.0
 11
74.45155738833534
 21
48.77088506243332
 31
0.0
  0
LINE
  5
B1F
330
19
100
AcDbEntity
  8
TitleBlock&Notes
  6
Continuous
 62
     3
100
AcDbLine
 10
73.92080142369538
 20
48.7426098070733
 30
0.0
 11
74.45155738833534
 21
48.75187416371331
 31
0.0
  0
LINE
  5
B20
330
19
100
AcDbEntity
  8
TitleBlock&Notes
  6
Continuous
 62
     3
100
AcDbLine
 10
73.91254496625534
 20
48.7234547801933
 30
0.0
 11
74.45155738833534
 21
48.73286331251328
 31
0.0
  0
LINE
  5
B21
330
19
100
AcDbEntity
  8
TitleBlock&Notes
  6
Continuous
 62
     3
100
AcDbLine
 10
73.71499738833534
 20
48.14118276371331
 30
0.0
 11
74.45155738833534
 21
48.14118276371331
 31
0.0
  0
LINE
  5
B22
330
19
100
AcDbEntity
  8
TitleBlock&Notes
  6
Continuous
 62
     3
100
AcDbLine
 10
73.71499738833534
 20
48.23472607379331
 30
0.0
 11
74.45155738833534
 21
48.23472607379331
 31
0.0
  0
LINE
  5
B23
330
19
100
AcDbEntity
  8
TitleBlock&Notes
  6
Continuous
 62
     3
100
AcDbLine
 10
73.86316759953536
 20
48.6088993141133
 30
0.0
 11
74.45155738833534
 21
48.6088993141133
 31
0.0
  0
LINE
  5
B24
330
19
100
AcDbEntity
  8
TitleBlock&Notes
  6
Continuous
 62
     3
100
AcDbLine
 10
73.9034879868954
 20
48.7024426241933
 30
0.0
 11
74.45155738833534
 21
48.7024426241933
 31
0.0
  0
LINE
  5
B25
330
19
100
AcDbEntity
  8
TitleBlock&Notes
  6
Continuous
 62
     3
100
AcDbLine
 10
73.71499738833534
 20
48.12505870499331
 30
0.0
 11
74.45155738833534
 21
48.13791543107331
 31
0.0
  0
LINE
  5
B26
330
19
100
AcDbEntity
  8
TitleBlock&Notes
  6
Continuous
 62
     3
100
AcDbLine
 10
73.71499738833534
 20
48.10604780627331
 30
0.0
 11
74.45155738833534
 21
48.11890453235331
 31
0.0
  0
LINE
  5
B27
330
19
100
AcDbEntity
  8
TitleBlock&Notes
  6
Continuous
 62
     3
100
AcDbLine
 10
73.71499738833534
 20
48.08703690755332
 30
0.0
 11
74.45155738833534
 21
48.0998936336333
 31
0.0
  0
LINE
  5
B28
330
19
100
AcDbEntity
  8
TitleBlock&Notes
  6
Continuous
 62
     3
100
AcDbLine
 10
73.71499738833534
 20
48.06802600883331
 30
0.0
 11
74.45155738833534
 21
48.08088273491332
 31
0.0
  0
LINE
  5
B29
330
19
100
AcDbEntity
  8
TitleBlock&Notes
  6
Continuous
 62
     3
100
AcDbLine
 10
73.71499738833534
 20
48.04901511011329
 30
0.0
 11
74.45155738833534
 21
48.06187183619329
 31
0.0
  0
LINE
  5
B2A
330
19
100
AcDbEntity
  8
TitleBlock&Notes
  6
Continuous
 62
     3
100
AcDbLine
 10
73.71499738833534
 20
48.03000421139329
 30
0.0
 11
74.45155738833534
 21
48.04286093747331
 31
0.0
  0
LINE
  5
B2B
330
19
100
AcDbEntity
  8
TitleBlock&Notes
  6
Continuous
 62
     3
100
AcDbLine
 10
73.71499738833534
 20
48.0109933126733
 30
0.0
 11
74.45155738833534
 21
48.02385003875333
 31
0.0
  0
LINE
  5
B2C
330
19
100
AcDbEntity
  8
TitleBlock&Notes
  6
Continuous
 62
     3
100
AcDbLine
 10
73.71499738833534
 20
47.99198246147329
 30
0.0
 11
74.45155738833534
 21
48.00483914003329
 31
0.0
  0
LINE
  5
B2D
330
19
100
AcDbEntity
  8
TitleBlock&Notes
  6
Continuous
 62
     3
100
AcDbLine
 10
73.71499738833534
 20
47.97297156275329
 30
0.0
 11
74.45155738833534
 21
47.98582824131329
 31
0.0
  0
LINE
  5
B2E
330
19
100
AcDbEntity
  8
TitleBlock&Notes
  6
Continuous
 62
     3
100
AcDbLine
 10
73.71499738833534
 20
47.9539606640333
 30
0.0
 11
74.45155738833534
 21
47.9668173425933
 31
0.0
  0
LINE
  5
B2F
330
19
100
AcDbEntity
  8
TitleBlock&Notes
  6
Continuous
 62
     3
100
AcDbLine
 10
73.71499738833534
 20
47.9349497653133
 30
0.0
 11
74.45155738833534
 21
47.9478064438733
 31
0.0
  0
LINE
  5
B30
330
19
100
AcDbEntity
  8
TitleBlock&Notes
  6
Continuous
 62
     3
100
AcDbLine
 10
73.71499738833534
 20
47.9159388665933
 30
0.0
 11
74.45155738833534
 21
47.92879554515332
 31
0.0
  0
LINE
  5
B31
330
19
100
AcDbEntity
  8
TitleBlock&Notes
  6
Continuous
 62
     3
100
AcDbLine
 10
73.71499738833534
 20
47.8969279678733
 30
0.0
 11
74.45155738833534
 21
47.9097846464333
 31
0.0
  0
LINE
  5
B32
330
19
100
AcDbEntity
  8
TitleBlock&Notes
  6
Continuous
 62
     3
100
AcDbLine
 10
73.71499738833534
 20
47.8779170691533
 30
0.0
 11
74.45155738833534
 21
47.8907737477133
 31
0.0
  0
LINE
  5
B33
330
19
100
AcDbEntity
  8
TitleBlock&Notes
  6
Continuous
 62
     3
100
AcDbLine
 10
73.71499738833534
 20
47.8589061704333
 30
0.0
 11
74.45155738833534
 21
47.8717628965133
 31
0.0
  0
LINE
  5
B34
330
19
100
AcDbEntity
  8
TitleBlock&Notes
  6
Continuous
 62
     3
100
AcDbLine
 10
73.71499738833534
 20
47.83989527171331
 30
0.0
 11
74.45155738833534
 21
47.85275199779331
 31
0.0
  0
LINE
  5
B35
330
19
100
AcDbEntity
  8
TitleBlock&Notes
  6
Continuous
 62
     3
100
AcDbLine
 10
73.71499738833534
 20
47.8208843729933
 30
0.0
 11
74.45155738833534
 21
47.8337410990733
 31
0.0
  0
LINE
  5
B36
330
19
100
AcDbEntity
  8
TitleBlock&Notes
  6
Continuous
 62
     3
100
AcDbLine
 10
73.85291848593539
 20
48.58512139907331
 30
0.0
 11
74.45155738833534
 21
48.5955706669133
 31
0.0
  0
LINE
  5
B37
330
19
100
AcDbEntity
  8
TitleBlock&Notes
  6
Continuous
 62
     3
100
AcDbLine
 10
73.84466202849539
 20
48.56596637219332
 30
0.0
 11
74.45155738833534
 21
48.5765597681933
 31
0.0
  0
LINE
  5
B38
330
19
100
AcDbEntity
  8
TitleBlock&Notes
  6
Continuous
 62
     3
100
AcDbLine
 10
73.83640557105543
 20
48.5468113453133
 30
0.0
 11
74.45155738833534
 21
48.5575488694733
 31
0.0
  0
LINE
  5
B39
330
19
100
AcDbEntity
  8
TitleBlock&Notes
  6
Continuous
 62
     3
100
AcDbLine
 10
73.82814911361539
 20
48.52765636595332
 30
0.0
 11
74.45155738833534
 21
48.53853797075331
 31
0.0
  0
LINE
  5
B3A
330
19
100
AcDbEntity
  8
TitleBlock&Notes
  6
Continuous
 62
     3
100
AcDbLine
 10
73.81989260865537
 20
48.50850133907332
 30
0.0
 11
74.45155738833534
 21
48.51952707203331
 31
0.0
  0
LINE
  5
B3B
330
19
100
AcDbEntity
  8
TitleBlock&Notes
  6
Continuous
 62
     3
100
AcDbLine
 10
73.8116361512154
 20
48.48934631219329
 30
0.0
 11
74.45155738833534
 21
48.50051617331331
 31
0.0
  0
LINE
  5
B3C
330
19
100
AcDbEntity
  8
TitleBlock&Notes
  6
Continuous
 62
     3
100
AcDbLine
 10
73.80337969377535
 20
48.47019133283331
 30
0.0
 11
74.45155738833534
 21
48.48150527459331
 31
0.0
  0
LINE
  5
B3D
330
19
100
AcDbEntity
  8
TitleBlock&Notes
  6
Continuous
 62
     3
100
AcDbLine
 10
73.79512318881539
 20
48.45103630595329
 30
0.0
 11
74.45155738833534
 21
48.46249442339329
 31
0.0
  0
LINE
  5
B3E
330
19
100
AcDbEntity
  8
TitleBlock&Notes
  6
Continuous
 62
     3
100
AcDbLine
 10
73.78686673137536
 20
48.4318812790733
 30
0.0
 11
74.45155738833534
 21
48.44348352467331
 31
0.0
  0
LINE
  5
B3F
330
19
100
AcDbEntity
  8
TitleBlock&Notes
  6
Continuous
 62
     3
100
AcDbLine
 10
73.7786102739354
 20
48.41272625219331
 30
0.0
 11
74.45155738833534
 21
48.42447262595332
 31
0.0
  0
LINE
  5
B40
330
19
100
AcDbEntity
  8
TitleBlock&Notes
  6
Continuous
 62
     3
100
AcDbLine
 10
73.7703538164954
 20
48.3935712728333
 30
0.0
 11
74.45155738833534
 21
48.4054617272333
 31
0.0
  0
LINE
  5
B41
330
19
100
AcDbEntity
  8
TitleBlock&Notes
  6
Continuous
 62
     3
100
AcDbLine
 10
73.7620973115354
 20
48.37441624595332
 30
0.0
 11
74.45155738833534
 21
48.38645082851332
 31
0.0
  0
LINE
  5
B42
330
19
100
AcDbEntity
  8
TitleBlock&Notes
  6
Continuous
 62
     3
100
AcDbLine
 10
73.75384085409542
 20
48.35526121907331
 30
0.0
 11
74.45155738833534
 21
48.36743992979329
 31
0.0
  0
LINE
  5
B43
330
19
100
AcDbEntity
  8
TitleBlock&Notes
  6
Continuous
 62
     3
100
AcDbLine
 10
73.74558439665538
 20
48.33610623971331
 30
0.0
 11
74.45155738833534
 21
48.34842903107331
 31
0.0
  0
LINE
  5
B44
330
19
100
AcDbEntity
  8
TitleBlock&Notes
  6
Continuous
 62
     3
100
AcDbLine
 10
73.73732789169536
 20
48.31695121283331
 30
0.0
 11
74.45155738833534
 21
48.32941813235333
 31
0.0
  0
LINE
  5
B45
330
19
100
AcDbEntity
  8
TitleBlock&Notes
  6
Continuous
 62
     3
100
AcDbLine
 10
73.7290714342554
 20
48.29779618595331
 30
0.0
 11
74.45155738833534
 21
48.31040723363329
 31
0.0
  0
LINE
  5
B46
330
19
100
AcDbEntity
  8
TitleBlock&Notes
  6
Continuous
 62
     3
100
AcDbLine
 10
73.72081497681536
 20
48.27864120659331
 30
0.0
 11
74.45155738833534
 21
48.29139633491331
 31
0.0
  0
LINE
  5
B47
330
19
100
AcDbEntity
  8
TitleBlock&Notes
  6
Continuous
 62
     3
100
AcDbLine
 10
73.71499738833534
 20
48.25952875763331
 30
0.0
 11
74.45155738833534
 21
48.2723854361933
 31
0.0
  0
LINE
  5
B48
330
19
100
AcDbEntity
  8
TitleBlock&Notes
  6
Continuous
 62
     3
100
AcDbLine
 10
73.71499738833534
 20
48.24051785891331
 30
0.0
 11
74.45155738833534
 21
48.2533745374733
 31
0.0
  0
LINE
  5
B49
330
19
100
AcDbEntity
  8
TitleBlock&Notes
  6
Continuous
 62
     3
100
AcDbLine
 10
73.90428850881538
 20
48.70429980083331
 30
0.0
 11
74.45155738833534
 21
48.7138524137933
 31
0.0
  0
LINE
  5
B4B
330
19
100
AcDbEntity
  8
TitleBlock&Notes
  6
Continuous
 62
     3
100
AcDbLine
 10
72.49777577217537
 20
47.76161590835331
 30
0.0
 11
73.26355738833537
 21
47.77498266659331
 31
0.0
  0
LINE
  5
B4C
330
19
100
AcDbEntity
  8
TitleBlock&Notes
  6
Continuous
 62
     3
100
AcDbLine
 10
72.47701048257539
 20
47.7422425745933
 30
0.0
 11
73.26355738833537
 21
47.7559717678733
 31
0.0
  0
LINE
  5
B4D
330
19
100
AcDbEntity
  8
TitleBlock&Notes
  6
Continuous
 62
     3
100
AcDbLine
 10
72.45480053745538
 20
47.72284396019331
 30
0.0
 11
73.26355738833537
 21
47.73696086915331
 31
0.0
  0
LINE
  5
B4E
330
19
100
AcDbEntity
  8
TitleBlock&Notes
  6
Continuous
 62
     3
100
AcDbLine
 10
72.43096274721541
 20
47.70341697635331
 30
0.0
 11
73.26355738833537
 21
47.71794997043331
 31
0.0
  0
LINE
  5
B4F
330
19
100
AcDbEntity
  8
TitleBlock&Notes
  6
Continuous
 62
     3
100
AcDbLine
 10
72.35605621089539
 20
48.9164697104333
 30
0.0
 11
72.71707738833538
 21
48.9164697104333
 31
0.0
  0
LINE
  5
B50
330
19
100
AcDbEntity
  8
TitleBlock&Notes
  6
Continuous
 62
     3
100
AcDbLine
 10
72.71707738833538
 20
48.32246971043331
 30
0.0
 11
72.35816476833537
 21
48.32246971043331
 31
0.0
  0
LINE
  5
B51
330
19
100
AcDbEntity
  8
TitleBlock&Notes
  6
Continuous
 62
     3
100
AcDbLine
 10
72.76910637105537
 20
48.8689497104333
 30
0.0
 11
72.31766684625537
 21
48.8689497104333
 31
0.0
  0
LINE
  5
B52
330
19
100
AcDbEntity
  8
TitleBlock&Notes
  6
Continuous
 62
     3
100
AcDbLine
 10
72.31565494449533
 20
48.3699897104333
 30
0.0
 11
72.76752238689542
 21
48.3699897104333
 31
0.0
  0
LINE
  5
B53
330
19
100
AcDbEntity
  8
TitleBlock&Notes
  6
Continuous
 62
     3
100
AcDbLine
 10
72.3381731993754
 20
48.8927097104333
 30
0.0
 11
72.74348862417539
 21
48.8927097104333
 31
0.0
  0
LINE
  5
B54
330
19
100
AcDbEntity
  8
TitleBlock&Notes
  6
Continuous
 62
     3
100
AcDbLine
 10
72.33741482769534
 20
48.3462297104333
 30
0.0
 11
72.74267104257538
 21
48.3462297104333
 31
0.0
  0
LINE
  5
B55
330
19
100
AcDbEntity
  8
TitleBlock&Notes
  6
Continuous
 62
     3
100
AcDbLine
 10
72.47546009505541
 20
49.47529740227333
 30
0.0
 11
72.74193966225539
 21
49.47529740227333
 31
0.0
  0
LINE
  5
B56
330
19
100
AcDbEntity
  8
TitleBlock&Notes
  6
Continuous
 62
     3
100
AcDbLine
 10
72.75218103009535
 20
49.4515374022733
 30
0.0
 11
72.50100822513537
 21
49.4515374022733
 31
0.0
  0
LINE
  5
B57
330
19
100
AcDbEntity
  8
TitleBlock&Notes
  6
Continuous
 62
     3
100
AcDbLine
 10
72.41936658417539
 20
48.3699897104333
 30
0.0
 11
73.21239882945535
 21
48.38383214387331
 31
0.0
  0
LINE
  5
B58
330
19
100
AcDbEntity
  8
TitleBlock&Notes
  6
Continuous
 62
     3
100
AcDbLine
 10
71.45995712481542
 20
48.6088993141133
 30
0.0
 11
73.11538712961539
 21
48.6088993141133
 31
0.0
  0
LINE
  5
B59
330
19
100
AcDbEntity
  8
TitleBlock&Notes
  6
Continuous
 62
     3
100
AcDbLine
 10
71.46071825265538
 20
48.7024426241933
 30
0.0
 11
73.07506674225543
 21
48.7024426241933
 31
0.0
  0
LINE
  5
B5A
330
19
100
AcDbEntity
  8
TitleBlock&Notes
  6
Continuous
 62
     3
100
AcDbLine
 10
71.45973316305537
 20
48.58136998019329
 30
0.0
 11
73.03688713089538
 21
48.6088993141133
 31
0.0
  0
LINE
  5
B5B
330
19
100
AcDbEntity
  8
TitleBlock&Notes
  6
Continuous
 62
     3
100
AcDbLine
 10
71.45957843793539
 20
48.56235637283332
 30
0.0
 11
73.12293411345542
 21
48.59139038003331
 31
0.0
  0
LINE
  5
B5C
330
19
100
AcDbEntity
  8
TitleBlock&Notes
  6
Continuous
 62
     3
100
AcDbLine
 10
71.4594237603354
 20
48.5433427654733
 30
0.0
 11
73.13106725649536
 21
48.57252142355331
 31
0.0
  0
LINE
  5
B5D
330
19
100
AcDbEntity
  8
TitleBlock&Notes
  6
Continuous
 62
     3
100
AcDbLine
 10
71.45926903521536
 20
48.5243292056333
 30
0.0
 11
73.13920039953541
 21
48.55365251459331
 31
0.0
  0
LINE
  5
B5E
330
19
100
AcDbEntity
  8
TitleBlock&Notes
  6
Continuous
 62
     3
100
AcDbLine
 10
71.45911435761544
 20
48.50531559827331
 30
0.0
 11
73.14733359009538
 21
48.53478355811332
 31
0.0
  0
LINE
  5
B5F
330
19
100
AcDbEntity
  8
TitleBlock&Notes
  6
Continuous
 62
     3
100
AcDbLine
 10
71.45895963249538
 20
48.48630199091331
 30
0.0
 11
73.15546673313541
 21
48.5159146491533
 31
0.0
  0
LINE
  5
B60
330
19
100
AcDbEntity
  8
TitleBlock&Notes
  6
Continuous
 62
     3
100
AcDbLine
 10
71.45880495489537
 20
48.46728838355331
 30
0.0
 11
73.1635998761754
 21
48.4970456926733
 31
0.0
  0
LINE
  5
B61
330
19
100
AcDbEntity
  8
TitleBlock&Notes
  6
Continuous
 62
     3
100
AcDbLine
 10
71.45865022977543
 20
48.4482748237133
 30
0.0
 11
73.17173306673535
 21
48.47817678371331
 31
0.0
  0
LINE
  5
B62
330
19
100
AcDbEntity
  8
TitleBlock&Notes
  6
Continuous
 62
     3
100
AcDbLine
 10
71.45849555217541
 20
48.4292612163533
 30
0.0
 11
73.17986620977539
 21
48.4593078272333
 31
0.0
  0
LINE
  5
B63
330
19
100
AcDbEntity
  8
TitleBlock&Notes
  6
Continuous
 62
     3
100
AcDbLine
 10
71.45834082705538
 20
48.4102476089933
 30
0.0
 11
73.18799935281538
 21
48.44043891827332
 31
0.0
  0
LINE
  5
B64
330
19
100
AcDbEntity
  8
TitleBlock&Notes
  6
Continuous
 62
     3
100
AcDbLine
 10
71.45818614945537
 20
48.39123400163332
 30
0.0
 11
73.19613254337534
 21
48.42156996179331
 31
0.0
  0
LINE
  5
B65
330
19
100
AcDbEntity
  8
TitleBlock&Notes
  6
Continuous
 62
     3
100
AcDbLine
 10
71.4580314243354
 20
48.37222044179331
 30
0.0
 11
73.20426568641541
 21
48.4027010528333
 31
0.0
  0
LINE
  5
B66
330
19
100
AcDbEntity
  8
TitleBlock&Notes
  6
Continuous
 62
     3
100
AcDbLine
 10
71.46177856641542
 20
48.8327636581133
 30
0.0
 11
73.00726601409538
 21
48.85974023939329
 31
0.0
  0
LINE
  5
B67
330
19
100
AcDbEntity
  8
TitleBlock&Notes
  6
Continuous
 62
     3
100
AcDbLine
 10
71.46162388881541
 20
48.8137500982733
 30
0.0
 11
73.01539920465541
 21
48.84087133043331
 31
0.0
  0
LINE
  5
B68
330
19
100
AcDbEntity
  8
TitleBlock&Notes
  6
Continuous
 62
     3
100
AcDbLine
 10
71.46146916369537
 20
48.7947364909133
 30
0.0
 11
73.02353234769535
 21
48.82200237395331
 31
0.0
  0
LINE
  5
B69
330
19
100
AcDbEntity
  8
TitleBlock&Notes
  6
Continuous
 62
     3
100
AcDbLine
 10
71.46131448609537
 20
48.77572288355332
 30
0.0
 11
73.03166549073542
 21
48.80313346499331
 31
0.0
  0
LINE
  5
B6A
330
19
100
AcDbEntity
  8
TitleBlock&Notes
  6
Continuous
 62
     3
100
AcDbLine
 10
71.46115976097539
 20
48.75670927619331
 30
0.0
 11
73.03979868129539
 21
48.7842645560333
 31
0.0
  0
LINE
  5
B6B
330
19
100
AcDbEntity
  8
TitleBlock&Notes
  6
Continuous
 62
     3
100
AcDbLine
 10
71.46100508337539
 20
48.73769566883331
 30
0.0
 11
73.04793182433542
 21
48.76539559955332
 31
0.0
  0
LINE
  5
B6C
330
19
100
AcDbEntity
  8
TitleBlock&Notes
  6
Continuous
 62
     3
100
AcDbLine
 10
71.46085035825535
 20
48.7186821089933
 30
0.0
 11
73.05606501489538
 21
48.74652669059331
 31
0.0
  0
LINE
  5
B6D
330
19
100
AcDbEntity
  8
TitleBlock&Notes
  6
Continuous
 62
     3
100
AcDbLine
 10
71.61962408721539
 20
48.7024426241933
 30
0.0
 11
73.06419815793536
 21
48.7276577341133
 31
0.0
  0
ARC
  5
B6E
330
19
100
AcDbEntity
  8
TitleBlock&Notes
  6
Continuous
 62
     3
100
AcDbCircle
 10
71.8854773883354
 20
48.81529806227331
 30
0.0
 40
0.83773160064
100
AcDbArc
 50
6.936458520000021
 51
173.0635414800004
  0
ARC
  5
B6F
330
19
100
AcDbEntity
  8
TitleBlock&Notes
  6
Continuous
 62
     3
100
AcDbCircle
 10
71.8854773883354
 20
48.81529806227331
 30
0.0
 40
0.88525630512
100
AcDbArc
 50
3.474582379999759
 51
173.2499419800006
  0
ARC
  5
B70
330
19
100
AcDbEntity
  8
TitleBlock&Notes
  6
Continuous
 62
     3
100
AcDbCircle
 10
71.8854773883354
 20
48.81529806227331
 30
0.0
 40
0.86149630512
100
AcDbArc
 50
5.155389820000103
 51
173.2499419800006
  0
LINE
  5
B71
330
19
100
AcDbEntity
  8
TitleBlock&Notes
  6
Continuous
 62
     3
100
AcDbLine
 10
71.46247962897539
 20
48.91892811011331
 30
0.0
 11
71.45779738833536
 21
48.3434528317133
 31
0.0
  0
LINE
  5
B72
330
19
100
AcDbEntity
  8
TitleBlock&Notes
  6
Continuous
 62
     3
100
AcDbLine
 10
71.43872043681543
 20
48.91912142147332
 30
0.0
 11
71.43403814865539
 21
48.34364614307331
 31
0.0
  0
LINE
  5
B73
330
19
100
AcDbEntity
  8
TitleBlock&Notes
  6
Continuous
 62
     3
100
AcDbLine
 10
71.05387738833539
 20
48.32246971043331
 30
0.0
 11
71.05387738833539
 21
48.9164697104333
 31
0.0
  0
LINE
  5
B74
330
19
100
AcDbEntity
  8
TitleBlock&Notes
  6
Continuous
 62
     3
100
AcDbLine
 10
71.00635738833538
 20
48.32037141731331
 30
0.0
 11
71.00635738833538
 21
48.91934970755332
 31
0.0
  0
LINE
  5
B75
330
19
100
AcDbEntity
  8
TitleBlock&Notes
  6
Continuous
 62
     3
100
AcDbLine
 10
71.4102773883354
 20
48.3406401704333
 30
0.0
 11
71.4102773883354
 21
48.8918819120333
 31
0.0
  0
LINE
  5
B76
330
19
100
AcDbEntity
  8
TitleBlock&Notes
  6
Continuous
 62
     3
100
AcDbLine
 10
71.03011738833538
 20
48.32037141731331
 30
0.0
 11
71.03011738833538
 21
48.91934970755332
 31
0.0
  0
LINE
  5
B77
330
19
100
AcDbEntity
  8
TitleBlock&Notes
  6
Continuous
 62
     3
100
AcDbLine
 10
71.46224269425534
 20
48.88980448019329
 30
0.0
 11
72.31172337729536
 21
48.9046321933133
 31
0.0
  0
ARC
  5
B78
330
19
100
AcDbEntity
  8
TitleBlock&Notes
  6
Continuous
 62
     3
100
AcDbCircle
 10
71.8854773883354
 20
48.81529806227331
 30
0.0
 40
0.43550687664
100
AcDbArc
 50
7.076443860000049
 51
166.2342647900004
  0
LINE
  5
B79
330
19
100
AcDbEntity
  8
TitleBlock&Notes
  6
Continuous
 62
     3
100
AcDbLine
 10
71.45988784065536
 20
48.60038358755331
 30
0.0
 11
71.94775363137537
 21
48.6088993141133
 31
0.0
  0
LINE
  5
B7A
330
19
100
AcDbEntity
  8
TitleBlock&Notes
  6
Continuous
 62
     3
100
AcDbLine
 10
71.45787674673539
 20
48.35320683443331
 30
0.0
 11
72.31553695233535
 21
48.3681773451533
 31
0.0
  0
LINE
  5
B7B
330
19
100
AcDbEntity
  8
TitleBlock&Notes
  6
Continuous
 62
     3
100
AcDbLine
 10
71.45905733361536
 20
48.33421655939332
 30
0.0
 11
72.31383193473539
 21
48.34913669891331
 31
0.0
  0
LINE
  5
B7C
330
19
100
AcDbEntity
  8
TitleBlock&Notes
  6
Continuous
 62
     3
100
AcDbLine
 10
71.46228560481538
 20
48.31526197187329
 30
0.0
 11
72.31126709025537
 21
48.3300810363533
 31
0.0
  0
LINE
  5
B7D
330
19
100
AcDbEntity
  8
TitleBlock&Notes
  6
Continuous
 62
     3
100
AcDbLine
 10
71.46639147537536
 20
48.29632278083329
 30
0.0
 11
72.30782474145539
 21
48.31101002483329
 31
0.0
  0
LINE
  5
B7E
330
19
100
AcDbEntity
  8
TitleBlock&Notes
  6
Continuous
 62
     3
100
AcDbLine
 10
71.4713987052954
 20
48.2773992713933
 30
0.0
 11
72.30348093825537
 21
48.29192333171331
 31
0.0
  0
LINE
  5
B7F
330
19
100
AcDbEntity
  8
TitleBlock&Notes
  6
Continuous
 62
     3
100
AcDbLine
 10
71.4620879691354
 20
48.87079087283332
 30
0.0
 11
72.31525896033537
 21
48.8856830230733
 31
0.0
  0
LINE
  5
B80
330
19
100
AcDbEntity
  8
TitleBlock&Notes
  6
Continuous
 62
     3
100
AcDbLine
 10
71.46193329153539
 20
48.8517772654733
 30
0.0
 11
72.44574094449538
 21
48.8689497104333
 31
0.0
  0
LINE
  5
B81
330
19
100
AcDbEntity
  8
TitleBlock&Notes
  6
Continuous
 62
     3
100
AcDbLine
 10
71.5386370342554
 20
48.14118276371331
 30
0.0
 11
72.2323177424154
 21
48.14118276371331
 31
0.0
  0
LINE
  5
B82
330
19
100
AcDbEntity
  8
TitleBlock&Notes
  6
Continuous
 62
     3
100
AcDbLine
 10
71.48619690849542
 20
48.23472607379331
 30
0.0
 11
72.2847578206554
 21
48.23472607379331
 31
0.0
  0
LINE
  5
B83
330
19
100
AcDbEntity
  8
TitleBlock&Notes
  6
Continuous
 62
     3
100
AcDbLine
 10
71.55093216897538
 20
48.12530661683331
 30
0.0
 11
72.22930392897541
 21
48.13714760291331
 31
0.0
  0
LINE
  5
B84
330
19
100
AcDbEntity
  8
TitleBlock&Notes
  6
Continuous
 62
     3
100
AcDbLine
 10
71.56706093217541
 20
48.1065772265933
 30
0.0
 11
72.21383859249538
 21
48.11786679059331
 31
0.0
  0
LINE
  5
B85
330
19
100
AcDbEntity
  8
TitleBlock&Notes
  6
Continuous
 62
     3
100
AcDbLine
 10
71.58518178129539
 20
48.0878826209933
 30
0.0
 11
72.19638126513536
 21
48.0985511461133
 31
0.0
  0
LINE
  5
B86
330
19
100
AcDbEntity
  8
TitleBlock&Notes
  6
Continuous
 62
     3
100
AcDbLine
 10
71.60566675041538
 20
48.06922931027333
 30
0.0
 11
72.17655972273542
 21
48.07919430179331
 31
0.0
  0
LINE
  5
B87
330
19
100
AcDbEntity
  8
TitleBlock&Notes
  6
Continuous
 62
     3
100
AcDbLine
 10
71.62906013361538
 20
48.05062675091331
 30
0.0
 11
72.15382981377534
 21
48.05978665859332
 31
0.0
  0
LINE
  5
B88
330
19
100
AcDbEntity
  8
TitleBlock&Notes
  6
Continuous
 62
     3
100
AcDbLine
 10
71.65621458225534
 20
48.03208981667332
 30
0.0
 11
72.12733883937537
 21
48.04031334275332
 31
0.0
  0
LINE
  5
B89
330
19
100
AcDbEntity
  8
TitleBlock&Notes
  6
Continuous
 62
     3
100
AcDbLine
 10
71.68861191249536
 20
48.01364445347329
 30
0.0
 11
72.09560498337541
 21
48.0207485033933
 31
0.0
  0
LINE
  5
B8A
330
19
100
AcDbEntity
  8
TitleBlock&Notes
  6
Continuous
 62
     3
100
AcDbLine
 10
71.72931516849539
 20
47.9953440262733
 30
0.0
 11
72.0555652016154
 21
48.0010387280333
 31
0.0
  0
LINE
  5
B8B
330
19
100
AcDbEntity
  8
TitleBlock&Notes
  6
Continuous
 62
     3
100
AcDbLine
 10
71.48424877857536
 20
48.23960176835331
 30
0.0
 11
72.29195786097538
 21
48.25370038211331
 31
0.0
  0
ARC
  5
B8C
330
19
100
AcDbEntity
  8
TitleBlock&Notes
  6
Continuous
 62
     3
100
AcDbCircle
 10
71.8854773883354
 20
48.39709093667329
 30
0.0
 40
0.4310304451200001
100
AcDbArc
 50
187.1485089300005
 51
356.3951218200006
  0
LINE
  5
B8D
330
19
100
AcDbEntity
  8
TitleBlock&Notes
  6
Continuous
 62
     3
100
AcDbLine
 10
71.47733823009542
 20
48.2584920613133
 30
0.0
 11
72.2982049352154
 21
48.27282033923331
 31
0.0
  0
ARC
  5
B8E
330
19
100
AcDbEntity
  8
TitleBlock&Notes
  6
Continuous
 62
     3
100
AcDbCircle
 10
71.8854773883354
 20
48.39709093667329
 30
0.0
 40
0.4547904451199999
100
AcDbArc
 50
187.1485089300005
 51
353.5789239900006
  0
ARC
  5
B8F
330
19
100
AcDbEntity
  8
TitleBlock&Notes
  6
Continuous
 62
     3
100
AcDbCircle
 10
71.8854773883354
 20
48.39709093667329
 30
0.0
 40
0.47854127376
100
AcDbArc
 50
186.7746279100004
 51
351.0289824700007
  0
LINE
  5
B90
330
19
100
AcDbEntity
  8
TitleBlock&Notes
  6
Continuous
 62
     3
100
AcDbLine
 10
71.78748031377542
 20
47.97734839235331
 30
0.0
 11
71.99806353057536
 21
47.9810241593933
 31
0.0
  0
LINE
  5
B91
330
19
100
AcDbEntity
  8
TitleBlock&Notes
  6
Continuous
 62
     3
100
AcDbLine
 10
71.57766706353537
 20
49.1233874720333
 30
0.0
 11
72.19328766561537
 21
49.1233874720333
 31
0.0
  0
LINE
  5
B92
330
19
100
AcDbEntity
  8
TitleBlock&Notes
  6
Continuous
 62
     3
100
AcDbLine
 10
71.55559397601542
 20
49.09962747203332
 30
0.0
 11
72.2153607531354
 21
49.09962747203332
 31
0.0
  0
LINE
  5
B93
330
19
100
AcDbEntity
  8
TitleBlock&Notes
  6
Continuous
 62
     3
100
AcDbLine
 10
71.46477113841533
 20
48.92787037619331
 30
0.0
 11
71.94775363137537
 21
48.9363008518733
 31
0.0
  0
LINE
  5
B94
330
19
100
AcDbEntity
  8
TitleBlock&Notes
  6
Continuous
 62
     3
100
AcDbLine
 10
71.50648367169537
 20
49.02984416195329
 30
0.0
 11
72.26447105745539
 21
49.02984416195329
 31
0.0
  0
LINE
  5
B95
330
19
100
AcDbEntity
  8
TitleBlock&Notes
  6
Continuous
 62
     3
100
AcDbLine
 10
72.30383676801537
 20
48.9363008518733
 30
0.0
 11
71.46711796113535
 21
48.9363008518733
 31
0.0
  0
LINE
  5
B96
330
19
100
AcDbEntity
  8
TitleBlock&Notes
  6
Continuous
 62
     3
100
AcDbLine
 10
71.46239737185542
 20
48.90881804003329
 30
0.0
 11
72.30731181057537
 21
48.92356610963331
 31
0.0
  0
LINE
  5
B97
330
19
100
AcDbEntity
  8
TitleBlock&Notes
  6
Continuous
 62
     3
100
AcDbLine
 10
71.53652201409537
 20
49.07586747203331
 30
0.0
 11
72.23443271505536
 21
49.07586747203331
 31
0.0
  0
LINE
  5
B98
330
19
100
AcDbEntity
  8
TitleBlock&Notes
  6
Continuous
 62
     3
100
AcDbLine
 10
71.51998106241541
 20
49.05210747203331
 30
0.0
 11
72.25097366673542
 21
49.05210747203331
 31
0.0
  0
ARC
  5
B99
330
19
100
AcDbEntity
  8
TitleBlock&Notes
  6
Continuous
 62
     3
100
AcDbCircle
 10
71.8854773883354
 20
48.81529806227331
 30
0.0
 40
0.45926687664
100
AcDbArc
 50
9.703799319999886
 51
166.2342647900004
  0
ARC
  5
B9A
330
19
100
AcDbEntity
  8
TitleBlock&Notes
  6
Continuous
 62
     3
100
AcDbCircle
 10
71.8854773883354
 20
48.81529806227331
 30
0.0
 40
0.48133160064
100
AcDbArc
 50
12.13355041999991
 51
170.8448616600005
  0
LINE
  5
B9B
330
19
100
AcDbEntity
  8
TitleBlock&Notes
  6
Continuous
 62
     3
100
AcDbLine
 10
73.48927738833541
 20
48.7619137141133
 30
0.0
 11
73.8733790772954
 21
49.6530297104333
 31
0.0
  0
LINE
  5
B9C
330
19
100
AcDbEntity
  8
TitleBlock&Notes
  6
Continuous
 62
     3
100
AcDbLine
 10
73.84211543169538
 20
49.70054971043332
 30
0.0
 11
73.48927738833541
 21
48.88196543843332
 31
0.0
  0
LINE
  5
B9D
330
19
100
AcDbEntity
  8
TitleBlock&Notes
  6
Continuous
 62
     3
100
AcDbLine
 10
73.48927738833541
 20
48.82193955251333
 30
0.0
 11
73.85774723073537
 21
49.6767897104333
 31
0.0
  0
LINE
  5
B9E
330
19
100
AcDbEntity
  8
TitleBlock&Notes
  6
Continuous
 62
     3
100
AcDbLine
 10
73.48927738833541
 20
48.7619137141133
 30
0.0
 11
73.10517565185534
 21
49.6530297104333
 31
0.0
  0
LINE
  5
B9F
330
19
100
AcDbEntity
  8
TitleBlock&Notes
  6
Continuous
 62
     3
100
AcDbLine
 10
73.48927738833541
 20
48.88196543843332
 30
0.0
 11
73.1364393449754
 21
49.70054971043332
 31
0.0
  0
LINE
  5
BA0
330
19
100
AcDbEntity
  8
TitleBlock&Notes
  6
Continuous
 62
     3
100
AcDbLine
 10
73.48927738833541
 20
48.82193955251333
 30
0.0
 11
73.12080749841538
 21
49.6767897104333
 31
0.0
  0
LINE
  5
BA1
330
19
100
AcDbEntity
  8
TitleBlock&Notes
  6
Continuous
 62
     3
100
AcDbLine
 10
73.31107738833537
 20
48.27494971043332
 30
0.0
 11
72.71707738833538
 21
49.6530297104333
 31
0.0
  0
LINE
  5
BA2
330
19
100
AcDbEntity
  8
TitleBlock&Notes
  6
Continuous
 62
     3
100
AcDbLine
 10
72.64484817633534
 20
49.70054971043332
 30
0.0
 11
73.26355738833537
 21
48.26514433859331
 31
0.0
  0
LINE
  5
BA3
330
19
100
AcDbEntity
  8
TitleBlock&Notes
  6
Continuous
 62
     3
100
AcDbLine
 10
72.68096275857536
 20
49.6767897104333
 30
0.0
 11
73.28731738833541
 21
48.27004702451332
 31
0.0
  0
LINE
  5
BA4
330
19
100
AcDbEntity
  8
TitleBlock&Notes
  6
Continuous
 62
     3
100
AcDbLine
 10
72.53553473649538
 20
47.8002967606733
 30
0.0
 11
73.26355738833537
 21
47.8130044640333
 31
0.0
  0
LINE
  5
BA5
330
19
100
AcDbEntity
  8
TitleBlock&Notes
  6
Continuous
 62
     3
100
AcDbLine
 10
72.51724367073542
 20
47.78096662259329
 30
0.0
 11
73.26355738833537
 21
47.7939935653133
 31
0.0
  0
LINE
  5
BA6
330
19
100
AcDbEntity
  8
TitleBlock&Notes
  6
Continuous
 62
     3
100
AcDbLine
 10
72.58427134353538
 20
47.8581801598733
 30
0.0
 11
73.26355738833537
 21
47.8700371601933
 31
0.0
  0
LINE
  5
BA7
330
19
100
AcDbEntity
  8
TitleBlock&Notes
  6
Continuous
 62
     3
100
AcDbLine
 10
72.56897075889537
 20
47.8389021987533
 30
0.0
 11
73.26355738833537
 21
47.8510262614733
 31
0.0
  0
LINE
  5
BA8
330
19
100
AcDbEntity
  8
TitleBlock&Notes
  6
Continuous
 62
     3
100
AcDbLine
 10
72.55274904657534
 20
47.81960817587331
 30
0.0
 11
73.26355738833537
 21
47.8320153627533
 31
0.0
  0
LINE
  5
BA9
330
19
100
AcDbEntity
  8
TitleBlock&Notes
  6
Continuous
 62
     3
100
AcDbLine
 10
72.73001798721537
 20
48.14118276371331
 30
0.0
 11
73.26355738833537
 21
48.14118276371331
 31
0.0
  0
LINE
  5
BAA
330
19
100
AcDbEntity
  8
TitleBlock&Notes
  6
Continuous
 62
     3
100
AcDbLine
 10
72.72552482865538
 20
48.12679831715332
 30
0.0
 11
73.26355738833537
 21
48.13618969475331
 31
0.0
  0
LINE
  5
BAB
330
19
100
AcDbEntity
  8
TitleBlock&Notes
  6
Continuous
 62
     3
100
AcDbLine
 10
72.71913001473535
 20
48.10767579395331
 30
0.0
 11
73.26355738833537
 21
48.1171787960333
 31
0.0
  0
LINE
  5
BAC
330
19
100
AcDbEntity
  8
TitleBlock&Notes
  6
Continuous
 62
     3
100
AcDbLine
 10
72.71224032753536
 20
48.0885446221133
 30
0.0
 11
73.26355738833537
 21
48.09816789731331
 31
0.0
  0
LINE
  5
BAD
330
19
100
AcDbEntity
  8
TitleBlock&Notes
  6
Continuous
 62
     3
100
AcDbLine
 10
72.70484269905541
 20
48.06940461155329
 30
0.0
 11
73.26355738833537
 21
48.0791569985933
 31
0.0
  0
LINE
  5
BAE
330
19
100
AcDbEntity
  8
TitleBlock&Notes
  6
Continuous
 62
     3
100
AcDbLine
 10
72.69692239809538
 20
48.0502554771533
 30
0.0
 11
73.26355738833537
 21
48.06014609987331
 31
0.0
  0
LINE
  5
BAF
330
19
100
AcDbEntity
  8
TitleBlock&Notes
  6
Continuous
 62
     3
100
AcDbLine
 10
72.68846317281539
 20
48.03109688627331
 30
0.0
 11
73.26355738833537
 21
48.04113520115332
 31
0.0
  0
LINE
  5
BB0
330
19
100
AcDbEntity
  8
TitleBlock&Notes
  6
Continuous
 62
     3
100
AcDbLine
 10
72.67944706065538
 20
48.01192864883332
 30
0.0
 11
73.26355738833537
 21
48.02212430243331
 31
0.0
  0
LINE
  5
BB1
330
19
100
AcDbEntity
  8
TitleBlock&Notes
  6
Continuous
 62
     3
100
AcDbLine
 10
72.66985386561541
 20
47.99275028963331
 30
0.0
 11
73.26355738833537
 21
48.00311340371331
 31
0.0
  0
LINE
  5
BB2
330
19
100
AcDbEntity
  8
TitleBlock&Notes
  6
Continuous
 62
     3
100
AcDbLine
 10
72.65966120577537
 20
47.97356147603332
 30
0.0
 11
73.26355738833537
 21
47.98410250499329
 31
0.0
  0
LINE
  5
BB3
330
19
100
AcDbEntity
  8
TitleBlock&Notes
  6
Continuous
 62
     3
100
AcDbLine
 10
72.64884408561536
 20
47.9543617803533
 30
0.0
 11
73.26355738833537
 21
47.9650916062733
 31
0.0
  0
LINE
  5
BB4
330
19
100
AcDbEntity
  8
TitleBlock&Notes
  6
Continuous
 62
     3
100
AcDbLine
 10
72.63737432577539
 20
47.9351506798733
 30
0.0
 11
73.26355738833537
 21
47.94608075507329
 31
0.0
  0
LINE
  5
BB5
330
19
100
AcDbEntity
  8
TitleBlock&Notes
  6
Continuous
 62
     3
100
AcDbLine
 10
72.6252203729754
 20
47.9159276043533
 30
0.0
 11
73.26355738833537
 21
47.92706985635329
 31
0.0
  0
LINE
  5
BB6
330
19
100
AcDbEntity
  8
TitleBlock&Notes
  6
Continuous
 62
     3
100
AcDbLine
 10
72.61234653969541
 20
47.8966920310733
 30
0.0
 11
73.26355738833537
 21
47.90805895763329
 31
0.0
  0
LINE
  5
BB7
330
19
100
AcDbEntity
  8
TitleBlock&Notes
  6
Continuous
 62
     3
100
AcDbLine
 10
72.59871224385536
 20
47.8774431521933
 30
0.0
 11
73.26355738833537
 21
47.8890480589133
 31
0.0
  0
LINE
  5
BB8
330
19
100
AcDbEntity
  8
TitleBlock&Notes
  6
Continuous
 62
     3
100
AcDbLine
 10
72.76874597937539
 20
48.8745877683533
 30
0.0
 11
72.99913287105536
 21
48.8786091958733
 31
0.0
  0
LINE
  5
BB9
330
19
100
AcDbEntity
  8
TitleBlock&Notes
  6
Continuous
 62
     3
100
AcDbLine
 10
72.70875758673539
 20
48.7024426241933
 30
0.0
 11
73.07233130097539
 21
48.70878882515331
 31
0.0
  0
LINE
  5
BBA
330
19
100
AcDbEntity
  8
TitleBlock&Notes
  6
Continuous
 62
     3
100
AcDbLine
 10
72.76702960449539
 20
48.3570472582733
 30
0.0
 11
73.22053202001541
 21
48.3649631873933
 31
0.0
  0
LINE
  5
BBB
330
19
100
AcDbEntity
  8
TitleBlock&Notes
  6
Continuous
 62
     3
100
AcDbLine
 10
72.7659591689754
 20
48.33801768419331
 30
0.0
 11
73.22866516305541
 21
48.34609427843329
 31
0.0
  0
LINE
  5
BBC
330
19
100
AcDbEntity
  8
TitleBlock&Notes
  6
Continuous
 62
     3
100
AcDbLine
 10
72.76447492929538
 20
48.31898088707331
 30
0.0
 11
73.23679830609539
 21
48.3272253219533
 31
0.0
  0
LINE
  5
BBD
330
19
100
AcDbEntity
  8
TitleBlock&Notes
  6
Continuous
 62
     3
100
AcDbLine
 10
72.76257422433537
 20
48.29993681939329
 30
0.0
 11
73.24493149665538
 21
48.3083564129933
 31
0.0
  0
LINE
  5
BBE
330
19
100
AcDbEntity
  8
TitleBlock&Notes
  6
Continuous
 62
     3
100
AcDbLine
 10
72.7602540128154
 20
48.28088543363332
 30
0.0
 11
73.25306463969539
 21
48.2894874565133
 31
0.0
  0
LINE
  5
BBF
330
19
100
AcDbEntity
  8
TitleBlock&Notes
  6
Continuous
 62
     3
100
AcDbLine
 10
72.75287320641538
 20
48.23472607379331
 30
0.0
 11
73.26355738833537
 21
48.23472607379331
 31
0.0
  0
LINE
  5
BC0
330
19
100
AcDbEntity
  8
TitleBlock&Notes
  6
Continuous
 62
     3
100
AcDbLine
 10
72.75433867569538
 20
48.24276037523332
 30
0.0
 11
73.26355738833537
 21
48.25164884867333
 31
0.0
  0
LINE
  5
BC1
330
19
100
AcDbEntity
  8
TitleBlock&Notes
  6
Continuous
 62
     3
100
AcDbLine
 10
72.75751030305535
 20
48.26182663475329
 30
0.0
 11
73.26119783025536
 21
48.27061854755332
 31
0.0
  0
LINE
  5
BC2
330
19
100
AcDbEntity
  8
TitleBlock&Notes
  6
Continuous
 62
     3
100
AcDbLine
 10
73.4870530721754
 20
48.88712587283329
 30
0.0
 11
73.49153539617536
 21
48.8872040907533
 31
0.0
  0
LINE
  5
BC3
330
19
100
AcDbEntity
  8
TitleBlock&Notes
  6
Continuous
 62
     3
100
AcDbLine
 10
73.26425498193541
 20
49.40401740227331
 30
0.0
 11
73.71429974721539
 21
49.40401740227331
 31
0.0
  0
LINE
  5
BC4
330
19
100
AcDbEntity
  8
TitleBlock&Notes
  6
Continuous
 62
     3
100
AcDbLine
 10
73.23353083089537
 20
49.47529740227333
 30
0.0
 11
73.74502389825536
 21
49.47529740227333
 31
0.0
  0
LINE
  5
BC5
330
19
100
AcDbEntity
  8
TitleBlock&Notes
  6
Continuous
 62
     3
100
AcDbLine
 10
73.73478253041537
 20
49.4515374022733
 30
0.0
 11
73.24377219873543
 21
49.4515374022733
 31
0.0
  0
LINE
  5
BC6
330
19
100
AcDbEntity
  8
TitleBlock&Notes
  6
Continuous
 62
     3
100
AcDbLine
 10
73.72454116257535
 20
49.42777740227331
 30
0.0
 11
73.2540135665754
 21
49.42777740227331
 31
0.0
  0
LINE
  5
BC7
330
19
100
AcDbEntity
  8
TitleBlock&Notes
  6
Continuous
 62
     3
100
AcDbLine
 10
72.97426575009537
 20
48.9363008518733
 30
0.0
 11
72.7624249164954
 21
48.9363008518733
 31
0.0
  0
LINE
  5
BC8
330
19
100
AcDbEntity
  8
TitleBlock&Notes
  6
Continuous
 62
     3
100
AcDbLine
 10
72.76307114097541
 20
48.93152138531331
 30
0.0
 11
72.97473339441539
 21
48.9352159702733
 31
0.0
  0
LINE
  5
BC9
330
19
100
AcDbEntity
  8
TitleBlock&Notes
  6
Continuous
 62
     3
100
AcDbLine
 10
72.76537543329538
 20
48.91255073603329
 30
0.0
 11
72.98286653745541
 21
48.91634706131329
 31
0.0
  0
LINE
  5
BCA
330
19
100
AcDbEntity
  8
TitleBlock&Notes
  6
Continuous
 62
     3
100
AcDbLine
 10
72.76726634913536
 20
48.89357281619331
 30
0.0
 11
72.99099972801537
 21
48.89747810483331
 31
0.0
  0
LINE
  5
BCB
330
19
100
AcDbEntity
  8
TitleBlock&Notes
  6
Continuous
 62
     3
100
AcDbLine
 10
72.93394536273537
 20
49.02984416195329
 30
0.0
 11
72.74434213089541
 21
49.02984416195329
 31
0.0
  0
LINE
  5
BCC
330
19
100
AcDbEntity
  8
TitleBlock&Notes
  6
Continuous
 62
     3
100
AcDbLine
 10
72.92434912641536
 20
49.05210747203331
 30
0.0
 11
72.73847208033538
 21
49.05210747203331
 31
0.0
  0
LINE
  5
BCD
330
19
100
AcDbEntity
  8
TitleBlock&Notes
  6
Continuous
 62
     3
100
AcDbLine
 10
72.77266381329534
 20
49.40401740227331
 30
0.0
 11
72.54660390273537
 21
49.40401740227331
 31
0.0
  0
LINE
  5
BCE
330
19
100
AcDbEntity
  8
TitleBlock&Notes
  6
Continuous
 62
     3
100
AcDbLine
 10
72.7624224454554
 20
49.42777740227331
 30
0.0
 11
72.52465479489538
 21
49.42777740227331
 31
0.0
  0
LINE
  5
BCF
330
19
100
AcDbEntity
  8
TitleBlock&Notes
  6
Continuous
 62
     3
100
AcDbLine
 10
72.71707738833538
 20
49.6530297104333
 30
0.0
 11
73.10517565185534
 21
49.6530297104333
 31
0.0
  0
LINE
  5
BD0
330
19
100
AcDbEntity
  8
TitleBlock&Notes
  6
Continuous
 62
     3
100
AcDbLine
 10
72.89362497537533
 20
49.1233874720333
 30
0.0
 11
72.71539280433538
 21
49.1233874720333
 31
0.0
  0
LINE
  5
BD1
330
19
100
AcDbEntity
  8
TitleBlock&Notes
  6
Continuous
 62
     3
100
AcDbLine
 10
73.12080749841538
 20
49.6767897104333
 30
0.0
 11
72.68096275857536
 21
49.6767897104333
 31
0.0
  0
LINE
  5
BD2
330
19
100
AcDbEntity
  8
TitleBlock&Notes
  6
Continuous
 62
     3
100
AcDbLine
 10
72.90386634321539
 20
49.09962747203332
 30
0.0
 11
72.72383021793541
 21
49.09962747203332
 31
0.0
  0
LINE
  5
BD3
330
19
100
AcDbEntity
  8
TitleBlock&Notes
  6
Continuous
 62
     3
100
AcDbLine
 10
72.64484817633534
 20
49.70054971043332
 30
0.0
 11
73.1364393449754
 21
49.70054971043332
 31
0.0
  0
LINE
  5
BD4
330
19
100
AcDbEntity
  8
TitleBlock&Notes
  6
Continuous
 62
     3
100
AcDbLine
 10
72.73151653041541
 20
49.07586747203331
 30
0.0
 11
72.91410775857539
 21
49.07586747203331
 31
0.0
  0
LINE
  5
BD5
330
19
100
AcDbEntity
  8
TitleBlock&Notes
  6
Continuous
 62
     3
100
AcDbLine
 10
73.51269781041539
 20
48.9363008518733
 30
0.0
 11
73.46585691873542
 21
48.9363008518733
 31
0.0
  0
LINE
  5
BD6
330
19
100
AcDbEntity
  8
TitleBlock&Notes
  6
Continuous
 62
     3
100
AcDbLine
 10
73.47078673857542
 20
48.9248637382733
 30
0.0
 11
73.50804835857534
 21
48.92551414451331
 31
0.0
  0
LINE
  5
BD7
330
19
100
AcDbEntity
  8
TitleBlock&Notes
  6
Continuous
 62
     3
100
AcDbLine
 10
73.47891988161537
 20
48.90599478179331
 30
0.0
 11
73.49979190113536
 21
48.90635911763332
 31
0.0
  0
LINE
  5
BD8
330
19
100
AcDbEntity
  8
TitleBlock&Notes
  6
Continuous
 62
     3
100
AcDbLine
 10
73.3852161440154
 20
49.1233874720333
 30
0.0
 11
73.5933385851354
 21
49.1233874720333
 31
0.0
  0
LINE
  5
BD9
330
19
100
AcDbEntity
  8
TitleBlock&Notes
  6
Continuous
 62
     3
100
AcDbLine
 10
73.58309721729537
 20
49.09962747203332
 30
0.0
 11
73.39545751185537
 21
49.09962747203332
 31
0.0
  0
LINE
  5
BDA
330
19
100
AcDbEntity
  8
TitleBlock&Notes
  6
Continuous
 62
     3
100
AcDbLine
 10
73.40569887969533
 20
49.07586747203331
 30
0.0
 11
73.5728558494554
 21
49.07586747203331
 31
0.0
  0
LINE
  5
BDB
330
19
100
AcDbEntity
  8
TitleBlock&Notes
  6
Continuous
 62
     3
100
AcDbLine
 10
73.41594029505543
 20
49.05210747203331
 30
0.0
 11
73.56261448161541
 21
49.05210747203331
 31
0.0
  0
LINE
  5
BDC
330
19
100
AcDbEntity
  8
TitleBlock&Notes
  6
Continuous
 62
     3
100
AcDbLine
 10
73.4261816628954
 20
49.02834747203332
 30
0.0
 11
73.55237306625543
 21
49.02834747203332
 31
0.0
  0
LINE
  5
BDD
330
19
100
AcDbEntity
  8
TitleBlock&Notes
  6
Continuous
 62
     3
100
AcDbLine
 10
74.85547738833538
 20
47.9185497104333
 30
0.0
 11
75.75835738833538
 21
47.9185497104333
 31
0.0
  0
LINE
  5
BDE
330
19
100
AcDbEntity
  8
TitleBlock&Notes
  6
Continuous
 62
     3
100
AcDbLine
 10
75.80587738833543
 20
47.9660697104333
 30
0.0
 11
74.90299738833536
 21
47.9660697104333
 31
0.0
  0
LINE
  5
BDF
330
19
100
AcDbEntity
  8
TitleBlock&Notes
  6
Continuous
 62
     3
100
AcDbLine
 10
76.33074885633539
 20
48.1411827637133
 30
0.0
 11
74.90299738833536
 21
48.14118276371331
 31
0.0
  0
LINE
  5
BE0
330
19
100
AcDbEntity
  8
TitleBlock&Notes
  6
Continuous
 62
     3
100
AcDbLine
 10
74.90299738833536
 20
48.12678444131329
 30
0.0
 11
75.7278774425754
 21
48.1411827637133
 31
0.0
  0
LINE
  5
BE1
330
19
100
AcDbEntity
  8
TitleBlock&Notes
  6
Continuous
 62
     3
100
AcDbLine
 10
74.90299738833536
 20
48.10777354259329
 30
0.0
 11
76.33074885633539
 21
48.13269502643331
 31
0.0
  0
LINE
  5
BE2
330
19
100
AcDbEntity
  8
TitleBlock&Notes
  6
Continuous
 62
     3
100
AcDbLine
 10
74.90299738833536
 20
48.08876264387331
 30
0.0
 11
76.33074885633539
 21
48.11368412771329
 31
0.0
  0
LINE
  5
BE3
330
19
100
AcDbEntity
  8
TitleBlock&Notes
  6
Continuous
 62
     3
100
AcDbLine
 10
74.90299738833536
 20
48.06975174515329
 30
0.0
 11
76.33074885633539
 21
48.0946732289933
 31
0.0
  0
LINE
  5
BE4
330
19
100
AcDbEntity
  8
TitleBlock&Notes
  6
Continuous
 62
     3
100
AcDbLine
 10
74.90299738833536
 20
48.05074084643329
 30
0.0
 11
76.33074885633539
 21
48.07566233027332
 31
0.0
  0
LINE
  5
BE5
330
19
100
AcDbEntity
  8
TitleBlock&Notes
  6
Continuous
 62
     3
100
AcDbLine
 10
74.90299738833536
 20
48.0317299477133
 30
0.0
 11
76.33074885633539
 21
48.0566514315533
 31
0.0
  0
LINE
  5
BE6
330
19
100
AcDbEntity
  8
TitleBlock&Notes
  6
Continuous
 62
     3
100
AcDbLine
 10
74.90299738833536
 20
48.0127190489933
 30
0.0
 11
76.33074885633539
 21
48.0376405328333
 31
0.0
  0
LINE
  5
BE7
330
19
100
AcDbEntity
  8
TitleBlock&Notes
  6
Continuous
 62
     3
100
AcDbLine
 10
74.90299738833536
 20
47.9937081502733
 30
0.0
 11
76.33074885633539
 21
48.0186296341133
 31
0.0
  0
LINE
  5
BE8
330
19
100
AcDbEntity
  8
TitleBlock&Notes
  6
Continuous
 62
     3
100
AcDbLine
 10
74.90299738833536
 20
47.9746972515533
 30
0.0
 11
76.33074885633539
 21
47.9996187829133
 31
0.0
  0
LINE
  5
BE9
330
19
100
AcDbEntity
  8
TitleBlock&Notes
  6
Continuous
 62
     3
100
AcDbLine
 10
75.78211738833537
 20
47.9423097104333
 30
0.0
 11
74.87923738833538
 21
47.9423097104333
 31
0.0
  0
LINE
  5
BEA
330
19
100
AcDbEntity
  8
TitleBlock&Notes
  6
Continuous
 62
     3
100
AcDbLine
 10
75.49785759537542
 20
47.9660697104333
 30
0.0
 11
76.33074885633539
 21
47.98060788419332
 31
0.0
  0
TEXT
  5
BEB
330
19
100
AcDbEntity
  8
TitleBlock&Notes
  6
Continuous
 62
     3
100
AcDbText
 10
75.32267958225543
 20
49.16002372883331
 30
0.0
 40
0.3564
  1
R
 41
1.1965812
100
AcDbText
  0
LINE
  5
BEC
330
19
100
AcDbEntity
  8
TitleBlock&Notes
  6
Continuous
 62
     3
100
AcDbLine
 10
76.33074885633539
 20
49.02984416195329
 30
0.0
 11
74.90299738833536
 21
49.02984416195329
 31
0.0
  0
LINE
  5
BED
330
19
100
AcDbEntity
  8
TitleBlock&Notes
  6
Continuous
 62
     3
100
AcDbLine
 10
76.33074885633539
 20
48.9363008518733
 30
0.0
 11
74.90299738833536
 21
48.9363008518733
 31
0.0
  0
LINE
  5
BEE
330
19
100
AcDbEntity
  8
TitleBlock&Notes
  6
Continuous
 62
     3
100
AcDbLine
 10
76.33074885633539
 20
48.7024426241933
 30
0.0
 11
74.90299738833536
 21
48.7024426241933
 31
0.0
  0
LINE
  5
BEF
330
19
100
AcDbEntity
  8
TitleBlock&Notes
  6
Continuous
 62
     3
100
AcDbLine
 10
76.33074885633539
 20
48.6088993141133
 30
0.0
 11
74.90299738833536
 21
48.6088993141133
 31
0.0
  0
LINE
  5
BF0
330
19
100
AcDbEntity
  8
TitleBlock&Notes
  6
Continuous
 62
     3
100
AcDbLine
 10
76.33074885633539
 20
48.23472607379331
 30
0.0
 11
74.90299738833536
 21
48.23472607379331
 31
0.0
  0
LINE
  5
BF1
330
19
100
AcDbEntity
  8
TitleBlock&Notes
  6
Continuous
 62
     3
100
AcDbLine
 10
74.90299738833536
 20
48.58443967715331
 30
0.0
 11
76.30428753441534
 21
48.6088993141133
 31
0.0
  0
LINE
  5
BF2
330
19
100
AcDbEntity
  8
TitleBlock&Notes
  6
Continuous
 62
     3
100
AcDbLine
 10
74.90299738833536
 20
48.56542877843331
 30
0.0
 11
76.33074885633539
 21
48.59035030979331
 31
0.0
  0
LINE
  5
BF3
330
19
100
AcDbEntity
  8
TitleBlock&Notes
  6
Continuous
 62
     3
100
AcDbLine
 10
74.90299738833536
 20
48.5464178797133
 30
0.0
 11
76.33074885633539
 21
48.57133941107331
 31
0.0
  0
LINE
  5
BF4
330
19
100
AcDbEntity
  8
TitleBlock&Notes
  6
Continuous
 62
     3
100
AcDbLine
 10
74.90299738833536
 20
48.52740698099331
 30
0.0
 11
76.33074885633539
 21
48.55232851235331
 31
0.0
  0
LINE
  5
BF5
330
19
100
AcDbEntity
  8
TitleBlock&Notes
  6
Continuous
 62
     3
100
AcDbLine
 10
74.90299738833536
 20
48.5083961297933
 30
0.0
 11
76.33074885633539
 21
48.53331761363332
 31
0.0
  0
LINE
  5
BF6
330
19
100
AcDbEntity
  8
TitleBlock&Notes
  6
Continuous
 62
     3
100
AcDbLine
 10
74.90299738833536
 20
48.48938523107332
 30
0.0
 11
76.33074885633539
 21
48.51430671491332
 31
0.0
  0
LINE
  5
BF7
330
19
100
AcDbEntity
  8
TitleBlock&Notes
  6
Continuous
 62
     3
100
AcDbLine
 10
74.90299738833536
 20
48.47037433235332
 30
0.0
 11
76.33074885633539
 21
48.4952958161933
 31
0.0
  0
LINE
  5
BF8
330
19
100
AcDbEntity
  8
TitleBlock&Notes
  6
Continuous
 62
     3
100
AcDbLine
 10
74.90299738833536
 20
48.4513634336333
 30
0.0
 11
76.33074885633539
 21
48.47628491747332
 31
0.0
  0
LINE
  5
BF9
330
19
100
AcDbEntity
  8
TitleBlock&Notes
  6
Continuous
 62
     3
100
AcDbLine
 10
74.90299738833536
 20
48.43235253491329
 30
0.0
 11
76.33074885633539
 21
48.45727401875333
 31
0.0
  0
LINE
  5
BFA
330
19
100
AcDbEntity
  8
TitleBlock&Notes
  6
Continuous
 62
     3
100
AcDbLine
 10
74.90299738833536
 20
48.41334163619329
 30
0.0
 11
76.33074885633539
 21
48.43826312003329
 31
0.0
  0
LINE
  5
BFB
330
19
100
AcDbEntity
  8
TitleBlock&Notes
  6
Continuous
 62
     3
100
AcDbLine
 10
74.90299738833536
 20
48.39433073747331
 30
0.0
 11
76.33074885633539
 21
48.41925222131333
 31
0.0
  0
LINE
  5
BFC
330
19
100
AcDbEntity
  8
TitleBlock&Notes
  6
Continuous
 62
     3
100
AcDbLine
 10
74.90299738833536
 20
48.37531983875333
 30
0.0
 11
76.33074885633539
 21
48.4002413225933
 31
0.0
  0
LINE
  5
BFD
330
19
100
AcDbEntity
  8
TitleBlock&Notes
  6
Continuous
 62
     3
100
AcDbLine
 10
74.90299738833536
 20
48.3563089400333
 30
0.0
 11
76.33074885633539
 21
48.3812304238733
 31
0.0
  0
LINE
  5
BFE
330
19
100
AcDbEntity
  8
TitleBlock&Notes
  6
Continuous
 62
     3
100
AcDbLine
 10
74.90299738833536
 20
48.3372980413133
 30
0.0
 11
76.33074885633539
 21
48.3622195251533
 31
0.0
  0
LINE
  5
BFF
330
19
100
AcDbEntity
  8
TitleBlock&Notes
  6
Continuous
 62
     3
100
AcDbLine
 10
74.90299738833536
 20
48.3182871425933
 30
0.0
 11
76.33074885633539
 21
48.3432086264333
 31
0.0
  0
LINE
  5
C00
330
19
100
AcDbEntity
  8
TitleBlock&Notes
  6
Continuous
 62
     3
100
AcDbLine
 10
74.90299738833536
 20
48.2992762438733
 30
0.0
 11
76.33074885633539
 21
48.3241977752333
 31
0.0
  0
LINE
  5
C01
330
19
100
AcDbEntity
  8
TitleBlock&Notes
  6
Continuous
 62
     3
100
AcDbLine
 10
74.90299738833536
 20
48.2802653451533
 30
0.0
 11
76.33074885633539
 21
48.30518687651331
 31
0.0
  0
LINE
  5
C02
330
19
100
AcDbEntity
  8
TitleBlock&Notes
  6
Continuous
 62
     3
100
AcDbLine
 10
74.90299738833536
 20
48.26125444643331
 30
0.0
 11
76.33074885633539
 21
48.28617597779332
 31
0.0
  0
LINE
  5
C03
330
19
100
AcDbEntity
  8
TitleBlock&Notes
  6
Continuous
 62
     3
100
AcDbLine
 10
74.90299738833536
 20
48.2422435477133
 30
0.0
 11
76.33074885633539
 21
48.26716507907331
 31
0.0
  0
LINE
  5
C04
330
19
100
AcDbEntity
  8
TitleBlock&Notes
  6
Continuous
 62
     3
100
AcDbLine
 10
74.90299738833536
 20
48.91184126243331
 30
0.0
 11
76.30428753441534
 21
48.9363008518733
 31
0.0
  0
LINE
  5
C05
330
19
100
AcDbEntity
  8
TitleBlock&Notes
  6
Continuous
 62
     3
100
AcDbLine
 10
74.90299738833536
 20
48.89283036371331
 30
0.0
 11
76.33074885633539
 21
48.91775184755331
 31
0.0
  0
LINE
  5
C06
330
19
100
AcDbEntity
  8
TitleBlock&Notes
  6
Continuous
 62
     3
100
AcDbLine
 10
74.90299738833536
 20
48.8738194649933
 30
0.0
 11
76.33074885633539
 21
48.89874094883332
 31
0.0
  0
LINE
  5
C07
330
19
100
AcDbEntity
  8
TitleBlock&Notes
  6
Continuous
 62
     3
100
AcDbLine
 10
74.90299738833536
 20
48.85480856627331
 30
0.0
 11
76.33074885633539
 21
48.87973005011331
 31
0.0
  0
LINE
  5
C08
330
19
100
AcDbEntity
  8
TitleBlock&Notes
  6
Continuous
 62
     3
100
AcDbLine
 10
74.90299738833536
 20
48.83579766755332
 30
0.0
 11
76.33074885633539
 21
48.8607191989133
 31
0.0
  0
LINE
  5
C09
330
19
100
AcDbEntity
  8
TitleBlock&Notes
  6
Continuous
 62
     3
100
AcDbLine
 10
74.90299738833536
 20
48.81678676883331
 30
0.0
 11
76.33074885633539
 21
48.84170830019332
 31
0.0
  0
LINE
  5
C0A
330
19
100
AcDbEntity
  8
TitleBlock&Notes
  6
Continuous
 62
     3
100
AcDbLine
 10
74.90299738833536
 20
48.79777587011331
 30
0.0
 11
76.33074885633539
 21
48.82269740147332
 31
0.0
  0
LINE
  5
C0B
330
19
100
AcDbEntity
  8
TitleBlock&Notes
  6
Continuous
 62
     3
100
AcDbLine
 10
74.90299738833536
 20
48.77876501891329
 30
0.0
 11
76.33074885633539
 21
48.80368650275331
 31
0.0
  0
LINE
  5
C0C
330
19
100
AcDbEntity
  8
TitleBlock&Notes
  6
Continuous
 62
     3
100
AcDbLine
 10
74.90299738833536
 20
48.75975412019331
 30
0.0
 11
76.33074885633539
 21
48.78467560403333
 31
0.0
  0
LINE
  5
C0D
330
19
100
AcDbEntity
  8
TitleBlock&Notes
  6
Continuous
 62
     3
100
AcDbLine
 10
74.90299738833536
 20
48.74074322147329
 30
0.0
 11
76.33074885633539
 21
48.76566470531329
 31
0.0
  0
LINE
  5
C0E
330
19
100
AcDbEntity
  8
TitleBlock&Notes
  6
Continuous
 62
     3
100
AcDbLine
 10
74.90299738833536
 20
48.72173232275329
 30
0.0
 11
76.33074885633539
 21
48.74665380659331
 31
0.0
  0
LINE
  5
C0F
330
19
100
AcDbEntity
  8
TitleBlock&Notes
  6
Continuous
 62
     3
100
AcDbLine
 10
74.90299738833536
 20
48.70272142403329
 30
0.0
 11
76.33074885633539
 21
48.72764290787333
 31
0.0
  0
CIRCLE
  5
C10
330
19
100
AcDbEntity
  8
TitleBlock&Notes
  6
Continuous
 62
     3
100
AcDbCircle
 10
75.47108587281538
 20
49.3441497104333
 30
0.0
 40
0.297
  0
LINE
  5
C11
330
19
100
AcDbEntity
  8
TitleBlock&Notes
  6
Continuous
 62
     3
100
AcDbLine
 10
76.33074885633539
 20
49.05210747203331
 30
0.0
 11
75.52512613953535
 21
49.05210747203331
 31
0.0
  0
LINE
  5
C12
330
19
100
AcDbEntity
  8
TitleBlock&Notes
  6
Continuous
 62
     3
100
AcDbLine
 10
75.56145356385541
 20
48.23472607379331
 30
0.0
 11
76.33074885633539
 21
48.24815418035331
 31
0.0
  0
LINE
  5
C13
330
19
100
AcDbEntity
  8
TitleBlock&Notes
  6
Continuous
 62
     3
100
AcDbLine
 10
76.33074885633539
 20
49.07586747203331
 30
0.0
 11
75.59849725713539
 21
49.07586747203331
 31
0.0
  0
LINE
  5
C14
330
19
100
AcDbEntity
  8
TitleBlock&Notes
  6
Continuous
 62
     3
100
AcDbLine
 10
74.85547738833538
 20
49.6530297104333
 30
0.0
 11
74.85547738833538
 21
47.9185497104333
 31
0.0
  0
LINE
  5
C15
330
19
100
AcDbEntity
  8
TitleBlock&Notes
  6
Continuous
 62
     3
100
AcDbLine
 10
74.90299738833536
 20
47.9660697104333
 30
0.0
 11
74.90299738833536
 21
49.70054971043332
 31
0.0
  0
LINE
  5
C16
330
19
100
AcDbEntity
  8
TitleBlock&Notes
  6
Continuous
 62
     3
100
AcDbLine
 10
74.87923738833538
 20
47.9423097104333
 30
0.0
 11
74.87923738833538
 21
49.6767897104333
 31
0.0
  0
LINE
  5
C17
330
19
100
AcDbEntity
  8
TitleBlock&Notes
  6
Continuous
 62
     3
100
AcDbLine
 10
74.90299738833536
 20
48.6034505758733
 30
0.0
 11
75.21515403489542
 21
48.6088993141133
 31
0.0
  0
LINE
  5
C18
330
19
100
AcDbEntity
  8
TitleBlock&Notes
  6
Continuous
 62
     3
100
AcDbLine
 10
74.49907738833537
 20
49.6530297104333
 30
0.0
 11
74.85547738833538
 21
49.6530297104333
 31
0.0
  0
LINE
  5
C19
330
19
100
AcDbEntity
  8
TitleBlock&Notes
  6
Continuous
 62
     3
100
AcDbLine
 10
74.45155738833534
 20
49.70054971043332
 30
0.0
 11
74.90299738833536
 21
49.70054971043332
 31
0.0
  0
LINE
  5
C1A
330
19
100
AcDbEntity
  8
TitleBlock&Notes
  6
Continuous
 62
     3
100
AcDbLine
 10
74.47531738833541
 20
49.6767897104333
 30
0.0
 11
74.87923738833538
 21
49.6767897104333
 31
0.0
  0
LINE
  5
C1B
330
19
100
AcDbEntity
  8
TitleBlock&Notes
  6
Continuous
 62
     3
100
AcDbLine
 10
74.45155738833534
 20
49.05360416195332
 30
0.0
 11
74.05485073425538
 21
49.05360416195332
 31
0.0
  0
LINE
  5
C1C
330
19
100
AcDbEntity
  8
TitleBlock&Notes
  6
Continuous
 62
     3
100
AcDbLine
 10
74.20589091585537
 20
49.40401740227331
 30
0.0
 11
74.45155738833534
 21
49.40401740227331
 31
0.0
  0
LINE
  5
C1D
330
19
100
AcDbEntity
  8
TitleBlock&Notes
  6
Continuous
 62
     3
100
AcDbLine
 10
74.45155738833534
 20
49.47529740227333
 30
0.0
 11
74.2366150668954
 21
49.47529740227333
 31
0.0
  0
LINE
  5
C1E
330
19
100
AcDbEntity
  8
TitleBlock&Notes
  6
Continuous
 62
     3
100
AcDbLine
 10
74.45155738833534
 20
49.4515374022733
 30
0.0
 11
74.22637369905539
 21
49.4515374022733
 31
0.0
  0
LINE
  5
C1F
330
19
100
AcDbEntity
  8
TitleBlock&Notes
  6
Continuous
 62
     3
100
AcDbLine
 10
74.45155738833534
 20
49.42777740227331
 30
0.0
 11
74.21613228369534
 21
49.42777740227331
 31
0.0
  0
LINE
  5
C20
330
19
100
AcDbEntity
  8
TitleBlock&Notes
  6
Continuous
 62
     3
100
AcDbLine
 10
74.45155738833534
 20
49.1233874720333
 30
0.0
 11
74.08492975377541
 21
49.1233874720333
 31
0.0
  0
LINE
  5
C21
330
19
100
AcDbEntity
  8
TitleBlock&Notes
  6
Continuous
 62
     3
100
AcDbLine
 10
74.45155738833534
 20
49.09962747203332
 30
0.0
 11
74.07468838593541
 21
49.09962747203332
 31
0.0
  0
LINE
  5
C22
330
19
100
AcDbEntity
  8
TitleBlock&Notes
  6
Continuous
 62
     3
100
AcDbLine
 10
74.45155738833534
 20
49.07586747203331
 30
0.0
 11
74.06444697057539
 21
49.07586747203331
 31
0.0
  0
LINE
  5
C23
330
19
100
AcDbEntity
  8
TitleBlock&Notes
  6
Continuous
 62
     3
100
AcDbLine
 10
74.90299738833536
 20
48.93085216115331
 30
0.0
 11
75.21515403489542
 21
48.9363008518733
 31
0.0
  0
LINE
  5
C24
330
19
100
AcDbEntity
  8
TitleBlock&Notes
  6
Continuous
 62
     3
100
AcDbLine
 10
74.90299738833536
 20
49.1233874720333
 30
0.0
 11
75.27240760401539
 21
49.1233874720333
 31
0.0
  0
LINE
  5
C25
330
19
100
AcDbEntity
  8
TitleBlock&Notes
  6
Continuous
 62
     3
100
AcDbLine
 10
74.90299738833536
 20
49.40401740227331
 30
0.0
 11
75.18018235617538
 21
49.40401740227331
 31
0.0
  0
LINE
  5
C26
330
19
100
AcDbEntity
  8
TitleBlock&Notes
  6
Continuous
 62
     3
100
AcDbLine
 10
74.90299738833536
 20
49.47529740227333
 30
0.0
 11
75.20461020225539
 21
49.47529740227333
 31
0.0
  0
LINE
  5
C27
330
19
100
AcDbEntity
  8
TitleBlock&Notes
  6
Continuous
 62
     3
100
AcDbLine
 10
74.90299738833536
 20
49.4515374022733
 30
0.0
 11
75.19417998993538
 21
49.4515374022733
 31
0.0
  0
LINE
  5
C28
330
19
100
AcDbEntity
  8
TitleBlock&Notes
  6
Continuous
 62
     3
100
AcDbLine
 10
74.90299738833536
 20
49.42777740227331
 30
0.0
 11
75.18610268289537
 21
49.42777740227331
 31
0.0
  0
LINE
  5
C29
330
19
100
AcDbEntity
  8
TitleBlock&Notes
  6
Continuous
 62
     3
100
AcDbLine
 10
74.90299738833536
 20
49.09962747203332
 30
0.0
 11
75.30250981329536
 21
49.09962747203332
 31
0.0
  0
LINE
  5
C2A
330
19
100
AcDbEntity
  8
TitleBlock&Notes
  6
Continuous
 62
     3
100
AcDbLine
 10
74.90299738833536
 20
49.07586747203331
 30
0.0
 11
75.34367448849541
 21
49.07586747203331
 31
0.0
  0
LINE
  5
C2B
330
19
100
AcDbEntity
  8
TitleBlock&Notes
  6
Continuous
 62
     3
100
AcDbLine
 10
74.90299738833536
 20
49.05210747203331
 30
0.0
 11
75.4170456060954
 21
49.05210747203331
 31
0.0
  0
LINE
  5
C2C
330
19
100
AcDbEntity
  8
TitleBlock&Notes
  6
Continuous
 62
     3
100
AcDbLine
 10
75.80587738833543
 20
47.80034812979329
 30
0.0
 11
76.33074885633539
 21
47.80950979571331
 31
0.0
  0
LINE
  5
C2D
330
19
100
AcDbEntity
  8
TitleBlock&Notes
  6
Continuous
 62
     3
100
AcDbLine
 10
75.80587738833543
 20
47.78133723107329
 30
0.0
 11
76.33074885633539
 21
47.79049889699329
 31
0.0
  0
LINE
  5
C2E
330
19
100
AcDbEntity
  8
TitleBlock&Notes
  6
Continuous
 62
     3
100
AcDbLine
 10
75.80587738833543
 20
47.76232633235331
 30
0.0
 11
76.33074885633539
 21
47.7714879982733
 31
0.0
  0
LINE
  5
C2F
330
19
100
AcDbEntity
  8
TitleBlock&Notes
  6
Continuous
 62
     3
100
AcDbLine
 10
75.80587738833543
 20
47.7433154336333
 30
0.0
 11
76.33074885633539
 21
47.7524770995533
 31
0.0
  0
LINE
  5
C30
330
19
100
AcDbEntity
  8
TitleBlock&Notes
  6
Continuous
 62
     3
100
AcDbLine
 10
75.80587738833543
 20
47.7243045349133
 30
0.0
 11
76.33074885633539
 21
47.7334662008333
 31
0.0
  0
LINE
  5
C31
330
19
100
AcDbEntity
  8
TitleBlock&Notes
  6
Continuous
 62
     3
100
AcDbLine
 10
75.80587738833543
 20
47.7052936837133
 30
0.0
 11
76.33074885633539
 21
47.71445534963329
 31
0.0
  0
LINE
  5
C32
330
19
100
AcDbEntity
  8
TitleBlock&Notes
  6
Continuous
 62
     3
100
AcDbLine
 10
75.80587738833543
 20
47.95243531955331
 30
0.0
 11
76.33074885633539
 21
47.9615969854733
 31
0.0
  0
LINE
  5
C33
330
19
100
AcDbEntity
  8
TitleBlock&Notes
  6
Continuous
 62
     3
100
AcDbLine
 10
75.80587738833543
 20
47.93342442083331
 30
0.0
 11
76.33074885633539
 21
47.9425860867533
 31
0.0
  0
LINE
  5
C34
330
19
100
AcDbEntity
  8
TitleBlock&Notes
  6
Continuous
 62
     3
100
AcDbLine
 10
75.80587738833543
 20
47.91441352211331
 30
0.0
 11
76.33074885633539
 21
47.9235751880333
 31
0.0
  0
LINE
  5
C35
330
19
100
AcDbEntity
  8
TitleBlock&Notes
  6
Continuous
 62
     3
100
AcDbLine
 10
75.80587738833543
 20
47.89540262339329
 30
0.0
 11
76.33074885633539
 21
47.90456428931331
 31
0.0
  0
LINE
  5
C36
330
19
100
AcDbEntity
  8
TitleBlock&Notes
  6
Continuous
 62
     3
100
AcDbLine
 10
75.80587738833543
 20
47.87639172467329
 30
0.0
 11
76.33074885633539
 21
47.88555339059328
 31
0.0
  0
LINE
  5
C37
330
19
100
AcDbEntity
  8
TitleBlock&Notes
  6
Continuous
 62
     3
100
AcDbLine
 10
75.80587738833543
 20
47.85738082595331
 30
0.0
 11
76.33074885633539
 21
47.8665424918733
 31
0.0
  0
LINE
  5
C38
330
19
100
AcDbEntity
  8
TitleBlock&Notes
  6
Continuous
 62
     3
100
AcDbLine
 10
75.80587738833543
 20
47.83836992723332
 30
0.0
 11
76.33074885633539
 21
47.84753159315329
 31
0.0
  0
LINE
  5
C39
330
19
100
AcDbEntity
  8
TitleBlock&Notes
  6
Continuous
 62
     3
100
AcDbLine
 10
75.80587738833543
 20
47.8193590285133
 30
0.0
 11
76.33074885633539
 21
47.82852069443329
 31
0.0
  0
LINE
  5
C3A
330
19
100
AcDbEntity
  8
TitleBlock&Notes
  6
Continuous
 62
     3
100
AcDbLine
 10
75.97615799025536
 20
48.7024426241933
 30
0.0
 11
76.33074885633539
 21
48.7086320091533
 31
0.0
  0
TEXT
  5
C3B
330
19
100
AcDbEntity
  8
TitleBlock&Notes
  6
Continuous
 62
     3
100
AcDbText
 10
75.86358710193542
 20
49.19898361859331
 30
0.0
 40
0.1188
  1
INC.
 41
1.282051279999999
100
AcDbText
  0
LINE
  5
C3C
330
19
100
AcDbEntity
  8
TitleBlock&Notes
  6
Continuous
 62
     3
100
AcDbLine
 10
76.33074885633539
 20
49.40401740227331
 30
0.0
 11
75.76198938945535
 21
49.40401740227331
 31
0.0
  0
LINE
  5
C3D
330
19
100
AcDbEntity
  8
TitleBlock&Notes
  6
Continuous
 62
     3
100
AcDbLine
 10
76.33074885633539
 20
49.47529740227333
 30
0.0
 11
75.73756154337544
 21
49.47529740227333
 31
0.0
  0
LINE
  5
C3E
330
19
100
AcDbEntity
  8
TitleBlock&Notes
  6
Continuous
 62
     3
100
AcDbLine
 10
76.33074885633539
 20
49.4515374022733
 30
0.0
 11
75.74799175569535
 21
49.4515374022733
 31
0.0
  0
LINE
  5
C3F
330
19
100
AcDbEntity
  8
TitleBlock&Notes
  6
Continuous
 62
     3
100
AcDbLine
 10
76.33074885633539
 20
49.42777740227331
 30
0.0
 11
75.75606906273534
 21
49.42777740227331
 31
0.0
  0
LINE
  5
C40
330
19
100
AcDbEntity
  8
TitleBlock&Notes
  6
Continuous
 62
     3
100
AcDbLine
 10
76.33074885633539
 20
49.1233874720333
 30
0.0
 11
75.6697641416154
 21
49.1233874720333
 31
0.0
  0
LINE
  5
C41
330
19
100
AcDbEntity
  8
TitleBlock&Notes
  6
Continuous
 62
     3
100
AcDbLine
 10
76.33074885633539
 20
49.09962747203332
 30
0.0
 11
75.63966193233534
 21
49.09962747203332
 31
0.0
  0
TEXT
  5
C45
330
19
100
AcDbEntity
  8
TitleBlock&Notes
  6
Continuous
 62
     3
100
AcDbText
 10
79.26299286332647
 20
48.43537441090987
 30
0.0
 40
0.38016
  1
 Bolton, Ontario
 41
0.7000000000000001
100
AcDbText
  0
TEXT
  5
C46
330
19
100
AcDbEntity
  8
TitleBlock&Notes
  6
Continuous
 62
     3
100
AcDbText
 10
76.84644541909428
 20
47.79943289177035
 30
0.0
 40
0.38016
  1
          Canada L7E 5R1
 41
0.7000000000000001
100
AcDbText
  0
CIRCLE
  5
C47
330
19
100
AcDbEntity
  8
TitleBlock&Notes
  6
Continuous
 62
     3
100
AcDbCircle
 10
82.58988791274509
 20
50.21330439639692
 30
0.0
 40
0.21384
  0
TEXT
  5
C48
330
19
100
AcDbEntity
  8
TitleBlock&Notes
  6
Continuous
 62
     3
100
AcDbText
 10
82.49059667850508
 20
50.08321706583693
 30
0.0
 40
0.26136
  1
R
 41
1.165501169999999
100
AcDbText
  0
LINE
  5
C4B
330
19
100
AcDbEntity
  8
B.O.M
100
AcDbLine
 10
81.30858356067951
 20
75.78651715936107
 30
0.0
 11
69.4757186898947
 21
75.78651715936108
 31
0.0
  0
LINE
  5
C4C
330
19
100
AcDbEntity
  8
B.O.M
100
AcDbLine
 10
81.30858356067951
 20
76.46651715936108
 30
0.0
 11
69.4757186898947
 21
76.46651715936108
 31
0.0
  0
LINE
  5
C4D
330
19
100
AcDbEntity
  8
B.O.M
100
AcDbLine
 10
81.30858356067953
 20
77.14651715936108
 30
0.0
 11
69.47571868989472
 21
77.14651715936108
 31
0.0
  0
LINE
  5
C4E
330
19
100
AcDbEntity
  8
B.O.M
100
AcDbLine
 10
81.30858356067953
 20
77.82651715936108
 30
0.0
 11
69.47571868989472
 21
77.82651715936109
 31
0.0
  0
LINE
  5
C4F
330
19
100
AcDbEntity
  8
B.O.M
100
AcDbLine
 10
81.30858356067953
 20
78.50651715936106
 30
0.0
 11
69.47571868989472
 21
78.50651715936108
 31
0.0
  0
LINE
  5
C50
330
19
100
AcDbEntity
  8
B.O.M
100
AcDbLine
 10
81.30858356067953
 20
79.18651715936107
 30
0.0
 11
69.47571868989472
 21
79.18651715936109
 31
0.0
  0
LINE
  5
C51
330
19
100
AcDbEntity
  8
B.O.M
100
AcDbLine
 10
81.30858356067953
 20
79.86651715936108
 30
0.0
 11
69.47571868989472
 21
79.86651715936108
 31
0.0
  0
LINE
  5
C52
330
19
100
AcDbEntity
  8
B.O.M
100
AcDbLine
 10
81.30858356067953
 20
80.54651715936108
 30
0.0
 11
69.47571868989472
 21
80.54651715936108
 31
0.0
  0
LINE
  5
C53
330
19
100
AcDbEntity
  8
B.O.M
100
AcDbLine
 10
81.30858356067953
 20
81.22651715936106
 30
0.0
 11
69.47571868989472
 21
81.22651715936109
 31
0.0
  0
LINE
  5
C54
330
19
100
AcDbEntity
  8
B.O.M
100
AcDbLine
 10
81.30858356067953
 20
81.90651715936107
 30
0.0
 11
69.47571868989472
 21
81.90651715936111
 31
0.0
  0
LINE
  5
C55
330
19
100
AcDbEntity
  8
B.O.M
100
AcDbLine
 10
81.30858356067953
 20
82.58651715936109
 30
0.0
 11
69.47571868989472
 21
82.58651715936109
 31
0.0
  0
LINE
  5
C56
330
19
100
AcDbEntity
  8
B.O.M
100
AcDbLine
 10
81.30858356067953
 20
83.26651715936108
 30
0.0
 11
67.38756606563858
 21
83.26651715936108
 31
0.0
  0
LINE
  5
C57
330
19
100
AcDbEntity
  8
B.O.M
100
AcDbLine
 10
69.4757186898947
 20
75.78651715936108
 30
0.0
 11
69.47571868989472
 21
83.26651715936108
 31
0.0
  0
LINE
  5
C58
330
19
100
AcDbEntity
  8
B.O.M
100
AcDbLine
 10
69.69671868989471
 20
76.00751715936109
 30
0.0
 11
69.4757186898947
 21
76.00751715936109
 31
0.0
  0
LINE
  5
C59
330
19
100
AcDbEntity
  8
B.O.M
100
AcDbLine
 10
69.69671868989472
 20
76.68751715936108
 30
0.0
 11
69.47571868989472
 21
76.68751715936108
 31
0.0
  0
LINE
  5
C5A
330
19
100
AcDbEntity
  8
B.O.M
100
AcDbLine
 10
69.69671868989472
 20
77.36751715936108
 30
0.0
 11
69.47571868989472
 21
77.36751715936108
 31
0.0
  0
LINE
  5
C5B
330
19
100
AcDbEntity
  8
B.O.M
100
AcDbLine
 10
69.69671868989472
 20
78.04751715936108
 30
0.0
 11
69.47571868989472
 21
78.04751715936109
 31
0.0
  0
LINE
  5
C5C
330
19
100
AcDbEntity
  8
B.O.M
100
AcDbLine
 10
69.69671868989472
 20
78.72751715936108
 30
0.0
 11
69.47571868989472
 21
78.72751715936108
 31
0.0
  0
LINE
  5
C5D
330
19
100
AcDbEntity
  8
B.O.M
100
AcDbLine
 10
69.69671868989472
 20
79.40751715936108
 30
0.0
 11
69.47571868989472
 21
79.40751715936108
 31
0.0
  0
LINE
  5
C5E
330
19
100
AcDbEntity
  8
B.O.M
100
AcDbLine
 10
69.69671868989472
 20
80.08751715936108
 30
0.0
 11
69.47571868989472
 21
80.08751715936108
 31
0.0
  0
LINE
  5
C5F
330
19
100
AcDbEntity
  8
B.O.M
100
AcDbLine
 10
69.69671868989472
 20
80.76751715936108
 30
0.0
 11
69.47571868989472
 21
80.7675171593611
 31
0.0
  0
LINE
  5
C60
330
19
100
AcDbEntity
  8
B.O.M
100
AcDbLine
 10
69.69671868989472
 20
81.44751715936108
 30
0.0
 11
69.47571868989472
 21
81.44751715936109
 31
0.0
  0
LINE
  5
C61
330
19
100
AcDbEntity
  8
B.O.M
100
AcDbLine
 10
69.69671868989472
 20
82.12751715936107
 30
0.0
 11
69.47571868989472
 21
82.12751715936109
 31
0.0
  0
TEXT
  5
C62
330
19
100
AcDbEntity
  8
B.O.M
100
AcDbText
 10
69.82081565761156
 20
82.73922125583306
 30
0.0
 40
0.2508
  1
PART             
100
AcDbText
  0
LINE
  5
C63
330
19
100
AcDbEntity
  8
B.O.M
100
AcDbLine
 10
78.95643358373921
 20
83.26651715936108
 30
0.0
 11
78.95643358373918
 21
75.78651715936107
 31
0.0
  0
LINE
  5
C64
330
19
100
AcDbEntity
  8
B.O.M
100
AcDbLine
 10
75.68684505061661
 20
83.26651715936108
 30
0.0
 11
75.68684505061658
 21
75.78651715936107
 31
0.0
  0
TEXT
  5
C65
330
19
100
AcDbEntity
  8
B.O.M
100
AcDbText
 10
79.23128494031352
 20
82.73922125583302
 30
0.0
 40
0.2508
  1
QTY.
100
AcDbText
  0
TEXT
  5
C66
330
19
100
AcDbEntity
  8
B.O.M
100
AcDbText
 10
76.0015748139519
 20
82.73922125583304
 30
0.0
 40
0.2508
  1
PART NO.  
100
AcDbText
  0
LINE
  5
C71
330
19
100
AcDbEntity
  8
OBJ
  6
Continuous
 62
   255
100
AcDbLine
 10
41.31807199999999
 20
72.65626000000001
 30
0.0
 11
41.31807199999999
 21
60.65625999999999
 31
0.0
  0
LINE
  5
C72
330
19
100
AcDbEntity
  8
OBJ
  6
Continuous
 62
   255
100
AcDbLine
 10
41.31807199999999
 20
76.65626
 30
0.0
 11
41.31807199999999
 21
72.65626000000001
 31
0.0
  0
LINE
  5
C73
330
19
100
AcDbEntity
  8
OBJ
  6
Continuous
 62
   255
100
AcDbLine
 10
41.31807199999999
 20
60.65625999999999
 30
0.0
 11
41.31807199999999
 21
56.65625999999999
 31
0.0
  0
LINE
  5
C74
330
19
100
AcDbEntity
  8
OBJ
  6
Continuous
 62
   255
100
AcDbLine
 10
62.068072
 20
76.65625999999999
 30
0.0
 11
62.068072
 21
72.65626000000001
 31
0.0
  0
LINE
  5
C75
330
19
100
AcDbEntity
  8
OBJ
  6
Continuous
 62
   255
100
AcDbLine
 10
62.068072
 20
72.65626000000001
 30
0.0
 11
62.068072
 21
60.65625999999999
 31
0.0
  0
LINE
  5
C76
330
19
100
AcDbEntity
  8
OBJ
  6
Continuous
 62
   255
100
AcDbLine
 10
62.068072
 20
60.65625999999999
 30
0.0
 11
62.068072
 21
56.65625999999998
 31
0.0
  0
LINE
  5
C7C
330
19
100
AcDbEntity
  8
OBJ
  6
Continuous
 62
   255
100
AcDbLine
 10
49.44307199999999
 20
71.40626000000001
 30
0.0
 11
53.943072
 21
71.40626000000001
 31
0.0
  0
LINE
  5
C7D
330
19
100
AcDbEntity
  8
OBJ
  6
Continuous
 62
   255
100
AcDbLine
 10
71.18719732014395
 20
71.40626000000001
 30
0.0
 11
76.18719732014395
 21
71.40626000000001
 31
0.0
  0
LINE
  5
C82
330
19
100
AcDbEntity
  8
N0
  6
Continuous
 62
   255
100
AcDbLine
 10
40.31025999999999
 20
55.78125999999999
 30
0.0
 11
40.31025999999999
 21
55.65626000000001
 31
0.0
  0
LINE
  5
C9A
330
19
100
AcDbEntity
  8
0
  6
HIDDEN
100
AcDbLine
 10
50.21667200000001
 20
71.40626000000001
 30
0.0
 11
50.216672
 21
72.65626000000001
 31
0.0
  0
LINE
  5
C9B
330
19
100
AcDbEntity
  8
0
  6
HIDDEN
100
AcDbLine
 10
50.15417200000001
 20
71.40626000000001
 30
0.0
 11
50.154172
 21
72.65626000000001
 31
0.0
  0
LINE
  5
C9C
330
19
100
AcDbEntity
  8
0
  6
HIDDEN
100
AcDbLine
 10
53.169472
 20
71.40626000000001
 30
0.0
 11
53.169472
 21
72.65626000000001
 31
0.0
  0
LINE
  5
C9D
330
19
100
AcDbEntity
  8
0
  6
HIDDEN
100
AcDbLine
 10
53.231972
 20
71.40626000000001
 30
0.0
 11
53.231972
 21
72.65626000000001
 31
0.0
  0
LINE
  5
C9E
330
19
100
AcDbEntity
  8
0
  6
HIDDEN
100
AcDbLine
 10
72.21079732014397
 20
71.40626000000001
 30
0.0
 11
72.21079732014395
 21
72.65626000000001
 31
0.0
  0
LINE
  5
C9F
330
19
100
AcDbEntity
  8
0
  6
HIDDEN
100
AcDbLine
 10
72.14829732014397
 20
71.40626000000001
 30
0.0
 11
72.14829732014395
 21
72.65626000000001
 31
0.0
  0
LINE
  5
CA0
330
19
100
AcDbEntity
  8
0
  6
HIDDEN
100
AcDbLine
 10
75.16359732014395
 20
71.40626000000001
 30
0.0
 11
75.16359732014395
 21
72.65626000000001
 31
0.0
  0
LINE
  5
CA1
330
19
100
AcDbEntity
  8
0
  6
HIDDEN
100
AcDbLine
 10
75.22609732014394
 20
71.40626000000001
 30
0.0
 11
75.22609732014394
 21
72.65626000000001
 31
0.0
  0
LINE
  5
CC0
330
19
100
AcDbEntity
  8
OBJ
  6
Continuous
 62
   255
100
AcDbLine
 10
79.68719732014395
 20
55.65625999999999
 30
0.0
 11
79.68719732014395
 21
56.65625999999999
 31
0.0
  0
LINE
  5
CC1
330
19
100
AcDbEntity
  8
OBJ
  6
Continuous
 62
   255
100
AcDbLine
 10
67.68719732014395
 20
55.65625999999999
 30
0.0
 11
67.68719732014395
 21
56.65625999999999
 31
0.0
  0
LINE
  5
D57
330
19
100
AcDbEntity
  8
DIMENSIONS
  6
Continuous
 62
   255
100
AcDbLine
 10
51.568072
 20
60.65625999999999
 30
0.0
 11
48.18851801360348
 21
60.65625999999999
 31
0.0
  0
DIMENSION
  5
D66
330
19
100
AcDbEntity
  8
DIMENSIONS
  6
Continuous
100
AcDbDimension
  2
*D13
 10
60.818072
 20
66.55751087942926
 30
0.0
 11
51.86248502938767
 21
66.55751087942926
 31
0.0
 70
   160
 71
     5
 42
18.25
  3
STANDARD
100
AcDbAlignedDimension
 13
42.56807199999999
 23
66.65626
 33
0.0
 14
60.818072
 24
66.65626
 34
0.0
100
AcDbRotatedDimension
1001
ACAD
1000
DSTYLE
1002
{
1070
    41
1040
0.35
1070
    42
1040
0.125
1070
    43
1040
0.65
1070
    44
1040
0.125
1070
    45
1040
0.000001
1070
   140
1040
0.36
1070
   141
1040
0.18
1070
   147
1040
0.18
1070
   171
1070
     6
1070
   176
1070
   256
1070
   177
1070
   256
1070
   178
1070
   256
1070
   274
1070
     6
1070
   277
1070
     5
1070
   288
1070
     1
1002
}
  0
DIMENSION
  5
D74
330
19
100
AcDbEntity
  8
DIMENSIONS
  6
Continuous
100
AcDbDimension
  2
*D14
 10
40.31025999999999
 20
54.1156174795697
 30
0.0
 11
51.57960172147887
 21
54.1156174795697
 31
0.0
 70
   160
 71
     5
 42
22.765625
  3
STANDARD
100
AcDbAlignedDimension
 13
63.075885
 23
55.65625999999999
 33
0.0
 14
40.31025999999999
 24
55.65626000000001
 34
0.0
100
AcDbRotatedDimension
1001
ACAD
1000
DSTYLE
1002
{
1070
    41
1040
0.35
1070
    42
1040
0.125
1070
    43
1040
0.65
1070
    44
1040
0.125
1070
    45
1040
0.000001
1070
   140
1040
0.36
1070
   141
1040
0.18
1070
   147
1040
0.18
1070
   171
1070
     6
1070
   176
1070
   256
1070
   177
1070
   256
1070
   178
1070
   256
1070
   274
1070
     6
1070
   277
1070
     5
1070
   288
1070
     1
1002
}
  0
DIMENSION
  5
D82
330
19
100
AcDbEntity
  8
DIMENSIONS
  6
Continuous
100
AcDbDimension
  2
*D15
 10
79.68719732014395
 20
54.02136065753679
 30
0.0
 11
73.73879674668646
 21
54.02136065753679
 31
0.0
 70
   160
 71
     5
 42
12.0
  3
STANDARD
100
AcDbAlignedDimension
 13
67.68719732014395
 23
55.65625999999999
 33
0.0
 14
79.68719732014395
 24
55.65625999999998
 34
0.0
100
AcDbRotatedDimension
1001
ACAD
1000
DSTYLE
1002
{
1070
    41
1040
0.35
1070
    42
1040
0.125
1070
    43
1040
0.65
1070
    44
1040
0.125
1070
    45
1040
0.000001
1070
   140
1040
0.36
1070
   141
1040
0.18
1070
   147
1040
0.18
1070
   171
1070
     6
1070
   176
1070
   256
1070
   177
1070
   256
1070
   178
1070
   256
1070
   274
1070
     6
1070
   277
1070
     5
1070
   288
1070
     1
1002
}
  0
DIMENSION
  5
D90
330
19
100
AcDbEntity
  8
DIMENSIONS
  6
Continuous
100
AcDbDimension
  2
*D16
 10
76.18719732014395
 20
66.46325417787915
 30
0.0
 11
73.83309128555012
 21
66.46325417787915
 31
0.0
 70
   160
 71
     5
 42
5.0
  3
STANDARD
100
AcDbAlignedDimension
 13
71.18719732014395
 23
66.65626
 33
0.0
 14
76.18719732014395
 24
66.65626
 34
0.0
100
AcDbRotatedDimension
1001
ACAD
1000
DSTYLE
1002
{
1070
    41
1040
0.35
1070
    42
1040
0.125
1070
    43
1040
0.65
1070
    44
1040
0.125
1070
    45
1040
0.000001
1070
   140
1040
0.36
1070
   141
1040
0.18
1070
   147
1040
0.18
1070
   171
1070
     6
1070
   176
1070
   256
1070
   177
1070
   256
1070
   178
1070
   256
1070
   274
1070
     6
1070
   277
1070
     5
1070
   288
1070
     1
1002
}
  0
DIMENSION
  5
D9E
330
19
100
AcDbEntity
  8
DIMENSIONS
  6
Continuous
100
AcDbDimension
  2
*D17
 10
38.45670009790778
 20
77.28126
 30
0.0
 11
38.45670009790777
 21
66.5034291654251
 31
0.0
 70
   160
 71
     5
 42
21.625
  3
STANDARD
100
AcDbAlignedDimension
 13
40.31025999999999
 23
55.65626000000001
 33
0.0
 14
41.52119699999999
 24
77.28126
 34
0.0
 50
90.0
100
AcDbRotatedDimension
1001
ACAD
1000
DSTYLE
1002
{
1070
    41
1040
0.35
1070
    42
1040
0.125
1070
    43
1040
0.65
1070
    44
1040
0.125
1070
    45
1040
0.000001
1070
   140
1040
0.36
1070
   141
1040
0.18
1070
   147
1040
0.18
1070
   171
1070
     6
1070
   176
1070
   256
1070
   177
1070
   256
1070
   178
1070
   256
1070
   274
1070
     6
1070
   277
1070
     5
1070
   288
1070
     1
1002
}
  0
DIMENSION
  5
DAC
330
19
100
AcDbEntity
  8
DIMENSIONS
  6
Continuous
100
AcDbDimension
  2
*D18
 10
46.84529907960027
 20
60.65626
 30
0.0
 11
46.84529907960026
 21
67.77254768458522
 31
0.0
 70
   160
 71
     5
 42
10.75
  3
STANDARD
100
AcDbAlignedDimension
 13
49.44307199999999
 23
71.40626000000001
 33
0.0
 14
49.87829500680174
 24
60.65625999999999
 34
0.0
 50
90.0
100
AcDbRotatedDimension
1001
ACAD
1000
DSTYLE
1002
{
1070
    76
1070
     1
1070
    41
1040
0.35
1070
    42
1040
0.125
1070
    43
1040
0.65
1070
    44
1040
0.125
1070
    45
1040
0.000001
1070
   140
1040
0.36
1070
   141
1040
0.18
1070
   147
1040
0.18
1070
   171
1070
     6
1070
   176
1070
   256
1070
   177
1070
   256
1070
   178
1070
   256
1070
   274
1070
     6
1070
   277
1070
     5
1070
   288
1070
     1
1002
}
  0
SOLID
  5
DBA
330
19
100
AcDbEntity
  8
DIMENSIONS
  6
Continuous
100
AcDbTrace
 10
51.91048615678182
 20
72.93667730012363
 30
0.0
 11
51.80778788880758
 21
72.99203230772187
 31
0.0
 12
51.693072
 22
72.65626000000001
 32
0.0
 13
51.693072
 23
72.65626000000001
 33
0.0
  0
LINE
  5
DBB
330
19
100
AcDbEntity
  8
DIMENSIONS
  6
Continuous
100
AcDbLine
 10
51.8591370227947
 20
72.96435480392275
 30
0.0
 11
55.55172172410206
 21
79.81508194905988
 31
0.0
  0
LINE
  5
DBC
330
19
100
AcDbEntity
  8
DIMENSIONS
  6
Continuous
100
AcDbLine
 10
55.55172172410206
 20
79.81508194905988
 30
0.0
 11
55.90172172410206
 21
79.81508194905988
 31
0.0
  0
MTEXT
  5
DBD
330
19
100
AcDbEntity
  8
DIMENSIONS
  6
Continuous
100
AcDbMText
 10
56.08172172410206
 20
79.99508194905988
 30
0.0
 40
0.36
 41
0.0
 71
     1
 72
     1
  1
\A1;75mm-1.5mm PITCH
 73
     1
 44
1.0
  0
TEXT
  5
E06
330
19
100
AcDbEntity
  8
0
100
AcDbText
 10
55.28375014053084
 20
84.27647272493512
 30
0.0
 40
0.5
  1
12MCP1825-X MULTICAGE
100
AcDbText
  0
LINE
  5
E07
330
19
100
AcDbEntity
  8
0
100
AcDbLine
 10
54.91719624221447
 20
84.02599528792054
 30
0.0
 11
65.67926273543314
 21
84.02599528792054
 31
0.0
  0
ENDSEC
  0
SECTION
  2
OBJECTS
  0
DICTIONARY
  5
C
330
0
100
AcDbDictionary
281
     1
  3
ACAD_GROUP
350
D
  3
ACAD_LAYOUT
350
24E
  3
ACAD_MLINESTYLE
350
E
  3
ACAD_PLOTSETTINGS
350
24F
  3
ACAD_PLOTSTYLENAME
350
24C
  0
DICTIONARY
  5
D
102
{ACAD_REACTORS
330
C
102
}
330
C
100
AcDbDictionary
281
     1
  0
DICTIONARY
  5
24E
102
{ACAD_REACTORS
330
C
102
}
330
C
100
AcDbDictionary
281
     1
  3
Layout1
350
251
  3
Model
350
250
  0
DICTIONARY
  5
E
102
{ACAD_REACTORS
330
C
102
}
330
C
100
AcDbDictionary
281
     1
  3
STANDARD
350
1C
  0
DICTIONARY
  5
24F
102
{ACAD_REACTORS
330
C
102
}
330
C
100
AcDbDictionary
281
     1
  0
ACDBDICTIONARYWDFLT
  5
24C
102
{ACAD_REACTORS
330
C
102
}
330
C
100
AcDbDictionary
281
     1
  3
Normal
350
24D
100
AcDbDictionaryWithDefault
340
24D
  0
LAYOUT
  5
251
102
{ACAD_REACTORS
330
24E
102
}
330
24E
100
AcDbPlotSettings
  1

  2
HP LaserJet III
  4

  6

 40
0.0
 41
0.0
 42
0.0
 43
0.0
 44
0.0
 45
0.0
 46
0.0
 47
0.0
 48
0.0
 49
0.0
140
0.0
141
0.0
142
1.0
143
1.0
 70
   688
 72
     0
 73
     0
 74
     5
  7

 75
    16
147
1.0
148
0.0
149
0.0
100
AcDbLayout
  1
Layout1
 70
     1
 71
     1
 10
0.0
 20
0.0
 11
12.0
 21
9.0
 12
0.0
 22
0.0
 32
0.0
 14
1.000000000000000E+20
 24
1.000000000000000E+20
 34
1.000000000000000E+20
 15
-1.000000000000000E+20
 25
-1.000000000000000E+20
 35
-1.000000000000000E+20
146
0.0
 13
0.0
 23
0.0
 33
0.0
 16
1.0
 26
0.0
 36
0.0
 17
0.0
 27
1.0
 37
0.0
 76
     0
330
16
  0
LAYOUT
  5
250
102
{ACAD_REACTORS
330
24E
102
}
330
24E
100
AcDbPlotSettings
  1

  2
HP LaserJet III
  4
Letter
  6

 40
7.143749713897705
 41
7.143741130828857
 42
7.14373779296875
 43
5.365753173828125
 44
215.8999938964843
 45
279.3999938964843
 46
0.0
 47
0.0
 48
33.00668587281544
 49
45.7885685912333
140
85.80668587281543
141
86.58856859123332
142
1.0
143
5.140157317410176
 70
 11952
 72
     0
 73
     1
 74
     4
  7

 75
     0
147
0.1945465747931313
148
-838.369821169512
149
-1163.029642217326
100
AcDbLayout
  1
Model
 70
     1
 71
     0
 10
0.0
 20
0.0
 11
12.0
 21
9.0
 12
0.0
 22
0.0
 32
0.0
 14
0.0
 24
0.0
 34
0.0
 15
0.0
 25
0.0
 35
0.0
146
0.0
 13
0.0
 23
0.0
 33
0.0
 16
1.0
 26
0.0
 36
0.0
 17
0.0
 27
1.0
 37
0.0
 76
     0
330
19
  0
MLINESTYLE
  5
1C
102
{ACAD_REACTORS
330
E
102
}
330
E
100
AcDbMlineStyle
  2
STANDARD
 70
     0
  3

 62
     0
 51
90.0
 52
90.0
 71
     2
 49
0.5
 62
   256
  6
BYLAYER
 49
-0.5
 62
   256
  6
BYLAYER
  0
ACDBPLACEHOLDER
  5
24D
102
{ACAD_REACTORS
330
24C
102
}
330
24C
  0
ENDSEC
  0
EOF
