  0
SECTION
  2
HEADER
  9
$ACADVER
  1
AC1015
  9
$ACADMAINTVER
 70
     6
  9
$DWGCODEPAGE
  3
ANSI_1252
  9
$INSBASE
 10
0.0
 20
0.0
 30
0.0
  9
$EXTMIN
 10
-9.393085450286235
 20
-3.400405210379002
 30
0.0
  9
$EXTMAX
 10
45.60691454971378
 20
39.10367526227351
 30
0.0
  9
$LIMMIN
 10
0.0
 20
0.0
  9
$LIMMAX
 10
17.0
 20
11.0
  9
$ORTHOMODE
 70
     0
  9
$REGENMODE
 70
     1
  9
$FILLMODE
 70
     1
  9
$QTEXTMODE
 70
     0
  9
$MIRRTEXT
 70
     1
  9
$LTSCALE
 40
1.0
  9
$ATTMODE
 70
     1
  9
$TEXTSIZE
 40
0.25
  9
$TRACEWID
 40
0.05
  9
$TEXTSTYLE
  7
STANDARD
  9
$CLAYER
  8
0
  9
$CELTYPE
  6
CONTINUOUS
  9
$CECOLOR
 62
   255
  9
$CELTSCALE
 40
1.0
  9
$DISPSILH
 70
     0
  9
$DIMSCALE
 40
1.0
  9
$DIMASZ
 40
0.3
  9
$DIMEXO
 40
0.1
  9
$DIMDLI
 40
0.3
  9
$DIMRND
 40
0.000001
  9
$DIMDLE
 40
0.0
  9
$DIMEXE
 40
0.1
  9
$DIMTP
 40
0.0
  9
$DIMTM
 40
0.0
  9
$DIMTXT
 40
0.3
  9
$DIMCEN
 40
0.09
  9
$DIMTSZ
 40
0.0
  9
$DIMTOL
 70
     0
  9
$DIMLIM
 70
     0
  9
$DIMTIH
 70
     1
  9
$DIMTOH
 70
     1
  9
$DIMSE1
 70
     0
  9
$DIMSE2
 70
     0
  9
$DIMTAD
 70
     0
  9
$DIMZIN
 70
     0
  9
$DIMBLK
  1

  9
$DIMASO
 70
     1
  9
$DIMSHO
 70
     1
  9
$DIMPOST
  1

  9
$DIMAPOST
  1

  9
$DIMALT
 70
     0
  9
$DIMALTD
 70
     6
  9
$DIMALTF
 40
25.4
  9
$DIMLFAC
 40
1.0
  9
$DIMTOFL
 70
     0
  9
$DIMTVP
 40
0.0
  9
$DIMTIX
 70
     0
  9
$DIMSOXD
 70
     0
  9
$DIMSAH
 70
     0
  9
$DIMBLK1
  1

  9
$DIMBLK2
  1

  9
$DIMSTYLE
  2
STANDARD
  9
$DIMCLRD
 70
     1
  9
$DIMCLRE
 70
     1
  9
$DIMCLRT
 70
     1
  9
$DIMTFAC
 40
1.0
  9
$DIMGAP
 40
0.09
  9
$DIMJUST
 70
     0
  9
$DIMSD1
 70
     0
  9
$DIMSD2
 70
     0
  9
$DIMTOLJ
 70
     1
  9
$DIMTZIN
 70
     0
  9
$DIMALTZ
 70
     0
  9
$DIMALTTZ
 70
     0
  9
$DIMUPT
 70
     0
  9
$DIMDEC
 70
     3
  9
$DIMTDEC
 70
     3
  9
$DIMALTU
 70
     2
  9
$DIMALTTD
 70
     6
  9
$DIMTXSTY
  7
STANDARD
  9
$DIMAUNIT
 70
     0
  9
$DIMADEC
 70
     0
  9
$DIMALTRND
 40
0.0
  9
$DIMAZIN
 70
     0
  9
$DIMDSEP
 70
    46
  9
$DIMATFIT
 70
     3
  9
$DIMFRAC
 70
     0
  9
$DIMLDRBLK
  1

  9
$DIMLUNIT
 70
     5
  9
$DIMLWD
 70
    -2
  9
$DIMLWE
 70
    -2
  9
$DIMTMOVE
 70
     0
  9
$LUNITS
 70
     2
  9
$LUPREC
 70
     6
  9
$SKETCHINC
 40
0.1
  9
$FILLETRAD
 40
1.0
  9
$AUNITS
 70
     0
  9
$AUPREC
 70
     2
  9
$MENU
  1
.
  9
$ELEVATION
 40
0.0
  9
$PELEVATION
 40
0.0
  9
$THICKNESS
 40
0.0
  9
$LIMCHECK
 70
     0
  9
$CHAMFERA
 40
1.0
  9
$CHAMFERB
 40
1.0
  9
$CHAMFERC
 40
0.0
  9
$CHAMFERD
 40
0.0
  9
$SKPOLY
 70
     1
  9
$TDCREATE
 40
2444971.791666666
  9
$TDUCREATE
 40
2444972.000000000
  9
$TDUPDATE
 40
2452345.658777777
  9
$TDUUPDATE
 40
2452345.867111111
  9
$TDINDWG
 40
0.0590937500
  9
$TDUSRTIMER
 40
0.0590937500
  9
$USRTIMER
 70
     1
  9
$ANGBASE
 50
0.0
  9
$ANGDIR
 70
     0
  9
$PDMODE
 70
     2
  9
$PDSIZE
 40
-1.0
  9
$PLINEWID
 40
0.0
  9
$SPLFRAME
 70
     0
  9
$SPLINETYPE
 70
     6
  9
$SPLINESEGS
 70
     8
  9
$HANDSEED
  5
E8E
  9
$SURFTAB1
 70
     6
  9
$SURFTAB2
 70
     6
  9
$SURFTYPE
 70
     6
  9
$SURFU
 70
     6
  9
$SURFV
 70
     6
  9
$UCSBASE
  2

  9
$UCSNAME
  2

  9
$UCSORG
 10
0.0
 20
0.0
 30
0.0
  9
$UCSXDIR
 10
1.0
 20
0.0
 30
0.0
  9
$UCSYDIR
 10
0.0
 20
1.0
 30
0.0
  9
$UCSORTHOREF
  2

  9
$UCSORTHOVIEW
 70
     0
  9
$UCSORGTOP
 10
0.0
 20
0.0
 30
0.0
  9
$UCSORGBOTTOM
 10
0.0
 20
0.0
 30
0.0
  9
$UCSORGLEFT
 10
0.0
 20
0.0
 30
0.0
  9
$UCSORGRIGHT
 10
0.0
 20
0.0
 30
0.0
  9
$UCSORGFRONT
 10
0.0
 20
0.0
 30
0.0
  9
$UCSORGBACK
 10
0.0
 20
0.0
 30
0.0
  9
$PUCSBASE
  2

  9
$PUCSNAME
  2

  9
$PUCSORG
 10
0.0
 20
0.0
 30
0.0
  9
$PUCSXDIR
 10
1.0
 20
0.0
 30
0.0
  9
$PUCSYDIR
 10
0.0
 20
1.0
 30
0.0
  9
$PUCSORTHOREF
  2

  9
$PUCSORTHOVIEW
 70
     0
  9
$PUCSORGTOP
 10
0.0
 20
0.0
 30
0.0
  9
$PUCSORGBOTTOM
 10
0.0
 20
0.0
 30
0.0
  9
$PUCSORGLEFT
 10
0.0
 20
0.0
 30
0.0
  9
$PUCSORGRIGHT
 10
0.0
 20
0.0
 30
0.0
  9
$PUCSORGFRONT
 10
0.0
 20
0.0
 30
0.0
  9
$PUCSORGBACK
 10
0.0
 20
0.0
 30
0.0
  9
$USERI1
 70
     0
  9
$USERI2
 70
     0
  9
$USERI3
 70
     0
  9
$USERI4
 70
     0
  9
$USERI5
 70
     0
  9
$USERR1
 40
0.0
  9
$USERR2
 40
0.0
  9
$USERR3
 40
0.0
  9
$USERR4
 40
0.0
  9
$USERR5
 40
0.0
  9
$WORLDVIEW
 70
     1
  9
$SHADEDGE
 70
     3
  9
$SHADEDIF
 70
    70
  9
$TILEMODE
 70
     1
  9
$MAXACTVP
 70
    16
  9
$PINSBASE
 10
0.0
 20
0.0
 30
0.0
  9
$PLIMCHECK
 70
     0
  9
$PEXTMIN
 10
1.000000000000000E+20
 20
1.000000000000000E+20
 30
1.000000000000000E+20
  9
$PEXTMAX
 10
-1.000000000000000E+20
 20
-1.000000000000000E+20
 30
-1.000000000000000E+20
  9
$PLIMMIN
 10
0.0
 20
0.0
  9
$PLIMMAX
 10
12.0
 20
9.0
  9
$UNITMODE
 70
     1
  9
$VISRETAIN
 70
     0
  9
$PLINEGEN
 70
     1
  9
$PSLTSCALE
 70
     1
  9
$TREEDEPTH
 70
  3020
  9
$CMLSTYLE
  2
STANDARD
  9
$CMLJUST
 70
     0
  9
$CMLSCALE
 40
1.0
  9
$PROXYGRAPHICS
 70
     1
  9
$MEASUREMENT
 70
     0
  9
$CELWEIGHT
370
    -1
  9
$ENDCAPS
280
     0
  9
$JOINSTYLE
280
     0
  9
$LWDISPLAY
290
     0
  9
$INSUNITS
 70
     0
  9
$HYPERLINKBASE
  1

  9
$STYLESHEET
  1

  9
$XEDIT
290
     1
  9
$CEPSNTYPE
380
     0
  9
$PSTYLEMODE
290
     1
  9
$FINGERPRINTGUID
  2
{A2C9095B-42CD-11D4-8360-004F4908EF25}
  9
$VERSIONGUID
  2
{5EF398D9-4D1D-11D4-8360-004F4908EF25}
  9
$EXTNAMES
290
     1
  9
$PSVPSCALE
 40
0.0
  9
$OLESTARTUP
290
     0
  0
ENDSEC
  0
SECTION
  2
CLASSES
  0
CLASS
  1
ACDBDICTIONARYWDFLT
  2
AcDbDictionaryWithDefault
  3
AutoCAD 2000
 90
        0
280
     0
281
     0
  0
CLASS
  1
ACDBPLACEHOLDER
  2
AcDbPlaceHolder
  3
AutoCAD 2000
 90
        0
280
     0
281
     0
  0
CLASS
  1
LAYOUT
  2
AcDbLayout
  3
AutoCAD 2000
 90
        0
280
     0
281
     0
  0
ENDSEC
  0
SECTION
  2
TABLES
  0
TABLE
  2
VPORT
  5
8
330
0
100
AcDbSymbolTable
 70
     2
  0
VPORT
  5
E8D
330
8
100
AcDbSymbolTableRecord
100
AcDbViewportTableRecord
  2
*Active
 70
     0
 10
0.0
 20
0.0
 11
1.0
 21
1.0
 12
18.28992032955627
 22
17.85121162894845
 13
0.0
 23
0.0
 14
1.0
 24
1.0
 15
0.0
 25
0.0
 16
0.0
 26
0.0
 36
1.0
 17
0.0
 27
0.0
 37
0.0
 40
42.99057773321453
 41
1.378947368421052
 42
50.0
 43
0.0
 44
0.0
 50
0.0
 51
0.0
 71
     0
 72
   100
 73
     1
 74
     1
 75
     0
 76
     0
 77
     0
 78
     0
281
     0
 65
     1
110
0.0
120
0.0
130
0.0
111
1.0
121
0.0
131
0.0
112
0.0
122
1.0
132
0.0
 79
     0
146
0.0
  0
ENDTAB
  0
TABLE
  2
LTYPE
  5
5
330
0
100
AcDbSymbolTable
 70
     6
  0
LTYPE
  5
13
330
5
100
AcDbSymbolTableRecord
100
AcDbLinetypeTableRecord
  2
BYBLOCK
 70
     0
  3

 72
    65
 73
     0
 40
0.0
  0
LTYPE
  5
14
330
5
100
AcDbSymbolTableRecord
100
AcDbLinetypeTableRecord
  2
BYLAYER
 70
     0
  3

 72
    65
 73
     0
 40
0.0
  0
LTYPE
  5
15
330
5
100
AcDbSymbolTableRecord
100
AcDbLinetypeTableRecord
  2
CONTINUOUS
 70
     0
  3
Solid line
 72
    65
 73
     0
 40
0.0
  0
LTYPE
  5
1E
330
5
100
AcDbSymbolTableRecord
100
AcDbLinetypeTableRecord
  2
HIDDEN
 70
     0
  3
_____________________                     _____________________
 72
    65
 73
     2
 40
0.2
 49
0.133333
 74
     0
 49
-0.066667
 74
     0
  0
LTYPE
  5
1F
330
5
100
AcDbSymbolTableRecord
100
AcDbLinetypeTableRecord
  2
CENTER
 70
     0
  3
__________________________  _____  __________________________
 72
    65
 73
     4
 40
1.25
 49
1.065574
 74
     0
 49
-0.040984
 74
     0
 49
0.102459
 74
     0
 49
-0.040984
 74
     0
  0
LTYPE
  5
20
330
5
100
AcDbSymbolTableRecord
100
AcDbLinetypeTableRecord
  2
PHANTOM
 70
     0
  3
_____________________  _____  _____  _____________________
 72
    65
 73
     6
 40
1.25
 49
0.9051719999999999
 74
     0
 49
-0.043103
 74
     0
 49
0.107759
 74
     0
 49
-0.043103
 74
     0
 49
0.107759
 74
     0
 49
-0.043103
 74
     0
  0
LTYPE
  5
21
330
5
100
AcDbSymbolTableRecord
100
AcDbLinetypeTableRecord
  2
STITCH
 70
     0
  3
___    ______    ______    ______    ___
 72
    65
 73
     8
 40
0.5
 49
0.075
 74
     0
 49
-0.05
 74
     0
 49
0.075
 74
     0
 49
-0.05
 74
     0
 49
0.075
 74
     0
 49
-0.05
 74
     0
 49
0.075
 74
     0
 49
-0.05
 74
     0
  0
LTYPE
  5
22
330
5
100
AcDbSymbolTableRecord
100
AcDbLinetypeTableRecord
  2
DASHED
 70
     0
  3
______    ______    ____________    ______    ______
 72
    65
 73
     8
 40
1.0
 49
0.230769
 74
     0
 49
-0.076923
 74
     0
 49
0.115385
 74
     0
 49
-0.076923
 74
     0
 49
0.230769
 74
     0
 49
-0.076923
 74
     0
 49
0.115385
 74
     0
 49
-0.076923
 74
     0
  0
ENDTAB
  0
TABLE
  2
LAYER
  5
2
330
0
100
AcDbSymbolTable
 70
     5
  0
LAYER
  5
F
330
2
100
AcDbSymbolTableRecord
100
AcDbLayerTableRecord
  2
0
 70
     0
 62
   255
  6
CONTINUOUS
370
    -3
390
359
  0
LAYER
  5
385
330
2
100
AcDbSymbolTableRecord
100
AcDbLayerTableRecord
  2
Defpoints
 70
     0
 62
     7
  6
CONTINUOUS
290
     0
370
    -3
390
359
  0
LAYER
  5
477
330
2
100
AcDbSymbolTableRecord
100
AcDbLayerTableRecord
  2
TitleBlock&Notes
 70
     0
 62
     3
  6
CONTINUOUS
370
    -3
390
359
  0
LAYER
  5
478
330
2
100
AcDbSymbolTableRecord
100
AcDbLayerTableRecord
  2
B.O.M
 70
     0
 62
     3
  6
CONTINUOUS
370
    -3
390
359
  0
LAYER
  5
E5C
330
2
100
AcDbSymbolTableRecord
100
AcDbLayerTableRecord
  2
DIMENSIONS
 70
     0
 62
     1
  6
CONTINUOUS
370
    -3
390
359
  0
ENDTAB
  0
TABLE
  2
STYLE
  5
3
330
0
100
AcDbSymbolTable
 70
     2
  0
STYLE
  5
10
330
3
100
AcDbSymbolTableRecord
100
AcDbTextStyleTableRecord
  2
STANDARD
 70
     0
 40
0.0
 41
1.0
 50
0.0
 71
     0
 42
0.25
  3
simplex.shx
  4

  0
STYLE
  5
23
330
3
100
AcDbSymbolTableRecord
100
AcDbTextStyleTableRecord
  2
SAS_____
 70
     0
 40
0.0
 41
1.0
 50
0.0
 71
     0
 42
0.25
  3
SAS_____
  4

  0
ENDTAB
  0
TABLE
  2
VIEW
  5
6
330
0
100
AcDbSymbolTable
 70
     0
  0
ENDTAB
  0
TABLE
  2
UCS
  5
7
330
0
100
AcDbSymbolTable
 70
     0
  0
ENDTAB
  0
TABLE
  2
APPID
  5
9
330
0
100
AcDbSymbolTable
 70
     2
  0
APPID
  5
11
330
9
100
AcDbSymbolTableRecord
100
AcDbRegAppTableRecord
  2
ACAD
 70
     0
  0
APPID
  5
36A
330
9
100
AcDbSymbolTableRecord
100
AcDbRegAppTableRecord
  2
DCO15
 70
     0
  0
ENDTAB
  0
TABLE
  2
DIMSTYLE
  5
A
330
0
100
AcDbSymbolTable
 70
     1
100
AcDbDimStyleTable
 71
     1
340
355
  0
DIMSTYLE
105
355
102
{ACAD_REACTORS
330
384
330
393
330
3A2
330
45E
102
}
330
A
100
AcDbSymbolTableRecord
100
AcDbDimStyleTableRecord
  2
STANDARD
 70
     0
340
10
  0
ENDTAB
  0
TABLE
  2
BLOCK_RECORD
  5
1
330
0
100
AcDbSymbolTable
 70
    10
  0
BLOCK_RECORD
  5
19
330
1
100
AcDbSymbolTableRecord
100
AcDbBlockTableRecord
  2
*MODEL_SPACE
340
35C
  0
BLOCK_RECORD
  5
16
330
1
100
AcDbSymbolTableRecord
100
AcDbBlockTableRecord
  2
*PAPER_SPACE
340
35D
  0
BLOCK_RECORD
  5
26
330
1
100
AcDbSymbolTableRecord
100
AcDbBlockTableRecord
  2
DCDIM111499
340
0
  0
BLOCK_RECORD
  5
30
330
1
100
AcDbSymbolTableRecord
100
AcDbBlockTableRecord
  2
DCDIM111502
340
0
  0
BLOCK_RECORD
  5
3A
330
1
100
AcDbSymbolTableRecord
100
AcDbBlockTableRecord
  2
DCDIM111503
340
0
  0
BLOCK_RECORD
  5
43
330
1
100
AcDbSymbolTableRecord
100
AcDbBlockTableRecord
  2
DCDIM111529
340
0
  0
BLOCK_RECORD
  5
386
330
1
100
AcDbSymbolTableRecord
100
AcDbBlockTableRecord
  2
*D4
340
0
  0
BLOCK_RECORD
  5
394
330
1
100
AcDbSymbolTableRecord
100
AcDbBlockTableRecord
  2
*D5
340
0
  0
BLOCK_RECORD
  5
3A3
330
1
100
AcDbSymbolTableRecord
100
AcDbBlockTableRecord
  2
*D6
340
0
  0
BLOCK_RECORD
  5
45F
330
1
100
AcDbSymbolTableRecord
100
AcDbBlockTableRecord
  2
*D9
340
0
  0
ENDTAB
  0
ENDSEC
  0
SECTION
  2
BLOCKS
  0
BLOCK
  5
1A
330
19
100
AcDbEntity
  8
0
100
AcDbBlockBegin
  2
*MODEL_SPACE
 70
     0
 10
0.0
 20
0.0
 30
0.0
  3
*MODEL_SPACE
  1

  0
ENDBLK
  5
1B
330
19
100
AcDbEntity
  8
0
100
AcDbBlockEnd
  0
BLOCK
  5
17
330
16
100
AcDbEntity
 67
     1
  8
0
100
AcDbBlockBegin
  2
*PAPER_SPACE
 70
     0
 10
0.0
 20
0.0
 30
0.0
  3
*PAPER_SPACE
  1

  0
ENDBLK
  5
18
330
16
100
AcDbEntity
 67
     1
  8
0
100
AcDbBlockEnd
  0
BLOCK
  5
27
330
26
100
AcDbEntity
  8
0
100
AcDbBlockBegin
  2
DCDIM111499
 70
     0
 10
0.0
 20
0.0
 30
0.0
  3
DCDIM111499
  1

  0
LINE
  5
28
330
26
100
AcDbEntity
  8
0
  6
Continuous
 62
   255
100
AcDbLine
 10
20.258829
 20
33.413661
 30
0.0
 11
20.258829
 21
35.06350199999999
 31
0.0
  0
LINE
  5
29
330
26
100
AcDbEntity
  8
0
  6
Continuous
 62
   255
100
AcDbLine
 10
15.258829
 20
33.413661
 30
0.0
 11
15.258829
 21
35.06350199999999
 31
0.0
  0
LINE
  5
2A
330
26
100
AcDbEntity
  8
0
  6
Continuous
 62
   255
100
AcDbLine
 10
20.258829
 20
34.963502
 30
0.0
 11
18.27423299999999
 21
34.963502
 31
0.0
  0
LINE
  5
2B
330
26
100
AcDbEntity
  8
0
  6
Continuous
 62
   255
100
AcDbLine
 10
15.258829
 20
34.963502
 30
0.0
 11
17.06253799999999
 21
34.963502
 31
0.0
  0
SOLID
  5
2C
330
26
100
AcDbEntity
  8
0
  6
Continuous
 62
   255
100
AcDbTrace
 10
20.258829
 20
34.963502
 30
0.0
 11
20.008829
 21
34.921836
 31
0.0
 12
20.258829
 22
34.963502
 32
0.0
 13
20.008829
 23
35.005169
 33
0.0
  0
SOLID
  5
2D
330
26
100
AcDbEntity
  8
0
  6
Continuous
 62
   255
100
AcDbTrace
 10
15.258829
 20
34.963502
 30
0.0
 11
15.508829
 21
35.005169
 31
0.0
 12
15.258829
 22
34.963502
 32
0.0
 13
15.508829
 23
34.921836
 33
0.0
  0
TEXT
  5
2E
330
26
100
AcDbEntity
  8
0
  6
Continuous
 62
   255
100
AcDbText
 10
17.237538
 20
34.832762
 30
0.0
 40
0.3110180079606983
  1
4.75
 41
0.9090909999999999
 72
     3
 11
18.09923299999999
 21
34.832762
 31
0.0
100
AcDbText
  0
ENDBLK
  5
2F
330
26
100
AcDbEntity
  8
0
100
AcDbBlockEnd
  0
BLOCK
  5
31
330
30
100
AcDbEntity
  8
0
100
AcDbBlockBegin
  2
DCDIM111502
 70
     0
 10
0.0
 20
0.0
 30
0.0
  3
DCDIM111502
  1

  0
LINE
  5
32
330
30
100
AcDbEntity
  8
0
  6
Continuous
 62
   255
100
AcDbLine
 10
15.040937
 20
33.752496
 30
0.0
 11
11.54575099999999
 21
33.752496
 31
0.0
  0
LINE
  5
33
330
30
100
AcDbEntity
  8
0
  6
Continuous
 62
   255
100
AcDbLine
 10
16.722329
 20
0.9674269999999999
 30
0.0
 11
11.54575099999999
 21
0.9674269999999999
 31
0.0
  0
LINE
  5
34
330
30
100
AcDbEntity
  8
0
  6
Continuous
 62
   255
100
AcDbLine
 10
11.64575099999999
 20
33.752496
 30
0.0
 11
11.64575099999999
 21
19.359669
 31
0.0
  0
LINE
  5
35
330
30
100
AcDbEntity
  8
0
  6
Continuous
 62
   255
100
AcDbLine
 10
11.64575099999999
 20
0.9674269999999999
 30
0.0
 11
11.64575099999999
 21
18.694714
 31
0.0
  0
SOLID
  5
36
330
30
100
AcDbEntity
  8
0
  6
Continuous
 62
   255
100
AcDbTrace
 10
11.64575099999999
 20
33.752496
 30
0.0
 11
11.68741699999999
 21
33.502496
 31
0.0
 12
11.64575099999999
 22
33.752496
 32
0.0
 13
11.604084
 23
33.502496
 33
0.0
  0
SOLID
  5
37
330
30
100
AcDbEntity
  8
0
  6
Continuous
 62
   255
100
AcDbTrace
 10
11.64575099999999
 20
0.9674269999999999
 30
0.0
 11
11.604084
 21
1.217427
 31
0.0
 12
11.64575099999999
 22
0.9674269999999999
 32
0.0
 13
11.68741699999999
 23
1.217427
 33
0.0
  0
TEXT
  5
38
330
30
100
AcDbEntity
  8
0
  6
Continuous
 62
   255
100
AcDbText
 10
11.776491
 20
18.869714
 30
0.0
 40
0.4547162357783731
  1
A
 50
90.0
 41
0.9090909999999999
 72
     3
 11
11.776491
 21
19.184669
 31
0.0
100
AcDbText
  0
ENDBLK
  5
39
330
30
100
AcDbEntity
  8
0
100
AcDbBlockEnd
  0
BLOCK
  5
3B
330
3A
100
AcDbEntity
  8
0
100
AcDbBlockBegin
  2
DCDIM111503
 70
     0
 10
0.0
 20
0.0
 30
0.0
  3
DCDIM111503
  1

  0
LINE
  5
3C
330
3A
100
AcDbEntity
  8
0
  6
Continuous
 62
   255
100
AcDbLine
 10
15.178829
 20
13.06366099999999
 30
0.0
 11
13.51258999999999
 21
13.06366099999999
 31
0.0
  0
LINE
  5
3D
330
3A
100
AcDbEntity
  8
0
  6
Continuous
 62
   255
100
AcDbLine
 10
13.61258999999999
 20
13.06366099999999
 30
0.0
 11
13.61258999999999
 21
23.110534
 31
0.0
  0
LINE
  5
3E
330
3A
100
AcDbEntity
  8
0
  6
Continuous
 62
   255
100
AcDbLine
 10
13.61258999999999
 20
33.604939
 30
0.0
 11
13.61258999999999
 21
23.736776
 31
0.0
  0
SOLID
  5
3F
330
3A
100
AcDbEntity
  8
0
  6
Continuous
 62
   255
100
AcDbTrace
 10
13.61258999999999
 20
13.06366099999999
 30
0.0
 11
13.570923
 21
13.31366099999999
 31
0.0
 12
13.61258999999999
 22
13.06366099999999
 32
0.0
 13
13.654256
 23
13.31366099999999
 33
0.0
  0
SOLID
  5
40
330
3A
100
AcDbEntity
  8
0
  6
Continuous
 62
   255
100
AcDbTrace
 10
13.61258999999999
 20
33.604939
 30
0.0
 11
13.654256
 21
33.354939
 31
0.0
 12
13.61258999999999
 22
33.604939
 32
0.0
 13
13.570923
 23
33.354939
 33
0.0
  0
TEXT
  5
41
330
3A
100
AcDbEntity
  8
0
  6
Continuous
 62
   255
100
AcDbText
 10
13.74333
 20
23.285534
 30
0.0
 40
0.4557992544200803
  1
B
 50
90.0
 41
0.9090909999999999
 72
     3
 11
13.74333
 21
23.561776
 31
0.0
100
AcDbText
  0
ENDBLK
  5
42
330
3A
100
AcDbEntity
  8
0
100
AcDbBlockEnd
  0
BLOCK
  5
44
330
43
100
AcDbEntity
  8
0
100
AcDbBlockBegin
  2
DCDIM111529
 70
     0
 10
0.0
 20
0.0
 30
0.0
  3
DCDIM111529
  1

  0
LINE
  5
45
330
43
100
AcDbEntity
  8
0
  6
Continuous
 62
   255
100
AcDbLine
 10
18.797329
 20
0.9674269999999999
 30
0.0
 11
20.119996
 21
0.9674269999999999
 31
0.0
  0
LINE
  5
46
330
43
100
AcDbEntity
  8
0
  6
Continuous
 62
   255
100
AcDbLine
 10
19.33158399999999
 20
3.467426999999999
 30
0.0
 11
20.119996
 21
3.467426999999999
 31
0.0
  0
LINE
  5
47
330
43
100
AcDbEntity
  8
0
  6
Continuous
 62
   255
100
AcDbLine
 10
20.01999599999999
 20
0.9674269999999999
 30
0.0
 11
20.01999599999999
 21
1.863293
 31
0.0
  0
LINE
  5
48
330
43
100
AcDbEntity
  8
0
  6
Continuous
 62
   255
100
AcDbLine
 10
20.01999599999999
 20
3.467426999999999
 30
0.0
 11
20.01999599999999
 21
2.490602999999999
 31
0.0
  0
SOLID
  5
49
330
43
100
AcDbEntity
  8
0
  6
Continuous
 62
   255
100
AcDbTrace
 10
20.01999599999999
 20
0.9674269999999999
 30
0.0
 11
19.97832999999999
 21
1.217427
 31
0.0
 12
20.01999599999999
 22
0.9674269999999999
 32
0.0
 13
20.06166299999999
 23
1.217427
 33
0.0
  0
SOLID
  5
4A
330
43
100
AcDbEntity
  8
0
  6
Continuous
 62
   255
100
AcDbTrace
 10
20.01999599999999
 20
3.467426999999999
 30
0.0
 11
20.06166299999999
 21
3.217427
 31
0.0
 12
20.01999599999999
 22
3.467426999999999
 32
0.0
 13
19.97832999999999
 23
3.217427
 33
0.0
  0
TEXT
  5
4B
330
43
100
AcDbEntity
  8
0
  6
Continuous
 62
   255
100
AcDbText
 10
20.150736
 20
2.038292999999999
 30
0.0
 40
0.4575614542438546
  1
2
 50
90.0
 41
0.9090909999999999
 72
     3
 11
20.150736
 21
2.315602999999999
 31
0.0
100
AcDbText
  0
ENDBLK
  5
4C
330
43
100
AcDbEntity
  8
0
100
AcDbBlockEnd
  0
BLOCK
  5
391
330
386
100
AcDbEntity
  8
0
 62
   255
100
AcDbBlockBegin
  2
*D4
 70
     1
 10
0.0
 20
0.0
 30
0.0
  3
*D4
  1

  0
LINE
  5
E7B
330
386
100
AcDbEntity
  8
DIMENSIONS
  6
Continuous
 62
     1
370
    -2
100
AcDbLine
 10
16.722329
 20
0.9674270000000001
 30
0.0
 11
15.71745320563996
 21
0.9674270000000005
 31
0.0
  0
LINE
  5
E7C
330
386
100
AcDbEntity
  8
DIMENSIONS
  6
Continuous
 62
     1
370
    -2
100
AcDbLine
 10
16.178829
 20
3.438726999999999
 30
0.0
 11
15.71745320563996
 21
3.438726999999999
 31
0.0
  0
LINE
  5
E7D
330
386
100
AcDbEntity
  8
DIMENSIONS
  6
Continuous
 62
     1
370
    -2
100
AcDbLine
 10
15.81745320563996
 20
1.267427
 30
0.0
 11
15.81745320563996
 21
1.763077
 31
0.0
  0
LINE
  5
E7E
330
386
100
AcDbEntity
  8
DIMENSIONS
  6
Continuous
 62
     1
370
    -2
100
AcDbLine
 10
15.81745320563996
 20
3.138726999999999
 30
0.0
 11
15.81745320563996
 21
2.643076999999999
 31
0.0
  0
SOLID
  5
E7F
330
386
100
AcDbEntity
  8
DIMENSIONS
  6
Continuous
 62
     1
100
AcDbTrace
 10
15.76745320563996
 20
1.267427
 30
0.0
 11
15.86745320563996
 21
1.267427
 31
0.0
 12
15.81745320563996
 22
0.9674270000000003
 32
0.0
 13
15.81745320563996
 23
0.9674270000000003
 33
0.0
  0
SOLID
  5
E80
330
386
100
AcDbEntity
  8
DIMENSIONS
  6
Continuous
 62
     1
100
AcDbTrace
 10
15.76745320563996
 20
3.138726999999999
 30
0.0
 11
15.86745320563996
 21
3.138726999999999
 31
0.0
 12
15.81745320563996
 22
3.438726999999999
 32
0.0
 13
15.81745320563996
 23
3.438726999999999
 33
0.0
  0
MTEXT
  5
E81
330
386
100
AcDbEntity
  8
DIMENSIONS
  6
Continuous
 62
     1
100
AcDbMText
 10
15.81745320563996
 20
2.203077000000002
 30
0.0
 40
0.3
 41
0.0
 71
     5
 72
     1
  1
\A1;2{\H1.000000x;\S1/2;}
 73
     1
 44
1.0
  0
POINT
  5
E82
330
386
100
AcDbEntity
  8
Defpoints
  6
Continuous
 62
     0
100
AcDbPoint
 10
16.82232899999999
 20
0.9674269999999999
 30
0.0
  0
POINT
  5
E83
330
386
100
AcDbEntity
  8
Defpoints
  6
Continuous
 62
     0
100
AcDbPoint
 10
16.278829
 20
3.438726999999999
 30
0.0
  0
POINT
  5
E84
330
386
100
AcDbEntity
  8
Defpoints
  6
Continuous
 62
     0
100
AcDbPoint
 10
15.81745320563996
 20
3.438726999999999
 30
0.0
  0
ENDBLK
  5
392
330
386
100
AcDbEntity
  8
0
 62
   255
100
AcDbBlockEnd
  0
BLOCK
  5
39F
330
394
100
AcDbEntity
  8
0
 62
   255
100
AcDbBlockBegin
  2
*D5
 70
     1
 10
0.0
 20
0.0
 30
0.0
  3
*D5
  1

  0
LINE
  5
E71
330
394
100
AcDbEntity
  8
DIMENSIONS
  6
Continuous
 62
     1
370
    -2
100
AcDbLine
 10
16.210079
 20
3.438726999999998
 30
0.0
 11
15.67248719348457
 21
3.438726999999998
 31
0.0
  0
LINE
  5
E72
330
394
100
AcDbEntity
  8
DIMENSIONS
  6
Continuous
 62
     1
370
    -2
100
AcDbLine
 10
16.210079
 20
8.438727
 30
0.0
 11
15.67248719348458
 21
8.438727
 31
0.0
  0
LINE
  5
E73
330
394
100
AcDbEntity
  8
DIMENSIONS
  6
Continuous
 62
     1
370
    -2
100
AcDbLine
 10
15.77248719348457
 20
3.738726999999998
 30
0.0
 11
15.77248719348458
 21
5.698726999999998
 31
0.0
  0
LINE
  5
E74
330
394
100
AcDbEntity
  8
DIMENSIONS
  6
Continuous
 62
     1
370
    -2
100
AcDbLine
 10
15.77248719348458
 20
8.138726999999999
 30
0.0
 11
15.77248719348458
 21
6.178726999999999
 31
0.0
  0
SOLID
  5
E75
330
394
100
AcDbEntity
  8
DIMENSIONS
  6
Continuous
 62
     1
100
AcDbTrace
 10
15.72248719348457
 20
3.738726999999998
 30
0.0
 11
15.82248719348458
 21
3.738726999999998
 31
0.0
 12
15.77248719348457
 22
3.438726999999998
 32
0.0
 13
15.77248719348457
 23
3.438726999999998
 33
0.0
  0
SOLID
  5
E76
330
394
100
AcDbEntity
  8
DIMENSIONS
  6
Continuous
 62
     1
100
AcDbTrace
 10
15.72248719348458
 20
8.138726999999999
 30
0.0
 11
15.82248719348458
 21
8.138726999999999
 31
0.0
 12
15.77248719348458
 22
8.438727
 32
0.0
 13
15.77248719348458
 23
8.438727
 33
0.0
  0
MTEXT
  5
E77
330
394
100
AcDbEntity
  8
DIMENSIONS
  6
Continuous
 62
     1
100
AcDbMText
 10
15.77248719348457
 20
5.938727000000001
 30
0.0
 40
0.3
 41
0.0
 71
     5
 72
     1
  1
\A1;5
 73
     1
 44
1.0
  0
POINT
  5
E78
330
394
100
AcDbEntity
  8
Defpoints
  6
Continuous
 62
     0
100
AcDbPoint
 10
16.310079
 20
3.438726999999998
 30
0.0
  0
POINT
  5
E79
330
394
100
AcDbEntity
  8
Defpoints
  6
Continuous
 62
     0
100
AcDbPoint
 10
16.310079
 20
8.438727
 30
0.0
  0
POINT
  5
E7A
330
394
100
AcDbEntity
  8
Defpoints
  6
Continuous
 62
     0
100
AcDbPoint
 10
15.77248719348458
 20
8.438727
 30
0.0
  0
ENDBLK
  5
3A0
330
394
100
AcDbEntity
  8
0
 62
   255
100
AcDbBlockEnd
  0
BLOCK
  5
3AE
330
3A3
100
AcDbEntity
  8
0
 62
   255
100
AcDbBlockBegin
  2
*D6
 70
     1
 10
0.0
 20
0.0
 30
0.0
  3
*D6
  1

  0
LINE
  5
E67
330
3A3
100
AcDbEntity
  8
DIMENSIONS
  6
Continuous
 62
     1
370
    -2
100
AcDbLine
 10
16.722329
 20
0.9674270000000001
 30
0.0
 11
13.4685776873154
 21
0.967427000000001
 31
0.0
  0
LINE
  5
E68
330
3A3
100
AcDbEntity
  8
DIMENSIONS
  6
Continuous
 62
     1
370
    -2
100
AcDbLine
 10
15.346329
 20
33.668661
 30
0.0
 11
13.46857768731541
 21
33.668661
 31
0.0
  0
LINE
  5
E69
330
3A3
100
AcDbEntity
  8
DIMENSIONS
  6
Continuous
 62
     1
370
    -2
100
AcDbLine
 10
13.5685776873154
 20
1.267427
 30
0.0
 11
13.56857768731541
 21
16.878044
 31
0.0
  0
LINE
  5
E6A
330
3A3
100
AcDbEntity
  8
DIMENSIONS
  6
Continuous
 62
     1
370
    -2
100
AcDbLine
 10
13.56857768731541
 20
33.368661
 30
0.0
 11
13.56857768731541
 21
17.758044
 31
0.0
  0
SOLID
  5
E6B
330
3A3
100
AcDbEntity
  8
DIMENSIONS
  6
Continuous
 62
     1
100
AcDbTrace
 10
13.5185776873154
 20
1.267427
 30
0.0
 11
13.6185776873154
 21
1.267427
 31
0.0
 12
13.5685776873154
 22
0.967427000000001
 32
0.0
 13
13.5685776873154
 23
0.967427000000001
 33
0.0
  0
SOLID
  5
E6C
330
3A3
100
AcDbEntity
  8
DIMENSIONS
  6
Continuous
 62
     1
100
AcDbTrace
 10
13.51857768731541
 20
33.368661
 30
0.0
 11
13.61857768731541
 21
33.368661
 31
0.0
 12
13.56857768731541
 22
33.668661
 32
0.0
 13
13.56857768731541
 23
33.668661
 33
0.0
  0
MTEXT
  5
E6D
330
3A3
100
AcDbEntity
  8
DIMENSIONS
  6
Continuous
 62
     1
100
AcDbMText
 10
13.56857768731541
 20
17.318044
 30
0.0
 40
0.3
 41
0.0
 71
     5
 72
     1
  1
\A1;32{\H1.000000x;\S3/4;}
 73
     1
 44
1.0
  0
POINT
  5
E6E
330
3A3
100
AcDbEntity
  8
Defpoints
  6
Continuous
 62
     0
100
AcDbPoint
 10
16.82232899999999
 20
0.9674269999999999
 30
0.0
  0
POINT
  5
E6F
330
3A3
100
AcDbEntity
  8
Defpoints
  6
Continuous
 62
     0
100
AcDbPoint
 10
15.446329
 20
33.668661
 30
0.0
  0
POINT
  5
E70
330
3A3
100
AcDbEntity
  8
Defpoints
  6
Continuous
 62
     0
100
AcDbPoint
 10
13.56857768731541
 20
33.668661
 30
0.0
  0
ENDBLK
  5
3AF
330
3A3
100
AcDbEntity
  8
0
 62
   255
100
AcDbBlockEnd
  0
BLOCK
  5
46A
330
45F
100
AcDbEntity
  8
0
 62
   255
100
AcDbBlockBegin
  2
*D9
 70
     1
 10
0.0
 20
0.0
 30
0.0
  3
*D9
  1

  0
LINE
  5
E5D
330
45F
100
AcDbEntity
  8
DIMENSIONS
  6
Continuous
 62
     1
370
    -2
100
AcDbLine
 10
15.383829
 20
33.413661
 30
0.0
 11
15.383829
 21
34.75972400385055
 31
0.0
  0
LINE
  5
E5E
330
45F
100
AcDbEntity
  8
DIMENSIONS
  6
Continuous
 62
     1
370
    -2
100
AcDbLine
 10
20.133829
 20
33.413661
 30
0.0
 11
20.133829
 21
34.75972400385055
 31
0.0
  0
LINE
  5
E5F
330
45F
100
AcDbEntity
  8
DIMENSIONS
  6
Continuous
 62
     1
370
    -2
100
AcDbLine
 10
15.683829
 20
34.65972400385055
 30
0.0
 11
17.418829
 21
34.65972400385055
 31
0.0
  0
LINE
  5
E60
330
45F
100
AcDbEntity
  8
DIMENSIONS
  6
Continuous
 62
     1
370
    -2
100
AcDbLine
 10
19.833829
 20
34.65972400385055
 30
0.0
 11
18.098829
 21
34.65972400385055
 31
0.0
  0
SOLID
  5
E61
330
45F
100
AcDbEntity
  8
DIMENSIONS
  6
Continuous
 62
     1
100
AcDbTrace
 10
15.683829
 20
34.70972400385055
 30
0.0
 11
15.683829
 21
34.60972400385056
 31
0.0
 12
15.383829
 22
34.65972400385055
 32
0.0
 13
15.383829
 23
34.65972400385055
 33
0.0
  0
SOLID
  5
E62
330
45F
100
AcDbEntity
  8
DIMENSIONS
  6
Continuous
 62
     1
100
AcDbTrace
 10
19.833829
 20
34.70972400385055
 30
0.0
 11
19.833829
 21
34.60972400385056
 31
0.0
 12
20.133829
 22
34.65972400385055
 32
0.0
 13
20.133829
 23
34.65972400385055
 33
0.0
  0
MTEXT
  5
E63
330
45F
100
AcDbEntity
  8
DIMENSIONS
  6
Continuous
 62
     1
100
AcDbMText
 10
17.758829
 20
34.65972400385055
 30
0.0
 40
0.3
 41
0.0
 71
     5
 72
     1
  1
\A1;4{\H1.000000x;\S3/4;}
 73
     1
 44
1.0
  0
POINT
  5
E64
330
45F
100
AcDbEntity
  8
Defpoints
  6
Continuous
 62
     0
100
AcDbPoint
 10
15.383829
 20
33.31366099999999
 30
0.0
  0
POINT
  5
E65
330
45F
100
AcDbEntity
  8
Defpoints
  6
Continuous
 62
     0
100
AcDbPoint
 10
20.133829
 20
33.31366099999999
 30
0.0
  0
POINT
  5
E66
330
45F
100
AcDbEntity
  8
Defpoints
  6
Continuous
 62
     0
100
AcDbPoint
 10
20.133829
 20
34.65972400385055
 30
0.0
  0
ENDBLK
  5
46B
330
45F
100
AcDbEntity
  8
0
 62
   255
100
AcDbBlockEnd
  0
ENDSEC
  0
SECTION
  2
ENTITIES
  0
LINE
  5
2B2
330
19
100
AcDbEntity
  8
0
  6
Continuous
 62
   255
100
AcDbLine
 10
19.23158399999999
 20
3.438726999999999
 30
0.0
 11
19.23158399999999
 21
13.06366099999999
 31
0.0
  0
LINE
  5
2B5
330
19
100
AcDbEntity
  8
0
  6
Continuous
 62
   255
100
AcDbLine
 10
15.383829
 20
13.06366099999999
 30
0.0
 11
20.133829
 21
13.06366099999999
 31
0.0
  0
LINE
  5
2B6
330
19
100
AcDbEntity
  8
0
  6
Continuous
 62
   255
100
AcDbLine
 10
15.383829
 20
14.18866099999999
 30
0.0
 11
20.133829
 21
14.18866099999999
 31
0.0
  0
LINE
  5
2B9
330
19
100
AcDbEntity
  8
0
  6
Continuous
 62
   255
100
AcDbLine
 10
15.383829
 20
14.56366099999999
 30
0.0
 11
20.133829
 21
14.56366099999999
 31
0.0
  0
LINE
  5
2BE
330
19
100
AcDbEntity
  8
0
  6
Continuous
 62
   255
100
AcDbLine
 10
16.258829
 20
14.18866099999999
 30
0.0
 11
16.258829
 21
14.56366099999999
 31
0.0
  0
LINE
  5
2BF
330
19
100
AcDbEntity
  8
0
  6
Continuous
 62
   255
100
AcDbLine
 10
19.258829
 20
14.18866099999999
 30
0.0
 11
19.258829
 21
14.56366099999999
 31
0.0
  0
LINE
  5
2C0
330
19
100
AcDbEntity
  8
0
  6
Continuous
 62
   255
100
AcDbLine
 10
15.571329
 20
14.18866099999999
 30
0.0
 11
15.571329
 21
14.17866099999999
 31
0.0
  0
LINE
  5
2C1
330
19
100
AcDbEntity
  8
0
  6
Continuous
 62
   255
100
AcDbLine
 10
15.571329
 20
14.17866099999999
 30
0.0
 11
15.59132899999999
 21
14.15866099999999
 31
0.0
  0
LINE
  5
2C2
330
19
100
AcDbEntity
  8
0
  6
Continuous
 62
   255
100
AcDbLine
 10
15.946329
 20
14.17866099999999
 30
0.0
 11
15.926329
 21
14.15866099999999
 31
0.0
  0
LINE
  5
2C3
330
19
100
AcDbEntity
  8
0
  6
Continuous
 62
   255
100
AcDbLine
 10
15.59132899999999
 20
14.15866099999999
 30
0.0
 11
15.926329
 21
14.15866099999999
 31
0.0
  0
LINE
  5
2C4
330
19
100
AcDbEntity
  8
0
  6
Continuous
 62
   255
100
AcDbLine
 10
15.946329
 20
14.18866099999999
 30
0.0
 11
15.946329
 21
14.17866099999999
 31
0.0
  0
LINE
  5
2C5
330
19
100
AcDbEntity
  8
0
  6
Continuous
 62
   255
100
AcDbLine
 10
19.946329
 20
14.18866099999999
 30
0.0
 11
19.946329
 21
14.17866099999999
 31
0.0
  0
LINE
  5
2C6
330
19
100
AcDbEntity
  8
0
  6
Continuous
 62
   255
100
AcDbLine
 10
19.946329
 20
14.17866099999999
 30
0.0
 11
19.926329
 21
14.15866099999999
 31
0.0
  0
LINE
  5
2C7
330
19
100
AcDbEntity
  8
0
  6
Continuous
 62
   255
100
AcDbLine
 10
19.571329
 20
14.17866099999999
 30
0.0
 11
19.591329
 21
14.15866099999999
 31
0.0
  0
LINE
  5
2C8
330
19
100
AcDbEntity
  8
0
  6
Continuous
 62
   255
100
AcDbLine
 10
19.926329
 20
14.15866099999999
 30
0.0
 11
19.591329
 21
14.15866099999999
 31
0.0
  0
LINE
  5
2C9
330
19
100
AcDbEntity
  8
0
  6
Continuous
 62
   255
100
AcDbLine
 10
19.571329
 20
14.18866099999999
 30
0.0
 11
19.571329
 21
14.17866099999999
 31
0.0
  0
CIRCLE
  5
2CA
330
19
100
AcDbEntity
  8
0
  6
Continuous
 62
   255
100
AcDbCircle
 10
17.758829
 20
17.813661
 30
0.0
 40
0.1875
  0
LINE
  5
2CB
330
19
100
AcDbEntity
  8
0
  6
Continuous
 62
   255
100
AcDbLine
 10
16.633829
 20
18.12616099999999
 30
0.0
 11
16.633829
 21
17.501161
 31
0.0
  0
LINE
  5
2CC
330
19
100
AcDbEntity
  8
0
  6
Continuous
 62
   255
100
AcDbLine
 10
18.883829
 20
18.12616099999999
 30
0.0
 11
18.883829
 21
17.501161
 31
0.0
  0
LINE
  5
2CD
330
19
100
AcDbEntity
  8
0
  6
Continuous
 62
   255
100
AcDbLine
 10
16.696329
 20
17.43866099999999
 30
0.0
 11
18.821329
 21
17.43866099999999
 31
0.0
  0
LINE
  5
2CE
330
19
100
AcDbEntity
  8
0
  6
Continuous
 62
   255
100
AcDbLine
 10
16.696329
 20
18.188661
 30
0.0
 11
18.821329
 21
18.188661
 31
0.0
  0
ARC
  5
2CF
330
19
100
AcDbEntity
  8
0
  6
Continuous
 62
   255
100
AcDbCircle
 10
18.821329
 20
18.12616099999999
 30
0.0
 40
0.0625
100
AcDbArc
 50
0.0
 51
90.0
  0
ARC
  5
2D0
330
19
100
AcDbEntity
  8
0
  6
Continuous
 62
   255
100
AcDbCircle
 10
18.821329
 20
17.501161
 30
0.0
 40
0.0625
100
AcDbArc
 50
270.0
 51
0.0
  0
ARC
  5
2D1
330
19
100
AcDbEntity
  8
0
  6
Continuous
 62
   255
100
AcDbCircle
 10
16.696329
 20
17.501161
 30
0.0
 40
0.0625
100
AcDbArc
 50
180.0
 51
270.0
  0
ARC
  5
2D2
330
19
100
AcDbEntity
  8
0
  6
Continuous
 62
   255
100
AcDbCircle
 10
16.696329
 20
18.12616099999999
 30
0.0
 40
0.0625
100
AcDbArc
 50
90.0
 51
180.0
  0
TEXT
  5
2D3
330
19
100
AcDbEntity
  8
0
  6
Continuous
 62
   255
100
AcDbText
 10
17.881577
 20
17.52743099999999
 30
0.0
 40
0.0557158213514951
  1
O I L  L E V E L
 41
0.9090909999999999
 72
     3
 11
18.571392
 21
17.52743099999999
 31
0.0
100
AcDbText
  0
LINE
  5
2D4
330
19
100
AcDbEntity
  8
0
  6
Continuous
 62
   255
100
AcDbLine
 10
18.56638599999999
 20
17.55757999999999
 30
0.0
 11
18.883829
 21
17.55757999999999
 31
0.0
  0
TEXT
  5
2D5
330
19
100
AcDbEntity
  8
0
  6
Continuous
 62
   255
100
AcDbText
 10
16.715932
 20
18.005923
 30
0.0
 40
0.0753528644647134
  1
M U L T I C Y L
 41
0.9090909999999999
 72
     3
 11
17.61299
 21
18.005923
 31
0.0
100
AcDbText
  0
LWPOLYLINE
  5
2D6
330
19
100
AcDbEntity
  8
0
  6
Continuous
 62
   255
100
AcDbPolyline
 90
        8
 70
     1
 43
0.005
 10
17.821329
 20
17.813661
 10
17.80302299999999
 20
17.85785499999999
 10
17.758829
 20
17.876161
 10
17.714634
 20
17.85785499999999
 10
17.696329
 20
17.813661
 10
17.714634
 20
17.769467
 10
17.758829
 20
17.75116099999999
 10
17.80302299999999
 20
17.769467
  0
LINE
  5
2E4
330
19
100
AcDbEntity
  8
0
  6
Continuous
 62
   255
100
AcDbLine
 10
15.383829
 20
32.93866099999999
 30
0.0
 11
20.133829
 21
32.93866099999999
 31
0.0
  0
LINE
  5
2E5
330
19
100
AcDbEntity
  8
0
  6
Continuous
 62
   255
100
AcDbLine
 10
15.383829
 20
32.93866099999999
 30
0.0
 11
20.133829
 21
32.93866099999999
 31
0.0
  0
LINE
  5
2E8
330
19
100
AcDbEntity
  8
0
  6
Continuous
 62
   255
100
AcDbLine
 10
15.383829
 20
33.31366099999999
 30
0.0
 11
20.133829
 21
33.31366099999999
 31
0.0
  0
LINE
  5
2E9
330
19
100
AcDbEntity
  8
0
  6
Continuous
 62
   255
100
AcDbLine
 10
19.258829
 20
32.93866099999999
 30
0.0
 11
19.258829
 21
33.31366099999999
 31
0.0
  0
LINE
  5
2EA
330
19
100
AcDbEntity
  8
0
  6
Continuous
 62
   255
100
AcDbLine
 10
16.258829
 20
32.93866099999999
 30
0.0
 11
16.258829
 21
33.31366099999999
 31
0.0
  0
LINE
  5
2EB
330
19
100
AcDbEntity
  8
0
  6
Continuous
 62
   255
100
AcDbLine
 10
15.466329
 20
33.68866099999999
 30
0.0
 11
16.051329
 21
33.68866099999999
 31
0.0
  0
ARC
  5
2EC
330
19
100
AcDbEntity
  8
0
  6
Continuous
 62
   255
100
AcDbCircle
 10
15.466329
 20
33.668661
 30
0.0
 40
0.02
100
AcDbArc
 50
90.0
 51
180.0
  0
ARC
  5
2ED
330
19
100
AcDbEntity
  8
0
  6
Continuous
 62
   255
100
AcDbCircle
 10
16.051329
 20
33.668661
 30
0.0
 40
0.02
100
AcDbArc
 50
0.0
 51
90.0
  0
ARC
  5
2EE
330
19
100
AcDbEntity
  8
0
  6
Continuous
 62
   255
100
AcDbCircle
 10
15.496329
 20
33.698661
 30
0.0
 40
0.02
100
AcDbArc
 50
90.0
 51
180.0
  0
LINE
  5
2EF
330
19
100
AcDbEntity
  8
0
  6
Continuous
 62
   255
100
AcDbLine
 10
15.476329
 20
33.698661
 30
0.0
 11
15.476329
 21
33.68866099999999
 31
0.0
  0
LINE
  5
2F0
330
19
100
AcDbEntity
  8
0
  6
Continuous
 62
   255
100
AcDbLine
 10
15.72877
 20
33.718661
 30
0.0
 11
15.778829
 21
33.718661
 31
0.0
  0
ARC
  5
2F1
330
19
100
AcDbEntity
  8
0
  6
Continuous
 62
   255
100
AcDbCircle
 10
16.021329
 20
33.698661
 30
0.0
 40
0.02
100
AcDbArc
 50
0.0
 51
90.0
  0
LINE
  5
2F2
330
19
100
AcDbEntity
  8
0
  6
Continuous
 62
   255
100
AcDbLine
 10
16.041329
 20
33.698661
 30
0.0
 11
16.041329
 21
33.68866099999999
 31
0.0
  0
LINE
  5
2F3
330
19
100
AcDbEntity
  8
0
  6
Continuous
 62
   255
100
AcDbLine
 10
15.496329
 20
33.718661
 30
0.0
 11
16.021329
 21
33.718661
 31
0.0
  0
LINE
  5
2F4
330
19
100
AcDbEntity
  8
0
  6
Continuous
 62
   255
100
AcDbLine
 10
15.446329
 20
33.333661
 30
0.0
 11
15.446329
 21
33.668661
 31
0.0
  0
ARC
  5
2F5
330
19
100
AcDbEntity
  8
0
  6
Continuous
 62
   255
100
AcDbCircle
 10
15.466329
 20
33.333661
 30
0.0
 40
0.02
100
AcDbArc
 50
180.0
 51
270.0
  0
ARC
  5
2F6
330
19
100
AcDbEntity
  8
0
  6
Continuous
 62
   255
100
AcDbCircle
 10
15.528829
 20
33.333661
 30
0.0
 40
0.02
100
AcDbArc
 50
180.0
 51
270.0
  0
ARC
  5
2F7
330
19
100
AcDbEntity
  8
0
  6
Continuous
 62
   255
100
AcDbCircle
 10
15.988829
 20
33.333661
 30
0.0
 40
0.02
100
AcDbArc
 50
270.0
 51
0.0
  0
LINE
  5
2F8
330
19
100
AcDbEntity
  8
0
  6
Continuous
 62
   255
100
AcDbLine
 10
16.071329
 20
33.333661
 30
0.0
 11
16.071329
 21
33.668661
 31
0.0
  0
ARC
  5
2F9
330
19
100
AcDbEntity
  8
0
  6
Continuous
 62
   255
100
AcDbCircle
 10
16.051329
 20
33.333661
 30
0.0
 40
0.02
100
AcDbArc
 50
270.0
 51
0.0
  0
ARC
  5
2FA
330
19
100
AcDbEntity
  8
0
  6
Continuous
 62
   255
100
AcDbCircle
 10
15.528829
 20
33.668661
 30
0.0
 40
0.02
100
AcDbArc
 50
90.0
 51
180.0
  0
ARC
  5
2FB
330
19
100
AcDbEntity
  8
0
  6
Continuous
 62
   255
100
AcDbCircle
 10
15.988829
 20
33.668661
 30
0.0
 40
0.02
100
AcDbArc
 50
0.0
 51
90.0
  0
LINE
  5
2FC
330
19
100
AcDbEntity
  8
0
  6
Continuous
 62
   255
100
AcDbLine
 10
16.008829
 20
33.668661
 30
0.0
 11
16.008829
 21
33.333661
 31
0.0
  0
LINE
  5
2FD
330
19
100
AcDbEntity
  8
0
  6
Continuous
 62
   255
100
AcDbLine
 10
15.508829
 20
33.668661
 30
0.0
 11
15.508829
 21
33.333661
 31
0.0
  0
LINE
  5
2FE
330
19
100
AcDbEntity
  8
0
  6
Continuous
 62
   255
100
AcDbLine
 10
15.571329
 20
33.72866099999999
 30
0.0
 11
15.571329
 21
33.718661
 31
0.0
  0
LINE
  5
2FF
330
19
100
AcDbEntity
  8
0
  6
Continuous
 62
   255
100
AcDbLine
 10
15.946329
 20
33.72866099999999
 30
0.0
 11
15.946329
 21
33.718661
 31
0.0
  0
LINE
  5
300
330
19
100
AcDbEntity
  8
0
  6
Continuous
 62
   255
100
AcDbLine
 10
15.59132899999999
 20
33.748661
 30
0.0
 11
15.926329
 21
33.748661
 31
0.0
  0
LINE
  5
301
330
19
100
AcDbEntity
  8
0
  6
Continuous
 62
   255
100
AcDbLine
 10
15.946329
 20
33.72866099999999
 30
0.0
 11
15.926329
 21
33.748661
 31
0.0
  0
LINE
  5
302
330
19
100
AcDbEntity
  8
0
  6
Continuous
 62
   255
100
AcDbLine
 10
15.571329
 20
33.72866099999999
 30
0.0
 11
15.59132899999999
 21
33.748661
 31
0.0
  0
LINE
  5
303
330
19
100
AcDbEntity
  8
0
  6
Continuous
 62
   255
100
AcDbLine
 10
20.05132899999999
 20
33.68866099999999
 30
0.0
 11
19.466329
 21
33.68866099999999
 31
0.0
  0
ARC
  5
304
330
19
100
AcDbEntity
  8
0
  6
Continuous
 62
   255
100
AcDbCircle
 10
20.05132899999999
 20
33.668661
 30
0.0
 40
0.02
100
AcDbArc
 50
0.0
 51
90.0
  0
ARC
  5
305
330
19
100
AcDbEntity
  8
0
  6
Continuous
 62
   255
100
AcDbCircle
 10
19.466329
 20
33.668661
 30
0.0
 40
0.02
100
AcDbArc
 50
90.0
 51
180.0
  0
ARC
  5
306
330
19
100
AcDbEntity
  8
0
  6
Continuous
 62
   255
100
AcDbCircle
 10
20.021329
 20
33.698661
 30
0.0
 40
0.02
100
AcDbArc
 50
0.0
 51
90.0
  0
LINE
  5
307
330
19
100
AcDbEntity
  8
0
  6
Continuous
 62
   255
100
AcDbLine
 10
20.041329
 20
33.698661
 30
0.0
 11
20.041329
 21
33.68866099999999
 31
0.0
  0
LINE
  5
308
330
19
100
AcDbEntity
  8
0
  6
Continuous
 62
   255
100
AcDbLine
 10
19.78888699999999
 20
33.718661
 30
0.0
 11
19.73882899999999
 21
33.718661
 31
0.0
  0
ARC
  5
309
330
19
100
AcDbEntity
  8
0
  6
Continuous
 62
   255
100
AcDbCircle
 10
19.496329
 20
33.698661
 30
0.0
 40
0.02
100
AcDbArc
 50
90.0
 51
180.0
  0
LINE
  5
30A
330
19
100
AcDbEntity
  8
0
  6
Continuous
 62
   255
100
AcDbLine
 10
19.476329
 20
33.698661
 30
0.0
 11
19.476329
 21
33.68866099999999
 31
0.0
  0
LINE
  5
30B
330
19
100
AcDbEntity
  8
0
  6
Continuous
 62
   255
100
AcDbLine
 10
20.021329
 20
33.718661
 30
0.0
 11
19.496329
 21
33.718661
 31
0.0
  0
LINE
  5
30C
330
19
100
AcDbEntity
  8
0
  6
Continuous
 62
   255
100
AcDbLine
 10
20.071329
 20
33.333661
 30
0.0
 11
20.071329
 21
33.668661
 31
0.0
  0
ARC
  5
30D
330
19
100
AcDbEntity
  8
0
  6
Continuous
 62
   255
100
AcDbCircle
 10
20.05132899999999
 20
33.333661
 30
0.0
 40
0.02
100
AcDbArc
 50
270.0
 51
0.0
  0
ARC
  5
30E
330
19
100
AcDbEntity
  8
0
  6
Continuous
 62
   255
100
AcDbCircle
 10
19.98882899999999
 20
33.333661
 30
0.0
 40
0.02
100
AcDbArc
 50
270.0
 51
0.0
  0
ARC
  5
30F
330
19
100
AcDbEntity
  8
0
  6
Continuous
 62
   255
100
AcDbCircle
 10
19.528829
 20
33.333661
 30
0.0
 40
0.02
100
AcDbArc
 50
180.0
 51
270.0
  0
LINE
  5
310
330
19
100
AcDbEntity
  8
0
  6
Continuous
 62
   255
100
AcDbLine
 10
19.446329
 20
33.333661
 30
0.0
 11
19.446329
 21
33.668661
 31
0.0
  0
ARC
  5
311
330
19
100
AcDbEntity
  8
0
  6
Continuous
 62
   255
100
AcDbCircle
 10
19.466329
 20
33.333661
 30
0.0
 40
0.02
100
AcDbArc
 50
180.0
 51
270.0
  0
ARC
  5
312
330
19
100
AcDbEntity
  8
0
  6
Continuous
 62
   255
100
AcDbCircle
 10
19.98882899999999
 20
33.668661
 30
0.0
 40
0.02
100
AcDbArc
 50
0.0
 51
90.0
  0
ARC
  5
313
330
19
100
AcDbEntity
  8
0
  6
Continuous
 62
   255
100
AcDbCircle
 10
19.528829
 20
33.668661
 30
0.0
 40
0.02
100
AcDbArc
 50
90.0
 51
180.0
  0
LINE
  5
314
330
19
100
AcDbEntity
  8
0
  6
Continuous
 62
   255
100
AcDbLine
 10
19.508829
 20
33.668661
 30
0.0
 11
19.508829
 21
33.333661
 31
0.0
  0
LINE
  5
315
330
19
100
AcDbEntity
  8
0
  6
Continuous
 62
   255
100
AcDbLine
 10
20.008829
 20
33.668661
 30
0.0
 11
20.008829
 21
33.333661
 31
0.0
  0
LINE
  5
316
330
19
100
AcDbEntity
  8
0
  6
Continuous
 62
   255
100
AcDbLine
 10
19.946329
 20
33.72866099999999
 30
0.0
 11
19.946329
 21
33.718661
 31
0.0
  0
LINE
  5
317
330
19
100
AcDbEntity
  8
0
  6
Continuous
 62
   255
100
AcDbLine
 10
19.571329
 20
33.72866099999999
 30
0.0
 11
19.571329
 21
33.718661
 31
0.0
  0
LINE
  5
318
330
19
100
AcDbEntity
  8
0
  6
Continuous
 62
   255
100
AcDbLine
 10
19.926329
 20
33.748661
 30
0.0
 11
19.591329
 21
33.748661
 31
0.0
  0
LINE
  5
319
330
19
100
AcDbEntity
  8
0
  6
Continuous
 62
   255
100
AcDbLine
 10
19.571329
 20
33.72866099999999
 30
0.0
 11
19.591329
 21
33.748661
 31
0.0
  0
LINE
  5
31A
330
19
100
AcDbEntity
  8
0
  6
Continuous
 62
   255
100
AcDbLine
 10
19.946329
 20
33.72866099999999
 30
0.0
 11
19.926329
 21
33.748661
 31
0.0
  0
LINE
  5
31B
330
19
100
AcDbEntity
  8
0
  6
Continuous
 62
   255
100
AcDbLine
 10
15.383829
 20
32.93866099999999
 30
0.0
 11
20.133829
 21
32.93866099999999
 31
0.0
  0
LINE
  5
31C
330
19
100
AcDbEntity
  8
0
  6
Continuous
 62
   255
100
AcDbLine
 10
15.571329
 20
14.56366099999999
 30
0.0
 11
15.571329
 21
32.93866099999999
 31
0.0
  0
LINE
  5
31D
330
19
100
AcDbEntity
  8
0
  6
Continuous
 62
   255
100
AcDbLine
 10
15.946329
 20
14.183661
 30
0.0
 11
15.946329
 21
14.18866099999999
 31
0.0
  0
LINE
  5
31E
330
19
100
AcDbEntity
  8
0
  6
Continuous
 62
   255
100
AcDbLine
 10
15.946329
 20
14.56366099999999
 30
0.0
 11
15.946329
 21
32.93866099999999
 31
0.0
  0
LINE
  5
31F
330
19
100
AcDbEntity
  8
0
  6
Continuous
 62
   255
100
AcDbLine
 10
19.571329
 20
14.56366099999999
 30
0.0
 11
19.571329
 21
32.93866099999999
 31
0.0
  0
LINE
  5
320
330
19
100
AcDbEntity
  8
0
  6
Continuous
 62
   255
100
AcDbLine
 10
19.946329
 20
14.56366099999999
 30
0.0
 11
19.946329
 21
32.93866099999999
 31
0.0
  0
LINE
  5
321
330
19
100
AcDbEntity
  8
0
  6
Continuous
 62
   255
100
AcDbLine
 10
15.383829
 20
19.81366099999999
 30
0.0
 11
15.571329
 21
19.81366099999999
 31
0.0
  0
LINE
  5
322
330
19
100
AcDbEntity
  8
0
  6
Continuous
 62
   255
100
AcDbLine
 10
15.383829
 20
18.938661
 30
0.0
 11
15.571329
 21
18.938661
 31
0.0
  0
LINE
  5
323
330
19
100
AcDbEntity
  8
0
  6
Continuous
 62
   255
100
AcDbLine
 10
15.946329
 20
19.81366099999999
 30
0.0
 11
19.571329
 21
19.81366099999999
 31
0.0
  0
LINE
  5
324
330
19
100
AcDbEntity
  8
0
  6
Continuous
 62
   255
100
AcDbLine
 10
19.946329
 20
19.81366099999999
 30
0.0
 11
20.133829
 21
19.81366099999999
 31
0.0
  0
LINE
  5
325
330
19
100
AcDbEntity
  8
0
  6
Continuous
 62
   255
100
AcDbLine
 10
15.946329
 20
18.938661
 30
0.0
 11
19.571329
 21
18.938661
 31
0.0
  0
LINE
  5
326
330
19
100
AcDbEntity
  8
0
  6
Continuous
 62
   255
100
AcDbLine
 10
19.946329
 20
18.938661
 30
0.0
 11
20.133829
 21
18.938661
 31
0.0
  0
LINE
  5
327
330
19
100
AcDbEntity
  8
0
  6
Continuous
 62
   255
100
AcDbLine
 10
16.633829
 20
30.626161
 30
0.0
 11
16.633829
 21
30.001161
 31
0.0
  0
LINE
  5
328
330
19
100
AcDbEntity
  8
0
  6
Continuous
 62
   255
100
AcDbLine
 10
18.883829
 20
30.626161
 30
0.0
 11
18.883829
 21
30.001161
 31
0.0
  0
LINE
  5
329
330
19
100
AcDbEntity
  8
0
  6
Continuous
 62
   255
100
AcDbLine
 10
16.696329
 20
29.93866099999999
 30
0.0
 11
18.821329
 21
29.93866099999999
 31
0.0
  0
LINE
  5
32A
330
19
100
AcDbEntity
  8
0
  6
Continuous
 62
   255
100
AcDbLine
 10
16.696329
 20
30.688661
 30
0.0
 11
18.821329
 21
30.688661
 31
0.0
  0
ARC
  5
32B
330
19
100
AcDbEntity
  8
0
  6
Continuous
 62
   255
100
AcDbCircle
 10
18.821329
 20
30.626161
 30
0.0
 40
0.0625
100
AcDbArc
 50
0.0
 51
90.0
  0
ARC
  5
32C
330
19
100
AcDbEntity
  8
0
  6
Continuous
 62
   255
100
AcDbCircle
 10
18.821329
 20
30.001161
 30
0.0
 40
0.0625
100
AcDbArc
 50
270.0
 51
0.0
  0
ARC
  5
32D
330
19
100
AcDbEntity
  8
0
  6
Continuous
 62
   255
100
AcDbCircle
 10
16.696329
 20
30.001161
 30
0.0
 40
0.0625
100
AcDbArc
 50
180.0
 51
270.0
  0
ARC
  5
32E
330
19
100
AcDbEntity
  8
0
  6
Continuous
 62
   255
100
AcDbCircle
 10
16.696329
 20
30.626161
 30
0.0
 40
0.0625
100
AcDbArc
 50
90.0
 51
180.0
  0
TEXT
  5
32F
330
19
100
AcDbEntity
  8
0
  6
Continuous
 62
   255
100
AcDbText
 10
16.85128699999999
 20
30.154384
 30
0.0
 40
0.2822411020707405
  1
MULTICYL
 41
0.8474579999999999
  7
SAS_____
 72
     3
 11
18.473759
 21
30.154384
 31
0.0
100
AcDbText
  0
LINE
  5
330
330
19
100
AcDbEntity
  8
0
  6
Continuous
 62
   255
100
AcDbLine
 10
16.28807399999999
 20
3.438726999999999
 30
0.0
 11
16.28807399999999
 21
2.717427
 31
0.0
  0
LINE
  5
331
330
19
100
AcDbEntity
  8
0
  6
Continuous
 62
   255
100
AcDbLine
 10
19.23158399999999
 20
3.438726999999999
 30
0.0
 11
19.23158399999999
 21
2.717427
 31
0.0
  0
LINE
  5
332
330
19
100
AcDbEntity
  8
0
  6
Continuous
 62
   255
100
AcDbLine
 10
16.28807399999999
 20
2.717427
 30
0.0
 11
19.23158399999999
 21
2.717427
 31
0.0
  0
LINE
  5
333
330
19
100
AcDbEntity
  8
0
  6
Continuous
 62
   255
100
AcDbLine
 10
16.28807399999999
 20
2.717427
 30
0.0
 11
16.78807399999999
 21
2.717427
 31
0.0
  0
LINE
  5
334
330
19
100
AcDbEntity
  8
0
  6
Continuous
 62
   255
100
AcDbLine
 10
19.23158399999999
 20
2.717427
 30
0.0
 11
18.73158399999999
 21
2.717427
 31
0.0
  0
LINE
  5
335
330
19
100
AcDbEntity
  8
0
  6
Continuous
 62
   255
100
AcDbLine
 10
16.82232899999999
 20
0.9674269999999999
 30
0.0
 11
16.82232899999999
 21
1.467426999999999
 31
0.0
  0
LINE
  5
336
330
19
100
AcDbEntity
  8
0
  6
Continuous
 62
   255
100
AcDbLine
 10
18.69732899999999
 20
0.9674269999999999
 30
0.0
 11
18.69732899999999
 21
1.467426999999999
 31
0.0
  0
LINE
  5
337
330
19
100
AcDbEntity
  8
0
  6
Continuous
 62
   255
100
AcDbLine
 10
16.82232899999999
 20
1.467426999999999
 30
0.0
 11
16.63482899999999
 21
1.467426999999999
 31
0.0
  0
LINE
  5
338
330
19
100
AcDbEntity
  8
0
  6
Continuous
 62
   255
100
AcDbLine
 10
18.69732899999999
 20
1.467426999999999
 30
0.0
 11
18.88482899999999
 21
1.467426999999999
 31
0.0
  0
LINE
  5
339
330
19
100
AcDbEntity
  8
0
  6
Continuous
 62
   255
100
AcDbLine
 10
16.63482899999999
 20
2.717427
 30
0.0
 11
16.63482899999999
 21
1.467426999999999
 31
0.0
  0
LINE
  5
33A
330
19
100
AcDbEntity
  8
0
  6
Continuous
 62
   255
100
AcDbLine
 10
18.88482899999999
 20
2.717427
 30
0.0
 11
18.88482899999999
 21
1.467426999999999
 31
0.0
  0
LINE
  5
33B
330
19
100
AcDbEntity
  8
0
  6
Continuous
 62
   255
100
AcDbLine
 10
16.82232899999999
 20
0.9674269999999999
 30
0.0
 11
18.69732899999999
 21
0.9674269999999999
 31
0.0
  0
LINE
  5
343
330
19
100
AcDbEntity
  8
0
  6
STITCH
 62
   255
100
AcDbLine
 10
17.337381
 20
0.9674269999999999
 30
0.0
 11
17.337381
 21
1.990381
 31
0.0
  0
LINE
  5
344
330
19
100
AcDbEntity
  8
0
  6
STITCH
 62
   255
100
AcDbLine
 10
18.19422199999999
 20
0.9674269999999999
 30
0.0
 11
18.19422199999999
 21
1.990381
 31
0.0
  0
LINE
  5
345
330
19
100
AcDbEntity
  8
0
  6
STITCH
 62
   255
100
AcDbLine
 10
17.38665499999999
 20
0.9674269999999999
 30
0.0
 11
17.38665499999999
 21
1.993222
 31
0.0
  0
LINE
  5
346
330
19
100
AcDbEntity
  8
0
  6
STITCH
 62
   255
100
AcDbLine
 10
18.150276
 20
0.9674269999999999
 30
0.0
 11
18.150276
 21
1.987436999999999
 31
0.0
  0
LINE
  5
347
330
19
100
AcDbEntity
  8
0
  6
STITCH
 62
   255
100
AcDbLine
 10
18.19422199999999
 20
1.990381
 30
0.0
 11
17.337381
 21
1.990381
 31
0.0
  0
LINE
  5
348
330
19
100
AcDbEntity
  8
0
  6
STITCH
 62
   255
100
AcDbLine
 10
17.768466
 20
2.322967999999999
 30
0.0
 11
17.337381
 21
1.990381
 31
0.0
  0
LINE
  5
349
330
19
100
AcDbEntity
  8
0
  6
STITCH
 62
   255
100
AcDbLine
 10
17.768466
 20
2.322967999999999
 30
0.0
 11
18.19422199999999
 21
1.990381
 31
0.0
  0
CIRCLE
  5
34C
330
19
100
AcDbEntity
  8
0
  6
STITCH
 62
   255
100
AcDbCircle
 10
17.752503
 20
19.387483
 30
0.0
 40
0.1875
  0
LINE
  5
363
330
19
100
AcDbEntity
  8
0
  6
Continuous
 62
   255
100
AcDbLine
 10
16.278829
 20
3.438726999999999
 30
0.0
 11
19.23158399999999
 21
3.438726999999999
 31
0.0
  0
LINE
  5
371
330
19
100
AcDbEntity
  8
0
  6
Continuous
 62
   255
100
AcDbLine
 10
20.133829
 20
13.06366099999999
 30
0.0
 11
20.133829
 21
33.31366099999999
 31
0.0
  0
LINE
  5
372
330
19
100
AcDbEntity
  8
0
  6
Continuous
 62
   255
100
AcDbLine
 10
15.383829
 20
13.06366099999999
 30
0.0
 11
15.383829
 21
33.31366099999999
 31
0.0
  0
LINE
  5
373
330
19
100
AcDbEntity
  8
0
  6
Continuous
 62
   255
100
AcDbLine
 10
16.278829
 20
8.438727
 30
0.0
 11
19.23158399999999
 21
8.438727
 31
0.0
  0
LINE
  5
375
330
19
100
AcDbEntity
  8
0
  6
Continuous
 62
   255
100
AcDbLine
 10
16.278829
 20
13.06366099999999
 30
0.0
 11
16.278829
 21
3.438726999999998
 31
0.0
  0
LINE
  5
378
330
19
100
AcDbEntity
  8
0
  6
HIDDEN
 62
   255
100
AcDbLine
 10
16.310079
 20
8.438727
 30
0.0
 11
16.310079
 21
3.438726999999998
 31
0.0
  0
LINE
  5
379
330
19
100
AcDbEntity
  8
0
  6
HIDDEN
 62
   255
100
AcDbLine
 10
19.20033399999999
 20
3.438726999999999
 30
0.0
 11
19.20033399999999
 21
8.438727
 31
0.0
  0
SOLID
  5
37C
330
19
100
AcDbEntity
  8
DIMENSIONS
  6
Continuous
 62
     1
100
AcDbTrace
 10
19.44400413350777
 20
6.120729379205063
 30
0.0
 11
19.37180497627868
 21
6.189919564169473
 31
0.0
 12
19.20033399999999
 22
5.938727
 32
0.0
 13
19.20033399999999
 23
5.938727
 33
0.0
  0
LINE
  5
37D
330
19
100
AcDbEntity
  8
DIMENSIONS
  6
Continuous
 62
     1
100
AcDbLine
 10
19.40790455489322
 20
6.155324471687268
 30
0.0
 11
20.29815007573603
 21
7.084285369318692
 31
0.0
  0
LINE
  5
37E
330
19
100
AcDbEntity
  8
DIMENSIONS
  6
Continuous
 62
     1
100
AcDbLine
 10
20.29815007573603
 20
7.084285369318692
 30
0.0
 11
20.59815007573603
 21
7.084285369318692
 31
0.0
  0
MTEXT
  5
37F
330
19
100
AcDbEntity
  8
DIMENSIONS
  6
Continuous
 62
     1
100
AcDbMText
 10
20.68815007573603
 20
7.234285369318692
 30
0.0
 40
0.3
 41
0.0
 71
     1
 72
     1
  1
\A1;75mm-1.5mm THREAD
 73
     1
 44
1.0
  0
SOLID
  5
380
330
19
100
AcDbEntity
  8
DIMENSIONS
  6
Continuous
 62
     1
100
AcDbTrace
 10
17.99379389606916
 20
0.773106575424135
 30
0.0
 11
18.04416998533327
 21
0.8594908889912085
 31
0.0
 12
17.75982899999999
 22
0.9674269999999999
 32
0.0
 13
17.75982899999999
 23
0.9674269999999999
 33
0.0
  0
LINE
  5
381
330
19
100
AcDbEntity
  8
DIMENSIONS
  6
Continuous
 62
     1
100
AcDbLine
 10
18.01898194070122
 20
0.8162987322076716
 30
0.0
 11
20.35901726919135
 21
-0.5483220388731667
 31
0.0
  0
LINE
  5
382
330
19
100
AcDbEntity
  8
DIMENSIONS
  6
Continuous
 62
     1
100
AcDbLine
 10
20.35901726919135
 20
-0.5483220388731667
 30
0.0
 11
20.65901726919135
 21
-0.5483220388731667
 31
0.0
  0
MTEXT
  5
383
330
19
100
AcDbEntity
  8
DIMENSIONS
  6
Continuous
 62
     1
100
AcDbMText
 10
20.74901726919135
 20
-0.3983220388731666
 30
0.0
 40
0.3
 41
0.0
 71
     1
 72
     1
  1
\A1;1-14 TPI TAP
 73
     1
 44
1.0
  0
DIMENSION
  5
384
330
19
100
AcDbEntity
  8
DIMENSIONS
  6
Continuous
 62
   255
100
AcDbDimension
  2
*D4
 10
15.81745320563996
 20
3.438726999999999
 30
0.0
 11
15.81745320563996
 21
2.203077000000002
 31
0.0
 70
    32
 71
     5
 42
2.471299999999998
  3
STANDARD
100
AcDbAlignedDimension
 13
16.82232899999999
 23
0.9674269999999999
 33
0.0
 14
16.278829
 24
3.438726999999999
 34
0.0
 50
90.0
100
AcDbRotatedDimension
1001
ACAD
1000
DSTYLE
1002
{
1070
    41
1040
0.3
1070
    42
1040
0.1
1070
    43
1040
0.3
1070
    44
1040
0.1
1070
    45
1040
0.000001
1070
   140
1040
0.3
1070
   171
1070
     6
1070
   176
1070
     1
1070
   177
1070
     1
1070
   178
1070
     1
1070
   271
1070
     3
1070
   272
1070
     3
1070
   274
1070
     6
1070
   277
1070
     5
1002
}
  0
DIMENSION
  5
393
330
19
100
AcDbEntity
  8
DIMENSIONS
  6
Continuous
 62
   255
100
AcDbDimension
  2
*D5
 10
15.77248719348458
 20
8.438727
 30
0.0
 11
15.77248719348457
 21
5.938727000000001
 31
0.0
 70
    32
 71
     5
 42
5.000000000000001
  3
STANDARD
100
AcDbAlignedDimension
 13
16.310079
 23
3.438726999999998
 33
0.0
 14
16.310079
 24
8.438727
 34
0.0
 50
90.0
100
AcDbRotatedDimension
1001
ACAD
1000
DSTYLE
1002
{
1070
    41
1040
0.3
1070
    42
1040
0.1
1070
    43
1040
0.3
1070
    44
1040
0.1
1070
    45
1040
0.000001
1070
   140
1040
0.3
1070
   171
1070
     6
1070
   176
1070
     1
1070
   177
1070
     1
1070
   178
1070
     1
1070
   271
1070
     3
1070
   272
1070
     3
1070
   274
1070
     6
1070
   277
1070
     5
1002
}
  0
DIMENSION
  5
3A2
330
19
100
AcDbEntity
  8
DIMENSIONS
  6
Continuous
 62
   255
100
AcDbDimension
  2
*D6
 10
13.56857768731541
 20
33.668661
 30
0.0
 11
13.56857768731541
 21
17.318044
 31
0.0
 70
    32
 71
     5
 42
32.701234
  3
STANDARD
100
AcDbAlignedDimension
 13
16.82232899999999
 23
0.9674269999999999
 33
0.0
 14
15.446329
 24
33.668661
 34
0.0
 50
90.0
100
AcDbRotatedDimension
1001
ACAD
1000
DSTYLE
1002
{
1070
    41
1040
0.3
1070
    42
1040
0.1
1070
    43
1040
0.3
1070
    44
1040
0.1
1070
    45
1040
0.000001
1070
   140
1040
0.3
1070
   171
1070
     6
1070
   176
1070
     1
1070
   177
1070
     1
1070
   178
1070
     1
1070
   271
1070
     3
1070
   272
1070
     3
1070
   274
1070
     6
1070
   277
1070
     5
1002
}
  0
TEXT
  5
403
330
19
100
AcDbEntity
  8
0
100
AcDbText
 10
2.544446870437116
 20
31.33991650286663
 30
0.0
 40
0.39
  1
1/2 POWER STROKE
100
AcDbText
  0
TEXT
  5
404
330
19
100
AcDbEntity
  8
0
100
AcDbText
 10
2.544446870437116
 20
30.62505178913012
 30
0.0
 40
0.39
  1
12 1/2 TON MAX OUTPUT
100
AcDbText
  0
LINE
  5
405
330
19
100
AcDbEntity
  8
0
100
AcDbLine
 10
2.435599733701167
 20
33.08204820457996
 30
0.0
 11
10.05886821015255
 21
33.08204820457996
 31
0.0
  0
TEXT
  5
406
330
19
100
AcDbEntity
  8
0
100
AcDbText
 10
2.544446870437116
 20
33.28739616704353
 30
0.0
 40
0.39
  1
DX 25-28-16 CYLINDER
100
AcDbText
  0
TEXT
  5
407
330
19
100
AcDbEntity
  8
0
100
AcDbText
 10
2.544446870437116
 20
31.98991650286663
 30
0.0
 40
0.39
  1
3 1/4 OVERALL STROKE
100
AcDbText
  0
LINE
  5
45B
330
19
100
AcDbEntity
  8
0
  6
HIDDEN
 62
     7
 48
0.625
100
AcDbLine
 10
17.946329
 20
33.31366099999999
 30
0.0
 11
17.946329
 21
32.93866099999999
 31
0.0
  0
LINE
  5
45C
330
19
100
AcDbEntity
  8
0
  6
HIDDEN
 62
     7
 48
0.625
100
AcDbLine
 10
17.57132900000001
 20
33.31366099999999
 30
0.0
 11
17.57132900000001
 21
32.93866099999999
 31
0.0
  0
DIMENSION
  5
45E
330
19
100
AcDbEntity
  8
DIMENSIONS
  6
Continuous
 62
   255
100
AcDbDimension
  2
*D9
 10
20.133829
 20
34.65972400385055
 30
0.0
 11
17.758829
 21
34.65972400385055
 31
0.0
 70
    32
 71
     5
 42
4.750000000000001
  3
STANDARD
100
AcDbAlignedDimension
 13
15.383829
 23
33.31366099999999
 33
0.0
 14
20.133829
 24
33.31366099999999
 34
0.0
100
AcDbRotatedDimension
1001
ACAD
1000
DSTYLE
1002
{
1070
    41
1040
0.3
1070
    42
1040
0.1
1070
    43
1040
0.3
1070
    44
1040
0.1
1070
    45
1040
0.000001
1070
   140
1040
0.3
1070
   171
1070
     6
1070
   176
1070
     1
1070
   177
1070
     1
1070
   178
1070
     1
1070
   271
1070
     3
1070
   272
1070
     3
1070
   274
1070
     6
1070
   277
1070
     5
1002
}
  0
SOLID
  5
46C
330
19
100
AcDbEntity
  8
DIMENSIONS
  6
Continuous
 62
     1
100
AcDbTrace
 10
18.00895852773238
 20
33.4866789740847
 30
0.0
 11
17.93932407517884
 21
33.55844974123657
 31
0.0
 12
17.758829
 22
33.31366099999999
 32
0.0
 13
17.758829
 23
33.31366099999999
 33
0.0
  0
LINE
  5
46D
330
19
100
AcDbEntity
  8
DIMENSIONS
  6
Continuous
 62
     1
100
AcDbLine
 10
17.97414130145561
 20
33.52256435766063
 30
0.0
 11
20.73483598344515
 21
36.20108474244402
 31
0.0
  0
LINE
  5
46E
330
19
100
AcDbEntity
  8
DIMENSIONS
  6
Continuous
 62
     1
100
AcDbLine
 10
20.73483598344515
 20
36.20108474244402
 30
0.0
 11
21.03483598344515
 21
36.20108474244402
 31
0.0
  0
MTEXT
  5
46F
330
19
100
AcDbEntity
  8
DIMENSIONS
  6
Continuous
 62
     1
100
AcDbMText
 10
21.12483598344515
 20
36.35108474244402
 30
0.0
 40
0.3
 41
0.0
 71
     1
 72
     1
  1
\A1;3/8 NPT INLET FOR INCOMING AIR
 73
     1
 44
1.0
  0
SOLID
  5
470
330
19
100
AcDbEntity
  8
DIMENSIONS
  6
Continuous
 62
     1
100
AcDbTrace
 10
18.05151251893627
 20
19.44310051150043
 30
0.0
 11
18.01731173039903
 21
19.53707021972298
 31
0.0
 12
17.752503
 22
19.387483
 32
0.0
 13
17.752503
 23
19.387483
 33
0.0
  0
LINE
  5
471
330
19
100
AcDbEntity
  8
DIMENSIONS
  6
Continuous
 62
     1
100
AcDbLine
 10
18.03441212466765
 20
19.49008536561171
 30
0.0
 11
22.89090863910306
 21
21.25763379652379
 31
0.0
  0
LINE
  5
472
330
19
100
AcDbEntity
  8
DIMENSIONS
  6
Continuous
 62
     1
100
AcDbLine
 10
22.89090863910306
 20
21.25763379652379
 30
0.0
 11
23.19090863910306
 21
21.25763379652379
 31
0.0
  0
MTEXT
  5
473
330
19
100
AcDbEntity
  8
DIMENSIONS
  6
Continuous
 62
     1
100
AcDbMText
 10
23.28090863910305
 20
21.40763379652379
 30
0.0
 40
0.3
 41
0.0
 71
     1
 72
     1
  1
\A1;1/4 NPT FOR INCOMING AIR (RETURN LINE)
 73
     1
 44
1.0
  0
LWPOLYLINE
  5
96C
330
19
100
AcDbEntity
  8
TitleBlock&Notes
100
AcDbPolyline
 90
        4
 70
     1
 43
0.0
 10
-9.393085450286235
 20
-3.396324737726487
 10
45.60691454971376
 20
-3.396324737726496
 10
45.60691454971378
 20
39.1036752622735
 10
-9.393085450286227
 20
39.10367526227351
  0
LINE
  5
96D
330
19
100
AcDbEntity
  8
TitleBlock&Notes
  6
Continuous
 62
     3
100
AcDbLine
 10
33.0555074793137
 20
-1.730087100926498
 30
0.0
 11
33.46698133771373
 21
-1.722904809326509
 31
0.0
  0
LINE
  5
96E
330
19
100
AcDbEntity
  8
TitleBlock&Notes
  6
Continuous
 62
     3
100
AcDbLine
 10
33.0555074793137
 20
-1.745929516526503
 30
0.0
 11
33.4818794913137
 21
-1.738487171726495
 31
0.0
  0
LINE
  5
96F
330
19
100
AcDbEntity
  8
TitleBlock&Notes
  6
Continuous
 62
     3
100
AcDbLine
 10
33.0555074793137
 20
-1.761771932126498
 30
0.0
 11
33.49767494131372
 21
-1.754053892126497
 31
0.0
  0
LINE
  5
970
330
19
100
AcDbEntity
  8
TitleBlock&Notes
  6
Continuous
 62
     3
100
AcDbLine
 10
33.0555074793137
 20
-1.777614347726492
 30
0.0
 11
33.51445108531372
 21
-1.769603465726509
 31
0.0
  0
LINE
  5
971
330
19
100
AcDbEntity
  8
TitleBlock&Notes
  6
Continuous
 62
     3
100
AcDbLine
 10
33.0555074793137
 20
-1.793456763326508
 30
0.0
 11
33.53230838851374
 21
-1.785134189726496
 31
0.0
  0
LINE
  5
972
330
19
100
AcDbEntity
  8
TitleBlock&Notes
  6
Continuous
 62
     3
100
AcDbLine
 10
33.0555074793137
 20
-1.809299178926503
 30
0.0
 11
33.55136957131371
 21
-1.800643886126502
 31
0.0
  0
LINE
  5
973
330
19
100
AcDbEntity
  8
TitleBlock&Notes
  6
Continuous
 62
     3
100
AcDbLine
 10
33.0555074793137
 20
-1.825141594526508
 30
0.0
 11
33.57178729171369
 21
-1.816129901726499
 31
0.0
  0
LINE
  5
974
330
19
100
AcDbEntity
  8
TitleBlock&Notes
  6
Continuous
 62
     3
100
AcDbLine
 10
33.0555074793137
 20
-1.840984010126502
 30
0.0
 11
33.59375543131374
 21
-1.831588870526497
 31
0.0
  0
LINE
  5
975
330
19
100
AcDbEntity
  8
TitleBlock&Notes
  6
Continuous
 62
     3
100
AcDbLine
 10
33.0555074793137
 20
-1.856826425726497
 30
0.0
 11
33.61752671731369
 21
-1.8470163573265
 31
0.0
  0
LINE
  5
976
330
19
100
AcDbEntity
  8
TitleBlock&Notes
  6
Continuous
 62
     3
100
AcDbLine
 10
33.0555074793137
 20
-1.872668841326502
 30
0.0
 11
33.6434412345137
 21
-1.862406422126509
 31
0.0
  0
LINE
  5
977
330
19
100
AcDbEntity
  8
TitleBlock&Notes
  6
Continuous
 62
     3
100
AcDbLine
 10
33.0555074793137
 20
-1.888511256926507
 30
0.0
 11
33.6719760837137
 21
-1.877750748926507
 31
0.0
  0
LINE
  5
978
330
19
100
AcDbEntity
  8
TitleBlock&Notes
  6
Continuous
 62
     3
100
AcDbLine
 10
33.0555074793137
 20
-1.904353672526502
 30
0.0
 11
33.70383867931376
 21
-1.893036982526504
 31
0.0
  0
LINE
  5
979
330
19
100
AcDbEntity
  8
TitleBlock&Notes
  6
Continuous
 62
     3
100
AcDbLine
 10
33.0555074793137
 20
-1.920196088126497
 30
0.0
 11
33.74016245251373
 21
-1.908245362526498
 31
0.0
  0
LINE
  5
97A
330
19
100
AcDbEntity
  8
TitleBlock&Notes
  6
Continuous
 62
     3
100
AcDbLine
 10
33.0555074793137
 20
-1.936038503726512
 30
0.0
 11
33.78299084251371
 21
-1.923340209326498
 31
0.0
  0
LINE
  5
97B
330
19
100
AcDbEntity
  8
TitleBlock&Notes
  6
Continuous
 62
     3
100
AcDbLine
 10
33.0555074793137
 20
-1.951880919326496
 30
0.0
 11
33.83684248651373
 21
-1.938242639726501
 31
0.0
  0
LINE
  5
97C
330
19
100
AcDbEntity
  8
TitleBlock&Notes
  6
Continuous
 62
     3
100
AcDbLine
 10
33.0555074793137
 20
-1.435812927326496
 30
0.0
 11
33.30212360731373
 21
-1.435812927326496
 31
0.0
  0
LINE
  5
97D
330
19
100
AcDbEntity
  8
TitleBlock&Notes
  6
Continuous
 62
     3
100
AcDbLine
 10
33.0555074793137
 20
-1.444923699326496
 30
0.0
 11
33.30358991611372
 21
-1.4405933997265
 31
0.0
  0
LINE
  5
97E
330
19
100
AcDbEntity
  8
TitleBlock&Notes
  6
Continuous
 62
     3
100
AcDbLine
 10
33.0555074793137
 20
-1.460766114926512
 30
0.0
 11
33.3086758233137
 21
-1.456347032126503
 31
0.0
  0
LINE
  5
97F
330
19
100
AcDbEntity
  8
TitleBlock&Notes
  6
Continuous
 62
     3
100
AcDbLine
 10
33.0555074793137
 20
-1.476608530526506
 30
0.0
 11
33.31415523571374
 21
-1.472093813726504
 31
0.0
  0
LINE
  5
980
330
19
100
AcDbEntity
  8
TitleBlock&Notes
  6
Continuous
 62
     3
100
AcDbLine
 10
33.0555074793137
 20
-1.49245094612649
 30
0.0
 11
33.32003718211369
 21
-1.487833546526497
 31
0.0
  0
LINE
  5
981
330
19
100
AcDbEntity
  8
TitleBlock&Notes
  6
Continuous
 62
     3
100
AcDbLine
 10
33.0555074793137
 20
-1.508293322126503
 30
0.0
 11
33.32633144371371
 21
-1.503566072126501
 31
0.0
  0
LINE
  5
982
330
19
100
AcDbEntity
  8
TitleBlock&Notes
  6
Continuous
 62
     3
100
AcDbLine
 10
33.0555074793137
 20
-1.524135737726508
 30
0.0
 11
33.33304906891375
 21
-1.519291232126503
 31
0.0
  0
LINE
  5
983
330
19
100
AcDbEntity
  8
TitleBlock&Notes
  6
Continuous
 62
     3
100
AcDbLine
 10
33.0555074793137
 20
-1.539978153326503
 30
0.0
 11
33.34020221491371
 21
-1.535008788926505
 31
0.0
  0
LINE
  5
984
330
19
100
AcDbEntity
  8
TitleBlock&Notes
  6
Continuous
 62
     3
100
AcDbLine
 10
33.0555074793137
 20
-1.555820568926497
 30
0.0
 11
33.34780442491371
 21
-1.550718504926498
 31
0.0
  0
LINE
  5
985
330
19
100
AcDbEntity
  8
TitleBlock&Notes
  6
Continuous
 62
     3
100
AcDbLine
 10
33.0555074793137
 20
-1.571662984526502
 30
0.0
 11
33.35587074691373
 21
-1.566420142526505
 31
0.0
  0
LINE
  5
986
330
19
100
AcDbEntity
  8
TitleBlock&Notes
  6
Continuous
 62
     3
100
AcDbLine
 10
33.0555074793137
 20
-1.587505400126497
 30
0.0
 11
33.36441797131371
 21
-1.582113345326506
 31
0.0
  0
LINE
  5
987
330
19
100
AcDbEntity
  8
TitleBlock&Notes
  6
Continuous
 62
     3
100
AcDbLine
 10
33.0555074793137
 20
-1.603347815726502
 30
0.0
 11
33.37346471011374
 21
-1.597797836126501
 31
0.0
  0
LINE
  5
988
330
19
100
AcDbEntity
  8
TitleBlock&Notes
  6
Continuous
 62
     3
100
AcDbLine
 10
33.0555074793137
 20
-1.619190231326497
 30
0.0
 11
33.38303191171371
 21
-1.613473258526491
 31
0.0
  0
LINE
  5
989
330
19
100
AcDbEntity
  8
TitleBlock&Notes
  6
Continuous
 62
     3
100
AcDbLine
 10
33.0555074793137
 20
-1.635032646926491
 30
0.0
 11
33.39314294011375
 21
-1.629139176926505
 31
0.0
  0
LINE
  5
98A
330
19
100
AcDbEntity
  8
TitleBlock&Notes
  6
Continuous
 62
     3
100
AcDbLine
 10
33.0555074793137
 20
-1.650875062526507
 30
0.0
 11
33.40382412931376
 21
-1.644795155726507
 31
0.0
  0
LINE
  5
98B
330
19
100
AcDbEntity
  8
TitleBlock&Notes
  6
Continuous
 62
     3
100
AcDbLine
 10
33.0555074793137
 20
-1.666717478126512
 30
0.0
 11
33.41510521891372
 21
-1.660440680126496
 31
0.0
  0
LINE
  5
98C
330
19
100
AcDbEntity
  8
TitleBlock&Notes
  6
Continuous
 62
     3
100
AcDbLine
 10
33.0555074793137
 20
-1.682559893726507
 30
0.0
 11
33.42701998771372
 21
-1.676075116526506
 31
0.0
  0
LINE
  5
98D
330
19
100
AcDbEntity
  8
TitleBlock&Notes
  6
Continuous
 62
     3
100
AcDbLine
 10
33.0555074793137
 20
-1.698402309326501
 30
0.0
 11
33.43960696651372
 21
-1.691697831326495
 31
0.0
  0
LINE
  5
98E
330
19
100
AcDbEntity
  8
TitleBlock&Notes
  6
Continuous
 62
     3
100
AcDbLine
 10
33.0555074793137
 20
-1.714244724926496
 30
0.0
 11
33.45291038851374
 21
-1.707308032526503
 31
0.0
  0
LINE
  5
98F
330
19
100
AcDbEntity
  8
TitleBlock&Notes
  6
Continuous
 62
     3
100
AcDbLine
 10
33.0555074793137
 20
-0.7732145205265031
 30
0.0
 11
33.27511783291372
 21
-0.7732145205265031
 31
0.0
  0
LINE
  5
990
330
19
100
AcDbEntity
  8
TitleBlock&Notes
  6
Continuous
 62
     3
100
AcDbLine
 10
33.0555074793137
 20
-0.9680963769265051
 30
0.0
 11
33.27330747931371
 21
-0.9680963769265051
 31
0.0
  0
LINE
  5
991
330
19
100
AcDbEntity
  8
TitleBlock&Notes
  6
Continuous
 62
     3
100
AcDbLine
 10
33.0555074793137
 20
-1.046049135326507
 30
0.0
 11
33.27330747931371
 21
-1.046049135326507
 31
0.0
  0
LINE
  5
992
330
19
100
AcDbEntity
  8
TitleBlock&Notes
  6
Continuous
 62
     3
100
AcDbLine
 10
33.0555074793137
 20
-1.063544296526506
 30
0.0
 11
33.27330747931371
 21
-1.059742577726504
 31
0.0
  0
LINE
  5
993
330
19
100
AcDbEntity
  8
TitleBlock&Notes
  6
Continuous
 62
     3
100
AcDbLine
 10
33.0555074793137
 20
-1.079386712126501
 30
0.0
 11
33.27330747931371
 21
-1.07558499332651
 31
0.0
  0
LINE
  5
994
330
19
100
AcDbEntity
  8
TitleBlock&Notes
  6
Continuous
 62
     3
100
AcDbLine
 10
33.0555074793137
 20
-1.095229127726495
 30
0.0
 11
33.27330747931371
 21
-1.091427408926504
 31
0.0
  0
LINE
  5
995
330
19
100
AcDbEntity
  8
TitleBlock&Notes
  6
Continuous
 62
     3
100
AcDbLine
 10
33.0555074793137
 20
-1.111071543326501
 30
0.0
 11
33.27330747931371
 21
-1.107269824526509
 31
0.0
  0
LINE
  5
996
330
19
100
AcDbEntity
  8
TitleBlock&Notes
  6
Continuous
 62
     3
100
AcDbLine
 10
33.0555074793137
 20
-1.126913958926506
 30
0.0
 11
33.27330747931371
 21
-1.123112240126504
 31
0.0
  0
LINE
  5
997
330
19
100
AcDbEntity
  8
TitleBlock&Notes
  6
Continuous
 62
     3
100
AcDbLine
 10
33.0555074793137
 20
-1.1427563745265
 30
0.0
 11
33.27330747931371
 21
-1.138954655726498
 31
0.0
  0
LINE
  5
998
330
19
100
AcDbEntity
  8
TitleBlock&Notes
  6
Continuous
 62
     3
100
AcDbLine
 10
33.0555074793137
 20
-1.158598790126495
 30
0.0
 11
33.27330747931371
 21
-1.154797071326504
 31
0.0
  0
LINE
  5
999
330
19
100
AcDbEntity
  8
TitleBlock&Notes
  6
Continuous
 62
     3
100
AcDbLine
 10
33.0555074793137
 20
-1.174441205726511
 30
0.0
 11
33.27330747931371
 21
-1.170639486926498
 31
0.0
  0
LINE
  5
99A
330
19
100
AcDbEntity
  8
TitleBlock&Notes
  6
Continuous
 62
     3
100
AcDbLine
 10
33.0555074793137
 20
-1.190283621326505
 30
0.0
 11
33.27330747931371
 21
-1.186481902526503
 31
0.0
  0
LINE
  5
99B
330
19
100
AcDbEntity
  8
TitleBlock&Notes
  6
Continuous
 62
     3
100
AcDbLine
 10
33.0555074793137
 20
-1.20612603692651
 30
0.0
 11
33.27330747931371
 21
-1.202324318126498
 31
0.0
  0
LINE
  5
99C
330
19
100
AcDbEntity
  8
TitleBlock&Notes
  6
Continuous
 62
     3
100
AcDbLine
 10
33.0555074793137
 20
-1.221968452526505
 30
0.0
 11
33.27330747931371
 21
-1.218166733726492
 31
0.0
  0
LINE
  5
99D
330
19
100
AcDbEntity
  8
TitleBlock&Notes
  6
Continuous
 62
     3
100
AcDbLine
 10
33.0555074793137
 20
-1.237810828526496
 30
0.0
 11
33.27330747931371
 21
-1.234009149326508
 31
0.0
  0
LINE
  5
99E
330
19
100
AcDbEntity
  8
TitleBlock&Notes
  6
Continuous
 62
     3
100
AcDbLine
 10
33.0555074793137
 20
-1.253653244126502
 30
0.0
 11
33.27330747931371
 21
-1.249851564926503
 31
0.0
  0
LINE
  5
99F
330
19
100
AcDbEntity
  8
TitleBlock&Notes
  6
Continuous
 62
     3
100
AcDbLine
 10
33.0555074793137
 20
-1.269495659726507
 30
0.0
 11
33.27330747931371
 21
-1.265693940926505
 31
0.0
  0
LINE
  5
9A0
330
19
100
AcDbEntity
  8
TitleBlock&Notes
  6
Continuous
 62
     3
100
AcDbLine
 10
33.0555074793137
 20
-1.285338075326501
 30
0.0
 11
33.27330747931371
 21
-1.281536356526499
 31
0.0
  0
LINE
  5
9A1
330
19
100
AcDbEntity
  8
TitleBlock&Notes
  6
Continuous
 62
     3
100
AcDbLine
 10
33.0555074793137
 20
-1.301180490926496
 30
0.0
 11
33.27433763371371
 21
-1.297360793726499
 31
0.0
  0
LINE
  5
9A2
330
19
100
AcDbEntity
  8
TitleBlock&Notes
  6
Continuous
 62
     3
100
AcDbLine
 10
33.0555074793137
 20
-1.317022906526512
 30
0.0
 11
33.27612739531373
 21
-1.313171964926509
 31
0.0
  0
LINE
  5
9A3
330
19
100
AcDbEntity
  8
TitleBlock&Notes
  6
Continuous
 62
     3
100
AcDbLine
 10
33.0555074793137
 20
-1.332865322126496
 30
0.0
 11
33.27826417171372
 21
-1.328977077326497
 31
0.0
  0
LINE
  5
9A4
330
19
100
AcDbEntity
  8
TitleBlock&Notes
  6
Continuous
 62
     3
100
AcDbLine
 10
33.0555074793137
 20
-0.7907096421264992
 30
0.0
 11
33.27335888011374
 21
-0.7869070521264998
 31
0.0
  0
LINE
  5
9A5
330
19
100
AcDbEntity
  8
TitleBlock&Notes
  6
Continuous
 62
     3
100
AcDbLine
 10
33.0555074793137
 20
-0.8065520577265044
 30
0.0
 11
33.27330747931371
 21
-0.8027503389265131
 31
0.0
  0
LINE
  5
9A6
330
19
100
AcDbEntity
  8
TitleBlock&Notes
  6
Continuous
 62
     3
100
AcDbLine
 10
33.0555074793137
 20
-0.8223944733265096
 30
0.0
 11
33.27330747931371
 21
-0.8185927545265077
 31
0.0
  0
LINE
  5
9A7
330
19
100
AcDbEntity
  8
TitleBlock&Notes
  6
Continuous
 62
     3
100
AcDbLine
 10
33.0555074793137
 20
-0.8382368889265041
 30
0.0
 11
33.27330747931371
 21
-0.8344351701265022
 31
0.0
  0
LINE
  5
9A8
330
19
100
AcDbEntity
  8
TitleBlock&Notes
  6
Continuous
 62
     3
100
AcDbLine
 10
33.0555074793137
 20
-0.8540793045264987
 30
0.0
 11
33.27330747931371
 21
-0.8502775857265074
 31
0.0
  0
LINE
  5
9A9
330
19
100
AcDbEntity
  8
TitleBlock&Notes
  6
Continuous
 62
     3
100
AcDbLine
 10
33.0555074793137
 20
-0.8699217201265039
 30
0.0
 11
33.27330747931371
 21
-0.866120001326502
 31
0.0
  0
LINE
  5
9AA
330
19
100
AcDbEntity
  8
TitleBlock&Notes
  6
Continuous
 62
     3
100
AcDbLine
 10
33.0555074793137
 20
-0.8857641357264984
 30
0.0
 11
33.27330747931371
 21
-0.8819624169265072
 31
0.0
  0
LINE
  5
9AB
330
19
100
AcDbEntity
  8
TitleBlock&Notes
  6
Continuous
 62
     3
100
AcDbLine
 10
33.0555074793137
 20
-0.9016065513265143
 30
0.0
 11
33.27330747931371
 21
-0.8978048325265017
 31
0.0
  0
LINE
  5
9AC
330
19
100
AcDbEntity
  8
TitleBlock&Notes
  6
Continuous
 62
     3
100
AcDbLine
 10
33.0555074793137
 20
-0.9174489669265089
 30
0.0
 11
33.27330747931371
 21
-0.9136472481264963
 31
0.0
  0
LINE
  5
9AD
330
19
100
AcDbEntity
  8
TitleBlock&Notes
  6
Continuous
 62
     3
100
AcDbLine
 10
33.0555074793137
 20
-0.9332913825264927
 30
0.0
 11
33.27330747931371
 21
-0.9294896637265015
 31
0.0
  0
LINE
  5
9AE
330
19
100
AcDbEntity
  8
TitleBlock&Notes
  6
Continuous
 62
     3
100
AcDbLine
 10
33.0555074793137
 20
-0.9491337981265086
 30
0.0
 11
33.27330747931371
 21
-0.945332079326496
 31
0.0
  0
LINE
  5
9AF
330
19
100
AcDbEntity
  8
TitleBlock&Notes
  6
Continuous
 62
     3
100
AcDbLine
 10
33.0555074793137
 20
-0.9649762137265032
 30
0.0
 11
33.27330747931371
 21
-0.9611744949265119
 31
0.0
  0
LINE
  5
9B0
330
19
100
AcDbEntity
  8
TitleBlock&Notes
  6
Continuous
 62
     3
100
AcDbLine
 10
33.0555074793137
 20
-1.357860168926505
 30
0.0
 11
33.28307763091369
 21
-1.357860168926505
 31
0.0
  0
LINE
  5
9B1
330
19
100
AcDbEntity
  8
TitleBlock&Notes
  6
Continuous
 62
     3
100
AcDbLine
 10
33.0555074793137
 20
-1.348707737726511
 30
0.0
 11
33.28075061611376
 21
-1.344776091326503
 31
0.0
  0
LINE
  5
9B2
330
19
100
AcDbEntity
  8
TitleBlock&Notes
  6
Continuous
 62
     3
100
AcDbLine
 10
33.0555074793137
 20
-0.6952617621265116
 30
0.0
 11
33.29018682091374
 21
-0.6952617621265116
 31
0.0
  0
LINE
  5
9B3
330
19
100
AcDbEntity
  8
TitleBlock&Notes
  6
Continuous
 62
     3
100
AcDbLine
 10
33.0555074793137
 20
-0.6767090037264989
 30
0.0
 11
33.2950785297137
 21
-0.6767090037264989
 31
0.0
  0
LINE
  5
9B4
330
19
100
AcDbEntity
  8
TitleBlock&Notes
  6
Continuous
 62
     3
100
AcDbLine
 10
33.0555074793137
 20
-0.383450728526503
 30
0.0
 11
33.45496871731374
 21
-0.383450728526503
 31
0.0
  0
LINE
  5
9B5
330
19
100
AcDbEntity
  8
TitleBlock&Notes
  6
Continuous
 62
     3
100
AcDbLine
 10
33.0555074793137
 20
-0.6173090037265095
 30
0.0
 11
33.3143112597137
 21
-0.6173090037265095
 31
0.0
  0
LINE
  5
9B6
330
19
100
AcDbEntity
  8
TitleBlock&Notes
  6
Continuous
 62
     3
100
AcDbLine
 10
33.0555074793137
 20
-0.3240507285264922
 30
0.0
 11
33.5142552237137
 21
-0.3240507285264922
 31
0.0
  0
LINE
  5
9B7
330
19
100
AcDbEntity
  8
TitleBlock&Notes
  6
Continuous
 62
     3
100
AcDbLine
 10
33.0555074793137
 20
-0.34385072852651
 30
0.0
 11
33.49296507571374
 21
-0.34385072852651
 31
0.0
  0
LINE
  5
9B8
330
19
100
AcDbEntity
  8
TitleBlock&Notes
  6
Continuous
 62
     3
100
AcDbLine
 10
33.0555074793137
 20
-0.3636507285265065
 30
0.0
 11
33.47325960091373
 21
-0.3636507285265065
 31
0.0
  0
LINE
  5
9B9
330
19
100
AcDbEntity
  8
TitleBlock&Notes
  6
Continuous
 62
     3
100
AcDbLine
 10
33.0555074793137
 20
-0.6371090037264953
 30
0.0
 11
33.30728008171375
 21
-0.6371090037264953
 31
0.0
  0
LINE
  5
9BA
330
19
100
AcDbEntity
  8
TitleBlock&Notes
  6
Continuous
 62
     3
100
AcDbLine
 10
33.0555074793137
 20
-0.6569090037265024
 30
0.0
 11
33.30087482131374
 21
-0.6569090037265024
 31
0.0
  0
TEXT
  5
9BB
330
19
100
AcDbEntity
  8
TitleBlock&Notes
  6
Continuous
 62
     3
100
AcDbText
 10
32.44489500211375
 20
-2.880560319326494
 30
0.0
 40
0.2772000000000001
  1
 POWER
 41
0.8
 51
11.0
100
AcDbText
  0
LINE
  5
9BC
330
19
100
AcDbEntity
  8
TitleBlock&Notes
  6
Continuous
 62
     3
100
AcDbLine
 10
32.48369753731376
 20
-2.215340471726493
 30
0.0
 11
37.71030036931373
 21
-2.124109793726512
 31
0.0
  0
LINE
  5
9BF
330
19
100
AcDbEntity
  8
TitleBlock&Notes
  6
Continuous
 62
     3
100
AcDbLine
 10
26.79691454971375
 20
-2.076967458926509
 30
0.0
 11
33.91800779491372
 21
-1.952668325726504
 31
0.0
  0
LINE
  5
9C0
330
19
100
AcDbEntity
  8
TitleBlock&Notes
  6
Continuous
 62
     3
100
AcDbLine
 10
26.79691454971375
 20
-2.092809874526503
 30
0.0
 11
35.15430747931371
 21
-1.946931038126502
 31
0.0
  0
LINE
  5
9C1
330
19
100
AcDbEntity
  8
TitleBlock&Notes
  6
Continuous
 62
     3
100
AcDbLine
 10
26.79691454971375
 20
-2.108652290126508
 30
0.0
 11
35.4311877093137
 21
-1.957940471726507
 31
0.0
  0
LINE
  5
9C2
330
19
100
AcDbEntity
  8
TitleBlock&Notes
  6
Continuous
 62
     3
100
AcDbLine
 10
37.71030036931373
 20
0.3571004762734962
 30
0.0
 11
26.79691454971375
 21
0.3571004762734962
 31
0.0
  0
LINE
  5
9C3
330
19
100
AcDbEntity
  8
TitleBlock&Notes
  6
Continuous
 62
     3
100
AcDbLine
 10
37.71030036931373
 20
-0.032663315726504
 30
0.0
 11
26.79691454971375
 21
-0.032663315726504
 31
0.0
  0
LINE
  5
9C4
330
19
100
AcDbEntity
  8
TitleBlock&Notes
  6
Continuous
 62
     3
100
AcDbLine
 10
26.79691454971375
 20
-2.215340471726493
 30
0.0
 11
37.71030036931373
 21
-2.215340471726493
 31
0.0
  0
LINE
  5
9C5
330
19
100
AcDbEntity
  8
TitleBlock&Notes
  6
Continuous
 62
     3
100
AcDbLine
 10
26.79691454971375
 20
-2.124494705726503
 30
0.0
 11
36.33879891931371
 21
-1.957940471726507
 31
0.0
  0
LINE
  5
9C6
330
19
100
AcDbEntity
  8
TitleBlock&Notes
  6
Continuous
 62
     3
100
AcDbLine
 10
26.79691454971375
 20
-2.140337121326497
 30
0.0
 11
37.24641016891372
 21
-1.957940471726507
 31
0.0
  0
LINE
  5
9C7
330
19
100
AcDbEntity
  8
TitleBlock&Notes
  6
Continuous
 62
     3
100
AcDbLine
 10
26.79691454971375
 20
-2.156179536926503
 30
0.0
 11
37.71030036931373
 21
-1.965685677326495
 31
0.0
  0
LINE
  5
9C8
330
19
100
AcDbEntity
  8
TitleBlock&Notes
  6
Continuous
 62
     3
100
AcDbLine
 10
26.79691454971375
 20
-2.172021952526497
 30
0.0
 11
37.71030036931373
 21
-1.981528092926511
 31
0.0
  0
LINE
  5
9C9
330
19
100
AcDbEntity
  8
TitleBlock&Notes
  6
Continuous
 62
     3
100
AcDbLine
 10
26.79691454971375
 20
-2.187864368126502
 30
0.0
 11
37.71030036931373
 21
-1.997370508526506
 31
0.0
  0
LINE
  5
9CA
330
19
100
AcDbEntity
  8
TitleBlock&Notes
  6
Continuous
 62
     3
100
AcDbLine
 10
26.79691454971375
 20
-2.203706744126494
 30
0.0
 11
37.71030036931373
 21
-2.013212884526508
 31
0.0
  0
LINE
  5
9CB
330
19
100
AcDbEntity
  8
TitleBlock&Notes
  6
Continuous
 62
     3
100
AcDbLine
 10
27.03803015851375
 20
-2.215340471726493
 30
0.0
 11
37.71030036931373
 21
-2.029055300126502
 31
0.0
  0
LINE
  5
9CC
330
19
100
AcDbEntity
  8
TitleBlock&Notes
  6
Continuous
 62
     3
100
AcDbLine
 10
27.94564140811369
 20
-2.215340471726493
 30
0.0
 11
37.71030036931373
 21
-2.044897715726508
 31
0.0
  0
LINE
  5
9CD
330
19
100
AcDbEntity
  8
TitleBlock&Notes
  6
Continuous
 62
     3
100
AcDbLine
 10
28.85325261811371
 20
-2.215340471726493
 30
0.0
 11
37.71030036931373
 21
-2.060740131326502
 31
0.0
  0
LINE
  5
9CE
330
19
100
AcDbEntity
  8
TitleBlock&Notes
  6
Continuous
 62
     3
100
AcDbLine
 10
29.76086382811373
 20
-2.215340471726493
 30
0.0
 11
37.71030036931373
 21
-2.076582546926497
 31
0.0
  0
LINE
  5
9CF
330
19
100
AcDbEntity
  8
TitleBlock&Notes
  6
Continuous
 62
     3
100
AcDbLine
 10
30.66847507771373
 20
-2.215340471726493
 30
0.0
 11
37.71030036931373
 21
-2.092424962526502
 31
0.0
  0
LINE
  5
9D0
330
19
100
AcDbEntity
  8
TitleBlock&Notes
  6
Continuous
 62
     3
100
AcDbLine
 10
31.57608628771369
 20
-2.215340471726493
 30
0.0
 11
37.71030036931373
 21
-2.108267378126496
 31
0.0
  0
LINE
  5
9D3
330
19
100
AcDbEntity
  8
TitleBlock&Notes
  6
Continuous
 62
     3
100
AcDbLine
 10
26.79691454971375
 20
1.058675262273501
 30
0.0
 11
45.60691454971376
 21
1.058675262273501
 31
0.0
  0
LINE
  5
9D4
330
19
100
AcDbEntity
  8
TitleBlock&Notes
 62
     3
100
AcDbLine
 10
26.79691454971375
 20
-3.396324737726507
 30
0.0
 11
45.60691454971376
 21
-3.396324737726496
 31
0.0
  0
LINE
  5
9DA
330
19
100
AcDbEntity
  8
TitleBlock&Notes
 62
     3
100
AcDbLine
 10
29.93191454971375
 20
-3.396324737726505
 30
0.0
 11
18.30861324641141
 21
-3.400405210379002
 31
0.0
  0
LINE
  5
9E1
330
19
100
AcDbEntity
  8
TitleBlock&Notes
  6
Continuous
 62
     3
100
AcDbLine
 10
32.1150074793137
 20
-1.809873260126499
 30
0.0
 11
32.67930747931369
 21
-1.80002335412651
 31
0.0
  0
LINE
  5
9E2
330
19
100
AcDbEntity
  8
TitleBlock&Notes
  6
Continuous
 62
     3
100
AcDbLine
 10
32.07540747931375
 20
-0.4729404717265045
 30
0.0
 11
32.07540747931375
 21
-1.918340471726514
 31
0.0
  0
LINE
  5
9E3
330
19
100
AcDbEntity
  8
TitleBlock&Notes
  6
Continuous
 62
     3
100
AcDbLine
 10
32.71890747931371
 20
-0.1759404717265038
 30
0.0
 11
32.71890747931371
 21
-1.918340471726514
 31
0.0
  0
LINE
  5
9E4
330
19
100
AcDbEntity
  8
TitleBlock&Notes
  6
Continuous
 62
     3
100
AcDbLine
 10
33.01590747931372
 20
-0.1759404717265038
 30
0.0
 11
33.01590747931372
 21
-1.918340471726514
 31
0.0
  0
LINE
  5
9E5
330
19
100
AcDbEntity
  8
TitleBlock&Notes
  6
Continuous
 62
     3
100
AcDbLine
 10
32.1150074793137
 20
-1.957940471726507
 30
0.0
 11
32.1150074793137
 21
-0.5125404717264975
 31
0.0
  0
LINE
  5
9E6
330
19
100
AcDbEntity
  8
TitleBlock&Notes
  6
Continuous
 62
     3
100
AcDbLine
 10
32.67930747931369
 20
-0.1363404717265002
 30
0.0
 11
32.67930747931369
 21
-1.957940471726507
 31
0.0
  0
LINE
  5
9E7
330
19
100
AcDbEntity
  8
TitleBlock&Notes
  6
Continuous
 62
     3
100
AcDbLine
 10
33.0555074793137
 20
-1.957940471726507
 30
0.0
 11
33.0555074793137
 21
-0.1363404717265002
 31
0.0
  0
LINE
  5
9E8
330
19
100
AcDbEntity
  8
TitleBlock&Notes
  6
Continuous
 62
     3
100
AcDbLine
 10
33.03570747931372
 20
-0.1561404717265074
 30
0.0
 11
33.03570747931372
 21
-1.93814047172651
 31
0.0
  0
LINE
  5
9E9
330
19
100
AcDbEntity
  8
TitleBlock&Notes
  6
Continuous
 62
     3
100
AcDbLine
 10
32.69910747931374
 20
-0.1561404717265074
 30
0.0
 11
32.69910747931374
 21
-1.93814047172651
 31
0.0
  0
LINE
  5
9EA
330
19
100
AcDbEntity
  8
TitleBlock&Notes
  6
Continuous
 62
     3
100
AcDbLine
 10
32.09520747931373
 20
-0.492740471726501
 30
0.0
 11
32.09520747931373
 21
-1.93814047172651
 31
0.0
  0
LINE
  5
9EB
330
19
100
AcDbEntity
  8
TitleBlock&Notes
  6
Continuous
 62
     3
100
AcDbLine
 10
31.5705074793137
 20
-1.957940471726507
 30
0.0
 11
31.5705074793137
 21
-1.58174047172651
 31
0.0
  0
LINE
  5
9EC
330
19
100
AcDbEntity
  8
TitleBlock&Notes
  6
Continuous
 62
     3
100
AcDbLine
 10
31.53090747931374
 20
-1.918340471726514
 30
0.0
 11
31.53090747931374
 21
-1.621340471726503
 31
0.0
  0
LINE
  5
9ED
330
19
100
AcDbEntity
  8
TitleBlock&Notes
  6
Continuous
 62
     3
100
AcDbLine
 10
31.55070747931373
 20
-1.601540471726506
 30
0.0
 11
31.55070747931373
 21
-1.93814047172651
 31
0.0
  0
LINE
  5
9EE
330
19
100
AcDbEntity
  8
TitleBlock&Notes
  6
Continuous
 62
     3
100
AcDbLine
 10
31.77840747931374
 20
-0.4729404717265045
 30
0.0
 11
31.77840747931374
 21
-1.918340471726514
 31
0.0
  0
LINE
  5
9EF
330
19
100
AcDbEntity
  8
TitleBlock&Notes
  6
Continuous
 62
     3
100
AcDbLine
 10
31.7388074793137
 20
-0.5125404717264975
 30
0.0
 11
31.7388074793137
 21
-1.957940471726507
 31
0.0
  0
LINE
  5
9F0
330
19
100
AcDbEntity
  8
TitleBlock&Notes
  6
Continuous
 62
     3
100
AcDbLine
 10
31.75860747931374
 20
-0.492740471726501
 30
0.0
 11
31.75860747931374
 21
-1.93814047172651
 31
0.0
  0
LINE
  5
9F1
330
19
100
AcDbEntity
  8
TitleBlock&Notes
  6
Continuous
 62
     3
100
AcDbLine
 10
30.48150747931372
 20
-1.918340471726514
 30
0.0
 11
30.48150747931372
 21
-0.1759404717265038
 31
0.0
  0
LINE
  5
9F2
330
19
100
AcDbEntity
  8
TitleBlock&Notes
  6
Continuous
 62
     3
100
AcDbLine
 10
30.44190747931371
 20
-0.1363404717265002
 30
0.0
 11
30.44190747931371
 21
-1.957940471726507
 31
0.0
  0
LINE
  5
9F3
330
19
100
AcDbEntity
  8
TitleBlock&Notes
  6
Continuous
 62
     3
100
AcDbLine
 10
30.46170747931368
 20
-1.93814047172651
 30
0.0
 11
30.46170747931368
 21
-0.1561404717265074
 31
0.0
  0
ARC
  5
9F4
330
19
100
AcDbEntity
  8
TitleBlock&Notes
  6
Continuous
 62
     3
100
AcDbCircle
 10
29.55090747931374
 20
-1.423340471726507
 30
0.0
 40
0.4950000000000001
100
AcDbArc
 50
180.0000000000004
 51
269.9999931700005
  0
ARC
  5
9F5
330
19
100
AcDbEntity
  8
TitleBlock&Notes
  6
Continuous
 62
     3
100
AcDbCircle
 10
29.55090747931374
 20
-1.423340471726507
 30
0.0
 40
0.5346000000000001
100
AcDbArc
 50
180.0000000000004
 51
269.9999934300003
  0
ARC
  5
9F6
330
19
100
AcDbEntity
  8
TitleBlock&Notes
  6
Continuous
 62
     3
100
AcDbCircle
 10
29.55090747931374
 20
-1.423340471726507
 30
0.0
 40
0.5148
100
AcDbArc
 50
180.0000000000004
 51
269.9999934300003
  0
LINE
  5
9F7
330
19
100
AcDbEntity
  8
TitleBlock&Notes
  6
Continuous
 62
     3
100
AcDbLine
 10
28.16490747931375
 20
-1.918340471726514
 30
0.0
 11
28.46190747931372
 21
-1.066940471726494
 31
0.0
  0
LINE
  5
9F8
330
19
100
AcDbEntity
  8
TitleBlock&Notes
  6
Continuous
 62
     3
100
AcDbLine
 10
28.46190747931372
 20
-1.918340471726514
 30
0.0
 11
28.46190747931372
 21
-1.066940471726494
 31
0.0
  0
LINE
  5
9F9
330
19
100
AcDbEntity
  8
TitleBlock&Notes
  6
Continuous
 62
     3
100
AcDbLine
 10
28.19303377531375
 20
-1.957940471726507
 30
0.0
 11
28.42230747931374
 21
-1.300689213326508
 31
0.0
  0
LINE
  5
9FA
330
19
100
AcDbEntity
  8
TitleBlock&Notes
  6
Continuous
 62
     3
100
AcDbLine
 10
28.42230747931374
 20
-1.300689213326508
 30
0.0
 11
28.42230747931374
 21
-1.957940471726507
 31
0.0
  0
LINE
  5
9FB
330
19
100
AcDbEntity
  8
TitleBlock&Notes
  6
Continuous
 62
     3
100
AcDbLine
 10
28.44210747931372
 20
-1.183814842526507
 30
0.0
 11
28.17897062731375
 21
-1.93814047172651
 31
0.0
  0
LINE
  5
9FC
330
19
100
AcDbEntity
  8
TitleBlock&Notes
  6
Continuous
 62
     3
100
AcDbLine
 10
28.44210747931372
 20
-1.183814842526507
 30
0.0
 11
28.44210747931372
 21
-1.93814047172651
 31
0.0
  0
LINE
  5
9FD
330
19
100
AcDbEntity
  8
TitleBlock&Notes
  6
Continuous
 62
     3
100
AcDbLine
 10
28.75890747931373
 20
-1.918340471726514
 30
0.0
 11
28.75890747931373
 21
-0.1759404717265038
 31
0.0
  0
LINE
  5
9FE
330
19
100
AcDbEntity
  8
TitleBlock&Notes
  6
Continuous
 62
     3
100
AcDbLine
 10
28.79850747931375
 20
-1.957940471726507
 30
0.0
 11
28.79850747931375
 21
-0.1363404717265002
 31
0.0
  0
LINE
  5
9FF
330
19
100
AcDbEntity
  8
TitleBlock&Notes
  6
Continuous
 62
     3
100
AcDbLine
 10
28.77870747931375
 20
-0.1561404717265074
 30
0.0
 11
28.77870747931375
 21
-1.93814047172651
 31
0.0
  0
ARC
  5
A00
330
19
100
AcDbEntity
  8
TitleBlock&Notes
  6
Continuous
 62
     3
100
AcDbCircle
 10
29.74890747931373
 20
-1.423340471726507
 30
0.0
 40
0.4950000000000001
100
AcDbArc
 50
270.0000000000008
 51
0.0000000000008142
  0
ARC
  5
A01
330
19
100
AcDbEntity
  8
TitleBlock&Notes
  6
Continuous
 62
     3
100
AcDbCircle
 10
29.74890747931373
 20
-1.423340471726507
 30
0.0
 40
0.5346000000000001
100
AcDbArc
 50
270.0000000000008
 51
0.0000000000008142
  0
ARC
  5
A02
330
19
100
AcDbEntity
  8
TitleBlock&Notes
  6
Continuous
 62
     3
100
AcDbCircle
 10
29.74890747931373
 20
-1.423340471726507
 30
0.0
 40
0.5148
100
AcDbArc
 50
270.0000000000008
 51
0.0000000000008142
  0
LINE
  5
A03
330
19
100
AcDbEntity
  8
TitleBlock&Notes
  6
Continuous
 62
     3
100
AcDbLine
 10
26.79691454971375
 20
-1.807646433326508
 30
0.0
 11
27.2343074793137
 21
-1.800011711726495
 31
0.0
  0
LINE
  5
A04
330
19
100
AcDbEntity
  8
TitleBlock&Notes
  6
Continuous
 62
     3
100
AcDbLine
 10
27.57090747931373
 20
-1.918340471726514
 30
0.0
 11
27.57090747931373
 21
-1.066940471726494
 31
0.0
  0
LINE
  5
A05
330
19
100
AcDbEntity
  8
TitleBlock&Notes
  6
Continuous
 62
     3
100
AcDbLine
 10
27.61050747931371
 20
-1.957940471726507
 30
0.0
 11
27.61050747931371
 21
-1.300689213326508
 31
0.0
  0
LINE
  5
A06
330
19
100
AcDbEntity
  8
TitleBlock&Notes
  6
Continuous
 62
     3
100
AcDbLine
 10
27.5907074793137
 20
-1.183814842526507
 30
0.0
 11
27.5907074793137
 21
-1.93814047172651
 31
0.0
  0
LINE
  5
A07
330
19
100
AcDbEntity
  8
TitleBlock&Notes
  6
Continuous
 62
     3
100
AcDbLine
 10
27.2343074793137
 20
-1.957940471726507
 30
0.0
 11
27.2343074793137
 21
-0.1363404717265002
 31
0.0
  0
LINE
  5
A08
330
19
100
AcDbEntity
  8
TitleBlock&Notes
  6
Continuous
 62
     3
100
AcDbLine
 10
27.27390747931372
 20
-1.918340471726514
 30
0.0
 11
27.27390747931372
 21
-0.1759404717265038
 31
0.0
  0
LINE
  5
A09
330
19
100
AcDbEntity
  8
TitleBlock&Notes
  6
Continuous
 62
     3
100
AcDbLine
 10
27.25410747931374
 20
-1.93814047172651
 30
0.0
 11
27.25410747931374
 21
-0.1561404717265074
 31
0.0
  0
LINE
  5
A0A
330
19
100
AcDbEntity
  8
TitleBlock&Notes
  6
Continuous
 62
     3
100
AcDbLine
 10
27.57090747931373
 20
-1.066940471726494
 30
0.0
 11
27.86790747931374
 21
-1.918340471726514
 31
0.0
  0
LINE
  5
A0B
330
19
100
AcDbEntity
  8
TitleBlock&Notes
  6
Continuous
 62
     3
100
AcDbLine
 10
27.83978114371372
 20
-1.957940471726507
 30
0.0
 11
27.61050747931371
 21
-1.300689213326508
 31
0.0
  0
LINE
  5
A0C
330
19
100
AcDbEntity
  8
TitleBlock&Notes
  6
Continuous
 62
     3
100
AcDbLine
 10
27.5907074793137
 20
-1.183814842526507
 30
0.0
 11
27.85384429171371
 21
-1.93814047172651
 31
0.0
  0
LINE
  5
A0D
330
19
100
AcDbEntity
  8
TitleBlock&Notes
  6
Continuous
 62
     3
100
AcDbLine
 10
27.61050747931371
 20
-1.809287536526509
 30
0.0
 11
27.78685170451375
 21
-1.806209428526491
 31
0.0
  0
LINE
  5
A0E
330
19
100
AcDbEntity
  8
TitleBlock&Notes
  6
Continuous
 62
     3
100
AcDbLine
 10
26.79691454971375
 20
-3.396324737726507
 30
0.0
 11
26.79691454971375
 21
1.058675262273501
 31
0.0
  0
LINE
  5
A0F
330
19
100
AcDbEntity
  8
TitleBlock&Notes
  6
Continuous
 62
     3
100
AcDbLine
 10
27.86790747931374
 20
-1.918340471726514
 30
0.0
 11
28.16490747931375
 21
-1.918340471726514
 31
0.0
  0
LINE
  5
A10
330
19
100
AcDbEntity
  8
TitleBlock&Notes
  6
Continuous
 62
     3
100
AcDbLine
 10
27.83978114371372
 20
-1.957940471726507
 30
0.0
 11
28.19303377531375
 21
-1.957940471726507
 31
0.0
  0
LINE
  5
A11
330
19
100
AcDbEntity
  8
TitleBlock&Notes
  6
Continuous
 62
     3
100
AcDbLine
 10
27.85384429171371
 20
-1.93814047172651
 30
0.0
 11
28.17897062731375
 21
-1.93814047172651
 31
0.0
  0
TEXT
  5
A12
330
19
100
AcDbEntity
  8
TitleBlock&Notes
  6
Continuous
 62
     3
100
AcDbText
 10
27.57155022691371
 20
-2.880560319326504
 30
0.0
 40
0.2772000000000001
  1
 SPEED
 41
0.8
 51
11.0
100
AcDbText
  0
LINE
  5
A13
330
19
100
AcDbEntity
  8
TitleBlock&Notes
  6
Continuous
 62
     3
100
AcDbLine
 10
26.79691454971375
 20
-2.013597796526498
 30
0.0
 11
30.44190747931371
 21
-1.949974218926508
 31
0.0
  0
LINE
  5
A14
330
19
100
AcDbEntity
  8
TitleBlock&Notes
  6
Continuous
 62
     3
100
AcDbLine
 10
26.79691454971375
 20
-2.029440212126514
 30
0.0
 11
30.89313158011376
 21
-1.957940471726507
 31
0.0
  0
LINE
  5
A15
330
19
100
AcDbEntity
  8
TitleBlock&Notes
  6
Continuous
 62
     3
100
AcDbLine
 10
26.79691454971375
 20
-2.045282627726509
 30
0.0
 11
31.80074279011371
 21
-1.957940471726507
 31
0.0
  0
LINE
  5
A16
330
19
100
AcDbEntity
  8
TitleBlock&Notes
  6
Continuous
 62
     3
100
AcDbLine
 10
26.79691454971375
 20
-1.981912965326499
 30
0.0
 11
28.17029791051373
 21
-1.957940471726507
 31
0.0
  0
LINE
  5
A17
330
19
100
AcDbEntity
  8
TitleBlock&Notes
  6
Continuous
 62
     3
100
AcDbLine
 10
26.79691454971375
 20
-1.997755380926504
 30
0.0
 11
29.46524171011374
 21
-1.951179563726499
 31
0.0
  0
LINE
  5
A18
330
19
100
AcDbEntity
  8
TitleBlock&Notes
  6
Continuous
 62
     3
100
AcDbLine
 10
26.79691454971375
 20
-2.061125043326503
 30
0.0
 11
32.70835403971371
 21
-1.957940471726507
 31
0.0
  0
TEXT
  5
A19
330
19
100
AcDbEntity
  8
TitleBlock&Notes
  6
Continuous
 62
     3
100
AcDbText
 10
26.83992205051371
 20
-2.880560319326493
 30
0.0
 40
0.2772000000000001
  1
The
 41
0.8
 51
11.0
100
AcDbText
  0
LINE
  5
A1A
330
19
100
AcDbEntity
  8
TitleBlock&Notes
  6
Continuous
 62
     3
100
AcDbLine
 10
27.2343074793137
 20
-1.957940471726507
 30
0.0
 11
27.61050747931371
 21
-1.957940471726507
 31
0.0
  0
LINE
  5
A1B
330
19
100
AcDbEntity
  8
TitleBlock&Notes
  6
Continuous
 62
     3
100
AcDbLine
 10
27.27390747931372
 20
-1.918340471726514
 30
0.0
 11
27.57090747931373
 21
-1.918340471726514
 31
0.0
  0
LINE
  5
A1C
330
19
100
AcDbEntity
  8
TitleBlock&Notes
  6
Continuous
 62
     3
100
AcDbLine
 10
27.25410747931374
 20
-1.93814047172651
 30
0.0
 11
27.5907074793137
 21
-1.93814047172651
 31
0.0
  0
LINE
  5
A1D
330
19
100
AcDbEntity
  8
TitleBlock&Notes
  6
Continuous
 62
     3
100
AcDbLine
 10
26.79691454971375
 20
-1.966070549726504
 30
0.0
 11
27.26268670051372
 21
-1.957940471726507
 31
0.0
  0
LINE
  5
A1E
330
19
100
AcDbEntity
  8
TitleBlock&Notes
  6
Continuous
 62
     3
100
AcDbLine
 10
26.79691454971375
 20
-1.823488848926503
 30
0.0
 11
27.2343074793137
 21
-1.815854127326511
 31
0.0
  0
LINE
  5
A1F
330
19
100
AcDbEntity
  8
TitleBlock&Notes
  6
Continuous
 62
     3
100
AcDbLine
 10
26.79691454971375
 20
-1.839331264526498
 30
0.0
 11
27.2343074793137
 21
-1.831696542926495
 31
0.0
  0
LINE
  5
A20
330
19
100
AcDbEntity
  8
TitleBlock&Notes
  6
Continuous
 62
     3
100
AcDbLine
 10
26.79691454971375
 20
-1.855173680126503
 30
0.0
 11
27.2343074793137
 21
-1.847538958526511
 31
0.0
  0
LINE
  5
A21
330
19
100
AcDbEntity
  8
TitleBlock&Notes
  6
Continuous
 62
     3
100
AcDbLine
 10
26.79691454971375
 20
-1.871016095726497
 30
0.0
 11
27.2343074793137
 21
-1.863381374126506
 31
0.0
  0
LINE
  5
A22
330
19
100
AcDbEntity
  8
TitleBlock&Notes
  6
Continuous
 62
     3
100
AcDbLine
 10
26.79691454971375
 20
-1.886858511326513
 30
0.0
 11
27.2343074793137
 21
-1.8792237897265
 31
0.0
  0
LINE
  5
A23
330
19
100
AcDbEntity
  8
TitleBlock&Notes
  6
Continuous
 62
     3
100
AcDbLine
 10
26.79691454971375
 20
-1.902700926926508
 30
0.0
 11
27.2343074793137
 21
-1.895066205326505
 31
0.0
  0
LINE
  5
A24
330
19
100
AcDbEntity
  8
TitleBlock&Notes
  6
Continuous
 62
     3
100
AcDbLine
 10
26.79691454971375
 20
-1.918543342526502
 30
0.0
 11
27.2343074793137
 21
-1.9109086209265
 31
0.0
  0
LINE
  5
A25
330
19
100
AcDbEntity
  8
TitleBlock&Notes
  6
Continuous
 62
     3
100
AcDbLine
 10
26.79691454971375
 20
-1.934385758126508
 30
0.0
 11
27.2343074793137
 21
-1.926751036526505
 31
0.0
  0
LINE
  5
A26
330
19
100
AcDbEntity
  8
TitleBlock&Notes
  6
Continuous
 62
     3
100
AcDbLine
 10
26.79691454971375
 20
-1.950228173726502
 30
0.0
 11
27.2343074793137
 21
-1.9425934521265
 31
0.0
  0
LINE
  5
A27
330
19
100
AcDbEntity
  8
TitleBlock&Notes
  6
Continuous
 62
     3
100
AcDbLine
 10
27.61050747931371
 20
-1.825129952126504
 30
0.0
 11
27.79234469971372
 21
-1.821955972526504
 31
0.0
  0
LINE
  5
A28
330
19
100
AcDbEntity
  8
TitleBlock&Notes
  6
Continuous
 62
     3
100
AcDbLine
 10
27.61050747931371
 20
-1.840972367726509
 30
0.0
 11
27.79783765531376
 21
-1.837702516526496
 31
0.0
  0
LINE
  5
A29
330
19
100
AcDbEntity
  8
TitleBlock&Notes
  6
Continuous
 62
     3
100
AcDbLine
 10
27.61050747931371
 20
-1.856814783326504
 30
0.0
 11
27.80333065051372
 21
-1.853449020926506
 31
0.0
  0
LINE
  5
A2A
330
19
100
AcDbEntity
  8
TitleBlock&Notes
  6
Continuous
 62
     3
100
AcDbLine
 10
27.61050747931371
 20
-1.872657198926509
 30
0.0
 11
27.80882364571373
 21
-1.869195564926508
 31
0.0
  0
LINE
  5
A2B
330
19
100
AcDbEntity
  8
TitleBlock&Notes
  6
Continuous
 62
     3
100
AcDbLine
 10
27.61050747931371
 20
-1.888499614526503
 30
0.0
 11
27.81431660131372
 21
-1.8849421089265
 31
0.0
  0
LINE
  5
A2C
330
19
100
AcDbEntity
  8
TitleBlock&Notes
  6
Continuous
 62
     3
100
AcDbLine
 10
27.61050747931371
 20
-1.904342030126498
 30
0.0
 11
27.81980959651373
 21
-1.900688613326499
 31
0.0
  0
LINE
  5
A2D
330
19
100
AcDbEntity
  8
TitleBlock&Notes
  6
Continuous
 62
     3
100
AcDbLine
 10
27.61050747931371
 20
-1.9201844061265
 30
0.0
 11
27.82530255211371
 21
-1.916435157326501
 31
0.0
  0
LINE
  5
A2E
330
19
100
AcDbEntity
  8
TitleBlock&Notes
  6
Continuous
 62
     3
100
AcDbLine
 10
27.61050747931371
 20
-1.936026821726516
 30
0.0
 11
27.83079554731374
 21
-1.932181701326504
 31
0.0
  0
LINE
  5
A2F
330
19
100
AcDbEntity
  8
TitleBlock&Notes
  6
Continuous
 62
     3
100
AcDbLine
 10
27.61050747931371
 20
-1.95186923732651
 30
0.0
 11
27.83628850291372
 21
-1.947928245326506
 31
0.0
  0
LINE
  5
A30
330
19
100
AcDbEntity
  8
TitleBlock&Notes
  6
Continuous
 62
     3
100
AcDbLine
 10
30.48150747931372
 20
-1.918340471726514
 30
0.0
 11
31.53090747931374
 21
-1.918340471726514
 31
0.0
  0
LINE
  5
A31
330
19
100
AcDbEntity
  8
TitleBlock&Notes
  6
Continuous
 62
     3
100
AcDbLine
 10
31.55070747931373
 20
-1.93814047172651
 30
0.0
 11
30.46170747931368
 21
-1.93814047172651
 31
0.0
  0
LINE
  5
A32
330
19
100
AcDbEntity
  8
TitleBlock&Notes
  6
Continuous
 62
     3
100
AcDbLine
 10
30.44190747931371
 20
-1.957940471726507
 30
0.0
 11
31.5705074793137
 21
-1.957940471726507
 31
0.0
  0
LINE
  5
A33
330
19
100
AcDbEntity
  8
TitleBlock&Notes
  6
Continuous
 62
     3
100
AcDbLine
 10
28.79850747931375
 20
-1.946975033726497
 30
0.0
 11
29.40040193731374
 21
-1.936468955726498
 31
0.0
  0
TEXT
  5
A34
330
19
100
AcDbEntity
  8
TitleBlock&Notes
  6
Continuous
 62
     3
100
AcDbText
 10
28.76786329651372
 20
-2.880560319326493
 30
0.0
 40
0.2772000000000001
  1
 of
 41
1.098901099999999
 51
11.0
100
AcDbText
  0
LINE
  5
A35
330
19
100
AcDbEntity
  8
TitleBlock&Notes
  6
Continuous
 62
     3
100
AcDbLine
 10
28.75890747931373
 20
-1.918340471726514
 30
0.0
 11
28.46190747931372
 21
-1.918340471726514
 31
0.0
  0
LINE
  5
A36
330
19
100
AcDbEntity
  8
TitleBlock&Notes
  6
Continuous
 62
     3
100
AcDbLine
 10
28.42230747931374
 20
-1.957940471726507
 30
0.0
 11
28.79850747931375
 21
-1.957940471726507
 31
0.0
  0
LINE
  5
A37
330
19
100
AcDbEntity
  8
TitleBlock&Notes
  6
Continuous
 62
     3
100
AcDbLine
 10
28.44210747931372
 20
-1.93814047172651
 30
0.0
 11
28.77870747931375
 21
-1.93814047172651
 31
0.0
  0
LINE
  5
A38
330
19
100
AcDbEntity
  8
TitleBlock&Notes
  6
Continuous
 62
     3
100
AcDbLine
 10
28.24321556851376
 20
-1.814085987326508
 30
0.0
 11
28.42230747931374
 21
-1.810959923726498
 31
0.0
  0
LINE
  5
A39
330
19
100
AcDbEntity
  8
TitleBlock&Notes
  6
Continuous
 62
     3
100
AcDbLine
 10
28.23765529291371
 20
-1.830025462526498
 30
0.0
 11
28.42230747931374
 21
-1.826802339326503
 31
0.0
  0
LINE
  5
A3A
330
19
100
AcDbEntity
  8
TitleBlock&Notes
  6
Continuous
 62
     3
100
AcDbLine
 10
28.23209501731374
 20
-1.845964937726497
 30
0.0
 11
28.42230747931374
 21
-1.842644754926498
 31
0.0
  0
LINE
  5
A3B
330
19
100
AcDbEntity
  8
TitleBlock&Notes
  6
Continuous
 62
     3
100
AcDbLine
 10
28.22653474171374
 20
-1.861904373326494
 30
0.0
 11
28.42230747931374
 21
-1.858487170526514
 31
0.0
  0
LINE
  5
A3C
330
19
100
AcDbEntity
  8
TitleBlock&Notes
  6
Continuous
 62
     3
100
AcDbLine
 10
28.22097446611371
 20
-1.877843848526504
 30
0.0
 11
28.42230747931374
 21
-1.874329586126508
 31
0.0
  0
LINE
  5
A3D
330
19
100
AcDbEntity
  8
TitleBlock&Notes
  6
Continuous
 62
     3
100
AcDbLine
 10
28.21541419051373
 20
-1.893783323726504
 30
0.0
 11
28.42230747931374
 21
-1.890172001726503
 31
0.0
  0
LINE
  5
A3E
330
19
100
AcDbEntity
  8
TitleBlock&Notes
  6
Continuous
 62
     3
100
AcDbLine
 10
28.20985387531371
 20
-1.909722798926503
 30
0.0
 11
28.42230747931374
 21
-1.906014417326508
 31
0.0
  0
LINE
  5
A3F
330
19
100
AcDbEntity
  8
TitleBlock&Notes
  6
Continuous
 62
     3
100
AcDbLine
 10
28.20429359971372
 20
-1.925662274126503
 30
0.0
 11
28.42230747931374
 21
-1.921856832926502
 31
0.0
  0
LINE
  5
A40
330
19
100
AcDbEntity
  8
TitleBlock&Notes
  6
Continuous
 62
     3
100
AcDbLine
 10
28.19873332411373
 20
-1.941601749326492
 30
0.0
 11
28.42230747931374
 21
-1.937699248526508
 31
0.0
  0
LINE
  5
A41
330
19
100
AcDbEntity
  8
TitleBlock&Notes
  6
Continuous
 62
     3
100
AcDbLine
 10
28.1931730485137
 20
-1.957541184926499
 30
0.0
 11
28.42230747931374
 21
-1.953541624526499
 31
0.0
  0
LINE
  5
A42
330
19
100
AcDbEntity
  8
TitleBlock&Notes
  6
Continuous
 62
     3
100
AcDbLine
 10
28.79850747931375
 20
-1.820235748526501
 30
0.0
 11
29.18520369691371
 21
-1.813485928526494
 31
0.0
  0
LINE
  5
A43
330
19
100
AcDbEntity
  8
TitleBlock&Notes
  6
Continuous
 62
     3
100
AcDbLine
 10
28.79850747931375
 20
-1.836078164126496
 30
0.0
 11
29.20252267771375
 21
-1.829026037726501
 31
0.0
  0
LINE
  5
A44
330
19
100
AcDbEntity
  8
TitleBlock&Notes
  6
Continuous
 62
     3
100
AcDbLine
 10
28.79850747931375
 20
-1.85192057972649
 30
0.0
 11
29.22144541891372
 21
-1.844538149726504
 31
0.0
  0
LINE
  5
A45
330
19
100
AcDbEntity
  8
TitleBlock&Notes
  6
Continuous
 62
     3
100
AcDbLine
 10
28.79850747931375
 20
-1.867762995326506
 30
0.0
 11
29.24225545651371
 21
-1.860017314526499
 31
0.0
  0
LINE
  5
A46
330
19
100
AcDbEntity
  8
TitleBlock&Notes
  6
Continuous
 62
     3
100
AcDbLine
 10
28.79850747931375
 20
-1.883605410926511
 30
0.0
 11
29.2653489093137
 21
-1.875456641726513
 31
0.0
  0
LINE
  5
A47
330
19
100
AcDbEntity
  8
TitleBlock&Notes
  6
Continuous
 62
     3
100
AcDbLine
 10
28.79850747931375
 20
-1.899447826526506
 30
0.0
 11
29.29130896651371
 21
-1.890845914526499
 31
0.0
  0
LINE
  5
A48
330
19
100
AcDbEntity
  8
TitleBlock&Notes
  6
Continuous
 62
     3
100
AcDbLine
 10
28.79850747931375
 20
-1.915290202526497
 30
0.0
 11
29.3210611197137
 21
-1.90616901572651
 31
0.0
  0
LINE
  5
A49
330
19
100
AcDbEntity
  8
TitleBlock&Notes
  6
Continuous
 62
     3
100
AcDbLine
 10
28.79850747931375
 20
-1.931132618126502
 30
0.0
 11
29.35624829371374
 21
-1.921397235326503
 31
0.0
  0
TEXT
  5
A4A
330
19
100
AcDbEntity
  8
TitleBlock&Notes
  6
Continuous
 62
     3
100
AcDbText
 10
29.48283286171373
 20
-2.880560319326493
 30
0.0
 40
0.2772000000000001
  1
 AIR
 41
1.098901099999999
 51
11.0
100
AcDbText
  0
LINE
  5
A4B
330
19
100
AcDbEntity
  8
TitleBlock&Notes
  6
Continuous
 62
     3
100
AcDbLine
 10
30.00190669171372
 20
-1.894284818126495
 30
0.0
 11
30.44190747931371
 21
-1.886604556526497
 31
0.0
  0
LINE
  5
A4C
330
19
100
AcDbEntity
  8
TitleBlock&Notes
  6
Continuous
 62
     3
100
AcDbLine
 10
29.96861109091371
 20
-1.910708403326507
 30
0.0
 11
30.44190747931371
 21
-1.902446972126513
 31
0.0
  0
LINE
  5
A4D
330
19
100
AcDbEntity
  8
TitleBlock&Notes
  6
Continuous
 62
     3
100
AcDbLine
 10
29.92737778891374
 20
-1.927270548926495
 30
0.0
 11
30.44190747931371
 21
-1.918289387726508
 31
0.0
  0
LINE
  5
A4E
330
19
100
AcDbEntity
  8
TitleBlock&Notes
  6
Continuous
 62
     3
100
AcDbLine
 10
29.86967900491372
 20
-1.944120071726503
 30
0.0
 11
30.44190747931371
 21
-1.934131803326502
 31
0.0
  0
LINE
  5
A4F
330
19
100
AcDbEntity
  8
TitleBlock&Notes
  6
Continuous
 62
     3
100
AcDbLine
 10
29.55090740011373
 20
-1.918340471726514
 30
0.0
 11
29.74890747931373
 21
-1.918340471726514
 31
0.0
  0
LINE
  5
A50
330
19
100
AcDbEntity
  8
TitleBlock&Notes
  6
Continuous
 62
     3
100
AcDbLine
 10
29.55090740011373
 20
-1.957940471726507
 30
0.0
 11
29.74890747931373
 21
-1.957940471726507
 31
0.0
  0
LINE
  5
A51
330
19
100
AcDbEntity
  8
TitleBlock&Notes
  6
Continuous
 62
     3
100
AcDbLine
 10
29.55090740011373
 20
-1.93814047172651
 30
0.0
 11
29.74890747931373
 21
-1.93814047172651
 31
0.0
  0
LINE
  5
A52
330
19
100
AcDbEntity
  8
TitleBlock&Notes
  6
Continuous
 62
     3
100
AcDbLine
 10
30.11480783611368
 20
-1.813102046126504
 30
0.0
 11
30.44190747931371
 21
-1.807392518126507
 31
0.0
  0
LINE
  5
A53
330
19
100
AcDbEntity
  8
TitleBlock&Notes
  6
Continuous
 62
     3
100
AcDbLine
 10
30.0967974789137
 20
-1.829258846126505
 30
0.0
 11
30.44190747931371
 21
-1.823234933726501
 31
0.0
  0
LINE
  5
A54
330
19
100
AcDbEntity
  8
TitleBlock&Notes
  6
Continuous
 62
     3
100
AcDbLine
 10
30.07696678891375
 20
-1.845447405326501
 30
0.0
 11
30.44190747931371
 21
-1.839077309726503
 31
0.0
  0
LINE
  5
A55
330
19
100
AcDbEntity
  8
TitleBlock&Notes
  6
Continuous
 62
     3
100
AcDbLine
 10
30.05494792171374
 20
-1.861674138926501
 30
0.0
 11
30.44190747931371
 21
-1.854919725326498
 31
0.0
  0
LINE
  5
A56
330
19
100
AcDbEntity
  8
TitleBlock&Notes
  6
Continuous
 62
     3
100
AcDbLine
 10
30.03020584171374
 20
-1.877948432126503
 30
0.0
 11
30.44190747931371
 21
-1.870762140926492
 31
0.0
  0
TEXT
  5
A57
330
19
100
AcDbEntity
  8
TitleBlock&Notes
  6
Continuous
 62
     3
100
AcDbText
 10
30.53762301571376
 20
-2.880560319326493
 30
0.0
 40
0.2772000000000001
  1
 with the
 41
0.8
 51
11.0
100
AcDbText
  0
LINE
  5
A58
330
19
100
AcDbEntity
  8
TitleBlock&Notes
  6
Continuous
 62
     3
100
AcDbLine
 10
31.7388074793137
 20
-1.957940471726507
 30
0.0
 11
32.1150074793137
 21
-1.957940471726507
 31
0.0
  0
LINE
  5
A59
330
19
100
AcDbEntity
  8
TitleBlock&Notes
  6
Continuous
 62
     3
100
AcDbLine
 10
31.75860747931374
 20
-1.93814047172651
 30
0.0
 11
32.09520747931373
 21
-1.93814047172651
 31
0.0
  0
LINE
  5
A5A
330
19
100
AcDbEntity
  8
TitleBlock&Notes
  6
Continuous
 62
     3
100
AcDbLine
 10
31.77840747931374
 20
-1.918340471726514
 30
0.0
 11
32.07540747931375
 21
-1.918340471726514
 31
0.0
  0
LINE
  5
A5B
330
19
100
AcDbEntity
  8
TitleBlock&Notes
  6
Continuous
 62
     3
100
AcDbLine
 10
31.5705074793137
 20
-1.819377537326497
 30
0.0
 11
31.7388074793137
 21
-1.816439850926501
 31
0.0
  0
LINE
  5
A5C
330
19
100
AcDbEntity
  8
TitleBlock&Notes
  6
Continuous
 62
     3
100
AcDbLine
 10
31.5705074793137
 20
-1.835219952926513
 30
0.0
 11
31.7388074793137
 21
-1.832282266526496
 31
0.0
  0
LINE
  5
A5D
330
19
100
AcDbEntity
  8
TitleBlock&Notes
  6
Continuous
 62
     3
100
AcDbLine
 10
31.5705074793137
 20
-1.851062368526507
 30
0.0
 11
31.7388074793137
 21
-1.848124682126501
 31
0.0
  0
LINE
  5
A5E
330
19
100
AcDbEntity
  8
TitleBlock&Notes
  6
Continuous
 62
     3
100
AcDbLine
 10
31.5705074793137
 20
-1.866904784126502
 30
0.0
 11
31.7388074793137
 21
-1.863967097726495
 31
0.0
  0
LINE
  5
A5F
330
19
100
AcDbEntity
  8
TitleBlock&Notes
  6
Continuous
 62
     3
100
AcDbLine
 10
31.5705074793137
 20
-1.882747199726507
 30
0.0
 11
31.7388074793137
 21
-1.879809513326511
 31
0.0
  0
LINE
  5
A60
330
19
100
AcDbEntity
  8
TitleBlock&Notes
  6
Continuous
 62
     3
100
AcDbLine
 10
31.5705074793137
 20
-1.898589615326502
 30
0.0
 11
31.7388074793137
 21
-1.895651928926506
 31
0.0
  0
LINE
  5
A61
330
19
100
AcDbEntity
  8
TitleBlock&Notes
  6
Continuous
 62
     3
100
AcDbLine
 10
31.5705074793137
 20
-1.914432030926507
 30
0.0
 11
31.7388074793137
 21
-1.9114943445265
 31
0.0
  0
LINE
  5
A62
330
19
100
AcDbEntity
  8
TitleBlock&Notes
  6
Continuous
 62
     3
100
AcDbLine
 10
31.5705074793137
 20
-1.930274446526501
 30
0.0
 11
31.7388074793137
 21
-1.927336760126506
 31
0.0
  0
LINE
  5
A63
330
19
100
AcDbEntity
  8
TitleBlock&Notes
  6
Continuous
 62
     3
100
AcDbLine
 10
31.5705074793137
 20
-1.946116862126496
 30
0.0
 11
31.7388074793137
 21
-1.9431791757265
 31
0.0
  0
LINE
  5
A64
330
19
100
AcDbEntity
  8
TitleBlock&Notes
  6
Continuous
 62
     3
100
AcDbLine
 10
32.1150074793137
 20
-1.825715675726515
 30
0.0
 11
32.67930747931369
 21
-1.815865769726494
 31
0.0
  0
LINE
  5
A65
330
19
100
AcDbEntity
  8
TitleBlock&Notes
  6
Continuous
 62
     3
100
AcDbLine
 10
32.1150074793137
 20
-1.841558091326499
 30
0.0
 11
32.67930747931369
 21
-1.83170818532651
 31
0.0
  0
LINE
  5
A66
330
19
100
AcDbEntity
  8
TitleBlock&Notes
  6
Continuous
 62
     3
100
AcDbLine
 10
32.1150074793137
 20
-1.857400506926493
 30
0.0
 11
32.67930747931369
 21
-1.847550600926505
 31
0.0
  0
LINE
  5
A67
330
19
100
AcDbEntity
  8
TitleBlock&Notes
  6
Continuous
 62
     3
100
AcDbLine
 10
32.1150074793137
 20
-1.873242922526509
 30
0.0
 11
32.67930747931369
 21
-1.86339301652651
 31
0.0
  0
LINE
  5
A68
330
19
100
AcDbEntity
  8
TitleBlock&Notes
  6
Continuous
 62
     3
100
AcDbLine
 10
32.1150074793137
 20
-1.889085338126504
 30
0.0
 11
32.67930747931369
 21
-1.879235432126504
 31
0.0
  0
LINE
  5
A69
330
19
100
AcDbEntity
  8
TitleBlock&Notes
  6
Continuous
 62
     3
100
AcDbLine
 10
32.1150074793137
 20
-1.904927753726509
 30
0.0
 11
32.67930747931369
 21
-1.895077847726499
 31
0.0
  0
LINE
  5
A6A
330
19
100
AcDbEntity
  8
TitleBlock&Notes
  6
Continuous
 62
     3
100
AcDbLine
 10
32.1150074793137
 20
-1.920770169326504
 30
0.0
 11
32.67930747931369
 21
-1.910920263326504
 31
0.0
  0
LINE
  5
A6B
330
19
100
AcDbEntity
  8
TitleBlock&Notes
  6
Continuous
 62
     3
100
AcDbLine
 10
32.1150074793137
 20
-1.936612545326505
 30
0.0
 11
32.67930747931369
 21
-1.926762678926499
 31
0.0
  0
LINE
  5
A6C
330
19
100
AcDbEntity
  8
TitleBlock&Notes
  6
Continuous
 62
     3
100
AcDbLine
 10
32.1150074793137
 20
-1.9524549609265
 30
0.0
 11
32.67930747931369
 21
-1.942605094526504
 31
0.0
  0
LINE
  5
A6D
330
19
100
AcDbEntity
  8
TitleBlock&Notes
  6
Continuous
 62
     3
100
AcDbLine
 10
32.71890747931371
 20
-1.918340471726514
 30
0.0
 11
33.01590747931372
 21
-1.918340471726514
 31
0.0
  0
LINE
  5
A6E
330
19
100
AcDbEntity
  8
TitleBlock&Notes
  6
Continuous
 62
     3
100
AcDbLine
 10
32.67930747931369
 20
-1.957940471726507
 30
0.0
 11
33.0555074793137
 21
-1.957940471726507
 31
0.0
  0
LINE
  5
A6F
330
19
100
AcDbEntity
  8
TitleBlock&Notes
  6
Continuous
 62
     3
100
AcDbLine
 10
33.03570747931372
 20
-1.93814047172651
 30
0.0
 11
32.69910747931374
 21
-1.93814047172651
 31
0.0
  0
LINE
  5
A70
330
19
100
AcDbEntity
  8
TitleBlock&Notes
  6
Continuous
 62
     3
100
AcDbLine
 10
27.9495007845137
 20
-0.9680963769265051
 30
0.0
 11
28.08331413451373
 21
-0.9680963769265051
 31
0.0
  0
LINE
  5
A71
330
19
100
AcDbEntity
  8
TitleBlock&Notes
  6
Continuous
 62
     3
100
AcDbLine
 10
27.94745738491375
 20
-0.9590830605265114
 30
0.0
 11
28.0859054001137
 21
-0.9566664309264947
 31
0.0
  0
LINE
  5
A72
330
19
100
AcDbEntity
  8
TitleBlock&Notes
  6
Continuous
 62
     3
100
AcDbLine
 10
27.90531942091371
 20
-0.7732145205265031
 30
0.0
 11
28.12749549811371
 21
-0.7732145205265031
 31
0.0
  0
LINE
  5
A73
330
19
100
AcDbEntity
  8
TitleBlock&Notes
  6
Continuous
 62
     3
100
AcDbLine
 10
27.90810539971376
 20
-0.7855034301265054
 30
0.0
 11
28.12557006691372
 21
-0.7817075721264981
 31
0.0
  0
LINE
  5
A74
330
19
100
AcDbEntity
  8
TitleBlock&Notes
  6
Continuous
 62
     3
100
AcDbLine
 10
27.91168286371373
 20
-0.801283396526502
 30
0.0
 11
28.12196420971376
 21
-0.7976129121265086
 31
0.0
  0
LINE
  5
A75
330
19
100
AcDbEntity
  8
TitleBlock&Notes
  6
Continuous
 62
     3
100
AcDbLine
 10
27.91526032771374
 20
-0.8170633629264987
 30
0.0
 11
28.11835831291372
 21
-0.8135182521265083
 31
0.0
  0
LINE
  5
A76
330
19
100
AcDbEntity
  8
TitleBlock&Notes
  6
Continuous
 62
     3
100
AcDbLine
 10
27.91883775211376
 20
-0.8328433293264954
 30
0.0
 11
28.11475245571371
 21
-0.8294236317265006
 31
0.0
  0
LINE
  5
A77
330
19
100
AcDbEntity
  8
TitleBlock&Notes
  6
Continuous
 62
     3
100
AcDbLine
 10
27.92241521611374
 20
-0.8486232957265027
 30
0.0
 11
28.11114655891373
 21
-0.8453289717265004
 31
0.0
  0
LINE
  5
A78
330
19
100
AcDbEntity
  8
TitleBlock&Notes
  6
Continuous
 62
     3
100
AcDbLine
 10
27.92599268011374
 20
-0.86440326212651
 30
0.0
 11
28.10754070171372
 21
-0.8612343117265108
 31
0.0
  0
LINE
  5
A79
330
19
100
AcDbEntity
  8
TitleBlock&Notes
  6
Continuous
 62
     3
100
AcDbLine
 10
27.9295701045137
 20
-0.8801832285264961
 30
0.0
 11
28.10393480491373
 21
-0.8771396913265032
 31
0.0
  0
LINE
  5
A7A
330
19
100
AcDbEntity
  8
TitleBlock&Notes
  6
Continuous
 62
     3
100
AcDbLine
 10
27.9331475685137
 20
-0.8959631949265034
 30
0.0
 11
28.1003289081137
 21
-0.893045031326503
 31
0.0
  0
LINE
  5
A7B
330
19
100
AcDbEntity
  8
TitleBlock&Notes
  6
Continuous
 62
     3
100
AcDbLine
 10
27.93672503251368
 20
-0.9117431613265107
 30
0.0
 11
28.09672305091373
 21
-0.9089503713265134
 31
0.0
  0
LINE
  5
A7C
330
19
100
AcDbEntity
  8
TitleBlock&Notes
  6
Continuous
 62
     3
100
AcDbLine
 10
27.9403024569137
 20
-0.9275231277264968
 30
0.0
 11
28.0931171541137
 21
-0.9248557509265058
 31
0.0
  0
LINE
  5
A7D
330
19
100
AcDbEntity
  8
TitleBlock&Notes
  6
Continuous
 62
     3
100
AcDbLine
 10
27.94387992091377
 20
-0.9433030941265041
 30
0.0
 11
28.08951129691376
 21
-0.9407610909265056
 31
0.0
  0
LINE
  5
A7E
330
19
100
AcDbEntity
  8
TitleBlock&Notes
  6
Continuous
 62
     3
100
AcDbLine
 10
27.88764685171375
 20
-0.6952617621265116
 30
0.0
 11
28.14516806731372
 21
-0.6952617621265116
 31
0.0
  0
LINE
  5
A7F
330
19
100
AcDbEntity
  8
TitleBlock&Notes
  6
Continuous
 62
     3
100
AcDbLine
 10
28.14965688571371
 20
-0.6754617621264938
 30
0.0
 11
27.8831580333137
 21
-0.6754617621264938
 31
0.0
  0
LINE
  5
A80
330
19
100
AcDbEntity
  8
TitleBlock&Notes
  6
Continuous
 62
     3
100
AcDbLine
 10
27.86997432211371
 20
-0.6173090037265095
 30
0.0
 11
28.16284059691369
 21
-0.6173090037265095
 31
0.0
  0
LINE
  5
A81
330
19
100
AcDbEntity
  8
TitleBlock&Notes
  6
Continuous
 62
     3
100
AcDbLine
 10
27.81695669371373
 20
-0.3834507285264923
 30
0.0
 11
28.21585822531373
 21
-0.3834507285264923
 31
0.0
  0
LINE
  5
A82
330
19
100
AcDbEntity
  8
TitleBlock&Notes
  6
Continuous
 62
     3
100
AcDbLine
 10
27.80349019891373
 20
-0.3240507285264922
 30
0.0
 11
28.22932472011373
 21
-0.3240507285264922
 31
0.0
  0
LINE
  5
A83
330
19
100
AcDbEntity
  8
TitleBlock&Notes
  6
Continuous
 62
     3
100
AcDbLine
 10
28.22034708331371
 20
-0.3636507285264958
 30
0.0
 11
27.81246787531374
 21
-0.3636507285264958
 31
0.0
  0
LINE
  5
A84
330
19
100
AcDbEntity
  8
TitleBlock&Notes
  6
Continuous
 62
     3
100
AcDbLine
 10
28.22483590171374
 20
-0.34385072852651
 30
0.0
 11
27.80797901731372
 21
-0.34385072852651
 31
0.0
  0
LINE
  5
A85
330
19
100
AcDbEntity
  8
TitleBlock&Notes
  6
Continuous
 62
     3
100
AcDbLine
 10
27.8744631405137
 20
-0.6371090037264953
 30
0.0
 11
28.1583517785137
 21
-0.6371090037264953
 31
0.0
  0
LINE
  5
A86
330
19
100
AcDbEntity
  8
TitleBlock&Notes
  6
Continuous
 62
     3
100
AcDbLine
 10
27.8786692149137
 20
-0.6556617621264973
 30
0.0
 11
28.1541457041137
 21
-0.6556617621264973
 31
0.0
  0
LINE
  5
A87
330
19
100
AcDbEntity
  8
TitleBlock&Notes
  6
Continuous
 62
     3
100
AcDbLine
 10
28.27188022651373
 20
-0.1363404717265002
 30
0.0
 11
28.01640747931372
 21
-1.263218624126503
 31
0.0
  0
LINE
  5
A88
330
19
100
AcDbEntity
  8
TitleBlock&Notes
  6
Continuous
 62
     3
100
AcDbLine
 10
28.28769385291371
 20
-0.1561404717265074
 30
0.0
 11
28.01640747931372
 21
-1.352771766926496
 31
0.0
  0
LINE
  5
A89
330
19
100
AcDbEntity
  8
TitleBlock&Notes
  6
Continuous
 62
     3
100
AcDbLine
 10
28.01640747931372
 20
-1.442324909726499
 30
0.0
 11
28.30350747931375
 21
-0.1759404717265038
 31
0.0
  0
LINE
  5
A8D
330
19
100
AcDbEntity
  8
TitleBlock&Notes
  6
Continuous
 62
     3
100
AcDbLine
 10
28.01640747931372
 20
-1.263218624126503
 30
0.0
 11
27.7609347321137
 21
-0.1363404717265002
 31
0.0
  0
LINE
  5
A8E
330
19
100
AcDbEntity
  8
TitleBlock&Notes
  6
Continuous
 62
     3
100
AcDbLine
 10
28.01640747931372
 20
-1.352771766926496
 30
0.0
 11
27.74512110571373
 21
-0.1561404717265074
 31
0.0
  0
LINE
  5
A8F
330
19
100
AcDbEntity
  8
TitleBlock&Notes
  6
Continuous
 62
     3
100
AcDbLine
 10
28.01640747931372
 20
-1.442324909726499
 30
0.0
 11
27.7293074793137
 21
-0.1759404717265038
 31
0.0
  0
LINE
  5
A90
330
19
100
AcDbEntity
  8
TitleBlock&Notes
  6
Continuous
 62
     3
100
AcDbLine
 10
26.79691454971375
 20
-1.435812927326496
 30
0.0
 11
27.2343074793137
 21
-1.435812927326496
 31
0.0
  0
LINE
  5
A91
330
19
100
AcDbEntity
  8
TitleBlock&Notes
  6
Continuous
 62
     3
100
AcDbLine
 10
26.79691454971375
 20
-1.443270953726502
 30
0.0
 11
27.22418405611374
 21
-1.435812927326496
 31
0.0
  0
LINE
  5
A92
330
19
100
AcDbEntity
  8
TitleBlock&Notes
  6
Continuous
 62
     3
100
AcDbLine
 10
26.79691454971375
 20
-1.459113369326507
 30
0.0
 11
27.2343074793137
 21
-1.451478647726505
 31
0.0
  0
LINE
  5
A93
330
19
100
AcDbEntity
  8
TitleBlock&Notes
  6
Continuous
 62
     3
100
AcDbLine
 10
26.79691454971375
 20
-1.474955784926502
 30
0.0
 11
27.2343074793137
 21
-1.467321063326499
 31
0.0
  0
LINE
  5
A94
330
19
100
AcDbEntity
  8
TitleBlock&Notes
  6
Continuous
 62
     3
100
AcDbLine
 10
26.79691454971375
 20
-1.490798200526496
 30
0.0
 11
27.2343074793137
 21
-1.483163478926504
 31
0.0
  0
LINE
  5
A95
330
19
100
AcDbEntity
  8
TitleBlock&Notes
  6
Continuous
 62
     3
100
AcDbLine
 10
26.79691454971375
 20
-1.506640576526498
 30
0.0
 11
27.2343074793137
 21
-1.499005854926496
 31
0.0
  0
LINE
  5
A96
330
19
100
AcDbEntity
  8
TitleBlock&Notes
  6
Continuous
 62
     3
100
AcDbLine
 10
26.79691454971375
 20
-1.522482992126503
 30
0.0
 11
27.2343074793137
 21
-1.51484827052649
 31
0.0
  0
LINE
  5
A97
330
19
100
AcDbEntity
  8
TitleBlock&Notes
  6
Continuous
 62
     3
100
AcDbLine
 10
26.79691454971375
 20
-1.538325407726498
 30
0.0
 11
27.2343074793137
 21
-1.530690686126506
 31
0.0
  0
LINE
  5
A98
330
19
100
AcDbEntity
  8
TitleBlock&Notes
  6
Continuous
 62
     3
100
AcDbLine
 10
26.79691454971375
 20
-1.554167823326492
 30
0.0
 11
27.2343074793137
 21
-1.546533101726511
 31
0.0
  0
LINE
  5
A99
330
19
100
AcDbEntity
  8
TitleBlock&Notes
  6
Continuous
 62
     3
100
AcDbLine
 10
26.79691454971375
 20
-1.570010238926508
 30
0.0
 11
27.2343074793137
 21
-1.562375517326506
 31
0.0
  0
LINE
  5
A9A
330
19
100
AcDbEntity
  8
TitleBlock&Notes
  6
Continuous
 62
     3
100
AcDbLine
 10
26.79691454971375
 20
-1.585852654526503
 30
0.0
 11
27.2343074793137
 21
-1.5782179329265
 31
0.0
  0
LINE
  5
A9B
330
19
100
AcDbEntity
  8
TitleBlock&Notes
  6
Continuous
 62
     3
100
AcDbLine
 10
26.79691454971375
 20
-1.601695070126508
 30
0.0
 11
27.2343074793137
 21
-1.594060348526506
 31
0.0
  0
LINE
  5
A9C
330
19
100
AcDbEntity
  8
TitleBlock&Notes
  6
Continuous
 62
     3
100
AcDbLine
 10
26.79691454971375
 20
-1.617537485726503
 30
0.0
 11
27.2343074793137
 21
-1.6099027641265
 31
0.0
  0
LINE
  5
A9D
330
19
100
AcDbEntity
  8
TitleBlock&Notes
  6
Continuous
 62
     3
100
AcDbLine
 10
26.79691454971375
 20
-1.633379901326497
 30
0.0
 11
27.2343074793137
 21
-1.625745179726505
 31
0.0
  0
LINE
  5
A9E
330
19
100
AcDbEntity
  8
TitleBlock&Notes
  6
Continuous
 62
     3
100
AcDbLine
 10
26.79691454971375
 20
-1.649222316926502
 30
0.0
 11
27.2343074793137
 21
-1.6415875953265
 31
0.0
  0
LINE
  5
A9F
330
19
100
AcDbEntity
  8
TitleBlock&Notes
  6
Continuous
 62
     3
100
AcDbLine
 10
26.79691454971375
 20
-1.665064732526507
 30
0.0
 11
27.2343074793137
 21
-1.657430010926495
 31
0.0
  0
LINE
  5
AA0
330
19
100
AcDbEntity
  8
TitleBlock&Notes
  6
Continuous
 62
     3
100
AcDbLine
 10
26.79691454971375
 20
-1.680907148126502
 30
0.0
 11
27.2343074793137
 21
-1.67327242652651
 31
0.0
  0
LINE
  5
AA1
330
19
100
AcDbEntity
  8
TitleBlock&Notes
  6
Continuous
 62
     3
100
AcDbLine
 10
26.79691454971375
 20
-1.696749563726497
 30
0.0
 11
27.2343074793137
 21
-1.689114842126505
 31
0.0
  0
LINE
  5
AA2
330
19
100
AcDbEntity
  8
TitleBlock&Notes
  6
Continuous
 62
     3
100
AcDbLine
 10
26.79691454971375
 20
-1.712591979326512
 30
0.0
 11
27.2343074793137
 21
-1.70495725772651
 31
0.0
  0
LINE
  5
AA3
330
19
100
AcDbEntity
  8
TitleBlock&Notes
  6
Continuous
 62
     3
100
AcDbLine
 10
26.79691454971375
 20
-1.728434394926496
 30
0.0
 11
27.2343074793137
 21
-1.720799673326505
 31
0.0
  0
LINE
  5
AA4
330
19
100
AcDbEntity
  8
TitleBlock&Notes
  6
Continuous
 62
     3
100
AcDbLine
 10
26.79691454971375
 20
-1.744276770926509
 30
0.0
 11
27.2343074793137
 21
-1.736642049326507
 31
0.0
  0
LINE
  5
AA5
330
19
100
AcDbEntity
  8
TitleBlock&Notes
  6
Continuous
 62
     3
100
AcDbLine
 10
26.79691454971375
 20
-1.760119186526504
 30
0.0
 11
27.2343074793137
 21
-1.752484464926501
 31
0.0
  0
LINE
  5
AA6
330
19
100
AcDbEntity
  8
TitleBlock&Notes
  6
Continuous
 62
     3
100
AcDbLine
 10
26.79691454971375
 20
-1.775961602126498
 30
0.0
 11
27.2343074793137
 21
-1.768326880526506
 31
0.0
  0
LINE
  5
AA7
330
19
100
AcDbEntity
  8
TitleBlock&Notes
  6
Continuous
 62
     3
100
AcDbLine
 10
26.79691454971375
 20
-1.791804017726503
 30
0.0
 11
27.2343074793137
 21
-1.784169296126501
 31
0.0
  0
LINE
  5
AA8
330
19
100
AcDbEntity
  8
TitleBlock&Notes
  6
Continuous
 62
     3
100
AcDbLine
 10
26.79691454971375
 20
-1.046049135326507
 30
0.0
 11
27.2343074793137
 21
-1.046049135326507
 31
0.0
  0
LINE
  5
AA9
330
19
100
AcDbEntity
  8
TitleBlock&Notes
  6
Continuous
 62
     3
100
AcDbLine
 10
26.79691454971375
 20
-0.9680963769265051
 30
0.0
 11
27.2343074793137
 21
-0.9680963769265051
 31
0.0
  0
LINE
  5
AAA
330
19
100
AcDbEntity
  8
TitleBlock&Notes
  6
Continuous
 62
     3
100
AcDbLine
 10
26.79691454971375
 20
-1.061891550926501
 30
0.0
 11
27.2343074793137
 21
-1.05425682932651
 31
0.0
  0
LINE
  5
AAB
330
19
100
AcDbEntity
  8
TitleBlock&Notes
  6
Continuous
 62
     3
100
AcDbLine
 10
26.79691454971375
 20
-1.077733966526496
 30
0.0
 11
27.2343074793137
 21
-1.070099244926504
 31
0.0
  0
LINE
  5
AAC
330
19
100
AcDbEntity
  8
TitleBlock&Notes
  6
Continuous
 62
     3
100
AcDbLine
 10
26.79691454971375
 20
-1.093576382126512
 30
0.0
 11
27.2343074793137
 21
-1.085941660526509
 31
0.0
  0
LINE
  5
AAD
330
19
100
AcDbEntity
  8
TitleBlock&Notes
  6
Continuous
 62
     3
100
AcDbLine
 10
26.79691454971375
 20
-1.109418797726506
 30
0.0
 11
27.2343074793137
 21
-1.101784076126504
 31
0.0
  0
LINE
  5
AAE
330
19
100
AcDbEntity
  8
TitleBlock&Notes
  6
Continuous
 62
     3
100
AcDbLine
 10
26.79691454971375
 20
-1.125261213326512
 30
0.0
 11
27.2343074793137
 21
-1.117626491726499
 31
0.0
  0
LINE
  5
AAF
330
19
100
AcDbEntity
  8
TitleBlock&Notes
  6
Continuous
 62
     3
100
AcDbLine
 10
26.79691454971375
 20
-1.141103628926506
 30
0.0
 11
27.2343074793137
 21
-1.133468907326504
 31
0.0
  0
LINE
  5
AB0
330
19
100
AcDbEntity
  8
TitleBlock&Notes
  6
Continuous
 62
     3
100
AcDbLine
 10
26.79691454971375
 20
-1.156946044526501
 30
0.0
 11
27.2343074793137
 21
-1.149311322926498
 31
0.0
  0
LINE
  5
AB1
330
19
100
AcDbEntity
  8
TitleBlock&Notes
  6
Continuous
 62
     3
100
AcDbLine
 10
26.79691454971375
 20
-1.172788460126506
 30
0.0
 11
27.2343074793137
 21
-1.165153738526504
 31
0.0
  0
LINE
  5
AB2
330
19
100
AcDbEntity
  8
TitleBlock&Notes
  6
Continuous
 62
     3
100
AcDbLine
 10
26.79691454971375
 20
-1.1886308757265
 30
0.0
 11
27.2343074793137
 21
-1.180996154126498
 31
0.0
  0
LINE
  5
AB3
330
19
100
AcDbEntity
  8
TitleBlock&Notes
  6
Continuous
 62
     3
100
AcDbLine
 10
26.79691454971375
 20
-1.204473291326506
 30
0.0
 11
27.2343074793137
 21
-1.196838569726493
 31
0.0
  0
LINE
  5
AB4
330
19
100
AcDbEntity
  8
TitleBlock&Notes
  6
Continuous
 62
     3
100
AcDbLine
 10
26.79691454971375
 20
-1.2203157069265
 30
0.0
 11
27.2343074793137
 21
-1.212680985326509
 31
0.0
  0
LINE
  5
AB5
330
19
100
AcDbEntity
  8
TitleBlock&Notes
  6
Continuous
 62
     3
100
AcDbLine
 10
26.79691454971375
 20
-1.236158082926502
 30
0.0
 11
27.2343074793137
 21
-1.22852336132651
 31
0.0
  0
LINE
  5
AB6
330
19
100
AcDbEntity
  8
TitleBlock&Notes
  6
Continuous
 62
     3
100
AcDbLine
 10
26.79691454971375
 20
-1.252000498526497
 30
0.0
 11
27.2343074793137
 21
-1.244365776926505
 31
0.0
  0
LINE
  5
AB7
330
19
100
AcDbEntity
  8
TitleBlock&Notes
  6
Continuous
 62
     3
100
AcDbLine
 10
26.79691454971375
 20
-1.267842914126513
 30
0.0
 11
27.2343074793137
 21
-1.2602081925265
 31
0.0
  0
LINE
  5
AB8
330
19
100
AcDbEntity
  8
TitleBlock&Notes
  6
Continuous
 62
     3
100
AcDbLine
 10
26.79691454971375
 20
-1.283685329726507
 30
0.0
 11
27.2343074793137
 21
-1.276050608126505
 31
0.0
  0
LINE
  5
AB9
330
19
100
AcDbEntity
  8
TitleBlock&Notes
  6
Continuous
 62
     3
100
AcDbLine
 10
26.79691454971375
 20
-1.299527745326502
 30
0.0
 11
27.2343074793137
 21
-1.291893023726499
 31
0.0
  0
LINE
  5
ABA
330
19
100
AcDbEntity
  8
TitleBlock&Notes
  6
Continuous
 62
     3
100
AcDbLine
 10
26.79691454971375
 20
-1.315370160926507
 30
0.0
 11
27.2343074793137
 21
-1.307735439326505
 31
0.0
  0
LINE
  5
ABB
330
19
100
AcDbEntity
  8
TitleBlock&Notes
  6
Continuous
 62
     3
100
AcDbLine
 10
26.79691454971375
 20
-1.331212576526501
 30
0.0
 11
27.2343074793137
 21
-1.323577854926499
 31
0.0
  0
LINE
  5
ABC
330
19
100
AcDbEntity
  8
TitleBlock&Notes
  6
Continuous
 62
     3
100
AcDbLine
 10
26.79691454971375
 20
-0.8207417277265047
 30
0.0
 11
27.2343074793137
 21
-0.8131070061264917
 31
0.0
  0
LINE
  5
ABD
330
19
100
AcDbEntity
  8
TitleBlock&Notes
  6
Continuous
 62
     3
100
AcDbLine
 10
26.79691454971375
 20
-0.8365841433264993
 30
0.0
 11
27.2343074793137
 21
-0.8289494217265076
 31
0.0
  0
LINE
  5
ABE
330
19
100
AcDbEntity
  8
TitleBlock&Notes
  6
Continuous
 62
     3
100
AcDbLine
 10
26.79691454971375
 20
-0.8524265589264938
 30
0.0
 11
27.2343074793137
 21
-0.8447918373265022
 31
0.0
  0
LINE
  5
ABF
330
19
100
AcDbEntity
  8
TitleBlock&Notes
  6
Continuous
 62
     3
100
AcDbLine
 10
26.79691454971375
 20
-0.8682689745265097
 30
0.0
 11
27.2343074793137
 21
-0.8606342529265074
 31
0.0
  0
LINE
  5
AC0
330
19
100
AcDbEntity
  8
TitleBlock&Notes
  6
Continuous
 62
     3
100
AcDbLine
 10
26.79691454971375
 20
-0.8841113901265043
 30
0.0
 11
27.2343074793137
 21
-0.8764766685265019
 31
0.0
  0
LINE
  5
AC1
330
19
100
AcDbEntity
  8
TitleBlock&Notes
  6
Continuous
 62
     3
100
AcDbLine
 10
26.79691454971375
 20
-0.8999538057265095
 30
0.0
 11
27.2343074793137
 21
-0.8923190841264965
 31
0.0
  0
LINE
  5
AC2
330
19
100
AcDbEntity
  8
TitleBlock&Notes
  6
Continuous
 62
     3
100
AcDbLine
 10
26.79691454971375
 20
-0.915796221326504
 30
0.0
 11
27.2343074793137
 21
-0.9081614997265017
 31
0.0
  0
LINE
  5
AC3
330
19
100
AcDbEntity
  8
TitleBlock&Notes
  6
Continuous
 62
     3
100
AcDbLine
 10
26.79691454971375
 20
-0.9316386369264986
 30
0.0
 11
27.2343074793137
 21
-0.9240039153265069
 31
0.0
  0
LINE
  5
AC4
330
19
100
AcDbEntity
  8
TitleBlock&Notes
  6
Continuous
 62
     3
100
AcDbLine
 10
26.79691454971375
 20
-0.9474810525265038
 30
0.0
 11
27.2343074793137
 21
-0.9398463309265014
 31
0.0
  0
LINE
  5
AC5
330
19
100
AcDbEntity
  8
TitleBlock&Notes
  6
Continuous
 62
     3
100
AcDbLine
 10
26.79691454971375
 20
-0.9633234681264983
 30
0.0
 11
27.2343074793137
 21
-0.955688746526496
 31
0.0
  0
LINE
  5
AC6
330
19
100
AcDbEntity
  8
TitleBlock&Notes
  6
Continuous
 62
     3
100
AcDbLine
 10
26.79691454971375
 20
-1.357860168926505
 30
0.0
 11
27.2343074793137
 21
-1.357860168926505
 31
0.0
  0
LINE
  5
AC7
330
19
100
AcDbEntity
  8
TitleBlock&Notes
  6
Continuous
 62
     3
100
AcDbLine
 10
26.79691454971375
 20
-1.347054992126507
 30
0.0
 11
27.2343074793137
 21
-1.339420270526494
 31
0.0
  0
LINE
  5
AC8
330
19
100
AcDbEntity
  8
TitleBlock&Notes
  6
Continuous
 62
     3
100
AcDbLine
 10
27.08549749051373
 20
-1.357860168926505
 30
0.0
 11
27.2343074793137
 21
-1.355262686126499
 31
0.0
  0
LINE
  5
AC9
330
19
100
AcDbEntity
  8
TitleBlock&Notes
  6
Continuous
 62
     3
100
AcDbLine
 10
27.96717331411372
 20
-1.046049135326507
 30
0.0
 11
28.06564160491375
 21
-1.046049135326507
 31
0.0
  0
LINE
  5
ACA
330
19
100
AcDbEntity
  8
TitleBlock&Notes
  6
Continuous
 62
     3
100
AcDbLine
 10
27.96971551531374
 20
-1.057262667326506
 30
0.0
 11
28.06347041611371
 21
-1.055626157726512
 31
0.0
  0
LINE
  5
ACB
330
19
100
AcDbEntity
  8
TitleBlock&Notes
  6
Continuous
 62
     3
100
AcDbLine
 10
27.97329297931374
 20
-1.073042633726503
 30
0.0
 11
28.0598645589137
 21
-1.071531497726502
 31
0.0
  0
LINE
  5
ACC
330
19
100
AcDbEntity
  8
TitleBlock&Notes
  6
Continuous
 62
     3
100
AcDbLine
 10
27.97687040371376
 20
-1.0888226001265
 30
0.0
 11
28.05625866211373
 21
-1.087436877326505
 31
0.0
  0
LINE
  5
ACD
330
19
100
AcDbEntity
  8
TitleBlock&Notes
  6
Continuous
 62
     3
100
AcDbLine
 10
27.98044786771376
 20
-1.104602566526507
 30
0.0
 11
28.05265280491373
 21
-1.103342217326494
 31
0.0
  0
LINE
  5
ACE
330
19
100
AcDbEntity
  8
TitleBlock&Notes
  6
Continuous
 62
     3
100
AcDbLine
 10
27.98402533171374
 20
-1.120382532926504
 30
0.0
 11
28.04904690811374
 21
-1.119247557326504
 31
0.0
  0
LINE
  5
ACF
330
19
100
AcDbEntity
  8
TitleBlock&Notes
  6
Continuous
 62
     3
100
AcDbLine
 10
27.9876027561137
 20
-1.136162499326511
 30
0.0
 11
28.04544105091373
 21
-1.135152936926507
 31
0.0
  0
LINE
  5
AD0
330
19
100
AcDbEntity
  8
TitleBlock&Notes
  6
Continuous
 62
     3
100
AcDbLine
 10
27.9911802201137
 20
-1.151942465726497
 30
0.0
 11
28.04183515411368
 21
-1.151058276926496
 31
0.0
  0
LINE
  5
AD1
330
19
100
AcDbEntity
  8
TitleBlock&Notes
  6
Continuous
 62
     3
100
AcDbLine
 10
27.99475768411371
 20
-1.167722432126504
 30
0.0
 11
28.03822929691374
 21
-1.166963616926507
 31
0.0
  0
LINE
  5
AD2
330
19
100
AcDbEntity
  8
TitleBlock&Notes
  6
Continuous
 62
     3
100
AcDbLine
 10
27.99833510851373
 20
-1.18350239852649
 30
0.0
 11
28.03462340011375
 21
-1.18286899652651
 31
0.0
  0
LINE
  5
AD3
330
19
100
AcDbEntity
  8
TitleBlock&Notes
  6
Continuous
 62
     3
100
AcDbLine
 10
28.00191257251371
 20
-1.199282364926498
 30
0.0
 11
28.03101754291374
 21
-1.198774336526499
 31
0.0
  0
LINE
  5
AD4
330
19
100
AcDbEntity
  8
TitleBlock&Notes
  6
Continuous
 62
     3
100
AcDbLine
 10
28.0054900365137
 20
-1.215062331326505
 30
0.0
 11
28.02741164611371
 21
-1.214679676526499
 31
0.0
  0
LINE
  5
AD5
330
19
100
AcDbEntity
  8
TitleBlock&Notes
  6
Continuous
 62
     3
100
AcDbLine
 10
28.00906746091373
 20
-1.230842297726512
 30
0.0
 11
28.02380574931372
 21
-1.230585056126491
 31
0.0
  0
LINE
  5
AD6
330
19
100
AcDbEntity
  8
TitleBlock&Notes
  6
Continuous
 62
     3
100
AcDbLine
 10
28.01264492491371
 20
-1.246622264126498
 30
0.0
 11
28.02019989211371
 21
-1.246490396126501
 31
0.0
  0
LINE
  5
AD7
330
19
100
AcDbEntity
  8
TitleBlock&Notes
  6
Continuous
 62
     3
100
AcDbLine
 10
28.01622238891372
 20
-1.262402230526506
 30
0.0
 11
28.01659399531372
 21
-1.262395775726504
 31
0.0
  0
LINE
  5
AD8
330
19
100
AcDbEntity
  8
TitleBlock&Notes
  6
Continuous
 62
     3
100
AcDbLine
 10
27.61050747931371
 20
-1.429069641326497
 30
0.0
 11
27.65502029491377
 21
-1.428292649726499
 31
0.0
  0
LINE
  5
AD9
330
19
100
AcDbEntity
  8
TitleBlock&Notes
  6
Continuous
 62
     3
100
AcDbLine
 10
27.61050747931371
 20
-1.444912056926503
 30
0.0
 11
27.66051325051375
 21
-1.444039193726501
 31
0.0
  0
LINE
  5
ADA
330
19
100
AcDbEntity
  8
TitleBlock&Notes
  6
Continuous
 62
     3
100
AcDbLine
 10
27.61050747931371
 20
-1.460754432926494
 30
0.0
 11
27.66600624571376
 21
-1.459785698126511
 31
0.0
  0
LINE
  5
ADB
330
19
100
AcDbEntity
  8
TitleBlock&Notes
  6
Continuous
 62
     3
100
AcDbLine
 10
27.61050747931371
 20
-1.47659684852651
 30
0.0
 11
27.67149920131374
 21
-1.475532242126503
 31
0.0
  0
LINE
  5
ADC
330
19
100
AcDbEntity
  8
TitleBlock&Notes
  6
Continuous
 62
     3
100
AcDbLine
 10
27.61050747931371
 20
-1.492439264126504
 30
0.0
 11
27.67699219651375
 21
-1.491278786126505
 31
0.0
  0
LINE
  5
ADD
330
19
100
AcDbEntity
  8
TitleBlock&Notes
  6
Continuous
 62
     3
100
AcDbLine
 10
27.61050747931371
 20
-1.508281679726509
 30
0.0
 11
27.68248515211375
 21
-1.507025330126497
 31
0.0
  0
LINE
  5
ADE
330
19
100
AcDbEntity
  8
TitleBlock&Notes
  6
Continuous
 62
     3
100
AcDbLine
 10
27.61050747931371
 20
-1.524124095326504
 30
0.0
 11
27.68797814731376
 21
-1.522771834526507
 31
0.0
  0
LINE
  5
ADF
330
19
100
AcDbEntity
  8
TitleBlock&Notes
  6
Continuous
 62
     3
100
AcDbLine
 10
27.61050747931371
 20
-1.539966510926499
 30
0.0
 11
27.69347110291374
 21
-1.538518378526498
 31
0.0
  0
LINE
  5
AE0
330
19
100
AcDbEntity
  8
TitleBlock&Notes
  6
Continuous
 62
     3
100
AcDbLine
 10
27.61050747931371
 20
-1.555808926526504
 30
0.0
 11
27.69896409811376
 21
-1.554264922526511
 31
0.0
  0
LINE
  5
AE1
330
19
100
AcDbEntity
  8
TitleBlock&Notes
  6
Continuous
 62
     3
100
AcDbLine
 10
27.61050747931371
 20
-1.302330316526498
 30
0.0
 11
27.61107649171376
 21
-1.302320376926497
 31
0.0
  0
LINE
  5
AE2
330
19
100
AcDbEntity
  8
TitleBlock&Notes
  6
Continuous
 62
     3
100
AcDbLine
 10
27.61050747931371
 20
-1.318172732126493
 30
0.0
 11
27.61656944731374
 21
-1.31806692092651
 31
0.0
  0
LINE
  5
AE3
330
19
100
AcDbEntity
  8
TitleBlock&Notes
  6
Continuous
 62
     3
100
AcDbLine
 10
27.61050747931371
 20
-1.334015147726509
 30
0.0
 11
27.62206244251375
 21
-1.333813464926501
 31
0.0
  0
LINE
  5
AE4
330
19
100
AcDbEntity
  8
TitleBlock&Notes
  6
Continuous
 62
     3
100
AcDbLine
 10
27.61050747931371
 20
-1.349857563326503
 30
0.0
 11
27.62755539811375
 21
-1.349560008926504
 31
0.0
  0
LINE
  5
AE5
330
19
100
AcDbEntity
  8
TitleBlock&Notes
  6
Continuous
 62
     3
100
AcDbLine
 10
27.61050747931371
 20
-1.365699978926508
 30
0.0
 11
27.63304839331376
 21
-1.365306513326503
 31
0.0
  0
LINE
  5
AE6
330
19
100
AcDbEntity
  8
TitleBlock&Notes
  6
Continuous
 62
     3
100
AcDbLine
 10
27.61050747931371
 20
-1.381542394526503
 30
0.0
 11
27.63854134891374
 21
-1.381053057326505
 31
0.0
  0
LINE
  5
AE7
330
19
100
AcDbEntity
  8
TitleBlock&Notes
  6
Continuous
 62
     3
100
AcDbLine
 10
27.61050747931371
 20
-1.397384810126498
 30
0.0
 11
27.64403434411375
 21
-1.396799601326497
 31
0.0
  0
LINE
  5
AE8
330
19
100
AcDbEntity
  8
TitleBlock&Notes
  6
Continuous
 62
     3
100
AcDbLine
 10
27.61050747931371
 20
-1.413227225726503
 30
0.0
 11
27.64952729971374
 21
-1.412546105726507
 31
0.0
  0
LINE
  5
AE9
330
19
100
AcDbEntity
  8
TitleBlock&Notes
  6
Continuous
 62
     3
100
AcDbLine
 10
27.61050747931371
 20
-1.730075458526505
 30
0.0
 11
27.75938684731372
 21
-1.727476787726507
 31
0.0
  0
LINE
  5
AEA
330
19
100
AcDbEntity
  8
TitleBlock&Notes
  6
Continuous
 62
     3
100
AcDbLine
 10
27.61050747931371
 20
-1.745917874126499
 30
0.0
 11
27.76487980291376
 21
-1.743223292126506
 31
0.0
  0
LINE
  5
AEB
330
19
100
AcDbEntity
  8
TitleBlock&Notes
  6
Continuous
 62
     3
100
AcDbLine
 10
27.61050747931371
 20
-1.761760289726494
 30
0.0
 11
27.77037279811371
 21
-1.758969836126508
 31
0.0
  0
LINE
  5
AEC
330
19
100
AcDbEntity
  8
TitleBlock&Notes
  6
Continuous
 62
     3
100
AcDbLine
 10
27.61050747931371
 20
-1.777602705326499
 30
0.0
 11
27.77586575371376
 21
-1.7747163801265
 31
0.0
  0
LINE
  5
AED
330
19
100
AcDbEntity
  8
TitleBlock&Notes
  6
Continuous
 62
     3
100
AcDbLine
 10
27.61050747931371
 20
-1.793445120926515
 30
0.0
 11
27.78135874891372
 21
-1.790462884526499
 31
0.0
  0
LINE
  5
AEE
330
19
100
AcDbEntity
  8
TitleBlock&Notes
  6
Continuous
 62
     3
100
AcDbLine
 10
27.61050747931371
 20
-1.571651342126498
 30
0.0
 11
27.70445709331372
 21
-1.5700114269265
 31
0.0
  0
LINE
  5
AEF
330
19
100
AcDbEntity
  8
TitleBlock&Notes
  6
Continuous
 62
     3
100
AcDbLine
 10
27.61050747931371
 20
-1.587493757726504
 30
0.0
 11
27.70995004891377
 21
-1.585757970926502
 31
0.0
  0
LINE
  5
AF0
330
19
100
AcDbEntity
  8
TitleBlock&Notes
  6
Continuous
 62
     3
100
AcDbLine
 10
27.61050747931371
 20
-1.603336173326498
 30
0.0
 11
27.71544304411371
 21
-1.601504514926494
 31
0.0
  0
LINE
  5
AF1
330
19
100
AcDbEntity
  8
TitleBlock&Notes
  6
Continuous
 62
     3
100
AcDbLine
 10
27.61050747931371
 20
-1.619178588926493
 30
0.0
 11
27.72093599971376
 21
-1.617251058926507
 31
0.0
  0
LINE
  5
AF2
330
19
100
AcDbEntity
  8
TitleBlock&Notes
  6
Continuous
 62
     3
100
AcDbLine
 10
27.61050747931371
 20
-1.635021004526498
 30
0.0
 11
27.72642899491372
 21
-1.632997563326496
 31
0.0
  0
LINE
  5
AF3
330
19
100
AcDbEntity
  8
TitleBlock&Notes
  6
Continuous
 62
     3
100
AcDbLine
 10
27.61050747931371
 20
-1.650863420126514
 30
0.0
 11
27.73192195051375
 21
-1.648744107326509
 31
0.0
  0
LINE
  5
AF4
330
19
100
AcDbEntity
  8
TitleBlock&Notes
  6
Continuous
 62
     3
100
AcDbLine
 10
27.61050747931371
 20
-1.666705835726508
 30
0.0
 11
27.73741494571372
 21
-1.664490651326511
 31
0.0
  0
LINE
  5
AF5
330
19
100
AcDbEntity
  8
TitleBlock&Notes
  6
Continuous
 62
     3
100
AcDbLine
 10
27.61050747931371
 20
-1.682548251326503
 30
0.0
 11
27.74290790131376
 21
-1.6802371557265
 31
0.0
  0
LINE
  5
AF6
330
19
100
AcDbEntity
  8
TitleBlock&Notes
  6
Continuous
 62
     3
100
AcDbLine
 10
27.61050747931371
 20
-1.698390627326505
 30
0.0
 11
27.74840089651373
 21
-1.695983699726502
 31
0.0
  0
LINE
  5
AF7
330
19
100
AcDbEntity
  8
TitleBlock&Notes
  6
Continuous
 62
     3
100
AcDbLine
 10
27.61050747931371
 20
-1.714233042926499
 30
0.0
 11
27.75389385211376
 21
-1.711730243726504
 31
0.0
  0
LINE
  5
AF8
330
19
100
AcDbEntity
  8
TitleBlock&Notes
  6
Continuous
 62
     3
100
AcDbLine
 10
27.2343074793137
 20
-0.1363404717265002
 30
0.0
 11
27.7609347321137
 21
-0.1363404717265002
 31
0.0
  0
LINE
  5
AF9
330
19
100
AcDbEntity
  8
TitleBlock&Notes
  6
Continuous
 62
     3
100
AcDbLine
 10
27.27390747931372
 20
-0.1759404717265038
 30
0.0
 11
27.7293074793137
 21
-0.1759404717265038
 31
0.0
  0
LINE
  5
AFA
330
19
100
AcDbEntity
  8
TitleBlock&Notes
  6
Continuous
 62
     3
100
AcDbLine
 10
27.74512110571373
 20
-0.1561404717265074
 30
0.0
 11
27.25410747931374
 21
-0.1561404717265074
 31
0.0
  0
LINE
  5
AFB
330
19
100
AcDbEntity
  8
TitleBlock&Notes
  6
Continuous
 62
     3
100
AcDbLine
 10
26.79691454971375
 20
-0.7732145205265031
 30
0.0
 11
27.2343074793137
 21
-0.7732145205265031
 31
0.0
  0
LINE
  5
AFC
330
19
100
AcDbEntity
  8
TitleBlock&Notes
  6
Continuous
 62
     3
100
AcDbLine
 10
26.79691454971375
 20
-0.7890568965265051
 30
0.0
 11
27.2343074793137
 21
-0.7814221749265134
 31
0.0
  0
LINE
  5
AFD
330
19
100
AcDbEntity
  8
TitleBlock&Notes
  6
Continuous
 62
     3
100
AcDbLine
 10
26.79691454971375
 20
-0.8048993121264995
 30
0.0
 11
27.2343074793137
 21
-0.7972645905265079
 31
0.0
  0
LINE
  5
AFE
330
19
100
AcDbEntity
  8
TitleBlock&Notes
  6
Continuous
 62
     3
100
AcDbLine
 10
26.79691454971375
 20
-0.6173090037265095
 30
0.0
 11
27.2343074793137
 21
-0.6173090037265095
 31
0.0
  0
LINE
  5
AFF
330
19
100
AcDbEntity
  8
TitleBlock&Notes
  6
Continuous
 62
     3
100
AcDbLine
 10
26.79691454971375
 20
-0.3834507285264923
 30
0.0
 11
27.2343074793137
 21
-0.3834507285264923
 31
0.0
  0
LINE
  5
B00
330
19
100
AcDbEntity
  8
TitleBlock&Notes
  6
Continuous
 62
     3
100
AcDbLine
 10
26.79691454971375
 20
-0.3240507285264922
 30
0.0
 11
27.2343074793137
 21
-0.3240507285264922
 31
0.0
  0
LINE
  5
B01
330
19
100
AcDbEntity
  8
TitleBlock&Notes
  6
Continuous
 62
     3
100
AcDbLine
 10
26.79691454971375
 20
-0.34385072852651
 30
0.0
 11
27.2343074793137
 21
-0.34385072852651
 31
0.0
  0
LINE
  5
B02
330
19
100
AcDbEntity
  8
TitleBlock&Notes
  6
Continuous
 62
     3
100
AcDbLine
 10
26.79691454971375
 20
-0.3636507285264958
 30
0.0
 11
27.2343074793137
 21
-0.3636507285264958
 31
0.0
  0
LINE
  5
B03
330
19
100
AcDbEntity
  8
TitleBlock&Notes
  6
Continuous
 62
     3
100
AcDbLine
 10
26.79691454971375
 20
-0.6371090037264953
 30
0.0
 11
27.2343074793137
 21
-0.6371090037264953
 31
0.0
  0
LINE
  5
B04
330
19
100
AcDbEntity
  8
TitleBlock&Notes
  6
Continuous
 62
     3
100
AcDbLine
 10
26.79691454971375
 20
-0.6952617621265116
 30
0.0
 11
27.2343074793137
 21
-0.6952617621265116
 31
0.0
  0
LINE
  5
B05
330
19
100
AcDbEntity
  8
TitleBlock&Notes
  6
Continuous
 62
     3
100
AcDbLine
 10
26.79691454971375
 20
-0.6754617621264938
 30
0.0
 11
27.2343074793137
 21
-0.6754617621264938
 31
0.0
  0
LINE
  5
B06
330
19
100
AcDbEntity
  8
TitleBlock&Notes
  6
Continuous
 62
     3
100
AcDbLine
 10
26.79691454971375
 20
-0.6569090037265024
 30
0.0
 11
27.2343074793137
 21
-0.6569090037265024
 31
0.0
  0
LINE
  5
B08
330
19
100
AcDbEntity
  8
TitleBlock&Notes
  6
Continuous
 62
     3
100
AcDbLine
 10
30.48150747931372
 20
-0.1759404717265038
 30
0.0
 11
30.77850747931374
 21
-0.1759404717265038
 31
0.0
  0
LINE
  5
B09
330
19
100
AcDbEntity
  8
TitleBlock&Notes
  6
Continuous
 62
     3
100
AcDbLine
 10
30.44190747931371
 20
-0.1363404717265002
 30
0.0
 11
30.8181074793137
 21
-0.1363404717265002
 31
0.0
  0
LINE
  5
B0A
330
19
100
AcDbEntity
  8
TitleBlock&Notes
  6
Continuous
 62
     3
100
AcDbLine
 10
30.46170747931368
 20
-0.1561404717265074
 30
0.0
 11
30.79830747931373
 21
-0.1561404717265074
 31
0.0
  0
ARC
  5
B0B
330
19
100
AcDbEntity
  8
TitleBlock&Notes
  6
Continuous
 62
     3
100
AcDbCircle
 10
29.55090747931374
 20
-1.423340471726507
 30
0.0
 40
0.198
100
AcDbArc
 50
180.0000046800004
 51
269.9999931700005
  0
ARC
  5
B0C
330
19
100
AcDbEntity
  8
TitleBlock&Notes
  6
Continuous
 62
     3
100
AcDbCircle
 10
29.55090747931374
 20
-1.423340471726507
 30
0.0
 40
0.1584
100
AcDbArc
 50
180.0000052300005
 51
269.9999947700005
  0
ARC
  5
B0D
330
19
100
AcDbEntity
  8
TitleBlock&Notes
  6
Continuous
 62
     3
100
AcDbCircle
 10
29.55090747931374
 20
-1.423340471726507
 30
0.0
 40
0.1782
100
AcDbArc
 50
180.0000046800004
 51
269.9999931700005
  0
LINE
  5
B0E
330
19
100
AcDbEntity
  8
TitleBlock&Notes
  6
Continuous
 62
     3
100
AcDbLine
 10
29.0163074793137
 20
-0.1363404717265002
 30
0.0
 11
29.39250747931371
 21
-0.1363404717265002
 31
0.0
  0
LINE
  5
B0F
330
19
100
AcDbEntity
  8
TitleBlock&Notes
  6
Continuous
 62
     3
100
AcDbLine
 10
29.03610747931374
 20
-0.1561404717265074
 30
0.0
 11
29.37270747931373
 21
-0.1561404717265074
 31
0.0
  0
LINE
  5
B10
330
19
100
AcDbEntity
  8
TitleBlock&Notes
  6
Continuous
 62
     3
100
AcDbLine
 10
29.05590747931374
 20
-0.1759404717265038
 30
0.0
 11
29.05590747931374
 21
-1.423340471726506
 31
0.0
  0
LINE
  5
B11
330
19
100
AcDbEntity
  8
TitleBlock&Notes
  6
Continuous
 62
     3
100
AcDbLine
 10
29.35290747931375
 20
-0.1759404717265038
 30
0.0
 11
29.35290747931375
 21
-1.423340511326498
 31
0.0
  0
LINE
  5
B12
330
19
100
AcDbEntity
  8
TitleBlock&Notes
  6
Continuous
 62
     3
100
AcDbLine
 10
29.0163074793137
 20
-0.1363404717265002
 30
0.0
 11
29.0163074793137
 21
-1.423340471726506
 31
0.0
  0
LINE
  5
B13
330
19
100
AcDbEntity
  8
TitleBlock&Notes
  6
Continuous
 62
     3
100
AcDbLine
 10
29.03610747931374
 20
-1.423340471726506
 30
0.0
 11
29.03610747931374
 21
-0.1561404717265074
 31
0.0
  0
LINE
  5
B14
330
19
100
AcDbEntity
  8
TitleBlock&Notes
  6
Continuous
 62
     3
100
AcDbLine
 10
28.27657726171372
 20
-1.718449175726503
 30
0.0
 11
28.42230747931374
 21
-1.715905430126509
 31
0.0
  0
LINE
  5
B15
330
19
100
AcDbEntity
  8
TitleBlock&Notes
  6
Continuous
 62
     3
100
AcDbLine
 10
28.25989639531375
 20
-1.766267601326502
 30
0.0
 11
28.42230747931374
 21
-1.763432676926504
 31
0.0
  0
LINE
  5
B16
330
19
100
AcDbEntity
  8
TitleBlock&Notes
  6
Continuous
 62
     3
100
AcDbLine
 10
28.25433611971372
 20
-1.782207036926498
 30
0.0
 11
28.42230747931374
 21
-1.779275092526509
 31
0.0
  0
LINE
  5
B17
330
19
100
AcDbEntity
  8
TitleBlock&Notes
  6
Continuous
 62
     3
100
AcDbLine
 10
28.24877584411373
 20
-1.798146512126509
 30
0.0
 11
28.42230747931374
 21
-1.795117508126503
 31
0.0
  0
LINE
  5
B18
330
19
100
AcDbEntity
  8
TitleBlock&Notes
  6
Continuous
 62
     3
100
AcDbLine
 10
28.27101698611376
 20
-1.734388650926502
 30
0.0
 11
28.42230747931374
 21
-1.731747845726504
 31
0.0
  0
LINE
  5
B19
330
19
100
AcDbEntity
  8
TitleBlock&Notes
  6
Continuous
 62
     3
100
AcDbLine
 10
28.26545667091373
 20
-1.750328126126502
 30
0.0
 11
28.42230747931374
 21
-1.747590261326498
 31
0.0
  0
LINE
  5
B1A
330
19
100
AcDbEntity
  8
TitleBlock&Notes
  6
Continuous
 62
     3
100
AcDbLine
 10
28.37666226211374
 20
-1.431538740926496
 30
0.0
 11
28.42230747931374
 21
-1.430742028526507
 31
0.0
  0
LINE
  5
B1B
330
19
100
AcDbEntity
  8
TitleBlock&Notes
  6
Continuous
 62
     3
100
AcDbLine
 10
28.3711019865137
 20
-1.447478216126507
 30
0.0
 11
28.42230747931374
 21
-1.446584444126502
 31
0.0
  0
LINE
  5
B1C
330
19
100
AcDbEntity
  8
TitleBlock&Notes
  6
Continuous
 62
     3
100
AcDbLine
 10
28.36554171091371
 20
-1.463417691326506
 30
0.0
 11
28.42230747931374
 21
-1.462426859726496
 31
0.0
  0
LINE
  5
B1D
330
19
100
AcDbEntity
  8
TitleBlock&Notes
  6
Continuous
 62
     3
100
AcDbLine
 10
28.35998143531374
 20
-1.479357166526506
 30
0.0
 11
28.42230747931374
 21
-1.478269275326502
 31
0.0
  0
LINE
  5
B1E
330
19
100
AcDbEntity
  8
TitleBlock&Notes
  6
Continuous
 62
     3
100
AcDbLine
 10
28.35442115971369
 20
-1.495296641726495
 30
0.0
 11
28.42230747931374
 21
-1.494111651326504
 31
0.0
  0
LINE
  5
B1F
330
19
100
AcDbEntity
  8
TitleBlock&Notes
  6
Continuous
 62
     3
100
AcDbLine
 10
28.34886088411373
 20
-1.511236077326492
 30
0.0
 11
28.42230747931374
 21
-1.509954066926498
 31
0.0
  0
LINE
  5
B20
330
19
100
AcDbEntity
  8
TitleBlock&Notes
  6
Continuous
 62
     3
100
AcDbLine
 10
28.34330060851373
 20
-1.527175552526502
 30
0.0
 11
28.42230747931374
 21
-1.525796482526493
 31
0.0
  0
LINE
  5
B21
330
19
100
AcDbEntity
  8
TitleBlock&Notes
  6
Continuous
 62
     3
100
AcDbLine
 10
28.3377403329137
 20
-1.543115027726512
 30
0.0
 11
28.42230747931374
 21
-1.541638898126509
 31
0.0
  0
LINE
  5
B22
330
19
100
AcDbEntity
  8
TitleBlock&Notes
  6
Continuous
 62
     3
100
AcDbLine
 10
28.33218005731371
 20
-1.559054502926501
 30
0.0
 11
28.42230747931374
 21
-1.557481313726514
 31
0.0
  0
LINE
  5
B23
330
19
100
AcDbEntity
  8
TitleBlock&Notes
  6
Continuous
 62
     3
100
AcDbLine
 10
28.32661978171372
 20
-1.574993978126501
 30
0.0
 11
28.42230747931374
 21
-1.573323729326508
 31
0.0
  0
LINE
  5
B24
330
19
100
AcDbEntity
  8
TitleBlock&Notes
  6
Continuous
 62
     3
100
AcDbLine
 10
28.32105946651371
 20
-1.590933453326501
 30
0.0
 11
28.42230747931374
 21
-1.589166144926503
 31
0.0
  0
LINE
  5
B25
330
19
100
AcDbEntity
  8
TitleBlock&Notes
  6
Continuous
 62
     3
100
AcDbLine
 10
28.31549919091374
 20
-1.606872888926497
 30
0.0
 11
28.42230747931374
 21
-1.605008560526497
 31
0.0
  0
LINE
  5
B26
330
19
100
AcDbEntity
  8
TitleBlock&Notes
  6
Continuous
 62
     3
100
AcDbLine
 10
28.30993891531375
 20
-1.622812364126508
 30
0.0
 11
28.42230747931374
 21
-1.620850976126503
 31
0.0
  0
LINE
  5
B27
330
19
100
AcDbEntity
  8
TitleBlock&Notes
  6
Continuous
 62
     3
100
AcDbLine
 10
28.30437863971372
 20
-1.638751839326507
 30
0.0
 11
28.42230747931374
 21
-1.636693391726508
 31
0.0
  0
LINE
  5
B28
330
19
100
AcDbEntity
  8
TitleBlock&Notes
  6
Continuous
 62
     3
100
AcDbLine
 10
28.29881836411372
 20
-1.654691314526507
 30
0.0
 11
28.42230747931374
 21
-1.652535807326502
 31
0.0
  0
LINE
  5
B29
330
19
100
AcDbEntity
  8
TitleBlock&Notes
  6
Continuous
 62
     3
100
AcDbLine
 10
28.29325808851374
 20
-1.670630789726496
 30
0.0
 11
28.42230747931374
 21
-1.668378222926497
 31
0.0
  0
LINE
  5
B2A
330
19
100
AcDbEntity
  8
TitleBlock&Notes
  6
Continuous
 62
     3
100
AcDbLine
 10
28.28769781291375
 20
-1.686570225326493
 30
0.0
 11
28.42230747931374
 21
-1.684220638526502
 31
0.0
  0
LINE
  5
B2B
330
19
100
AcDbEntity
  8
TitleBlock&Notes
  6
Continuous
 62
     3
100
AcDbLine
 10
28.28213753731371
 20
-1.702509700526503
 30
0.0
 11
28.42230747931374
 21
-1.700063054126497
 31
0.0
  0
LINE
  5
B2C
330
19
100
AcDbEntity
  8
TitleBlock&Notes
  6
Continuous
 62
     3
100
AcDbLine
 10
28.42114450651375
 20
-1.304023018526505
 30
0.0
 11
28.42230747931374
 21
-1.304002703726498
 31
0.0
  0
LINE
  5
B2D
330
19
100
AcDbEntity
  8
TitleBlock&Notes
  6
Continuous
 62
     3
100
AcDbLine
 10
28.41558423091372
 20
-1.319962493726494
 30
0.0
 11
28.42230747931374
 21
-1.319845119326503
 31
0.0
  0
LINE
  5
B2E
330
19
100
AcDbEntity
  8
TitleBlock&Notes
  6
Continuous
 62
     3
100
AcDbLine
 10
28.41002395531372
 20
-1.335901968926505
 30
0.0
 11
28.42230747931374
 21
-1.335687534926497
 31
0.0
  0
LINE
  5
B2F
330
19
100
AcDbEntity
  8
TitleBlock&Notes
  6
Continuous
 62
     3
100
AcDbLine
 10
28.40446367971376
 20
-1.351841404526501
 30
0.0
 11
28.42230747931374
 21
-1.351529950526503
 31
0.0
  0
LINE
  5
B30
330
19
100
AcDbEntity
  8
TitleBlock&Notes
  6
Continuous
 62
     3
100
AcDbLine
 10
28.3989034041137
 20
-1.367780879726511
 30
0.0
 11
28.42230747931374
 21
-1.367372366126497
 31
0.0
  0
LINE
  5
B31
330
19
100
AcDbEntity
  8
TitleBlock&Notes
  6
Continuous
 62
     3
100
AcDbLine
 10
28.39334312851373
 20
-1.3837203549265
 30
0.0
 11
28.42230747931374
 21
-1.383214781726492
 31
0.0
  0
LINE
  5
B32
330
19
100
AcDbEntity
  8
TitleBlock&Notes
  6
Continuous
 62
     3
100
AcDbLine
 10
28.38778285291374
 20
-1.399659830126511
 30
0.0
 11
28.42230747931374
 21
-1.399057197326508
 31
0.0
  0
LINE
  5
B33
330
19
100
AcDbEntity
  8
TitleBlock&Notes
  6
Continuous
 62
     3
100
AcDbLine
 10
28.38222257731371
 20
-1.4155993053265
 30
0.0
 11
28.42230747931374
 21
-1.414899612926513
 31
0.0
  0
LINE
  5
B34
330
19
100
AcDbEntity
  8
TitleBlock&Notes
  6
Continuous
 62
     3
100
AcDbLine
 10
28.79850747931375
 20
-1.725181254926502
 30
0.0
 11
29.10587388811373
 21
-1.719816167726504
 31
0.0
  0
LINE
  5
B35
330
19
100
AcDbEntity
  8
TitleBlock&Notes
  6
Continuous
 62
     3
100
AcDbLine
 10
28.79850747931375
 20
-1.741023670526507
 30
0.0
 11
29.11670908171372
 21
-1.735469453726507
 31
0.0
  0
LINE
  5
B36
330
19
100
AcDbEntity
  8
TitleBlock&Notes
  6
Continuous
 62
     3
100
AcDbLine
 10
28.79850747931375
 20
-1.756866086126501
 30
0.0
 11
29.12838977491374
 21
-1.751107968926492
 31
0.0
  0
LINE
  5
B37
330
19
100
AcDbEntity
  8
TitleBlock&Notes
  6
Continuous
 62
     3
100
AcDbLine
 10
28.79850747931375
 20
-1.772708501726496
 30
0.0
 11
29.1409855053137
 21
-1.766730525326499
 31
0.0
  0
LINE
  5
B38
330
19
100
AcDbEntity
  8
TitleBlock&Notes
  6
Continuous
 62
     3
100
AcDbLine
 10
28.79850747931375
 20
-1.788550917326501
 30
0.0
 11
29.15458034371373
 21
-1.782335657726504
 31
0.0
  0
LINE
  5
B39
330
19
100
AcDbEntity
  8
TitleBlock&Notes
  6
Continuous
 62
     3
100
AcDbLine
 10
28.79850747931375
 20
-1.804393332926506
 30
0.0
 11
29.16927705211371
 21
-1.797921504926501
 31
0.0
  0
LINE
  5
B3A
330
19
100
AcDbEntity
  8
TitleBlock&Notes
  6
Continuous
 62
     3
100
AcDbLine
 10
29.0163074793137
 20
-1.435812927326496
 30
0.0
 11
28.79850747931375
 21
-1.435812927326496
 31
0.0
  0
LINE
  5
B3B
330
19
100
AcDbEntity
  8
TitleBlock&Notes
  6
Continuous
 62
     3
100
AcDbLine
 10
28.79850747931375
 20
-1.4400178533265
 30
0.0
 11
29.01631702291375
 21
-1.436215936526503
 31
0.0
  0
LINE
  5
B3C
330
19
100
AcDbEntity
  8
TitleBlock&Notes
  6
Continuous
 62
     3
100
AcDbLine
 10
28.79850747931375
 20
-1.455860229326502
 30
0.0
 11
29.01693308011371
 21
-1.452047620526494
 31
0.0
  0
LINE
  5
B3D
330
19
100
AcDbEntity
  8
TitleBlock&Notes
  6
Continuous
 62
     3
100
AcDbLine
 10
28.79850747931375
 20
-1.471702644926496
 30
0.0
 11
29.01801934771374
 21
-1.467871067726497
 31
0.0
  0
LINE
  5
B3E
330
19
100
AcDbEntity
  8
TitleBlock&Notes
  6
Continuous
 62
     3
100
AcDbLine
 10
28.79850747931375
 20
-1.487545060526501
 30
0.0
 11
29.01957788491374
 21
-1.4836862781265
 31
0.0
  0
LINE
  5
B3F
330
19
100
AcDbEntity
  8
TitleBlock&Notes
  6
Continuous
 62
     3
100
AcDbLine
 10
28.79850747931375
 20
-1.503387476126496
 30
0.0
 11
29.02161217651372
 21
-1.499493172526497
 31
0.0
  0
LINE
  5
B40
330
19
100
AcDbEntity
  8
TitleBlock&Notes
  6
Continuous
 62
     3
100
AcDbLine
 10
28.79850747931375
 20
-1.519229891726512
 30
0.0
 11
29.0241269745137
 21
-1.515291711326495
 31
0.0
  0
LINE
  5
B41
330
19
100
AcDbEntity
  8
TitleBlock&Notes
  6
Continuous
 62
     3
100
AcDbLine
 10
28.79850747931375
 20
-1.535072307326506
 30
0.0
 11
29.02712837731373
 21
-1.531081736126504
 31
0.0
  0
LINE
  5
B42
330
19
100
AcDbEntity
  8
TitleBlock&Notes
  6
Continuous
 62
     3
100
AcDbLine
 10
28.79850747931375
 20
-1.550914722926501
 30
0.0
 11
29.03062398811373
 21
-1.546863128126501
 31
0.0
  0
LINE
  5
B43
330
19
100
AcDbEntity
  8
TitleBlock&Notes
  6
Continuous
 62
     3
100
AcDbLine
 10
28.79850747931375
 20
-1.566757138526506
 30
0.0
 11
29.03462307331368
 21
-1.562635728926506
 31
0.0
  0
LINE
  5
B44
330
19
100
AcDbEntity
  8
TitleBlock&Notes
  6
Continuous
 62
     3
100
AcDbLine
 10
28.79850747931375
 20
-1.582599554126501
 30
0.0
 11
29.03913656251374
 21
-1.578399340526493
 31
0.0
  0
LINE
  5
B45
330
19
100
AcDbEntity
  8
TitleBlock&Notes
  6
Continuous
 62
     3
100
AcDbLine
 10
28.79850747931375
 20
-1.598441969726506
 30
0.0
 11
29.04417720691371
 21
-1.594153764926497
 31
0.0
  0
LINE
  5
B46
330
19
100
AcDbEntity
  8
TitleBlock&Notes
  6
Continuous
 62
     3
100
AcDbLine
 10
28.79850747931375
 20
-1.6142843853265
 30
0.0
 11
29.04976005451371
 21
-1.609898764526489
 31
0.0
  0
LINE
  5
B47
330
19
100
AcDbEntity
  8
TitleBlock&Notes
  6
Continuous
 62
     3
100
AcDbLine
 10
28.79850747931375
 20
-1.630126800926495
 30
0.0
 11
29.0559023313137
 21
-1.62563394332651
 31
0.0
  0
LINE
  5
B48
330
19
100
AcDbEntity
  8
TitleBlock&Notes
  6
Continuous
 62
     3
100
AcDbLine
 10
28.79850747931375
 20
-1.6459692165265
 30
0.0
 11
29.0626241145137
 21
-1.641359024126495
 31
0.0
  0
LINE
  5
B49
330
19
100
AcDbEntity
  8
TitleBlock&Notes
  6
Continuous
 62
     3
100
AcDbLine
 10
28.79850747931375
 20
-1.661811632126516
 30
0.0
 11
29.06994845131369
 21
-1.657073610926497
 31
0.0
  0
LINE
  5
B4A
330
19
100
AcDbEntity
  8
TitleBlock&Notes
  6
Continuous
 62
     3
100
AcDbLine
 10
28.79850747931375
 20
-1.677654047726511
 30
0.0
 11
29.07790211131375
 21
-1.672777188926493
 31
0.0
  0
LINE
  5
B4B
330
19
100
AcDbEntity
  8
TitleBlock&Notes
  6
Continuous
 62
     3
100
AcDbLine
 10
28.79850747931375
 20
-1.693496423726491
 30
0.0
 11
29.08651594291372
 21
-1.688469243326506
 31
0.0
  0
LINE
  5
B4C
330
19
100
AcDbEntity
  8
TitleBlock&Notes
  6
Continuous
 62
     3
100
AcDbLine
 10
28.79850747931375
 20
-1.709338839326507
 30
0.0
 11
29.09582590291374
 21
-1.704149140526494
 31
0.0
  0
LINE
  5
B4D
330
19
100
AcDbEntity
  8
TitleBlock&Notes
  6
Continuous
 62
     3
100
AcDbLine
 10
29.0163074793137
 20
-1.046049135326507
 30
0.0
 11
28.79850747931375
 21
-1.046049135326507
 31
0.0
  0
LINE
  5
B4E
330
19
100
AcDbEntity
  8
TitleBlock&Notes
  6
Continuous
 62
     3
100
AcDbLine
 10
29.0163074793137
 20
-0.9680963769265051
 30
0.0
 11
28.79850747931375
 21
-0.9680963769265051
 31
0.0
  0
LINE
  5
B4F
330
19
100
AcDbEntity
  8
TitleBlock&Notes
  6
Continuous
 62
     3
100
AcDbLine
 10
28.79850747931375
 20
-1.05863845052651
 30
0.0
 11
29.0163074793137
 21
-1.054836731726497
 31
0.0
  0
LINE
  5
B50
330
19
100
AcDbEntity
  8
TitleBlock&Notes
  6
Continuous
 62
     3
100
AcDbLine
 10
28.79850747931375
 20
-1.074480866126505
 30
0.0
 11
29.0163074793137
 21
-1.070679147326503
 31
0.0
  0
LINE
  5
B51
330
19
100
AcDbEntity
  8
TitleBlock&Notes
  6
Continuous
 62
     3
100
AcDbLine
 10
28.79850747931375
 20
-1.090323281726488
 30
0.0
 11
29.0163074793137
 21
-1.086521562926497
 31
0.0
  0
LINE
  5
B52
330
19
100
AcDbEntity
  8
TitleBlock&Notes
  6
Continuous
 62
     3
100
AcDbLine
 10
28.79850747931375
 20
-1.106165697326504
 30
0.0
 11
29.0163074793137
 21
-1.102363978526513
 31
0.0
  0
LINE
  5
B53
330
19
100
AcDbEntity
  8
TitleBlock&Notes
  6
Continuous
 62
     3
100
AcDbLine
 10
28.79850747931375
 20
-1.12200811292651
 30
0.0
 11
29.0163074793137
 21
-1.118206394126508
 31
0.0
  0
LINE
  5
B54
330
19
100
AcDbEntity
  8
TitleBlock&Notes
  6
Continuous
 62
     3
100
AcDbLine
 10
28.79850747931375
 20
-1.137850528526504
 30
0.0
 11
29.0163074793137
 21
-1.134048809726502
 31
0.0
  0
LINE
  5
B55
330
19
100
AcDbEntity
  8
TitleBlock&Notes
  6
Continuous
 62
     3
100
AcDbLine
 10
28.79850747931375
 20
-1.153692944126499
 30
0.0
 11
29.0163074793137
 21
-1.149891225326507
 31
0.0
  0
LINE
  5
B56
330
19
100
AcDbEntity
  8
TitleBlock&Notes
  6
Continuous
 62
     3
100
AcDbLine
 10
28.79850747931375
 20
-1.169535359726504
 30
0.0
 11
29.0163074793137
 21
-1.165733640926502
 31
0.0
  0
LINE
  5
B57
330
19
100
AcDbEntity
  8
TitleBlock&Notes
  6
Continuous
 62
     3
100
AcDbLine
 10
28.79850747931375
 20
-1.185377735726516
 30
0.0
 11
29.0163074793137
 21
-1.181576056526507
 31
0.0
  0
LINE
  5
B58
330
19
100
AcDbEntity
  8
TitleBlock&Notes
  6
Continuous
 62
     3
100
AcDbLine
 10
28.79850747931375
 20
-1.2012201513265
 30
0.0
 11
29.0163074793137
 21
-1.197418472126502
 31
0.0
  0
LINE
  5
B59
330
19
100
AcDbEntity
  8
TitleBlock&Notes
  6
Continuous
 62
     3
100
AcDbLine
 10
28.79850747931375
 20
-1.217062566926495
 30
0.0
 11
29.0163074793137
 21
-1.213260848126504
 31
0.0
  0
LINE
  5
B5A
330
19
100
AcDbEntity
  8
TitleBlock&Notes
  6
Continuous
 62
     3
100
AcDbLine
 10
28.79850747931375
 20
-1.232904982526489
 30
0.0
 11
29.0163074793137
 21
-1.229103263726498
 31
0.0
  0
LINE
  5
B5B
330
19
100
AcDbEntity
  8
TitleBlock&Notes
  6
Continuous
 62
     3
100
AcDbLine
 10
28.79850747931375
 20
-1.248747398126505
 30
0.0
 11
29.0163074793137
 21
-1.244945679326514
 31
0.0
  0
LINE
  5
B5C
330
19
100
AcDbEntity
  8
TitleBlock&Notes
  6
Continuous
 62
     3
100
AcDbLine
 10
28.79850747931375
 20
-1.264589813726511
 30
0.0
 11
29.0163074793137
 21
-1.260788094926509
 31
0.0
  0
LINE
  5
B5D
330
19
100
AcDbEntity
  8
TitleBlock&Notes
  6
Continuous
 62
     3
100
AcDbLine
 10
28.79850747931375
 20
-1.280432229326505
 30
0.0
 11
29.0163074793137
 21
-1.276630510526493
 31
0.0
  0
LINE
  5
B5E
330
19
100
AcDbEntity
  8
TitleBlock&Notes
  6
Continuous
 62
     3
100
AcDbLine
 10
28.79850747931375
 20
-1.2962746449265
 30
0.0
 11
29.0163074793137
 21
-1.292472926126508
 31
0.0
  0
LINE
  5
B5F
330
19
100
AcDbEntity
  8
TitleBlock&Notes
  6
Continuous
 62
     3
100
AcDbLine
 10
28.79850747931375
 20
-1.312117060526505
 30
0.0
 11
29.0163074793137
 21
-1.308315341726503
 31
0.0
  0
LINE
  5
B60
330
19
100
AcDbEntity
  8
TitleBlock&Notes
  6
Continuous
 62
     3
100
AcDbLine
 10
28.79850747931375
 20
-1.327959476126499
 30
0.0
 11
29.0163074793137
 21
-1.324157757326508
 31
0.0
  0
LINE
  5
B61
330
19
100
AcDbEntity
  8
TitleBlock&Notes
  6
Continuous
 62
     3
100
AcDbLine
 10
28.79850747931375
 20
-0.8174886273265133
 30
0.0
 11
29.0163074793137
 21
-0.8136869085265008
 31
0.0
  0
LINE
  5
B62
330
19
100
AcDbEntity
  8
TitleBlock&Notes
  6
Continuous
 62
     3
100
AcDbLine
 10
28.79850747931375
 20
-0.8333310429265079
 30
0.0
 11
29.0163074793137
 21
-0.8295293241264953
 31
0.0
  0
LINE
  5
B63
330
19
100
AcDbEntity
  8
TitleBlock&Notes
  6
Continuous
 62
     3
100
AcDbLine
 10
28.79850747931375
 20
-0.8491734585265025
 30
0.0
 11
29.0163074793137
 21
-0.8453717397265112
 31
0.0
  0
LINE
  5
B64
330
19
100
AcDbEntity
  8
TitleBlock&Notes
  6
Continuous
 62
     3
100
AcDbLine
 10
28.79850747931375
 20
-0.8650158741265077
 30
0.0
 11
29.0163074793137
 21
-0.8612141553264951
 31
0.0
  0
LINE
  5
B65
330
19
100
AcDbEntity
  8
TitleBlock&Notes
  6
Continuous
 62
     3
100
AcDbLine
 10
28.79850747931375
 20
-0.8808582897265022
 30
0.0
 11
29.0163074793137
 21
-0.877056570926511
 31
0.0
  0
LINE
  5
B66
330
19
100
AcDbEntity
  8
TitleBlock&Notes
  6
Continuous
 62
     3
100
AcDbLine
 10
28.79850747931375
 20
-0.8967007053265074
 30
0.0
 11
29.0163074793137
 21
-0.8928989865265055
 31
0.0
  0
LINE
  5
B67
330
19
100
AcDbEntity
  8
TitleBlock&Notes
  6
Continuous
 62
     3
100
AcDbLine
 10
28.79850747931375
 20
-0.912543120926502
 30
0.0
 11
29.0163074793137
 21
-0.9087414021265001
 31
0.0
  0
LINE
  5
B68
330
19
100
AcDbEntity
  8
TitleBlock&Notes
  6
Continuous
 62
     3
100
AcDbLine
 10
28.79850747931375
 20
-0.9283855365264965
 30
0.0
 11
29.0163074793137
 21
-0.9245838177265053
 31
0.0
  0
LINE
  5
B69
330
19
100
AcDbEntity
  8
TitleBlock&Notes
  6
Continuous
 62
     3
100
AcDbLine
 10
28.79850747931375
 20
-0.9442279521265017
 30
0.0
 11
29.0163074793137
 21
-0.9404262333264998
 31
0.0
  0
LINE
  5
B6A
330
19
100
AcDbEntity
  8
TitleBlock&Notes
  6
Continuous
 62
     3
100
AcDbLine
 10
28.79850747931375
 20
-0.9600703281265143
 30
0.0
 11
29.0163074793137
 21
-0.956268648926505
 31
0.0
  0
LINE
  5
B6B
330
19
100
AcDbEntity
  8
TitleBlock&Notes
  6
Continuous
 62
     3
100
AcDbLine
 10
29.0163074793137
 20
-1.357860168926505
 30
0.0
 11
28.79850747931375
 21
-1.357860168926505
 31
0.0
  0
LINE
  5
B6C
330
19
100
AcDbEntity
  8
TitleBlock&Notes
  6
Continuous
 62
     3
100
AcDbLine
 10
28.79850747931375
 20
-1.343801891726505
 30
0.0
 11
29.0163074793137
 21
-1.340000172926503
 31
0.0
  0
LINE
  5
B6D
330
19
100
AcDbEntity
  8
TitleBlock&Notes
  6
Continuous
 62
     3
100
AcDbLine
 10
28.9007199501137
 20
-1.357860168926505
 30
0.0
 11
29.0163074793137
 21
-1.355842588526497
 31
0.0
  0
LINE
  5
B6E
330
19
100
AcDbEntity
  8
TitleBlock&Notes
  6
Continuous
 62
     3
100
AcDbLine
 10
28.75890747931373
 20
-0.1759404717265038
 30
0.0
 11
28.30350747931375
 21
-0.1759404717265038
 31
0.0
  0
LINE
  5
B6F
330
19
100
AcDbEntity
  8
TitleBlock&Notes
  6
Continuous
 62
     3
100
AcDbLine
 10
28.79850747931375
 20
-0.1363404717265002
 30
0.0
 11
28.27188022651373
 21
-0.1363404717265002
 31
0.0
  0
LINE
  5
B70
330
19
100
AcDbEntity
  8
TitleBlock&Notes
  6
Continuous
 62
     3
100
AcDbLine
 10
28.28769385291371
 20
-0.1561404717265074
 30
0.0
 11
28.77870747931375
 21
-0.1561404717265074
 31
0.0
  0
LINE
  5
B71
330
19
100
AcDbEntity
  8
TitleBlock&Notes
  6
Continuous
 62
     3
100
AcDbLine
 10
29.0163074793137
 20
-0.7732145205265031
 30
0.0
 11
28.79850747931375
 21
-0.7732145205265031
 31
0.0
  0
LINE
  5
B72
330
19
100
AcDbEntity
  8
TitleBlock&Notes
  6
Continuous
 62
     3
100
AcDbLine
 10
28.79850747931375
 20
-0.7858037961264924
 30
0.0
 11
29.0163074793137
 21
-0.7820020773265011
 31
0.0
  0
LINE
  5
B73
330
19
100
AcDbEntity
  8
TitleBlock&Notes
  6
Continuous
 62
     3
100
AcDbLine
 10
28.79850747931375
 20
-0.8016462117264975
 30
0.0
 11
29.0163074793137
 21
-0.7978444929265063
 31
0.0
  0
LINE
  5
B74
330
19
100
AcDbEntity
  8
TitleBlock&Notes
  6
Continuous
 62
     3
100
AcDbLine
 10
29.0163074793137
 20
-0.6952617621265116
 30
0.0
 11
28.79850747931375
 21
-0.6952617621265116
 31
0.0
  0
LINE
  5
B75
330
19
100
AcDbEntity
  8
TitleBlock&Notes
  6
Continuous
 62
     3
100
AcDbLine
 10
29.0163074793137
 20
-0.6754617621264938
 30
0.0
 11
28.79850747931375
 21
-0.6754617621264938
 31
0.0
  0
LINE
  5
B76
330
19
100
AcDbEntity
  8
TitleBlock&Notes
  6
Continuous
 62
     3
100
AcDbLine
 10
29.0163074793137
 20
-0.6173090037265095
 30
0.0
 11
28.79850747931375
 21
-0.6173090037265095
 31
0.0
  0
LINE
  5
B77
330
19
100
AcDbEntity
  8
TitleBlock&Notes
  6
Continuous
 62
     3
100
AcDbLine
 10
29.0163074793137
 20
-0.383450728526503
 30
0.0
 11
28.79850747931375
 21
-0.383450728526503
 31
0.0
  0
LINE
  5
B78
330
19
100
AcDbEntity
  8
TitleBlock&Notes
  6
Continuous
 62
     3
100
AcDbLine
 10
29.0163074793137
 20
-0.3240507285264922
 30
0.0
 11
28.79850747931375
 21
-0.3240507285264922
 31
0.0
  0
LINE
  5
B79
330
19
100
AcDbEntity
  8
TitleBlock&Notes
  6
Continuous
 62
     3
100
AcDbLine
 10
29.0163074793137
 20
-0.3636507285265065
 30
0.0
 11
28.79850747931375
 21
-0.3636507285265065
 31
0.0
  0
LINE
  5
B7A
330
19
100
AcDbEntity
  8
TitleBlock&Notes
  6
Continuous
 62
     3
100
AcDbLine
 10
29.0163074793137
 20
-0.34385072852651
 30
0.0
 11
28.79850747931375
 21
-0.34385072852651
 31
0.0
  0
LINE
  5
B7B
330
19
100
AcDbEntity
  8
TitleBlock&Notes
  6
Continuous
 62
     3
100
AcDbLine
 10
29.0163074793137
 20
-0.6371090037264953
 30
0.0
 11
28.79850747931375
 21
-0.6371090037264953
 31
0.0
  0
LINE
  5
B7C
330
19
100
AcDbEntity
  8
TitleBlock&Notes
  6
Continuous
 62
     3
100
AcDbLine
 10
29.0163074793137
 20
-0.6556617621264973
 30
0.0
 11
28.79850747931375
 21
-0.6556617621264973
 31
0.0
  0
LINE
  5
B7D
330
19
100
AcDbEntity
  8
TitleBlock&Notes
  6
Continuous
 62
     3
100
AcDbLine
 10
29.05590747931374
 20
-0.1759404717265038
 30
0.0
 11
29.35290747931375
 21
-0.1759404717265038
 31
0.0
  0
LINE
  5
B7E
330
19
100
AcDbEntity
  8
TitleBlock&Notes
  6
Continuous
 62
     3
100
AcDbLine
 10
29.94690747931371
 20
-0.1759404717265038
 30
0.0
 11
29.94690747931371
 21
-1.423340511326498
 31
0.0
  0
LINE
  5
B7F
330
19
100
AcDbEntity
  8
TitleBlock&Notes
  6
Continuous
 62
     3
100
AcDbLine
 10
29.90730747931374
 20
-0.1363404717265002
 30
0.0
 11
29.90730747931374
 21
-1.423340471726506
 31
0.0
  0
LINE
  5
B80
330
19
100
AcDbEntity
  8
TitleBlock&Notes
  6
Continuous
 62
     3
100
AcDbLine
 10
29.92710747931374
 20
-1.423340511326498
 30
0.0
 11
29.92710747931374
 21
-0.1561404717265074
 31
0.0
  0
LINE
  5
B81
330
19
100
AcDbEntity
  8
TitleBlock&Notes
  6
Continuous
 62
     3
100
AcDbLine
 10
30.24390747931373
 20
-0.1759404717265038
 30
0.0
 11
30.24390747931373
 21
-1.423340471726506
 31
0.0
  0
LINE
  5
B82
330
19
100
AcDbEntity
  8
TitleBlock&Notes
  6
Continuous
 62
     3
100
AcDbLine
 10
30.28350747931374
 20
-1.423340471726506
 30
0.0
 11
30.28350747931374
 21
-0.1363404717265002
 31
0.0
  0
LINE
  5
B83
330
19
100
AcDbEntity
  8
TitleBlock&Notes
  6
Continuous
 62
     3
100
AcDbLine
 10
30.26370747931376
 20
-1.423340471726506
 30
0.0
 11
30.26370747931376
 21
-0.1561404717265074
 31
0.0
  0
LINE
  5
B84
330
19
100
AcDbEntity
  8
TitleBlock&Notes
  6
Continuous
 62
     3
100
AcDbLine
 10
29.39250747931371
 20
-1.423340511326498
 30
0.0
 11
29.39250747931371
 21
-0.1363404717265002
 31
0.0
  0
LINE
  5
B85
330
19
100
AcDbEntity
  8
TitleBlock&Notes
  6
Continuous
 62
     3
100
AcDbLine
 10
29.37270747931373
 20
-1.423340511326498
 30
0.0
 11
29.37270747931373
 21
-0.1561404717265074
 31
0.0
  0
LINE
  5
B86
330
19
100
AcDbEntity
  8
TitleBlock&Notes
  6
Continuous
 62
     3
100
AcDbLine
 10
29.55090740011373
 20
-1.621340471726503
 30
0.0
 11
29.74890747931373
 21
-1.621340471726503
 31
0.0
  0
LINE
  5
B87
330
19
100
AcDbEntity
  8
TitleBlock&Notes
  6
Continuous
 62
     3
100
AcDbLine
 10
29.74890747931373
 20
-1.58174047172651
 30
0.0
 11
29.5509074397137
 21
-1.58174047172651
 31
0.0
  0
LINE
  5
B88
330
19
100
AcDbEntity
  8
TitleBlock&Notes
  6
Continuous
 62
     3
100
AcDbLine
 10
29.55090740011373
 20
-1.601540471726506
 30
0.0
 11
29.74890747931373
 21
-1.601540471726506
 31
0.0
  0
LINE
  5
B89
330
19
100
AcDbEntity
  8
TitleBlock&Notes
  6
Continuous
 62
     3
100
AcDbLine
 10
29.50994844691372
 20
-1.576353287726496
 30
0.0
 11
29.80574991331373
 21
-1.571190041726497
 31
0.0
  0
LINE
  5
B8A
330
19
100
AcDbEntity
  8
TitleBlock&Notes
  6
Continuous
 62
     3
100
AcDbLine
 10
29.39250747931371
 20
-1.048270140926517
 30
0.0
 11
29.51974821931374
 21
-1.046049135326507
 31
0.0
  0
LINE
  5
B8B
330
19
100
AcDbEntity
  8
TitleBlock&Notes
  6
Continuous
 62
     3
100
AcDbLine
 10
29.90681564731374
 20
-1.435812927326496
 30
0.0
 11
29.39299927171374
 21
-1.435812927326496
 31
0.0
  0
LINE
  5
B8C
330
19
100
AcDbEntity
  8
TitleBlock&Notes
  6
Continuous
 62
     3
100
AcDbLine
 10
29.90730747931374
 20
-1.357860168926505
 30
0.0
 11
29.39250747931371
 21
-1.357860168926505
 31
0.0
  0
LINE
  5
B8D
330
19
100
AcDbEntity
  8
TitleBlock&Notes
  6
Continuous
 62
     3
100
AcDbLine
 10
29.90730747931374
 20
-1.046049135326507
 30
0.0
 11
29.39250747931371
 21
-1.046049135326507
 31
0.0
  0
LINE
  5
B8E
330
19
100
AcDbEntity
  8
TitleBlock&Notes
  6
Continuous
 62
     3
100
AcDbLine
 10
29.90730747931374
 20
-0.9680963769265051
 30
0.0
 11
29.39250747931371
 21
-0.9680963769265051
 31
0.0
  0
LINE
  5
B8F
330
19
100
AcDbEntity
  8
TitleBlock&Notes
  6
Continuous
 62
     3
100
AcDbLine
 10
29.39250747931371
 20
-1.064112556526501
 30
0.0
 11
29.90730747931374
 21
-1.055126682926507
 31
0.0
  0
LINE
  5
B90
330
19
100
AcDbEntity
  8
TitleBlock&Notes
  6
Continuous
 62
     3
100
AcDbLine
 10
29.39250747931371
 20
-1.079954972126495
 30
0.0
 11
29.90730747931374
 21
-1.070969098526513
 31
0.0
  0
LINE
  5
B91
330
19
100
AcDbEntity
  8
TitleBlock&Notes
  6
Continuous
 62
     3
100
AcDbLine
 10
29.39250747931371
 20
-1.09579738772649
 30
0.0
 11
29.90730747931374
 21
-1.086811514126507
 31
0.0
  0
LINE
  5
B92
330
19
100
AcDbEntity
  8
TitleBlock&Notes
  6
Continuous
 62
     3
100
AcDbLine
 10
29.39250747931371
 20
-1.111639803326506
 30
0.0
 11
29.90730747931374
 21
-1.102653929726502
 31
0.0
  0
LINE
  5
B93
330
19
100
AcDbEntity
  8
TitleBlock&Notes
  6
Continuous
 62
     3
100
AcDbLine
 10
29.39250747931371
 20
-1.127482218926511
 30
0.0
 11
29.90730747931374
 21
-1.118496345326507
 31
0.0
  0
LINE
  5
B94
330
19
100
AcDbEntity
  8
TitleBlock&Notes
  6
Continuous
 62
     3
100
AcDbLine
 10
29.39250747931371
 20
-1.143324634526505
 30
0.0
 11
29.90730747931374
 21
-1.134338760926501
 31
0.0
  0
LINE
  5
B95
330
19
100
AcDbEntity
  8
TitleBlock&Notes
  6
Continuous
 62
     3
100
AcDbLine
 10
29.39250747931371
 20
-1.1591670501265
 30
0.0
 11
29.90730747931374
 21
-1.150181176526507
 31
0.0
  0
LINE
  5
B96
330
19
100
AcDbEntity
  8
TitleBlock&Notes
  6
Continuous
 62
     3
100
AcDbLine
 10
29.39250747931371
 20
-1.175009465726505
 30
0.0
 11
29.90730747931374
 21
-1.166023592126501
 31
0.0
  0
LINE
  5
B97
330
19
100
AcDbEntity
  8
TitleBlock&Notes
  6
Continuous
 62
     3
100
AcDbLine
 10
29.39250747931371
 20
-1.190851841726496
 30
0.0
 11
29.90730747931374
 21
-1.181866007726496
 31
0.0
  0
LINE
  5
B98
330
19
100
AcDbEntity
  8
TitleBlock&Notes
  6
Continuous
 62
     3
100
AcDbLine
 10
29.39250747931371
 20
-1.206694257326502
 30
0.0
 11
29.90730747931374
 21
-1.197708423326501
 31
0.0
  0
LINE
  5
B99
330
19
100
AcDbEntity
  8
TitleBlock&Notes
  6
Continuous
 62
     3
100
AcDbLine
 10
29.39250747931371
 20
-1.222536672926496
 30
0.0
 11
29.90730747931374
 21
-1.213550799326513
 31
0.0
  0
LINE
  5
B9A
330
19
100
AcDbEntity
  8
TitleBlock&Notes
  6
Continuous
 62
     3
100
AcDbLine
 10
29.39250747931371
 20
-1.238379088526491
 30
0.0
 11
29.90730747931374
 21
-1.229393214926508
 31
0.0
  0
LINE
  5
B9B
330
19
100
AcDbEntity
  8
TitleBlock&Notes
  6
Continuous
 62
     3
100
AcDbLine
 10
29.39250747931371
 20
-1.254221504126507
 30
0.0
 11
29.90730747931374
 21
-1.245235630526503
 31
0.0
  0
LINE
  5
B9C
330
19
100
AcDbEntity
  8
TitleBlock&Notes
  6
Continuous
 62
     3
100
AcDbLine
 10
29.39250747931371
 20
-1.270063919726512
 30
0.0
 11
29.90730747931374
 21
-1.261078046126508
 31
0.0
  0
LINE
  5
B9D
330
19
100
AcDbEntity
  8
TitleBlock&Notes
  6
Continuous
 62
     3
100
AcDbLine
 10
29.39250747931371
 20
-1.285906335326506
 30
0.0
 11
29.90730747931374
 21
-1.276920461726502
 31
0.0
  0
LINE
  5
B9E
330
19
100
AcDbEntity
  8
TitleBlock&Notes
  6
Continuous
 62
     3
100
AcDbLine
 10
29.39250747931371
 20
-1.301748750926501
 30
0.0
 11
29.90730747931374
 21
-1.292762877326508
 31
0.0
  0
LINE
  5
B9F
330
19
100
AcDbEntity
  8
TitleBlock&Notes
  6
Continuous
 62
     3
100
AcDbLine
 10
29.39250747931371
 20
-1.317591166526506
 30
0.0
 11
29.90730747931374
 21
-1.308605292926502
 31
0.0
  0
LINE
  5
BA0
330
19
100
AcDbEntity
  8
TitleBlock&Notes
  6
Continuous
 62
     3
100
AcDbLine
 10
29.39250747931371
 20
-1.333433582126501
 30
0.0
 11
29.90730747931374
 21
-1.324447708526497
 31
0.0
  0
LINE
  5
BA1
330
19
100
AcDbEntity
  8
TitleBlock&Notes
  6
Continuous
 62
     3
100
AcDbLine
 10
29.39250747931371
 20
-1.349275997726506
 30
0.0
 11
29.90730747931374
 21
-1.340290124126502
 31
0.0
  0
LINE
  5
BA2
330
19
100
AcDbEntity
  8
TitleBlock&Notes
  6
Continuous
 62
     3
100
AcDbLine
 10
29.39250747931371
 20
-0.8229627333265145
 30
0.0
 11
29.90730747931374
 21
-0.8139768597265106
 31
0.0
  0
LINE
  5
BA3
330
19
100
AcDbEntity
  8
TitleBlock&Notes
  6
Continuous
 62
     3
100
AcDbLine
 10
29.39250747931371
 20
-0.8388051489265091
 30
0.0
 11
29.90730747931374
 21
-0.8298192753265052
 31
0.0
  0
LINE
  5
BA4
330
19
100
AcDbEntity
  8
TitleBlock&Notes
  6
Continuous
 62
     3
100
AcDbLine
 10
29.39250747931371
 20
-0.8546475645265037
 30
0.0
 11
29.90730747931374
 21
-0.8456616909265104
 31
0.0
  0
LINE
  5
BA5
330
19
100
AcDbEntity
  8
TitleBlock&Notes
  6
Continuous
 62
     3
100
AcDbLine
 10
29.39250747931371
 20
-0.8704899801265089
 30
0.0
 11
29.90730747931374
 21
-0.8615041065265049
 31
0.0
  0
LINE
  5
BA6
330
19
100
AcDbEntity
  8
TitleBlock&Notes
  6
Continuous
 62
     3
100
AcDbLine
 10
29.39250747931371
 20
-0.8863323957265034
 30
0.0
 11
29.90730747931374
 21
-0.8773465221264995
 31
0.0
  0
LINE
  5
BA7
330
19
100
AcDbEntity
  8
TitleBlock&Notes
  6
Continuous
 62
     3
100
AcDbLine
 10
29.39250747931371
 20
-0.9021748113265086
 30
0.0
 11
29.90730747931374
 21
-0.8931889377265047
 31
0.0
  0
LINE
  5
BA8
330
19
100
AcDbEntity
  8
TitleBlock&Notes
  6
Continuous
 62
     3
100
AcDbLine
 10
29.39250747931371
 20
-0.9180172269265032
 30
0.0
 11
29.90730747931374
 21
-0.9090313533264993
 31
0.0
  0
LINE
  5
BA9
330
19
100
AcDbEntity
  8
TitleBlock&Notes
  6
Continuous
 62
     3
100
AcDbLine
 10
29.39250747931371
 20
-0.9338596425264977
 30
0.0
 11
29.90730747931374
 21
-0.9248737689265045
 31
0.0
  0
LINE
  5
BAA
330
19
100
AcDbEntity
  8
TitleBlock&Notes
  6
Continuous
 62
     3
100
AcDbLine
 10
29.39250747931371
 20
-0.9497020581265029
 30
0.0
 11
29.90730747931374
 21
-0.940716184526499
 31
0.0
  0
LINE
  5
BAB
330
19
100
AcDbEntity
  8
TitleBlock&Notes
  6
Continuous
 62
     3
100
AcDbLine
 10
29.39250747931371
 20
-0.9655444341265155
 30
0.0
 11
29.90730747931374
 21
-0.9565586001264936
 31
0.0
  0
LINE
  5
BAC
330
19
100
AcDbEntity
  8
TitleBlock&Notes
  6
Continuous
 62
     3
100
AcDbLine
 10
29.39505221491371
 20
-1.451619504926499
 30
0.0
 11
29.90612011291377
 21
-1.442698773326492
 31
0.0
  0
LINE
  5
BAD
330
19
100
AcDbEntity
  8
TitleBlock&Notes
  6
Continuous
 62
     3
100
AcDbLine
 10
29.39875766611372
 20
-1.467397253726504
 30
0.0
 11
29.90333559931376
 21
-1.458589817726503
 31
0.0
  0
LINE
  5
BAE
330
19
100
AcDbEntity
  8
TitleBlock&Notes
  6
Continuous
 62
     3
100
AcDbLine
 10
29.40423066331373
 20
-1.483144114526512
 30
0.0
 11
29.89881450691372
 21
-1.474511116526501
 31
0.0
  0
LINE
  5
BAF
330
19
100
AcDbEntity
  8
TitleBlock&Notes
  6
Continuous
 62
     3
100
AcDbLine
 10
29.41166718691376
 20
-1.498856721326498
 30
0.0
 11
29.89238132851373
 21
-1.490465837726494
 31
0.0
  0
LINE
  5
BB0
330
19
100
AcDbEntity
  8
TitleBlock&Notes
  6
Continuous
 62
     3
100
AcDbLine
 10
29.42138863051374
 20
-1.514529450926511
 30
0.0
 11
29.88374765731375
 21
-1.506458931326507
 31
0.0
  0
LINE
  5
BB1
330
19
100
AcDbEntity
  8
TitleBlock&Notes
  6
Continuous
 62
     3
100
AcDbLine
 10
29.43393870211372
 20
-1.530152799326499
 30
0.0
 11
29.87243144251376
 21
-1.522498871726496
 31
0.0
  0
LINE
  5
BB2
330
19
100
AcDbEntity
  8
TitleBlock&Notes
  6
Continuous
 62
     3
100
AcDbLine
 10
29.45032680571371
 20
-1.545709144526496
 30
0.0
 11
29.85756108811371
 21
-1.538600865326502
 31
0.0
  0
LINE
  5
BB3
330
19
100
AcDbEntity
  8
TitleBlock&Notes
  6
Continuous
 62
     3
100
AcDbLine
 10
29.47282633771369
 20
-1.561158846926504
 30
0.0
 11
29.83727978971371
 21
-1.554797265326508
 31
0.0
  0
ARC
  5
BB4
330
19
100
AcDbEntity
  8
TitleBlock&Notes
  6
Continuous
 62
     3
100
AcDbCircle
 10
29.74890747931373
 20
-1.423340471726507
 30
0.0
 40
0.198
100
AcDbArc
 50
270.0000000000008
 51
359.9999953200007
  0
ARC
  5
BB5
330
19
100
AcDbEntity
  8
TitleBlock&Notes
  6
Continuous
 62
     3
100
AcDbCircle
 10
29.74890747931373
 20
-1.423340471726507
 30
0.0
 40
0.1584
100
AcDbArc
 50
270.0000000000008
 51
0.0000000000008142
  0
LINE
  5
BB6
330
19
100
AcDbEntity
  8
TitleBlock&Notes
  6
Continuous
 62
     3
100
AcDbLine
 10
29.80833116011372
 20
-1.357860168926505
 30
0.0
 11
29.90730747931374
 21
-1.356132539726496
 31
0.0
  0
ARC
  5
BB7
330
19
100
AcDbEntity
  8
TitleBlock&Notes
  6
Continuous
 62
     3
100
AcDbCircle
 10
29.74890747931373
 20
-1.423340471726507
 30
0.0
 40
0.1782
100
AcDbArc
 50
270.0000000000008
 51
359.9999953200007
  0
LINE
  5
BB8
330
19
100
AcDbEntity
  8
TitleBlock&Notes
  6
Continuous
 62
     3
100
AcDbLine
 10
30.19587157051374
 20
-1.7166326049265
 30
0.0
 11
30.44190747931371
 21
-1.712338024526497
 31
0.0
  0
LINE
  5
BB9
330
19
100
AcDbEntity
  8
TitleBlock&Notes
  6
Continuous
 62
     3
100
AcDbLine
 10
30.18492910051374
 20
-1.732666011326502
 30
0.0
 11
30.44190747931371
 21
-1.728180440126491
 31
0.0
  0
LINE
  5
BBA
330
19
100
AcDbEntity
  8
TitleBlock&Notes
  6
Continuous
 62
     3
100
AcDbLine
 10
30.17308727491375
 20
-1.748715138926504
 30
0.0
 11
30.44190747931371
 21
-1.744022855726507
 31
0.0
  0
LINE
  5
BBB
330
19
100
AcDbEntity
  8
TitleBlock&Notes
  6
Continuous
 62
     3
100
AcDbLine
 10
30.16026534931369
 20
-1.764781334126512
 30
0.0
 11
30.44190747931371
 21
-1.759865271326512
 31
0.0
  0
LINE
  5
BBC
330
19
100
AcDbEntity
  8
TitleBlock&Notes
  6
Continuous
 62
     3
100
AcDbLine
 10
30.14636487811372
 20
-1.780866378926502
 30
0.0
 11
30.44190747931371
 21
-1.775707686926507
 31
0.0
  0
LINE
  5
BBD
330
19
100
AcDbEntity
  8
TitleBlock&Notes
  6
Continuous
 62
     3
100
AcDbLine
 10
30.13126377451368
 20
-1.796972411726502
 30
0.0
 11
30.44190747931371
 21
-1.791550102526501
 31
0.0
  0
LINE
  5
BBE
330
19
100
AcDbEntity
  8
TitleBlock&Notes
  6
Continuous
 62
     3
100
AcDbLine
 10
30.20598152971373
 20
-1.700613731726496
 30
0.0
 11
30.44190747931371
 21
-1.696495608926502
 31
0.0
  0
LINE
  5
BBF
330
19
100
AcDbEntity
  8
TitleBlock&Notes
  6
Continuous
 62
     3
100
AcDbLine
 10
30.44190747931371
 20
-1.435812927326496
 30
0.0
 11
30.28336194931371
 21
-1.435812927326496
 31
0.0
  0
LINE
  5
BC0
330
19
100
AcDbEntity
  8
TitleBlock&Notes
  6
Continuous
 62
     3
100
AcDbLine
 10
30.28303588291375
 20
-1.445790107726507
 30
0.0
 11
30.44190747931371
 21
-1.443016998926507
 31
0.0
  0
LINE
  5
BC1
330
19
100
AcDbEntity
  8
TitleBlock&Notes
  6
Continuous
 62
     3
100
AcDbLine
 10
30.28213320091372
 20
-1.461648284126505
 30
0.0
 11
30.44190747931371
 21
-1.458859414526502
 31
0.0
  0
LINE
  5
BC2
330
19
100
AcDbEntity
  8
TitleBlock&Notes
  6
Continuous
 62
     3
100
AcDbLine
 10
30.28075547731376
 20
-1.477514736926496
 30
0.0
 11
30.44190747931371
 21
-1.474701830126507
 31
0.0
  0
LINE
  5
BC3
330
19
100
AcDbEntity
  8
TitleBlock&Notes
  6
Continuous
 62
     3
100
AcDbLine
 10
30.27889831651372
 20
-1.493389584926498
 30
0.0
 11
30.44190747931371
 21
-1.490544245726502
 31
0.0
  0
LINE
  5
BC4
330
19
100
AcDbEntity
  8
TitleBlock&Notes
  6
Continuous
 62
     3
100
AcDbLine
 10
30.27655581811372
 20
-1.509272867726496
 30
0.0
 11
30.44190747931371
 21
-1.506386661326496
 31
0.0
  0
LINE
  5
BC5
330
19
100
AcDbEntity
  8
TitleBlock&Notes
  6
Continuous
 62
     3
100
AcDbLine
 10
30.27372073531372
 20
-1.525164783326504
 30
0.0
 11
30.44190747931371
 21
-1.522229076926501
 31
0.0
  0
LINE
  5
BC6
330
19
100
AcDbEntity
  8
TitleBlock&Notes
  6
Continuous
 62
     3
100
AcDbLine
 10
30.27038419771374
 20
-1.541065450526511
 30
0.0
 11
30.44190747931371
 21
-1.538071492526507
 31
0.0
  0
LINE
  5
BC7
330
19
100
AcDbEntity
  8
TitleBlock&Notes
  6
Continuous
 62
     3
100
AcDbLine
 10
30.26653567171374
 20
-1.556975027726499
 30
0.0
 11
30.44190747931371
 21
-1.553913908126501
 31
0.0
  0
LINE
  5
BC8
330
19
100
AcDbEntity
  8
TitleBlock&Notes
  6
Continuous
 62
     3
100
AcDbLine
 10
30.26216272291371
 20
-1.572893752526498
 30
0.0
 11
30.44190747931371
 21
-1.569756323726496
 31
0.0
  0
LINE
  5
BC9
330
19
100
AcDbEntity
  8
TitleBlock&Notes
  6
Continuous
 62
     3
100
AcDbLine
 10
30.25725089731373
 20
-1.588821902126509
 30
0.0
 11
30.44190747931371
 21
-1.58559873932649
 31
0.0
  0
LINE
  5
BCA
330
19
100
AcDbEntity
  8
TitleBlock&Notes
  6
Continuous
 62
     3
100
AcDbLine
 10
30.25178340451374
 20
-1.604759753726503
 30
0.0
 11
30.44190747931371
 21
-1.601441154926506
 31
0.0
  0
LINE
  5
BCB
330
19
100
AcDbEntity
  8
TitleBlock&Notes
  6
Continuous
 62
     3
100
AcDbLine
 10
30.24574080091375
 20
-1.620707663726507
 30
0.0
 11
30.44190747931371
 21
-1.617283530926508
 31
0.0
  0
LINE
  5
BCC
330
19
100
AcDbEntity
  8
TitleBlock&Notes
  6
Continuous
 62
     3
100
AcDbLine
 10
30.23910067291371
 20
-1.636665948926507
 30
0.0
 11
30.44190747931371
 21
-1.633125946526503
 31
0.0
  0
LINE
  5
BCD
330
19
100
AcDbEntity
  8
TitleBlock&Notes
  6
Continuous
 62
     3
100
AcDbLine
 10
30.23183716171373
 20
-1.652635163726506
 30
0.0
 11
30.44190747931371
 21
-1.648968362126497
 31
0.0
  0
LINE
  5
BCE
330
19
100
AcDbEntity
  8
TitleBlock&Notes
  6
Continuous
 62
     3
100
AcDbLine
 10
30.22392029011375
 20
-1.668615783326499
 30
0.0
 11
30.44190747931371
 21
-1.664810777726502
 31
0.0
  0
LINE
  5
BCF
330
19
100
AcDbEntity
  8
TitleBlock&Notes
  6
Continuous
 62
     3
100
AcDbLine
 10
30.21531528931372
 20
-1.684608362126502
 30
0.0
 11
30.44190747931371
 21
-1.680653193326508
 31
0.0
  0
LINE
  5
BD0
330
19
100
AcDbEntity
  8
TitleBlock&Notes
  6
Continuous
 62
     3
100
AcDbLine
 10
30.44190747931371
 20
-1.046049135326507
 30
0.0
 11
30.28350747931374
 21
-1.046049135326507
 31
0.0
  0
LINE
  5
BD1
330
19
100
AcDbEntity
  8
TitleBlock&Notes
  6
Continuous
 62
     3
100
AcDbLine
 10
30.44190747931371
 20
-0.9680963769265051
 30
0.0
 11
30.28350747931374
 21
-0.9680963769265051
 31
0.0
  0
LINE
  5
BD2
330
19
100
AcDbEntity
  8
TitleBlock&Notes
  6
Continuous
 62
     3
100
AcDbLine
 10
30.28350747931374
 20
-1.048560092126505
 30
0.0
 11
30.42735946891373
 21
-1.046049135326507
 31
0.0
  0
LINE
  5
BD3
330
19
100
AcDbEntity
  8
TitleBlock&Notes
  6
Continuous
 62
     3
100
AcDbLine
 10
30.28350747931374
 20
-1.0644025077265
 30
0.0
 11
30.44190747931371
 21
-1.0616376357265
 31
0.0
  0
LINE
  5
BD4
330
19
100
AcDbEntity
  8
TitleBlock&Notes
  6
Continuous
 62
     3
100
AcDbLine
 10
30.28350747931374
 20
-1.080244923326505
 30
0.0
 11
30.44190747931371
 21
-1.077480051326505
 31
0.0
  0
LINE
  5
BD5
330
19
100
AcDbEntity
  8
TitleBlock&Notes
  6
Continuous
 62
     3
100
AcDbLine
 10
30.28350747931374
 20
-1.09608733892651
 30
0.0
 11
30.44190747931371
 21
-1.093322466926499
 31
0.0
  0
LINE
  5
BD6
330
19
100
AcDbEntity
  8
TitleBlock&Notes
  6
Continuous
 62
     3
100
AcDbLine
 10
30.28350747931374
 20
-1.111929754526505
 30
0.0
 11
30.44190747931371
 21
-1.109164842926491
 31
0.0
  0
LINE
  5
BD7
330
19
100
AcDbEntity
  8
TitleBlock&Notes
  6
Continuous
 62
     3
100
AcDbLine
 10
30.28350747931374
 20
-1.127772170126499
 30
0.0
 11
30.44190747931371
 21
-1.125007258526506
 31
0.0
  0
LINE
  5
BD8
330
19
100
AcDbEntity
  8
TitleBlock&Notes
  6
Continuous
 62
     3
100
AcDbLine
 10
30.28350747931374
 20
-1.143614585726494
 30
0.0
 11
30.44190747931371
 21
-1.140849674126512
 31
0.0
  0
LINE
  5
BD9
330
19
100
AcDbEntity
  8
TitleBlock&Notes
  6
Continuous
 62
     3
100
AcDbLine
 10
30.28350747931374
 20
-1.159457001326499
 30
0.0
 11
30.44190747931371
 21
-1.156692089726506
 31
0.0
  0
LINE
  5
BDA
330
19
100
AcDbEntity
  8
TitleBlock&Notes
  6
Continuous
 62
     3
100
AcDbLine
 10
30.28350747931374
 20
-1.175299377326512
 30
0.0
 11
30.44190747931371
 21
-1.172534505326501
 31
0.0
  0
LINE
  5
BDB
330
19
100
AcDbEntity
  8
TitleBlock&Notes
  6
Continuous
 62
     3
100
AcDbLine
 10
30.28350747931374
 20
-1.191141792926506
 30
0.0
 11
30.44190747931371
 21
-1.188376920926506
 31
0.0
  0
LINE
  5
BDC
330
19
100
AcDbEntity
  8
TitleBlock&Notes
  6
Continuous
 62
     3
100
AcDbLine
 10
30.28350747931374
 20
-1.20698420852649
 30
0.0
 11
30.44190747931371
 21
-1.204219336526501
 31
0.0
  0
LINE
  5
BDD
330
19
100
AcDbEntity
  8
TitleBlock&Notes
  6
Continuous
 62
     3
100
AcDbLine
 10
30.28350747931374
 20
-1.222826624126506
 30
0.0
 11
30.44190747931371
 21
-1.220061752126506
 31
0.0
  0
LINE
  5
BDE
330
19
100
AcDbEntity
  8
TitleBlock&Notes
  6
Continuous
 62
     3
100
AcDbLine
 10
30.28350747931374
 20
-1.238669039726511
 30
0.0
 11
30.44190747931371
 21
-1.2359041677265
 31
0.0
  0
LINE
  5
BDF
330
19
100
AcDbEntity
  8
TitleBlock&Notes
  6
Continuous
 62
     3
100
AcDbLine
 10
30.28350747931374
 20
-1.254511455326506
 30
0.0
 11
30.44190747931371
 21
-1.251746583326495
 31
0.0
  0
LINE
  5
BE0
330
19
100
AcDbEntity
  8
TitleBlock&Notes
  6
Continuous
 62
     3
100
AcDbLine
 10
30.28350747931374
 20
-1.2703538709265
 30
0.0
 11
30.44190747931371
 21
-1.2675889989265
 31
0.0
  0
LINE
  5
BE1
330
19
100
AcDbEntity
  8
TitleBlock&Notes
  6
Continuous
 62
     3
100
AcDbLine
 10
30.28350747931374
 20
-1.286196286526495
 30
0.0
 11
30.44190747931371
 21
-1.283431414526495
 31
0.0
  0
LINE
  5
BE2
330
19
100
AcDbEntity
  8
TitleBlock&Notes
  6
Continuous
 62
     3
100
AcDbLine
 10
30.28350747931374
 20
-1.3020387021265
 30
0.0
 11
30.44190747931371
 21
-1.29927383012651
 31
0.0
  0
LINE
  5
BE3
330
19
100
AcDbEntity
  8
TitleBlock&Notes
  6
Continuous
 62
     3
100
AcDbLine
 10
30.28350747931374
 20
-1.317881117726505
 30
0.0
 11
30.44190747931371
 21
-1.315116245726505
 31
0.0
  0
LINE
  5
BE4
330
19
100
AcDbEntity
  8
TitleBlock&Notes
  6
Continuous
 62
     3
100
AcDbLine
 10
30.28350747931374
 20
-1.3337235333265
 30
0.0
 11
30.44190747931371
 21
-1.3309586613265
 31
0.0
  0
LINE
  5
BE5
330
19
100
AcDbEntity
  8
TitleBlock&Notes
  6
Continuous
 62
     3
100
AcDbLine
 10
30.28350747931374
 20
-0.8232526845265031
 30
0.0
 11
30.44190747931371
 21
-0.8204878125265029
 31
0.0
  0
LINE
  5
BE6
330
19
100
AcDbEntity
  8
TitleBlock&Notes
  6
Continuous
 62
     3
100
AcDbLine
 10
30.28350747931374
 20
-0.8390951001264976
 30
0.0
 11
30.44190747931371
 21
-0.8363302281264974
 31
0.0
  0
LINE
  5
BE7
330
19
100
AcDbEntity
  8
TitleBlock&Notes
  6
Continuous
 62
     3
100
AcDbLine
 10
30.28350747931374
 20
-0.8549375157265028
 30
0.0
 11
30.44190747931371
 21
-0.8521726437265026
 31
0.0
  0
LINE
  5
BE8
330
19
100
AcDbEntity
  8
TitleBlock&Notes
  6
Continuous
 62
     3
100
AcDbLine
 10
30.28350747931374
 20
-0.8707799313265081
 30
0.0
 11
30.44190747931371
 21
-0.8680150593264972
 31
0.0
  0
LINE
  5
BE9
330
19
100
AcDbEntity
  8
TitleBlock&Notes
  6
Continuous
 62
     3
100
AcDbLine
 10
30.28350747931374
 20
-0.8866223469265026
 30
0.0
 11
30.44190747931371
 21
-0.8838574749264918
 31
0.0
  0
LINE
  5
BEA
330
19
100
AcDbEntity
  8
TitleBlock&Notes
  6
Continuous
 62
     3
100
AcDbLine
 10
30.28350747931374
 20
-0.9024647625264972
 30
0.0
 11
30.44190747931371
 21
-0.8996998509265043
 31
0.0
  0
LINE
  5
BEB
330
19
100
AcDbEntity
  8
TitleBlock&Notes
  6
Continuous
 62
     3
100
AcDbLine
 10
30.28350747931374
 20
-0.9183071781265024
 30
0.0
 11
30.44190747931371
 21
-0.9155422665265096
 31
0.0
  0
LINE
  5
BEC
330
19
100
AcDbEntity
  8
TitleBlock&Notes
  6
Continuous
 62
     3
100
AcDbLine
 10
30.28350747931374
 20
-0.9341495937264969
 30
0.0
 11
30.44190747931371
 21
-0.9313846821265041
 31
0.0
  0
LINE
  5
BED
330
19
100
AcDbEntity
  8
TitleBlock&Notes
  6
Continuous
 62
     3
100
AcDbLine
 10
30.28350747931374
 20
-0.9499919697265095
 30
0.0
 11
30.44190747931371
 21
-0.9472270977264987
 31
0.0
  0
LINE
  5
BEE
330
19
100
AcDbEntity
  8
TitleBlock&Notes
  6
Continuous
 62
     3
100
AcDbLine
 10
30.28350747931374
 20
-0.9658343853265041
 30
0.0
 11
30.44190747931371
 21
-0.9630695133265039
 31
0.0
  0
LINE
  5
BEF
330
19
100
AcDbEntity
  8
TitleBlock&Notes
  6
Continuous
 62
     3
100
AcDbLine
 10
30.44190747931371
 20
-1.357860168926505
 30
0.0
 11
30.28350747931374
 21
-1.357860168926505
 31
0.0
  0
LINE
  5
BF0
330
19
100
AcDbEntity
  8
TitleBlock&Notes
  6
Continuous
 62
     3
100
AcDbLine
 10
30.28350747931374
 20
-1.349565948926494
 30
0.0
 11
30.44190747931371
 21
-1.346801037326502
 31
0.0
  0
LINE
  5
BF1
330
19
100
AcDbEntity
  8
TitleBlock&Notes
  6
Continuous
 62
     3
100
AcDbLine
 10
30.24390747931373
 20
-0.1759404717265038
 30
0.0
 11
29.94690747931371
 21
-0.1759404717265038
 31
0.0
  0
LINE
  5
BF2
330
19
100
AcDbEntity
  8
TitleBlock&Notes
  6
Continuous
 62
     3
100
AcDbLine
 10
30.28350747931374
 20
-0.1363404717265002
 30
0.0
 11
29.90730747931374
 21
-0.1363404717265002
 31
0.0
  0
LINE
  5
BF3
330
19
100
AcDbEntity
  8
TitleBlock&Notes
  6
Continuous
 62
     3
100
AcDbLine
 10
29.92710747931374
 20
-0.1561404717265074
 30
0.0
 11
30.26370747931376
 21
-0.1561404717265074
 31
0.0
  0
LINE
  5
BF4
330
19
100
AcDbEntity
  8
TitleBlock&Notes
  6
Continuous
 62
     3
100
AcDbLine
 10
29.39250747931371
 20
-0.775435486526499
 30
0.0
 11
29.51974821931374
 21
-0.7732145205265031
 31
0.0
  0
LINE
  5
BF5
330
19
100
AcDbEntity
  8
TitleBlock&Notes
  6
Continuous
 62
     3
100
AcDbLine
 10
29.90730747931374
 20
-0.6952617621265116
 30
0.0
 11
29.39250747931371
 21
-0.6952617621265116
 31
0.0
  0
LINE
  5
BF6
330
19
100
AcDbEntity
  8
TitleBlock&Notes
  6
Continuous
 62
     3
100
AcDbLine
 10
29.90730747931374
 20
-0.6173090037265095
 30
0.0
 11
29.39250747931371
 21
-0.6173090037265095
 31
0.0
  0
LINE
  5
BF7
330
19
100
AcDbEntity
  8
TitleBlock&Notes
  6
Continuous
 62
     3
100
AcDbLine
 10
29.90730747931374
 20
-0.7732145205265031
 30
0.0
 11
29.39250747931371
 21
-0.7732145205265031
 31
0.0
  0
LINE
  5
BF8
330
19
100
AcDbEntity
  8
TitleBlock&Notes
  6
Continuous
 62
     3
100
AcDbLine
 10
29.90730747931374
 20
-0.383450728526503
 30
0.0
 11
29.39250747931371
 21
-0.383450728526503
 31
0.0
  0
LINE
  5
BF9
330
19
100
AcDbEntity
  8
TitleBlock&Notes
  6
Continuous
 62
     3
100
AcDbLine
 10
29.90730747931374
 20
-0.3240507285264922
 30
0.0
 11
29.39250747931371
 21
-0.3240507285264922
 31
0.0
  0
LINE
  5
BFA
330
19
100
AcDbEntity
  8
TitleBlock&Notes
  6
Continuous
 62
     3
100
AcDbLine
 10
29.39250747931371
 20
-0.7912779021264936
 30
0.0
 11
29.90730747931374
 21
-0.7822920285265003
 31
0.0
  0
LINE
  5
BFB
330
19
100
AcDbEntity
  8
TitleBlock&Notes
  6
Continuous
 62
     3
100
AcDbLine
 10
29.39250747931371
 20
-0.8071203177264987
 30
0.0
 11
29.90730747931374
 21
-0.7981344441264949
 31
0.0
  0
LINE
  5
BFC
330
19
100
AcDbEntity
  8
TitleBlock&Notes
  6
Continuous
 62
     3
100
AcDbLine
 10
29.90730747931374
 20
-0.34385072852651
 30
0.0
 11
29.39250747931371
 21
-0.34385072852651
 31
0.0
  0
LINE
  5
BFD
330
19
100
AcDbEntity
  8
TitleBlock&Notes
  6
Continuous
 62
     3
100
AcDbLine
 10
29.90730747931374
 20
-0.3636507285265065
 30
0.0
 11
29.39250747931371
 21
-0.3636507285265065
 31
0.0
  0
LINE
  5
BFE
330
19
100
AcDbEntity
  8
TitleBlock&Notes
  6
Continuous
 62
     3
100
AcDbLine
 10
29.90730747931374
 20
-0.6371090037264953
 30
0.0
 11
29.39250747931371
 21
-0.6371090037264953
 31
0.0
  0
LINE
  5
BFF
330
19
100
AcDbEntity
  8
TitleBlock&Notes
  6
Continuous
 62
     3
100
AcDbLine
 10
29.90730747931374
 20
-0.6569090037265024
 30
0.0
 11
29.39250747931371
 21
-0.6569090037265024
 31
0.0
  0
LINE
  5
C00
330
19
100
AcDbEntity
  8
TitleBlock&Notes
  6
Continuous
 62
     3
100
AcDbLine
 10
29.90730747931374
 20
-0.6767090037264989
 30
0.0
 11
29.39250747931371
 21
-0.6767090037264989
 31
0.0
  0
LINE
  5
C01
330
19
100
AcDbEntity
  8
TitleBlock&Notes
  6
Continuous
 62
     3
100
AcDbLine
 10
30.44190747931371
 20
-0.7732145205265031
 30
0.0
 11
30.28350747931374
 21
-0.7732145205265031
 31
0.0
  0
LINE
  5
C02
330
19
100
AcDbEntity
  8
TitleBlock&Notes
  6
Continuous
 62
     3
100
AcDbLine
 10
30.28350747931374
 20
-0.7757254377265089
 30
0.0
 11
30.42735946891373
 21
-0.7732145205265031
 31
0.0
  0
LINE
  5
C03
330
19
100
AcDbEntity
  8
TitleBlock&Notes
  6
Continuous
 62
     3
100
AcDbLine
 10
30.28350747931374
 20
-0.7915678533265141
 30
0.0
 11
30.44190747931371
 21
-0.7888029813265032
 31
0.0
  0
LINE
  5
C04
330
19
100
AcDbEntity
  8
TitleBlock&Notes
  6
Continuous
 62
     3
100
AcDbLine
 10
30.28350747931374
 20
-0.8074102689265085
 30
0.0
 11
30.44190747931371
 21
-0.8046453969264977
 31
0.0
  0
LINE
  5
C05
330
19
100
AcDbEntity
  8
TitleBlock&Notes
  6
Continuous
 62
     3
100
AcDbLine
 10
30.44190747931371
 20
-0.6952617621265116
 30
0.0
 11
30.28350747931374
 21
-0.6952617621265116
 31
0.0
  0
LINE
  5
C06
330
19
100
AcDbEntity
  8
TitleBlock&Notes
  6
Continuous
 62
     3
100
AcDbLine
 10
30.44190747931371
 20
-0.6767090037264989
 30
0.0
 11
30.28350747931374
 21
-0.6767090037264989
 31
0.0
  0
LINE
  5
C07
330
19
100
AcDbEntity
  8
TitleBlock&Notes
  6
Continuous
 62
     3
100
AcDbLine
 10
30.44190747931371
 20
-0.6173090037265095
 30
0.0
 11
30.28350747931374
 21
-0.6173090037265095
 31
0.0
  0
LINE
  5
C08
330
19
100
AcDbEntity
  8
TitleBlock&Notes
  6
Continuous
 62
     3
100
AcDbLine
 10
30.44190747931371
 20
-0.383450728526503
 30
0.0
 11
30.28350747931374
 21
-0.383450728526503
 31
0.0
  0
LINE
  5
C09
330
19
100
AcDbEntity
  8
TitleBlock&Notes
  6
Continuous
 62
     3
100
AcDbLine
 10
30.44190747931371
 20
-0.3240507285264922
 30
0.0
 11
30.28350747931374
 21
-0.3240507285264922
 31
0.0
  0
LINE
  5
C0A
330
19
100
AcDbEntity
  8
TitleBlock&Notes
  6
Continuous
 62
     3
100
AcDbLine
 10
30.44190747931371
 20
-0.34385072852651
 30
0.0
 11
30.28350747931374
 21
-0.34385072852651
 31
0.0
  0
LINE
  5
C0B
330
19
100
AcDbEntity
  8
TitleBlock&Notes
  6
Continuous
 62
     3
100
AcDbLine
 10
30.44190747931371
 20
-0.3636507285265065
 30
0.0
 11
30.28350747931374
 21
-0.3636507285265065
 31
0.0
  0
LINE
  5
C0C
330
19
100
AcDbEntity
  8
TitleBlock&Notes
  6
Continuous
 62
     3
100
AcDbLine
 10
30.44190747931371
 20
-0.6371090037264953
 30
0.0
 11
30.28350747931374
 21
-0.6371090037264953
 31
0.0
  0
LINE
  5
C0D
330
19
100
AcDbEntity
  8
TitleBlock&Notes
  6
Continuous
 62
     3
100
AcDbLine
 10
30.44190747931371
 20
-0.6569090037265024
 30
0.0
 11
30.28350747931374
 21
-0.6569090037265024
 31
0.0
  0
LINE
  5
C0F
330
19
100
AcDbEntity
  8
TitleBlock&Notes
  6
Continuous
 62
     3
100
AcDbLine
 10
31.33290747931374
 20
-0.1759404717265038
 30
0.0
 11
32.52090747931372
 21
-0.1759404717265038
 31
0.0
  0
LINE
  5
C10
330
19
100
AcDbEntity
  8
TitleBlock&Notes
  6
Continuous
 62
     3
100
AcDbLine
 10
31.29330747931373
 20
-0.1363404717265002
 30
0.0
 11
32.5605074793137
 21
-0.1363404717265002
 31
0.0
  0
LINE
  5
C11
330
19
100
AcDbEntity
  8
TitleBlock&Notes
  6
Continuous
 62
     3
100
AcDbLine
 10
31.3131074793137
 20
-0.1561404717265074
 30
0.0
 11
32.54070747931372
 21
-0.1561404717265074
 31
0.0
  0
LINE
  5
C12
330
19
100
AcDbEntity
  8
TitleBlock&Notes
  6
Continuous
 62
     3
100
AcDbLine
 10
30.8181074793137
 20
-0.8139212217265008
 30
0.0
 11
31.7388074793137
 21
-0.7978503141264977
 31
0.0
  0
LINE
  5
C13
330
19
100
AcDbEntity
  8
TitleBlock&Notes
  6
Continuous
 62
     3
100
AcDbLine
 10
30.77850747931374
 20
-0.1759404717265038
 30
0.0
 11
30.77850747931374
 21
-1.621340471726503
 31
0.0
  0
LINE
  5
C14
330
19
100
AcDbEntity
  8
TitleBlock&Notes
  6
Continuous
 62
     3
100
AcDbLine
 10
30.8181074793137
 20
-1.58174047172651
 30
0.0
 11
30.8181074793137
 21
-0.1363404717265002
 31
0.0
  0
LINE
  5
C15
330
19
100
AcDbEntity
  8
TitleBlock&Notes
  6
Continuous
 62
     3
100
AcDbLine
 10
30.79830747931373
 20
-1.601540471726506
 30
0.0
 11
30.79830747931373
 21
-0.1561404717265074
 31
0.0
  0
LINE
  5
C16
330
19
100
AcDbEntity
  8
TitleBlock&Notes
  6
Continuous
 62
     3
100
AcDbLine
 10
30.77850747931374
 20
-1.621340471726503
 30
0.0
 11
31.53090747931374
 21
-1.621340471726503
 31
0.0
  0
LINE
  5
C17
330
19
100
AcDbEntity
  8
TitleBlock&Notes
  6
Continuous
 62
     3
100
AcDbLine
 10
31.55070747931373
 20
-1.601540471726506
 30
0.0
 11
30.79830747931373
 21
-1.601540471726506
 31
0.0
  0
LINE
  5
C18
330
19
100
AcDbEntity
  8
TitleBlock&Notes
  6
Continuous
 62
     3
100
AcDbLine
 10
31.5705074793137
 20
-1.58174047172651
 30
0.0
 11
30.8181074793137
 21
-1.58174047172651
 31
0.0
  0
LINE
  5
C19
330
19
100
AcDbEntity
  8
TitleBlock&Notes
  6
Continuous
 62
     3
100
AcDbLine
 10
30.8181074793137
 20
-1.435812927326496
 30
0.0
 11
31.7388074793137
 21
-1.435812927326496
 31
0.0
  0
LINE
  5
C1A
330
19
100
AcDbEntity
  8
TitleBlock&Notes
  6
Continuous
 62
     3
100
AcDbLine
 10
30.8181074793137
 20
-1.4522928237265
 30
0.0
 11
31.7388074793137
 21
-1.436221955726511
 31
0.0
  0
LINE
  5
C1B
330
19
100
AcDbEntity
  8
TitleBlock&Notes
  6
Continuous
 62
     3
100
AcDbLine
 10
30.8181074793137
 20
-1.468135239326505
 30
0.0
 11
31.7388074793137
 21
-1.452064371326505
 31
0.0
  0
LINE
  5
C1C
330
19
100
AcDbEntity
  8
TitleBlock&Notes
  6
Continuous
 62
     3
100
AcDbLine
 10
30.8181074793137
 20
-1.4839776549265
 30
0.0
 11
31.7388074793137
 21
-1.4679067869265
 31
0.0
  0
LINE
  5
C1D
330
19
100
AcDbEntity
  8
TitleBlock&Notes
  6
Continuous
 62
     3
100
AcDbLine
 10
30.8181074793137
 20
-1.499820070526505
 30
0.0
 11
31.7388074793137
 21
-1.483749202526505
 31
0.0
  0
LINE
  5
C1E
330
19
100
AcDbEntity
  8
TitleBlock&Notes
  6
Continuous
 62
     3
100
AcDbLine
 10
30.8181074793137
 20
-1.515662486126499
 30
0.0
 11
31.7388074793137
 21
-1.499591578526507
 31
0.0
  0
LINE
  5
C1F
330
19
100
AcDbEntity
  8
TitleBlock&Notes
  6
Continuous
 62
     3
100
AcDbLine
 10
30.8181074793137
 20
-1.531504901726494
 30
0.0
 11
31.7388074793137
 21
-1.515433994126501
 31
0.0
  0
LINE
  5
C20
330
19
100
AcDbEntity
  8
TitleBlock&Notes
  6
Continuous
 62
     3
100
AcDbLine
 10
30.8181074793137
 20
-1.547347317326499
 30
0.0
 11
31.7388074793137
 21
-1.531276409726496
 31
0.0
  0
LINE
  5
C21
330
19
100
AcDbEntity
  8
TitleBlock&Notes
  6
Continuous
 62
     3
100
AcDbLine
 10
30.8181074793137
 20
-1.563189732926494
 30
0.0
 11
31.7388074793137
 21
-1.547118825326512
 31
0.0
  0
LINE
  5
C22
330
19
100
AcDbEntity
  8
TitleBlock&Notes
  6
Continuous
 62
     3
100
AcDbLine
 10
30.8181074793137
 20
-1.579032108926506
 30
0.0
 11
31.7388074793137
 21
-1.562961240926506
 31
0.0
  0
LINE
  5
C23
330
19
100
AcDbEntity
  8
TitleBlock&Notes
  6
Continuous
 62
     3
100
AcDbLine
 10
31.06152939211371
 20
-0.9680963769265051
 30
0.0
 11
31.7388074793137
 21
-0.9562744701265071
 31
0.0
  0
LINE
  5
C24
330
19
100
AcDbEntity
  8
TitleBlock&Notes
  6
Continuous
 62
     3
100
AcDbLine
 10
30.8181074793137
 20
-1.055071044926497
 30
0.0
 11
31.33497067891376
 21
-1.046049135326507
 31
0.0
  0
LINE
  5
C25
330
19
100
AcDbEntity
  8
TitleBlock&Notes
  6
Continuous
 62
     3
100
AcDbLine
 10
30.8181074793137
 20
-1.357860168926505
 30
0.0
 11
31.7388074793137
 21
-1.357860168926505
 31
0.0
  0
LINE
  5
C26
330
19
100
AcDbEntity
  8
TitleBlock&Notes
  6
Continuous
 62
     3
100
AcDbLine
 10
30.8181074793137
 20
-1.046049135326507
 30
0.0
 11
31.7388074793137
 21
-1.046049135326507
 31
0.0
  0
LINE
  5
C27
330
19
100
AcDbEntity
  8
TitleBlock&Notes
  6
Continuous
 62
     3
100
AcDbLine
 10
30.8181074793137
 20
-0.9680963769265051
 30
0.0
 11
31.7388074793137
 21
-0.9680963769265051
 31
0.0
  0
LINE
  5
C28
330
19
100
AcDbEntity
  8
TitleBlock&Notes
  6
Continuous
 62
     3
100
AcDbLine
 10
30.8181074793137
 20
-1.070913460526503
 30
0.0
 11
31.7388074793137
 21
-1.054842552926499
 31
0.0
  0
LINE
  5
C29
330
19
100
AcDbEntity
  8
TitleBlock&Notes
  6
Continuous
 62
     3
100
AcDbLine
 10
30.8181074793137
 20
-1.086755836526494
 30
0.0
 11
31.7388074793137
 21
-1.070684968526494
 31
0.0
  0
LINE
  5
C2A
330
19
100
AcDbEntity
  8
TitleBlock&Notes
  6
Continuous
 62
     3
100
AcDbLine
 10
30.8181074793137
 20
-1.10259825212651
 30
0.0
 11
31.7388074793137
 21
-1.086527384126499
 31
0.0
  0
LINE
  5
C2B
330
19
100
AcDbEntity
  8
TitleBlock&Notes
  6
Continuous
 62
     3
100
AcDbLine
 10
30.8181074793137
 20
-1.118440667726504
 30
0.0
 11
31.7388074793137
 21
-1.102369799726494
 31
0.0
  0
LINE
  5
C2C
330
19
100
AcDbEntity
  8
TitleBlock&Notes
  6
Continuous
 62
     3
100
AcDbLine
 10
30.8181074793137
 20
-1.134283083326499
 30
0.0
 11
31.7388074793137
 21
-1.11821221532651
 31
0.0
  0
LINE
  5
C2D
330
19
100
AcDbEntity
  8
TitleBlock&Notes
  6
Continuous
 62
     3
100
AcDbLine
 10
30.8181074793137
 20
-1.150125498926504
 30
0.0
 11
31.7388074793137
 21
-1.134054630926504
 31
0.0
  0
LINE
  5
C2E
330
19
100
AcDbEntity
  8
TitleBlock&Notes
  6
Continuous
 62
     3
100
AcDbLine
 10
30.8181074793137
 20
-1.165967914526509
 30
0.0
 11
31.7388074793137
 21
-1.149897046526499
 31
0.0
  0
LINE
  5
C2F
330
19
100
AcDbEntity
  8
TitleBlock&Notes
  6
Continuous
 62
     3
100
AcDbLine
 10
30.8181074793137
 20
-1.181810330126504
 30
0.0
 11
31.7388074793137
 21
-1.165739462126504
 31
0.0
  0
LINE
  5
C30
330
19
100
AcDbEntity
  8
TitleBlock&Notes
  6
Continuous
 62
     3
100
AcDbLine
 10
30.8181074793137
 20
-1.197652745726498
 30
0.0
 11
31.7388074793137
 21
-1.181581877726509
 31
0.0
  0
LINE
  5
C31
330
19
100
AcDbEntity
  8
TitleBlock&Notes
  6
Continuous
 62
     3
100
AcDbLine
 10
30.8181074793137
 20
-1.213495161326504
 30
0.0
 11
31.7388074793137
 21
-1.197424293326504
 31
0.0
  0
LINE
  5
C32
330
19
100
AcDbEntity
  8
TitleBlock&Notes
  6
Continuous
 62
     3
100
AcDbLine
 10
30.8181074793137
 20
-1.229337576926498
 30
0.0
 11
31.7388074793137
 21
-1.213266708926498
 31
0.0
  0
LINE
  5
C33
330
19
100
AcDbEntity
  8
TitleBlock&Notes
  6
Continuous
 62
     3
100
AcDbLine
 10
30.8181074793137
 20
-1.245179992526514
 30
0.0
 11
31.7388074793137
 21
-1.2291090849265
 31
0.0
  0
LINE
  5
C34
330
19
100
AcDbEntity
  8
TitleBlock&Notes
  6
Continuous
 62
     3
100
AcDbLine
 10
30.8181074793137
 20
-1.261022408126509
 30
0.0
 11
31.7388074793137
 21
-1.244951500526495
 31
0.0
  0
LINE
  5
C35
330
19
100
AcDbEntity
  8
TitleBlock&Notes
  6
Continuous
 62
     3
100
AcDbLine
 10
30.8181074793137
 20
-1.276864823726503
 30
0.0
 11
31.7388074793137
 21
-1.260793916126511
 31
0.0
  0
LINE
  5
C36
330
19
100
AcDbEntity
  8
TitleBlock&Notes
  6
Continuous
 62
     3
100
AcDbLine
 10
30.8181074793137
 20
-1.292707239326508
 30
0.0
 11
31.7388074793137
 21
-1.276636331726505
 31
0.0
  0
LINE
  5
C37
330
19
100
AcDbEntity
  8
TitleBlock&Notes
  6
Continuous
 62
     3
100
AcDbLine
 10
30.8181074793137
 20
-1.30854961532651
 30
0.0
 11
31.7388074793137
 21
-1.2924787473265
 31
0.0
  0
LINE
  5
C38
330
19
100
AcDbEntity
  8
TitleBlock&Notes
  6
Continuous
 62
     3
100
AcDbLine
 10
30.8181074793137
 20
-1.324392030926505
 30
0.0
 11
31.7388074793137
 21
-1.308321162926505
 31
0.0
  0
LINE
  5
C39
330
19
100
AcDbEntity
  8
TitleBlock&Notes
  6
Continuous
 62
     3
100
AcDbLine
 10
30.8181074793137
 20
-1.340234446526499
 30
0.0
 11
31.7388074793137
 21
-1.32416357852651
 31
0.0
  0
LINE
  5
C3A
330
19
100
AcDbEntity
  8
TitleBlock&Notes
  6
Continuous
 62
     3
100
AcDbLine
 10
30.8181074793137
 20
-1.356076862126505
 30
0.0
 11
31.7388074793137
 21
-1.340005994126505
 31
0.0
  0
LINE
  5
C3B
330
19
100
AcDbEntity
  8
TitleBlock&Notes
  6
Continuous
 62
     3
100
AcDbLine
 10
30.8181074793137
 20
-0.8297636373264953
 30
0.0
 11
31.7388074793137
 21
-0.8136927297265028
 31
0.0
  0
LINE
  5
C3C
330
19
100
AcDbEntity
  8
TitleBlock&Notes
  6
Continuous
 62
     3
100
AcDbLine
 10
30.8181074793137
 20
-0.8456060529265112
 30
0.0
 11
31.7388074793137
 21
-0.8295351453264974
 31
0.0
  0
LINE
  5
C3D
330
19
100
AcDbEntity
  8
TitleBlock&Notes
  6
Continuous
 62
     3
100
AcDbLine
 10
30.8181074793137
 20
-0.8614484289265131
 30
0.0
 11
31.7388074793137
 21
-0.8453775609264919
 31
0.0
  0
LINE
  5
C3E
330
19
100
AcDbEntity
  8
TitleBlock&Notes
  6
Continuous
 62
     3
100
AcDbLine
 10
30.8181074793137
 20
-0.8772908445265077
 30
0.0
 11
31.7388074793137
 21
-0.8612199765265078
 31
0.0
  0
LINE
  5
C3F
330
19
100
AcDbEntity
  8
TitleBlock&Notes
  6
Continuous
 62
     3
100
AcDbLine
 10
30.8181074793137
 20
-0.8931332601265022
 30
0.0
 11
31.7388074793137
 21
-0.877062392126513
 31
0.0
  0
LINE
  5
C40
330
19
100
AcDbEntity
  8
TitleBlock&Notes
  6
Continuous
 62
     3
100
AcDbLine
 10
30.8181074793137
 20
-0.9089756757264968
 30
0.0
 11
31.7388074793137
 21
-0.8929048077265075
 31
0.0
  0
LINE
  5
C41
330
19
100
AcDbEntity
  8
TitleBlock&Notes
  6
Continuous
 62
     3
100
AcDbLine
 10
30.8181074793137
 20
-0.924818091326502
 30
0.0
 11
31.7388074793137
 21
-0.9087472233265021
 31
0.0
  0
LINE
  5
C42
330
19
100
AcDbEntity
  8
TitleBlock&Notes
  6
Continuous
 62
     3
100
AcDbLine
 10
30.8181074793137
 20
-0.9406605069265072
 30
0.0
 11
31.7388074793137
 21
-0.9245896389264967
 31
0.0
  0
LINE
  5
C43
330
19
100
AcDbEntity
  8
TitleBlock&Notes
  6
Continuous
 62
     3
100
AcDbLine
 10
30.8181074793137
 20
-0.9565029225265018
 30
0.0
 11
31.7388074793137
 21
-0.9404320545265019
 31
0.0
  0
LINE
  5
C44
330
19
100
AcDbEntity
  8
TitleBlock&Notes
  6
Continuous
 62
     3
100
AcDbLine
 10
30.8181074793137
 20
-1.436450408126505
 30
0.0
 11
30.85462897531371
 21
-1.435812927326496
 31
0.0
  0
LINE
  5
C45
330
19
100
AcDbEntity
  8
TitleBlock&Notes
  6
Continuous
 62
     3
100
AcDbLine
 10
31.5705074793137
 20
-1.724323083326501
 30
0.0
 11
31.7388074793137
 21
-1.721385396926494
 31
0.0
  0
LINE
  5
C46
330
19
100
AcDbEntity
  8
TitleBlock&Notes
  6
Continuous
 62
     3
100
AcDbLine
 10
31.5705074793137
 20
-1.740165459326503
 30
0.0
 11
31.7388074793137
 21
-1.737227772926507
 31
0.0
  0
LINE
  5
C47
330
19
100
AcDbEntity
  8
TitleBlock&Notes
  6
Continuous
 62
     3
100
AcDbLine
 10
31.5705074793137
 20
-1.756007874926508
 30
0.0
 11
31.7388074793137
 21
-1.753070188526502
 31
0.0
  0
LINE
  5
C48
330
19
100
AcDbEntity
  8
TitleBlock&Notes
  6
Continuous
 62
     3
100
AcDbLine
 10
31.5705074793137
 20
-1.771850290526503
 30
0.0
 11
31.7388074793137
 21
-1.768912604126507
 31
0.0
  0
LINE
  5
C49
330
19
100
AcDbEntity
  8
TitleBlock&Notes
  6
Continuous
 62
     3
100
AcDbLine
 10
31.5705074793137
 20
-1.787692706126497
 30
0.0
 11
31.7388074793137
 21
-1.784755019726501
 31
0.0
  0
LINE
  5
C4A
330
19
100
AcDbEntity
  8
TitleBlock&Notes
  6
Continuous
 62
     3
100
AcDbLine
 10
31.5705074793137
 20
-1.803535121726492
 30
0.0
 11
31.7388074793137
 21
-1.800597435326507
 31
0.0
  0
LINE
  5
C4B
330
19
100
AcDbEntity
  8
TitleBlock&Notes
  6
Continuous
 62
     3
100
AcDbLine
 10
31.5705074793137
 20
-1.581741342926497
 30
0.0
 11
31.7388074793137
 21
-1.578803656526512
 31
0.0
  0
LINE
  5
C4C
330
19
100
AcDbEntity
  8
TitleBlock&Notes
  6
Continuous
 62
     3
100
AcDbLine
 10
31.5705074793137
 20
-1.597583758526502
 30
0.0
 11
31.7388074793137
 21
-1.594646072126506
 31
0.0
  0
LINE
  5
C4D
330
19
100
AcDbEntity
  8
TitleBlock&Notes
  6
Continuous
 62
     3
100
AcDbLine
 10
31.5705074793137
 20
-1.613426174126507
 30
0.0
 11
31.7388074793137
 21
-1.610488487726501
 31
0.0
  0
LINE
  5
C4E
330
19
100
AcDbEntity
  8
TitleBlock&Notes
  6
Continuous
 62
     3
100
AcDbLine
 10
31.5705074793137
 20
-1.629268589726502
 30
0.0
 11
31.7388074793137
 21
-1.626330903326506
 31
0.0
  0
LINE
  5
C4F
330
19
100
AcDbEntity
  8
TitleBlock&Notes
  6
Continuous
 62
     3
100
AcDbLine
 10
31.5705074793137
 20
-1.645111005326496
 30
0.0
 11
31.7388074793137
 21
-1.6421733189265
 31
0.0
  0
LINE
  5
C50
330
19
100
AcDbEntity
  8
TitleBlock&Notes
  6
Continuous
 62
     3
100
AcDbLine
 10
31.5705074793137
 20
-1.660953420926491
 30
0.0
 11
31.7388074793137
 21
-1.658015734526506
 31
0.0
  0
LINE
  5
C51
330
19
100
AcDbEntity
  8
TitleBlock&Notes
  6
Continuous
 62
     3
100
AcDbLine
 10
31.5705074793137
 20
-1.676795836526506
 30
0.0
 11
31.7388074793137
 21
-1.6738581501265
 31
0.0
  0
LINE
  5
C52
330
19
100
AcDbEntity
  8
TitleBlock&Notes
  6
Continuous
 62
     3
100
AcDbLine
 10
31.5705074793137
 20
-1.692638252126512
 30
0.0
 11
31.7388074793137
 21
-1.689700565726495
 31
0.0
  0
LINE
  5
C53
330
19
100
AcDbEntity
  8
TitleBlock&Notes
  6
Continuous
 62
     3
100
AcDbLine
 10
31.5705074793137
 20
-1.708480667726506
 30
0.0
 11
31.7388074793137
 21
-1.7055429813265
 31
0.0
  0
LINE
  5
C54
330
19
100
AcDbEntity
  8
TitleBlock&Notes
  6
Continuous
 62
     3
100
AcDbLine
 10
31.62355361971374
 20
-1.357860168926505
 30
0.0
 11
31.7388074793137
 21
-1.355848409726499
 31
0.0
  0
LINE
  5
C55
330
19
100
AcDbEntity
  8
TitleBlock&Notes
  6
Continuous
 62
     3
100
AcDbLine
 10
31.29330747931373
 20
-0.5125404717264975
 30
0.0
 11
31.7388074793137
 21
-0.5125404717264975
 31
0.0
  0
LINE
  5
C56
330
19
100
AcDbEntity
  8
TitleBlock&Notes
  6
Continuous
 62
     3
100
AcDbLine
 10
30.8181074793137
 20
-0.7822363905265011
 30
0.0
 11
31.33497067891376
 21
-0.7732145205265031
 31
0.0
  0
LINE
  5
C57
330
19
100
AcDbEntity
  8
TitleBlock&Notes
  6
Continuous
 62
     3
100
AcDbLine
 10
30.8181074793137
 20
-0.7732145205265031
 30
0.0
 11
31.7388074793137
 21
-0.7732145205265031
 31
0.0
  0
LINE
  5
C58
330
19
100
AcDbEntity
  8
TitleBlock&Notes
  6
Continuous
 62
     3
100
AcDbLine
 10
30.8181074793137
 20
-0.6952617621265116
 30
0.0
 11
31.7388074793137
 21
-0.6952617621265116
 31
0.0
  0
LINE
  5
C59
330
19
100
AcDbEntity
  8
TitleBlock&Notes
  6
Continuous
 62
     3
100
AcDbLine
 10
30.8181074793137
 20
-0.6173090037265095
 30
0.0
 11
31.7388074793137
 21
-0.6173090037265095
 31
0.0
  0
LINE
  5
C5A
330
19
100
AcDbEntity
  8
TitleBlock&Notes
  6
Continuous
 62
     3
100
AcDbLine
 10
30.8181074793137
 20
-0.7980788061265063
 30
0.0
 11
31.7388074793137
 21
-0.7820078985265031
 31
0.0
  0
LINE
  5
C5B
330
19
100
AcDbEntity
  8
TitleBlock&Notes
  6
Continuous
 62
     3
100
AcDbLine
 10
30.8181074793137
 20
-0.6371090037264953
 30
0.0
 11
31.7388074793137
 21
-0.6371090037264953
 31
0.0
  0
LINE
  5
C5C
330
19
100
AcDbEntity
  8
TitleBlock&Notes
  6
Continuous
 62
     3
100
AcDbLine
 10
30.8181074793137
 20
-0.6569090037265024
 30
0.0
 11
31.7388074793137
 21
-0.6569090037265024
 31
0.0
  0
LINE
  5
C5D
330
19
100
AcDbEntity
  8
TitleBlock&Notes
  6
Continuous
 62
     3
100
AcDbLine
 10
30.8181074793137
 20
-0.6767090037264989
 30
0.0
 11
31.7388074793137
 21
-0.6767090037264989
 31
0.0
  0
LINE
  5
C5E
330
19
100
AcDbEntity
  8
TitleBlock&Notes
  6
Continuous
 62
     3
100
AcDbLine
 10
31.29330747931373
 20
-0.1363404717265002
 30
0.0
 11
31.29330747931373
 21
-0.5125404717264975
 31
0.0
  0
LINE
  5
C5F
330
19
100
AcDbEntity
  8
TitleBlock&Notes
  6
Continuous
 62
     3
100
AcDbLine
 10
30.8181074793137
 20
-0.383450728526503
 30
0.0
 11
31.29330747931373
 21
-0.383450728526503
 31
0.0
  0
LINE
  5
C60
330
19
100
AcDbEntity
  8
TitleBlock&Notes
  6
Continuous
 62
     3
100
AcDbLine
 10
30.8181074793137
 20
-0.3240507285264922
 30
0.0
 11
31.29330747931373
 21
-0.3240507285264922
 31
0.0
  0
LINE
  5
C61
330
19
100
AcDbEntity
  8
TitleBlock&Notes
  6
Continuous
 62
     3
100
AcDbLine
 10
30.8181074793137
 20
-0.34385072852651
 30
0.0
 11
31.29330747931373
 21
-0.34385072852651
 31
0.0
  0
LINE
  5
C62
330
19
100
AcDbEntity
  8
TitleBlock&Notes
  6
Continuous
 62
     3
100
AcDbLine
 10
30.8181074793137
 20
-0.3636507285265065
 30
0.0
 11
31.29330747931373
 21
-0.3636507285265065
 31
0.0
  0
LINE
  5
C63
330
19
100
AcDbEntity
  8
TitleBlock&Notes
  6
Continuous
 62
     3
100
AcDbLine
 10
31.33290747931374
 20
-0.4729404717265045
 30
0.0
 11
31.77840747931374
 21
-0.4729404717265045
 31
0.0
  0
LINE
  5
C64
330
19
100
AcDbEntity
  8
TitleBlock&Notes
  6
Continuous
 62
     3
100
AcDbLine
 10
31.33290747931374
 20
-0.4729404717265045
 30
0.0
 11
31.33290747931374
 21
-0.1759404717265038
 31
0.0
  0
LINE
  5
C65
330
19
100
AcDbEntity
  8
TitleBlock&Notes
  6
Continuous
 62
     3
100
AcDbLine
 10
31.3131074793137
 20
-0.1561404717265074
 30
0.0
 11
31.3131074793137
 21
-0.492740471726501
 31
0.0
  0
LINE
  5
C66
330
19
100
AcDbEntity
  8
TitleBlock&Notes
  6
Continuous
 62
     3
100
AcDbLine
 10
31.3131074793137
 20
-0.492740471726501
 30
0.0
 11
31.75860747931374
 21
-0.492740471726501
 31
0.0
  0
LINE
  5
C67
330
19
100
AcDbEntity
  8
TitleBlock&Notes
  6
Continuous
 62
     3
100
AcDbLine
 10
32.1150074793137
 20
-1.730661182126505
 30
0.0
 11
32.67930747931369
 21
-1.720811315726509
 31
0.0
  0
LINE
  5
C68
330
19
100
AcDbEntity
  8
TitleBlock&Notes
  6
Continuous
 62
     3
100
AcDbLine
 10
32.1150074793137
 20
-1.74650359772651
 30
0.0
 11
32.67930747931369
 21
-1.736653731326503
 31
0.0
  0
LINE
  5
C69
330
19
100
AcDbEntity
  8
TitleBlock&Notes
  6
Continuous
 62
     3
100
AcDbLine
 10
32.1150074793137
 20
-1.762346013326505
 30
0.0
 11
32.67930747931369
 21
-1.752496146926498
 31
0.0
  0
LINE
  5
C6A
330
19
100
AcDbEntity
  8
TitleBlock&Notes
  6
Continuous
 62
     3
100
AcDbLine
 10
32.1150074793137
 20
-1.778188428926499
 30
0.0
 11
32.67930747931369
 21
-1.7683385229265
 31
0.0
  0
LINE
  5
C6B
330
19
100
AcDbEntity
  8
TitleBlock&Notes
  6
Continuous
 62
     3
100
AcDbLine
 10
32.1150074793137
 20
-1.794030844526504
 30
0.0
 11
32.67930747931369
 21
-1.784180938526516
 31
0.0
  0
LINE
  5
C6C
330
19
100
AcDbEntity
  8
TitleBlock&Notes
  6
Continuous
 62
     3
100
AcDbLine
 10
32.1150074793137
 20
-1.435812927326496
 30
0.0
 11
32.67930747931369
 21
-1.435812927326496
 31
0.0
  0
LINE
  5
C6D
330
19
100
AcDbEntity
  8
TitleBlock&Notes
  6
Continuous
 62
     3
100
AcDbLine
 10
32.1150074793137
 20
-1.445497780526503
 30
0.0
 11
32.6698513953137
 21
-1.435812927326496
 31
0.0
  0
LINE
  5
C6E
330
19
100
AcDbEntity
  8
TitleBlock&Notes
  6
Continuous
 62
     3
100
AcDbLine
 10
32.1150074793137
 20
-1.461340196126508
 30
0.0
 11
32.67930747931369
 21
-1.451490290126498
 31
0.0
  0
LINE
  5
C6F
330
19
100
AcDbEntity
  8
TitleBlock&Notes
  6
Continuous
 62
     3
100
AcDbLine
 10
32.1150074793137
 20
-1.477182572126499
 30
0.0
 11
32.67930747931369
 21
-1.467332705726493
 31
0.0
  0
LINE
  5
C70
330
19
100
AcDbEntity
  8
TitleBlock&Notes
  6
Continuous
 62
     3
100
AcDbLine
 10
32.1150074793137
 20
-1.493024987726494
 30
0.0
 11
32.67930747931369
 21
-1.483175121326498
 31
0.0
  0
LINE
  5
C71
330
19
100
AcDbEntity
  8
TitleBlock&Notes
  6
Continuous
 62
     3
100
AcDbLine
 10
32.1150074793137
 20
-1.508867403326499
 30
0.0
 11
32.67930747931369
 21
-1.499017536926514
 31
0.0
  0
LINE
  5
C72
330
19
100
AcDbEntity
  8
TitleBlock&Notes
  6
Continuous
 62
     3
100
AcDbLine
 10
32.1150074793137
 20
-1.524709818926494
 30
0.0
 11
32.67930747931369
 21
-1.514859952526508
 31
0.0
  0
LINE
  5
C73
330
19
100
AcDbEntity
  8
TitleBlock&Notes
  6
Continuous
 62
     3
100
AcDbLine
 10
32.1150074793137
 20
-1.54055223452651
 30
0.0
 11
32.67930747931369
 21
-1.5307023285265
 31
0.0
  0
LINE
  5
C74
330
19
100
AcDbEntity
  8
TitleBlock&Notes
  6
Continuous
 62
     3
100
AcDbLine
 10
32.1150074793137
 20
-1.556394650126504
 30
0.0
 11
32.67930747931369
 21
-1.546544744126505
 31
0.0
  0
LINE
  5
C75
330
19
100
AcDbEntity
  8
TitleBlock&Notes
  6
Continuous
 62
     3
100
AcDbLine
 10
32.1150074793137
 20
-1.572237065726499
 30
0.0
 11
32.67930747931369
 21
-1.562387159726499
 31
0.0
  0
LINE
  5
C76
330
19
100
AcDbEntity
  8
TitleBlock&Notes
  6
Continuous
 62
     3
100
AcDbLine
 10
32.1150074793137
 20
-1.588079481326504
 30
0.0
 11
32.67930747931369
 21
-1.578229575326504
 31
0.0
  0
LINE
  5
C77
330
19
100
AcDbEntity
  8
TitleBlock&Notes
  6
Continuous
 62
     3
100
AcDbLine
 10
32.1150074793137
 20
-1.603921896926509
 30
0.0
 11
32.67930747931369
 21
-1.594071990926499
 31
0.0
  0
LINE
  5
C78
330
19
100
AcDbEntity
  8
TitleBlock&Notes
  6
Continuous
 62
     3
100
AcDbLine
 10
32.1150074793137
 20
-1.619764312526504
 30
0.0
 11
32.67930747931369
 21
-1.609914406526494
 31
0.0
  0
LINE
  5
C79
330
19
100
AcDbEntity
  8
TitleBlock&Notes
  6
Continuous
 62
     3
100
AcDbLine
 10
32.1150074793137
 20
-1.635606728126498
 30
0.0
 11
32.67930747931369
 21
-1.625756822126499
 31
0.0
  0
LINE
  5
C7A
330
19
100
AcDbEntity
  8
TitleBlock&Notes
  6
Continuous
 62
     3
100
AcDbLine
 10
32.1150074793137
 20
-1.651449143726503
 30
0.0
 11
32.67930747931369
 21
-1.641599237726515
 31
0.0
  0
LINE
  5
C7B
330
19
100
AcDbEntity
  8
TitleBlock&Notes
  6
Continuous
 62
     3
100
AcDbLine
 10
32.1150074793137
 20
-1.667291559326498
 30
0.0
 11
32.67930747931369
 21
-1.657441653326509
 31
0.0
  0
LINE
  5
C7C
330
19
100
AcDbEntity
  8
TitleBlock&Notes
  6
Continuous
 62
     3
100
AcDbLine
 10
32.1150074793137
 20
-1.683133974926514
 30
0.0
 11
32.67930747931369
 21
-1.673284068926504
 31
0.0
  0
LINE
  5
C7D
330
19
100
AcDbEntity
  8
TitleBlock&Notes
  6
Continuous
 62
     3
100
AcDbLine
 10
32.1150074793137
 20
-1.698976350926505
 30
0.0
 11
32.67930747931369
 21
-1.689126484526509
 31
0.0
  0
LINE
  5
C7E
330
19
100
AcDbEntity
  8
TitleBlock&Notes
  6
Continuous
 62
     3
100
AcDbLine
 10
32.1150074793137
 20
-1.7148187665265
 30
0.0
 11
32.67930747931369
 21
-1.704968900126504
 31
0.0
  0
LINE
  5
C7F
330
19
100
AcDbEntity
  8
TitleBlock&Notes
  6
Continuous
 62
     3
100
AcDbLine
 10
32.1150074793137
 20
-0.9680963769265051
 30
0.0
 11
32.67930747931369
 21
-0.9680963769265051
 31
0.0
  0
LINE
  5
C80
330
19
100
AcDbEntity
  8
TitleBlock&Notes
  6
Continuous
 62
     3
100
AcDbLine
 10
32.1150074793137
 20
-1.046049135326507
 30
0.0
 11
32.67930747931369
 21
-1.046049135326507
 31
0.0
  0
LINE
  5
C81
330
19
100
AcDbEntity
  8
TitleBlock&Notes
  6
Continuous
 62
     3
100
AcDbLine
 10
32.1150074793137
 20
-1.357860168926505
 30
0.0
 11
32.67930747931369
 21
-1.357860168926505
 31
0.0
  0
LINE
  5
C82
330
19
100
AcDbEntity
  8
TitleBlock&Notes
  6
Continuous
 62
     3
100
AcDbLine
 10
32.1150074793137
 20
-1.064118377726513
 30
0.0
 11
32.67930747931369
 21
-1.054268471726503
 31
0.0
  0
LINE
  5
C83
330
19
100
AcDbEntity
  8
TitleBlock&Notes
  6
Continuous
 62
     3
100
AcDbLine
 10
32.1150074793137
 20
-1.079960793326508
 30
0.0
 11
32.67930747931369
 21
-1.070110887326508
 31
0.0
  0
LINE
  5
C84
330
19
100
AcDbEntity
  8
TitleBlock&Notes
  6
Continuous
 62
     3
100
AcDbLine
 10
32.1150074793137
 20
-1.095803208926502
 30
0.0
 11
32.67930747931369
 21
-1.085953302926503
 31
0.0
  0
LINE
  5
C85
330
19
100
AcDbEntity
  8
TitleBlock&Notes
  6
Continuous
 62
     3
100
AcDbLine
 10
32.1150074793137
 20
-1.111645624526508
 30
0.0
 11
32.67930747931369
 21
-1.101795718526508
 31
0.0
  0
LINE
  5
C86
330
19
100
AcDbEntity
  8
TitleBlock&Notes
  6
Continuous
 62
     3
100
AcDbLine
 10
32.1150074793137
 20
-1.127488040126502
 30
0.0
 11
32.67930747931369
 21
-1.117638134126503
 31
0.0
  0
LINE
  5
C87
330
19
100
AcDbEntity
  8
TitleBlock&Notes
  6
Continuous
 62
     3
100
AcDbLine
 10
32.1150074793137
 20
-1.143330455726507
 30
0.0
 11
32.67930747931369
 21
-1.133480549726497
 31
0.0
  0
LINE
  5
C88
330
19
100
AcDbEntity
  8
TitleBlock&Notes
  6
Continuous
 62
     3
100
AcDbLine
 10
32.1150074793137
 20
-1.159172871326502
 30
0.0
 11
32.67930747931369
 21
-1.149322965326502
 31
0.0
  0
LINE
  5
C89
330
19
100
AcDbEntity
  8
TitleBlock&Notes
  6
Continuous
 62
     3
100
AcDbLine
 10
32.1150074793137
 20
-1.175015286926496
 30
0.0
 11
32.67930747931369
 21
-1.165165380926497
 31
0.0
  0
LINE
  5
C8A
330
19
100
AcDbEntity
  8
TitleBlock&Notes
  6
Continuous
 62
     3
100
AcDbLine
 10
32.1150074793137
 20
-1.190857702526502
 30
0.0
 11
32.67930747931369
 21
-1.181007796526513
 31
0.0
  0
LINE
  5
C8B
330
19
100
AcDbEntity
  8
TitleBlock&Notes
  6
Continuous
 62
     3
100
AcDbLine
 10
32.1150074793137
 20
-1.206700078526514
 30
0.0
 11
32.67930747931369
 21
-1.196850212126507
 31
0.0
  0
LINE
  5
C8C
330
19
100
AcDbEntity
  8
TitleBlock&Notes
  6
Continuous
 62
     3
100
AcDbLine
 10
32.1150074793137
 20
-1.222542494126509
 30
0.0
 11
32.67930747931369
 21
-1.212692627726491
 31
0.0
  0
LINE
  5
C8D
330
19
100
AcDbEntity
  8
TitleBlock&Notes
  6
Continuous
 62
     3
100
AcDbLine
 10
32.1150074793137
 20
-1.238384909726493
 30
0.0
 11
32.67930747931369
 21
-1.228535043326507
 31
0.0
  0
LINE
  5
C8E
330
19
100
AcDbEntity
  8
TitleBlock&Notes
  6
Continuous
 62
     3
100
AcDbLine
 10
32.1150074793137
 20
-1.254227325326509
 30
0.0
 11
32.67930747931369
 21
-1.244377458926502
 31
0.0
  0
LINE
  5
C8F
330
19
100
AcDbEntity
  8
TitleBlock&Notes
  6
Continuous
 62
     3
100
AcDbLine
 10
32.1150074793137
 20
-1.270069740926503
 30
0.0
 11
32.67930747931369
 21
-1.260219834926504
 31
0.0
  0
LINE
  5
C90
330
19
100
AcDbEntity
  8
TitleBlock&Notes
  6
Continuous
 62
     3
100
AcDbLine
 10
32.1150074793137
 20
-1.285912156526508
 30
0.0
 11
32.67930747931369
 21
-1.276062250526498
 31
0.0
  0
LINE
  5
C91
330
19
100
AcDbEntity
  8
TitleBlock&Notes
  6
Continuous
 62
     3
100
AcDbLine
 10
32.1150074793137
 20
-1.301754572126503
 30
0.0
 11
32.67930747931369
 21
-1.291904666126503
 31
0.0
  0
LINE
  5
C92
330
19
100
AcDbEntity
  8
TitleBlock&Notes
  6
Continuous
 62
     3
100
AcDbLine
 10
32.1150074793137
 20
-1.317596987726497
 30
0.0
 11
32.67930747931369
 21
-1.307747081726498
 31
0.0
  0
LINE
  5
C93
330
19
100
AcDbEntity
  8
TitleBlock&Notes
  6
Continuous
 62
     3
100
AcDbLine
 10
32.1150074793137
 20
-1.333439403326503
 30
0.0
 11
32.67930747931369
 21
-1.323589497326503
 31
0.0
  0
LINE
  5
C94
330
19
100
AcDbEntity
  8
TitleBlock&Notes
  6
Continuous
 62
     3
100
AcDbLine
 10
32.1150074793137
 20
-1.349281818926497
 30
0.0
 11
32.67930747931369
 21
-1.339431912926498
 31
0.0
  0
LINE
  5
C95
330
19
100
AcDbEntity
  8
TitleBlock&Notes
  6
Continuous
 62
     3
100
AcDbLine
 10
32.1150074793137
 20
-0.8229685545264953
 30
0.0
 11
32.67930747931369
 21
-0.8131186485265065
 31
0.0
  0
LINE
  5
C96
330
19
100
AcDbEntity
  8
TitleBlock&Notes
  6
Continuous
 62
     3
100
AcDbLine
 10
32.1150074793137
 20
-0.8388109701265111
 30
0.0
 11
32.67930747931369
 21
-0.828961064126501
 31
0.0
  0
LINE
  5
C97
330
19
100
AcDbEntity
  8
TitleBlock&Notes
  6
Continuous
 62
     3
100
AcDbLine
 10
32.1150074793137
 20
-0.8546533857265057
 30
0.0
 11
32.67930747931369
 21
-0.8448034797265062
 31
0.0
  0
LINE
  5
C98
330
19
100
AcDbEntity
  8
TitleBlock&Notes
  6
Continuous
 62
     3
100
AcDbLine
 10
32.1150074793137
 20
-0.8704958013265002
 30
0.0
 11
32.67930747931369
 21
-0.8606458953265008
 31
0.0
  0
LINE
  5
C99
330
19
100
AcDbEntity
  8
TitleBlock&Notes
  6
Continuous
 62
     3
100
AcDbLine
 10
32.1150074793137
 20
-0.8863382169265054
 30
0.0
 11
32.67930747931369
 21
-0.876488310926506
 31
0.0
  0
LINE
  5
C9A
330
19
100
AcDbEntity
  8
TitleBlock&Notes
  6
Continuous
 62
     3
100
AcDbLine
 10
32.1150074793137
 20
-0.9021806325265
 30
0.0
 11
32.67930747931369
 21
-0.8923307265265005
 31
0.0
  0
LINE
  5
C9B
330
19
100
AcDbEntity
  8
TitleBlock&Notes
  6
Continuous
 62
     3
100
AcDbLine
 10
32.1150074793137
 20
-0.9180230481265052
 30
0.0
 11
32.67930747931369
 21
-0.9081731421264951
 31
0.0
  0
LINE
  5
C9C
330
19
100
AcDbEntity
  8
TitleBlock&Notes
  6
Continuous
 62
     3
100
AcDbLine
 10
32.1150074793137
 20
-0.9338654637264998
 30
0.0
 11
32.67930747931369
 21
-0.9240155577265003
 31
0.0
  0
LINE
  5
C9D
330
19
100
AcDbEntity
  8
TitleBlock&Notes
  6
Continuous
 62
     3
100
AcDbLine
 10
32.1150074793137
 20
-0.9497078793264943
 30
0.0
 11
32.67930747931369
 21
-0.9398579733264948
 31
0.0
  0
LINE
  5
C9E
330
19
100
AcDbEntity
  8
TitleBlock&Notes
  6
Continuous
 62
     3
100
AcDbLine
 10
32.1150074793137
 20
-0.9655502949264995
 30
0.0
 11
32.67930747931369
 21
-0.9557003889265107
 31
0.0
  0
LINE
  5
C9F
330
19
100
AcDbEntity
  8
TitleBlock&Notes
  6
Continuous
 62
     3
100
AcDbLine
 10
32.53116482971369
 20
-1.357860168926505
 30
0.0
 11
32.67930747931369
 21
-1.355274328526492
 31
0.0
  0
LINE
  5
CA0
330
19
100
AcDbEntity
  8
TitleBlock&Notes
  6
Continuous
 62
     3
100
AcDbLine
 10
32.1150074793137
 20
-1.048275962126497
 30
0.0
 11
32.2425818889137
 21
-1.046049135326507
 31
0.0
  0
LINE
  5
CA1
330
19
100
AcDbEntity
  8
TitleBlock&Notes
  6
Continuous
 62
     3
100
AcDbLine
 10
33.0555074793137
 20
-1.047701880926512
 30
0.0
 11
33.15019313851375
 21
-1.046049135326507
 31
0.0
  0
LINE
  5
CA2
330
19
100
AcDbEntity
  8
TitleBlock&Notes
  6
Continuous
 62
     3
100
AcDbLine
 10
32.1150074793137
 20
-0.7732145205265031
 30
0.0
 11
32.67930747931369
 21
-0.7732145205265031
 31
0.0
  0
LINE
  5
CA3
330
19
100
AcDbEntity
  8
TitleBlock&Notes
  6
Continuous
 62
     3
100
AcDbLine
 10
32.1150074793137
 20
-0.7912837233264956
 30
0.0
 11
32.67930747931369
 21
-0.7814338569264994
 31
0.0
  0
LINE
  5
CA4
330
19
100
AcDbEntity
  8
TitleBlock&Notes
  6
Continuous
 62
     3
100
AcDbLine
 10
32.1150074793137
 20
-0.8071261389265007
 30
0.0
 11
32.67930747931369
 21
-0.797276272526494
 31
0.0
  0
LINE
  5
CA5
330
19
100
AcDbEntity
  8
TitleBlock&Notes
  6
Continuous
 62
     3
100
AcDbLine
 10
32.1150074793137
 20
-0.6173090037265095
 30
0.0
 11
32.67930747931369
 21
-0.6173090037265095
 31
0.0
  0
LINE
  5
CA6
330
19
100
AcDbEntity
  8
TitleBlock&Notes
  6
Continuous
 62
     3
100
AcDbLine
 10
32.1150074793137
 20
-0.6371090037264953
 30
0.0
 11
32.67930747931369
 21
-0.6371090037264953
 31
0.0
  0
LINE
  5
CA7
330
19
100
AcDbEntity
  8
TitleBlock&Notes
  6
Continuous
 62
     3
100
AcDbLine
 10
32.1150074793137
 20
-0.6952617621265116
 30
0.0
 11
32.67930747931369
 21
-0.6952617621265116
 31
0.0
  0
LINE
  5
CA8
330
19
100
AcDbEntity
  8
TitleBlock&Notes
  6
Continuous
 62
     3
100
AcDbLine
 10
32.1150074793137
 20
-0.6569090037265024
 30
0.0
 11
32.67930747931369
 21
-0.6569090037265024
 31
0.0
  0
LINE
  5
CA9
330
19
100
AcDbEntity
  8
TitleBlock&Notes
  6
Continuous
 62
     3
100
AcDbLine
 10
32.1150074793137
 20
-0.6767090037264989
 30
0.0
 11
32.67930747931369
 21
-0.6767090037264989
 31
0.0
  0
LINE
  5
CAA
330
19
100
AcDbEntity
  8
TitleBlock&Notes
  6
Continuous
 62
     3
100
AcDbLine
 10
32.5605074793137
 20
-0.383450728526503
 30
0.0
 11
32.67930747931369
 21
-0.383450728526503
 31
0.0
  0
LINE
  5
CAB
330
19
100
AcDbEntity
  8
TitleBlock&Notes
  6
Continuous
 62
     3
100
AcDbLine
 10
32.5605074793137
 20
-0.3240507285264922
 30
0.0
 11
32.67930747931369
 21
-0.3240507285264922
 31
0.0
  0
LINE
  5
CAC
330
19
100
AcDbEntity
  8
TitleBlock&Notes
  6
Continuous
 62
     3
100
AcDbLine
 10
32.5605074793137
 20
-0.3636507285265065
 30
0.0
 11
32.67930747931369
 21
-0.3636507285265065
 31
0.0
  0
LINE
  5
CAD
330
19
100
AcDbEntity
  8
TitleBlock&Notes
  6
Continuous
 62
     3
100
AcDbLine
 10
32.5605074793137
 20
-0.34385072852651
 30
0.0
 11
32.67930747931369
 21
-0.34385072852651
 31
0.0
  0
LINE
  5
CAE
330
19
100
AcDbEntity
  8
TitleBlock&Notes
  6
Continuous
 62
     3
100
AcDbLine
 10
32.1150074793137
 20
-0.775441307726501
 30
0.0
 11
32.2425818889137
 21
-0.7732145205265031
 31
0.0
  0
LINE
  5
CAF
330
19
100
AcDbEntity
  8
TitleBlock&Notes
  6
Continuous
 62
     3
100
AcDbLine
 10
32.1150074793137
 20
-0.5125404717264975
 30
0.0
 11
32.5605074793137
 21
-0.5125404717264975
 31
0.0
  0
LINE
  5
CB0
330
19
100
AcDbEntity
  8
TitleBlock&Notes
  6
Continuous
 62
     3
100
AcDbLine
 10
32.09520747931373
 20
-0.492740471726501
 30
0.0
 11
32.54070747931372
 21
-0.492740471726501
 31
0.0
  0
LINE
  5
CB1
330
19
100
AcDbEntity
  8
TitleBlock&Notes
  6
Continuous
 62
     3
100
AcDbLine
 10
32.52090747931372
 20
-0.4729404717265045
 30
0.0
 11
32.07540747931375
 21
-0.4729404717265045
 31
0.0
  0
LINE
  5
CB2
330
19
100
AcDbEntity
  8
TitleBlock&Notes
  6
Continuous
 62
     3
100
AcDbLine
 10
32.52090747931372
 20
-0.1759404717265038
 30
0.0
 11
32.52090747931372
 21
-0.4729404717265045
 31
0.0
  0
LINE
  5
CB3
330
19
100
AcDbEntity
  8
TitleBlock&Notes
  6
Continuous
 62
     3
100
AcDbLine
 10
32.5605074793137
 20
-0.5125404717264975
 30
0.0
 11
32.5605074793137
 21
-0.1363404717265002
 31
0.0
  0
LINE
  5
CB4
330
19
100
AcDbEntity
  8
TitleBlock&Notes
  6
Continuous
 62
     3
100
AcDbLine
 10
32.54070747931372
 20
-0.492740471726501
 30
0.0
 11
32.54070747931372
 21
-0.1561404717265074
 31
0.0
  0
LINE
  5
CB5
330
19
100
AcDbEntity
  8
TitleBlock&Notes
  6
Continuous
 62
     3
100
AcDbLine
 10
33.0555074793137
 20
-0.7748672265265047
 30
0.0
 11
33.15019313851375
 21
-0.7732145205265031
 31
0.0
  0
LINE
  5
CB6
330
19
100
AcDbEntity
  8
TitleBlock&Notes
  6
Continuous
 62
     3
100
AcDbLine
 10
32.71890747931371
 20
-0.1759404717265038
 30
0.0
 11
33.01590747931372
 21
-0.1759404717265038
 31
0.0
  0
LINE
  5
CB7
330
19
100
AcDbEntity
  8
TitleBlock&Notes
  6
Continuous
 62
     3
100
AcDbLine
 10
32.67930747931369
 20
-0.1363404717265002
 30
0.0
 11
33.0555074793137
 21
-0.1363404717265002
 31
0.0
  0
LINE
  5
CB8
330
19
100
AcDbEntity
  8
TitleBlock&Notes
  6
Continuous
 62
     3
100
AcDbLine
 10
32.69910747931374
 20
-0.1561404717265074
 30
0.0
 11
33.03570747931372
 21
-0.1561404717265074
 31
0.0
  0
LINE
  5
CBA
330
19
100
AcDbEntity
  8
TitleBlock&Notes
 62
     3
100
AcDbLine
 10
45.60691454971376
 20
5.761175262273495
 30
0.0
 11
45.60691454971376
 21
-3.396324737726496
 31
0.0
  0
TEXT
  5
CBB
330
19
100
AcDbEntity
  8
TitleBlock&Notes
  6
Continuous
 62
     3
100
AcDbText
 10
39.16841867409466
 20
-2.697324890754701
 30
0.0
 40
0.25344
  1
FAX (905) 951-0672
 41
1.282051279999999
100
AcDbText
  0
TEXT
  5
CBC
330
19
100
AcDbEntity
  8
TitleBlock&Notes
  6
Continuous
 62
     3
100
AcDbText
 10
39.86052122993847
 20
-2.251931055014456
 30
0.0
 40
0.25344
  1
(905) 951-0670 
 41
1.282051279999999
100
AcDbText
  0
TEXT
  5
CBD
330
19
100
AcDbEntity
  8
TitleBlock&Notes
  6
Continuous
 62
     3
100
AcDbText
 10
38.73318004897062
 20
-0.1006500634021465
 30
0.0
 40
0.594
  1
MULTICYL  Inc.
 41
0.85470085
100
AcDbText
  0
TEXT
  5
CBE
330
19
100
AcDbEntity
  8
TitleBlock&Notes
  6
Continuous
 62
     3
100
AcDbText
 10
39.24901520458845
 20
-0.7003484673573448
 30
0.0
 40
0.3168
  1
640 Hardwick Road, Unit 5
 41
0.7000000000000001
100
AcDbText
  0
LINE
  5
CBF
330
19
100
AcDbEntity
  8
TitleBlock&Notes
  6
Continuous
 62
     3
100
AcDbLine
 10
37.27290747931375
 20
-1.957940471726507
 30
0.0
 11
37.27290747931375
 21
-1.58174047172651
 31
0.0
  0
LINE
  5
CC0
330
19
100
AcDbEntity
  8
TitleBlock&Notes
  6
Continuous
 62
     3
100
AcDbLine
 10
37.25310747931372
 20
-1.93814047172651
 30
0.0
 11
37.25310747931372
 21
-1.601540471726506
 31
0.0
  0
LINE
  5
CC1
330
19
100
AcDbEntity
  8
TitleBlock&Notes
  6
Continuous
 62
     3
100
AcDbLine
 10
37.23330747931372
 20
-1.918340471726514
 30
0.0
 11
37.23330747931372
 21
-1.621340471726503
 31
0.0
  0
LINE
  5
CC2
330
19
100
AcDbEntity
  8
TitleBlock&Notes
  6
Continuous
 62
     3
100
AcDbLine
 10
37.27290747931375
 20
-1.814896242926499
 30
0.0
 11
37.71030036931373
 21
-1.807261521326497
 31
0.0
  0
LINE
  5
CC3
330
19
100
AcDbEntity
  8
TitleBlock&Notes
  6
Continuous
 62
     3
100
AcDbLine
 10
36.18390747931371
 20
-1.918340471726514
 30
0.0
 11
36.18390747931371
 21
-0.1759404717265038
 31
0.0
  0
LINE
  5
CC4
330
19
100
AcDbEntity
  8
TitleBlock&Notes
  6
Continuous
 62
     3
100
AcDbLine
 10
36.14430747931369
 20
-0.1363404717265002
 30
0.0
 11
36.14430747931369
 21
-1.957940471726507
 31
0.0
  0
LINE
  5
CC5
330
19
100
AcDbEntity
  8
TitleBlock&Notes
  6
Continuous
 62
     3
100
AcDbLine
 10
36.16410747931374
 20
-0.1561404717265074
 30
0.0
 11
36.16410747931374
 21
-1.93814047172651
 31
0.0
  0
LINE
  5
CC6
330
19
100
AcDbEntity
  8
TitleBlock&Notes
  6
Continuous
 62
     3
100
AcDbLine
 10
34.4390633673137
 20
-1.816833950126495
 30
0.0
 11
35.15430747931371
 21
-1.804349337326501
 31
0.0
  0
LINE
  5
CC7
330
19
100
AcDbEntity
  8
TitleBlock&Notes
  6
Continuous
 62
     3
100
AcDbLine
 10
35.19390747931372
 20
-1.918340471726514
 30
0.0
 11
35.19390747931372
 21
-1.324340471726502
 31
0.0
  0
LINE
  5
CC8
330
19
100
AcDbEntity
  8
TitleBlock&Notes
  6
Continuous
 62
     3
100
AcDbLine
 10
35.49090747931373
 20
-1.918340471726514
 30
0.0
 11
35.49090747931373
 21
-1.324340471726502
 31
0.0
  0
LINE
  5
CC9
330
19
100
AcDbEntity
  8
TitleBlock&Notes
  6
Continuous
 62
     3
100
AcDbLine
 10
35.15430747931371
 20
-1.332511614926497
 30
0.0
 11
35.15430747931371
 21
-1.957940471726507
 31
0.0
  0
LINE
  5
CCA
330
19
100
AcDbEntity
  8
TitleBlock&Notes
  6
Continuous
 62
     3
100
AcDbLine
 10
35.53050747931369
 20
-1.957940471726507
 30
0.0
 11
35.53050747931369
 21
-1.332511614926497
 31
0.0
  0
LINE
  5
CCB
330
19
100
AcDbEntity
  8
TitleBlock&Notes
  6
Continuous
 62
     3
100
AcDbLine
 10
35.51070747931371
 20
-1.3284260433265
 30
0.0
 11
35.51070747931371
 21
-1.93814047172651
 31
0.0
  0
LINE
  5
CCC
330
19
100
AcDbEntity
  8
TitleBlock&Notes
  6
Continuous
 62
     3
100
AcDbLine
 10
35.17410747931374
 20
-1.93814047172651
 30
0.0
 11
35.17410747931374
 21
-1.3284260433265
 31
0.0
  0
ARC
  5
CCD
330
19
100
AcDbEntity
  8
TitleBlock&Notes
  6
Continuous
 62
     3
100
AcDbCircle
 10
34.00590747931373
 20
-1.222556116526507
 30
0.0
 40
0.6957843948000001
100
AcDbArc
 50
185.1275404200005
 51
354.872459580001
  0
ARC
  5
CCE
330
19
100
AcDbEntity
  8
TitleBlock&Notes
  6
Continuous
 62
     3
100
AcDbCircle
 10
34.00590747931373
 20
-1.222556116526507
 30
0.0
 40
0.7353843948
100
AcDbArc
 50
184.9874829000004
 51
358.2401137300008
  0
ARC
  5
CCF
330
19
100
AcDbEntity
  8
TitleBlock&Notes
  6
Continuous
 62
     3
100
AcDbCircle
 10
34.00590747931373
 20
-1.222556116526507
 30
0.0
 40
0.7155843948
100
AcDbArc
 50
184.9874829000004
 51
356.6043585300008
  0
LINE
  5
CD0
330
19
100
AcDbEntity
  8
TitleBlock&Notes
  6
Continuous
 62
     3
100
AcDbLine
 10
35.53050747931369
 20
-1.8136251225265
 30
0.0
 11
36.14430747931369
 21
-1.802911223726509
 31
0.0
  0
LINE
  5
CD1
330
19
100
AcDbEntity
  8
TitleBlock&Notes
  6
Continuous
 62
     3
100
AcDbLine
 10
37.71030036931373
 20
1.058675262273501
 30
0.0
 11
37.71030036931373
 21
-3.396324737726507
 31
0.0
  0
TEXT
  5
CD2
330
19
100
AcDbEntity
  8
TitleBlock&Notes
  6
Continuous
 62
     3
100
AcDbText
 10
34.26072635131372
 20
-2.880560319326494
 30
0.0
 40
0.2772000000000001
  1
 HYDRAULICS
 41
0.8
 51
11.0
100
AcDbText
  0
LINE
  5
CD3
330
19
100
AcDbEntity
  8
TitleBlock&Notes
  6
Continuous
 62
     3
100
AcDbLine
 10
33.39130874731371
 20
-2.215340471726493
 30
0.0
 11
37.71030036931373
 21
-2.139952209326496
 31
0.0
  0
LINE
  5
CD4
330
19
100
AcDbEntity
  8
TitleBlock&Notes
  6
Continuous
 62
     3
100
AcDbLine
 10
34.29891995731374
 20
-2.215340471726493
 30
0.0
 11
37.71030036931373
 21
-2.155794624926491
 31
0.0
  0
LINE
  5
CD5
330
19
100
AcDbEntity
  8
TitleBlock&Notes
  6
Continuous
 62
     3
100
AcDbLine
 10
35.2065312069137
 20
-2.215340471726493
 30
0.0
 11
37.71030036931373
 21
-2.171637040526507
 31
0.0
  0
LINE
  5
CD6
330
19
100
AcDbEntity
  8
TitleBlock&Notes
  6
Continuous
 62
     3
100
AcDbLine
 10
35.53050747931369
 20
-1.829467538126495
 30
0.0
 11
36.14430747931369
 21
-1.818753639326503
 31
0.0
  0
LINE
  5
CD7
330
19
100
AcDbEntity
  8
TitleBlock&Notes
  6
Continuous
 62
     3
100
AcDbLine
 10
35.53050747931369
 20
-1.845309953726511
 30
0.0
 11
36.14430747931369
 21
-1.834596054926509
 31
0.0
  0
LINE
  5
CD8
330
19
100
AcDbEntity
  8
TitleBlock&Notes
  6
Continuous
 62
     3
100
AcDbLine
 10
35.53050747931369
 20
-1.861152369326505
 30
0.0
 11
36.14430747931369
 21
-1.850438470526503
 31
0.0
  0
LINE
  5
CD9
330
19
100
AcDbEntity
  8
TitleBlock&Notes
  6
Continuous
 62
     3
100
AcDbLine
 10
35.53050747931369
 20
-1.876994784926511
 30
0.0
 11
36.14430747931369
 21
-1.866280886126508
 31
0.0
  0
LINE
  5
CDA
330
19
100
AcDbEntity
  8
TitleBlock&Notes
  6
Continuous
 62
     3
100
AcDbLine
 10
35.53050747931369
 20
-1.892837200526505
 30
0.0
 11
36.14430747931369
 21
-1.882123301726503
 31
0.0
  0
LINE
  5
CDB
330
19
100
AcDbEntity
  8
TitleBlock&Notes
  6
Continuous
 62
     3
100
AcDbLine
 10
35.53050747931369
 20
-1.9086796161265
 30
0.0
 11
36.14430747931369
 21
-1.897965677726494
 31
0.0
  0
LINE
  5
CDC
330
19
100
AcDbEntity
  8
TitleBlock&Notes
  6
Continuous
 62
     3
100
AcDbLine
 10
35.53050747931369
 20
-1.924522031726505
 30
0.0
 11
36.14430747931369
 21
-1.913808093326499
 31
0.0
  0
LINE
  5
CDD
330
19
100
AcDbEntity
  8
TitleBlock&Notes
  6
Continuous
 62
     3
100
AcDbLine
 10
35.53050747931369
 20
-1.9403644473265
 30
0.0
 11
36.14430747931369
 21
-1.929650508926515
 31
0.0
  0
LINE
  5
CDE
330
19
100
AcDbEntity
  8
TitleBlock&Notes
  6
Continuous
 62
     3
100
AcDbLine
 10
35.53050747931369
 20
-1.956206862926505
 30
0.0
 11
36.14430747931369
 21
-1.94549292452651
 31
0.0
  0
LINE
  5
CDF
330
19
100
AcDbEntity
  8
TitleBlock&Notes
  6
Continuous
 62
     3
100
AcDbLine
 10
34.41584497651374
 20
-1.833081632126502
 30
0.0
 11
35.15430747931371
 21
-1.820191713326503
 31
0.0
  0
LINE
  5
CE0
330
19
100
AcDbEntity
  8
TitleBlock&Notes
  6
Continuous
 62
     3
100
AcDbLine
 10
34.39048335451373
 20
-1.849366736126503
 30
0.0
 11
35.15430747931371
 21
-1.836034128926497
 31
0.0
  0
LINE
  5
CE1
330
19
100
AcDbEntity
  8
TitleBlock&Notes
  6
Continuous
 62
     3
100
AcDbLine
 10
34.36250140051373
 20
-1.865697578126505
 30
0.0
 11
35.15430747931371
 21
-1.851876544526513
 31
0.0
  0
LINE
  5
CE2
330
19
100
AcDbEntity
  8
TitleBlock&Notes
  6
Continuous
 62
     3
100
AcDbLine
 10
34.33119170011375
 20
-1.882086513326497
 30
0.0
 11
35.15430747931371
 21
-1.867718960126508
 31
0.0
  0
LINE
  5
CE3
330
19
100
AcDbEntity
  8
TitleBlock&Notes
  6
Continuous
 62
     3
100
AcDbLine
 10
34.29542078251371
 20
-1.898553302126503
 30
0.0
 11
35.15430747931371
 21
-1.883561375726502
 31
0.0
  0
LINE
  5
CE4
330
19
100
AcDbEntity
  8
TitleBlock&Notes
  6
Continuous
 62
     3
100
AcDbLine
 10
34.25314528771373
 20
-1.915133624126513
 30
0.0
 11
35.15430747931371
 21
-1.899403791326507
 31
0.0
  0
LINE
  5
CE5
330
19
100
AcDbEntity
  8
TitleBlock&Notes
  6
Continuous
 62
     3
100
AcDbLine
 10
34.19984653891372
 20
-1.931906402126502
 30
0.0
 11
35.15430747931371
 21
-1.915246206926502
 31
0.0
  0
LINE
  5
CE6
330
19
100
AcDbEntity
  8
TitleBlock&Notes
  6
Continuous
 62
     3
100
AcDbLine
 10
34.11923412571371
 20
-1.94915588492651
 30
0.0
 11
35.15430747931371
 21
-1.931088622526507
 31
0.0
  0
TEXT
  5
CE7
330
19
100
AcDbEntity
  8
TitleBlock&Notes
  6
Continuous
 62
     3
100
AcDbText
 10
33.63833901211374
 20
-2.880560319326494
 30
0.0
 40
0.2772000000000001
  1
 of
 41
0.8
 51
11.0
100
AcDbText
  0
LINE
  5
CE8
330
19
100
AcDbEntity
  8
TitleBlock&Notes
  6
Continuous
 62
     3
100
AcDbLine
 10
35.15430747931371
 20
-1.957940471726507
 30
0.0
 11
35.53050747931369
 21
-1.957940471726507
 31
0.0
  0
LINE
  5
CE9
330
19
100
AcDbEntity
  8
TitleBlock&Notes
  6
Continuous
 62
     3
100
AcDbLine
 10
35.19390747931372
 20
-1.918340471726514
 30
0.0
 11
35.49090747931373
 21
-1.918340471726514
 31
0.0
  0
LINE
  5
CEA
330
19
100
AcDbEntity
  8
TitleBlock&Notes
  6
Continuous
 62
     3
100
AcDbLine
 10
35.51070747931371
 20
-1.93814047172651
 30
0.0
 11
35.17410747931374
 21
-1.93814047172651
 31
0.0
  0
LINE
  5
CEB
330
19
100
AcDbEntity
  8
TitleBlock&Notes
  6
Continuous
 62
     3
100
AcDbLine
 10
36.18390747931371
 20
-1.918340471726514
 30
0.0
 11
37.23330747931372
 21
-1.918340471726514
 31
0.0
  0
LINE
  5
CEC
330
19
100
AcDbEntity
  8
TitleBlock&Notes
  6
Continuous
 62
     3
100
AcDbLine
 10
36.14430747931369
 20
-1.957940471726507
 30
0.0
 11
37.27290747931375
 21
-1.957940471726507
 31
0.0
  0
LINE
  5
CED
330
19
100
AcDbEntity
  8
TitleBlock&Notes
  6
Continuous
 62
     3
100
AcDbLine
 10
36.16410747931374
 20
-1.93814047172651
 30
0.0
 11
37.25310747931372
 21
-1.93814047172651
 31
0.0
  0
LINE
  5
CEE
330
19
100
AcDbEntity
  8
TitleBlock&Notes
  6
Continuous
 62
     3
100
AcDbLine
 10
37.02175366651373
 20
-2.215340471726493
 30
0.0
 11
37.71030036931373
 21
-2.203321871726506
 31
0.0
  0
LINE
  5
CEF
330
19
100
AcDbEntity
  8
TitleBlock&Notes
  6
Continuous
 62
     3
100
AcDbLine
 10
36.11414241691373
 20
-2.215340471726493
 30
0.0
 11
37.71030036931373
 21
-2.187479456126512
 31
0.0
  0
LINE
  5
CF0
330
19
100
AcDbEntity
  8
TitleBlock&Notes
  6
Continuous
 62
     3
100
AcDbLine
 10
37.27290747931375
 20
-1.830738658526493
 30
0.0
 11
37.71030036931373
 21
-1.823103936926512
 31
0.0
  0
LINE
  5
CF1
330
19
100
AcDbEntity
  8
TitleBlock&Notes
  6
Continuous
 62
     3
100
AcDbLine
 10
37.27290747931375
 20
-1.846581074126499
 30
0.0
 11
37.71030036931373
 21
-1.838946352526507
 31
0.0
  0
LINE
  5
CF2
330
19
100
AcDbEntity
  8
TitleBlock&Notes
  6
Continuous
 62
     3
100
AcDbLine
 10
37.27290747931375
 20
-1.862423489726515
 30
0.0
 11
37.71030036931373
 21
-1.854788768126502
 31
0.0
  0
LINE
  5
CF3
330
19
100
AcDbEntity
  8
TitleBlock&Notes
  6
Continuous
 62
     3
100
AcDbLine
 10
37.27290747931375
 20
-1.878265905326509
 30
0.0
 11
37.71030036931373
 21
-1.870631183726507
 31
0.0
  0
LINE
  5
CF4
330
19
100
AcDbEntity
  8
TitleBlock&Notes
  6
Continuous
 62
     3
100
AcDbLine
 10
37.27290747931375
 20
-1.894108320926504
 30
0.0
 11
37.71030036931373
 21
-1.886473599326501
 31
0.0
  0
LINE
  5
CF5
330
19
100
AcDbEntity
  8
TitleBlock&Notes
  6
Continuous
 62
     3
100
AcDbLine
 10
37.27290747931375
 20
-1.909950736526509
 30
0.0
 11
37.71030036931373
 21
-1.902316014926507
 31
0.0
  0
LINE
  5
CF6
330
19
100
AcDbEntity
  8
TitleBlock&Notes
  6
Continuous
 62
     3
100
AcDbLine
 10
37.27290747931375
 20
-1.925793152126503
 30
0.0
 11
37.71030036931373
 21
-1.918158430526501
 31
0.0
  0
LINE
  5
CF7
330
19
100
AcDbEntity
  8
TitleBlock&Notes
  6
Continuous
 62
     3
100
AcDbLine
 10
37.27290747931375
 20
-1.941635567726509
 30
0.0
 11
37.71030036931373
 21
-1.934000846126496
 31
0.0
  0
LINE
  5
CF8
330
19
100
AcDbEntity
  8
TitleBlock&Notes
  6
Continuous
 62
     3
100
AcDbLine
 10
37.27290747931375
 20
-1.957477983326503
 30
0.0
 11
37.71030036931373
 21
-1.949843261726501
 31
0.0
  0
LINE
  5
CFA
330
19
100
AcDbEntity
  8
TitleBlock&Notes
  6
Continuous
 62
     3
100
AcDbLine
 10
35.77081477291374
 20
-0.7749986193265155
 30
0.0
 11
35.87302680811373
 21
-0.7732145205265031
 31
0.0
  0
LINE
  5
CFB
330
19
100
AcDbEntity
  8
TitleBlock&Notes
  6
Continuous
 62
     3
100
AcDbLine
 10
35.65232214811373
 20
-1.049901542126503
 30
0.0
 11
35.87302680811373
 21
-1.046049135326507
 31
0.0
  0
LINE
  5
CFC
330
19
100
AcDbEntity
  8
TitleBlock&Notes
  6
Continuous
 62
     3
100
AcDbLine
 10
36.04609844971372
 20
-0.1363404717265002
 30
0.0
 11
35.63643918211373
 21
-0.1363404717265002
 31
0.0
  0
LINE
  5
CFD
330
19
100
AcDbEntity
  8
TitleBlock&Notes
  6
Continuous
 62
     3
100
AcDbLine
 10
35.64946568131371
 20
-0.1561404717265074
 30
0.0
 11
36.01600296451371
 21
-0.1561404717265074
 31
0.0
  0
LINE
  5
CFE
330
19
100
AcDbEntity
  8
TitleBlock&Notes
  6
Continuous
 62
     3
100
AcDbLine
 10
35.66249222011373
 20
-0.1759404717265038
 30
0.0
 11
35.98590747931372
 21
-0.1759404717265038
 31
0.0
  0
LINE
  5
CFF
330
19
100
AcDbEntity
  8
TitleBlock&Notes
  6
Continuous
 62
     3
100
AcDbLine
 10
35.49090747931373
 20
-1.324340471726502
 30
0.0
 11
35.98590747931372
 21
-0.1759404717265038
 31
0.0
  0
LINE
  5
D00
330
19
100
AcDbEntity
  8
TitleBlock&Notes
  6
Continuous
 62
     3
100
AcDbLine
 10
35.53050747931369
 20
-1.332511614926497
 30
0.0
 11
36.04609844971372
 21
-0.1363404717265002
 31
0.0
  0
LINE
  5
D01
330
19
100
AcDbEntity
  8
TitleBlock&Notes
  6
Continuous
 62
     3
100
AcDbLine
 10
35.51070747931371
 20
-1.3284260433265
 30
0.0
 11
36.01600296451371
 21
-0.1561404717265074
 31
0.0
  0
LINE
  5
D02
330
19
100
AcDbEntity
  8
TitleBlock&Notes
  6
Continuous
 62
     3
100
AcDbLine
 10
35.53050747931369
 20
-1.718570668526504
 30
0.0
 11
36.14430747931369
 21
-1.707856730126499
 31
0.0
  0
LINE
  5
D03
330
19
100
AcDbEntity
  8
TitleBlock&Notes
  6
Continuous
 62
     3
100
AcDbLine
 10
35.53050747931369
 20
-1.73441308412651
 30
0.0
 11
36.14430747931369
 21
-1.723699145726504
 31
0.0
  0
LINE
  5
D04
330
19
100
AcDbEntity
  8
TitleBlock&Notes
  6
Continuous
 62
     3
100
AcDbLine
 10
35.53050747931369
 20
-1.750255499726504
 30
0.0
 11
36.14430747931369
 21
-1.739541561326499
 31
0.0
  0
LINE
  5
D05
330
19
100
AcDbEntity
  8
TitleBlock&Notes
  6
Continuous
 62
     3
100
AcDbLine
 10
35.53050747931369
 20
-1.766097915326499
 30
0.0
 11
36.14430747931369
 21
-1.755383976926493
 31
0.0
  0
LINE
  5
D06
330
19
100
AcDbEntity
  8
TitleBlock&Notes
  6
Continuous
 62
     3
100
AcDbLine
 10
35.53050747931369
 20
-1.781940330926504
 30
0.0
 11
36.14430747931369
 21
-1.771226392526498
 31
0.0
  0
LINE
  5
D07
330
19
100
AcDbEntity
  8
TitleBlock&Notes
  6
Continuous
 62
     3
100
AcDbLine
 10
35.53050747931369
 20
-1.797782706926506
 30
0.0
 11
36.14430747931369
 21
-1.787068808126514
 31
0.0
  0
LINE
  5
D08
330
19
100
AcDbEntity
  8
TitleBlock&Notes
  6
Continuous
 62
     3
100
AcDbLine
 10
35.77158380491372
 20
-0.7732145205265031
 30
0.0
 11
36.14430747931369
 21
-0.7732145205265031
 31
0.0
  0
LINE
  5
D09
330
19
100
AcDbEntity
  8
TitleBlock&Notes
  6
Continuous
 62
     3
100
AcDbLine
 10
35.80518412771375
 20
-0.6952617621265116
 30
0.0
 11
36.14430747931369
 21
-0.6952617621265116
 31
0.0
  0
LINE
  5
D0A
330
19
100
AcDbEntity
  8
TitleBlock&Notes
  6
Continuous
 62
     3
100
AcDbLine
 10
35.7639343917137
 20
-0.7909611417265144
 30
0.0
 11
36.14430747931369
 21
-0.7843216869265053
 31
0.0
  0
LINE
  5
D0B
330
19
100
AcDbEntity
  8
TitleBlock&Notes
  6
Continuous
 62
     3
100
AcDbLine
 10
35.75705401051371
 20
-0.8069236245265098
 30
0.0
 11
36.14430747931369
 21
-0.8001641025265104
 31
0.0
  0
LINE
  5
D0C
330
19
100
AcDbEntity
  8
TitleBlock&Notes
  6
Continuous
 62
     3
100
AcDbLine
 10
35.75017358971372
 20
-0.8228861469265087
 30
0.0
 11
36.14430747931369
 21
-0.816006518126505
 31
0.0
  0
LINE
  5
D0D
330
19
100
AcDbEntity
  8
TitleBlock&Notes
  6
Continuous
 62
     3
100
AcDbLine
 10
35.74329320851372
 20
-0.8388486693265075
 30
0.0
 11
36.14430747931369
 21
-0.8318489337264995
 31
0.0
  0
LINE
  5
D0E
330
19
100
AcDbEntity
  8
TitleBlock&Notes
  6
Continuous
 62
     3
100
AcDbLine
 10
35.73641282731375
 20
-0.8548111917265064
 30
0.0
 11
36.14430747931369
 21
-0.8476913493265048
 31
0.0
  0
LINE
  5
D0F
330
19
100
AcDbEntity
  8
TitleBlock&Notes
  6
Continuous
 62
     3
100
AcDbLine
 10
35.72953244611372
 20
-0.870773674526502
 30
0.0
 11
36.14430747931369
 21
-0.8635337649264993
 31
0.0
  0
LINE
  5
D10
330
19
100
AcDbEntity
  8
TitleBlock&Notes
  6
Continuous
 62
     3
100
AcDbLine
 10
35.72265202531376
 20
-0.8867361969265008
 30
0.0
 11
36.14430747931369
 21
-0.8793761805265045
 31
0.0
  0
LINE
  5
D11
330
19
100
AcDbEntity
  8
TitleBlock&Notes
  6
Continuous
 62
     3
100
AcDbLine
 10
35.71577164411371
 20
-0.9026987193264996
 30
0.0
 11
36.14430747931369
 21
-0.8952185961264991
 31
0.0
  0
LINE
  5
D12
330
19
100
AcDbEntity
  8
TitleBlock&Notes
  6
Continuous
 62
     3
100
AcDbLine
 10
35.70889126291375
 20
-0.9186612021264952
 30
0.0
 11
36.14430747931369
 21
-0.9110610117264936
 31
0.0
  0
LINE
  5
D13
330
19
100
AcDbEntity
  8
TitleBlock&Notes
  6
Continuous
 62
     3
100
AcDbLine
 10
35.70201084211372
 20
-0.9346237245265047
 30
0.0
 11
36.14430747931369
 21
-0.9269034273265095
 31
0.0
  0
LINE
  5
D14
330
19
100
AcDbEntity
  8
TitleBlock&Notes
  6
Continuous
 62
     3
100
AcDbLine
 10
35.69513046091369
 20
-0.9505862469265036
 30
0.0
 11
36.14430747931369
 21
-0.9427458033265114
 31
0.0
  0
LINE
  5
D15
330
19
100
AcDbEntity
  8
TitleBlock&Notes
  6
Continuous
 62
     3
100
AcDbLine
 10
35.53050747931369
 20
-1.435812927326496
 30
0.0
 11
36.14430747931369
 21
-1.435812927326496
 31
0.0
  0
LINE
  5
D16
330
19
100
AcDbEntity
  8
TitleBlock&Notes
  6
Continuous
 62
     3
100
AcDbLine
 10
35.53050747931369
 20
-1.357860168926505
 30
0.0
 11
36.14430747931369
 21
-1.357860168926505
 31
0.0
  0
LINE
  5
D17
330
19
100
AcDbEntity
  8
TitleBlock&Notes
  6
Continuous
 62
     3
100
AcDbLine
 10
35.65398265531369
 20
-1.046049135326507
 30
0.0
 11
36.14430747931369
 21
-1.046049135326507
 31
0.0
  0
LINE
  5
D18
330
19
100
AcDbEntity
  8
TitleBlock&Notes
  6
Continuous
 62
     3
100
AcDbLine
 10
35.68758297811374
 20
-0.9680963769265051
 30
0.0
 11
36.14430747931369
 21
-0.9680963769265051
 31
0.0
  0
LINE
  5
D19
330
19
100
AcDbEntity
  8
TitleBlock&Notes
  6
Continuous
 62
     3
100
AcDbLine
 10
35.53050747931369
 20
-1.449249642926504
 30
0.0
 11
36.14430747931369
 21
-1.438535704526499
 31
0.0
  0
LINE
  5
D1A
330
19
100
AcDbEntity
  8
TitleBlock&Notes
  6
Continuous
 62
     3
100
AcDbLine
 10
35.53050747931369
 20
-1.465092058526499
 30
0.0
 11
36.14430747931369
 21
-1.454378120126493
 31
0.0
  0
LINE
  5
D1B
330
19
100
AcDbEntity
  8
TitleBlock&Notes
  6
Continuous
 62
     3
100
AcDbLine
 10
35.53050747931369
 20
-1.480934474126494
 30
0.0
 11
36.14430747931369
 21
-1.470220535726509
 31
0.0
  0
LINE
  5
D1C
330
19
100
AcDbEntity
  8
TitleBlock&Notes
  6
Continuous
 62
     3
100
AcDbLine
 10
35.53050747931369
 20
-1.496776889726499
 30
0.0
 11
36.14430747931369
 21
-1.486062951326504
 31
0.0
  0
LINE
  5
D1D
330
19
100
AcDbEntity
  8
TitleBlock&Notes
  6
Continuous
 62
     3
100
AcDbLine
 10
35.53050747931369
 20
-1.512619305326515
 30
0.0
 11
36.14430747931369
 21
-1.501905366926509
 31
0.0
  0
LINE
  5
D1E
330
19
100
AcDbEntity
  8
TitleBlock&Notes
  6
Continuous
 62
     3
100
AcDbLine
 10
35.53050747931369
 20
-1.528461720926509
 30
0.0
 11
36.14430747931369
 21
-1.517747782526503
 31
0.0
  0
LINE
  5
D1F
330
19
100
AcDbEntity
  8
TitleBlock&Notes
  6
Continuous
 62
     3
100
AcDbLine
 10
35.53050747931369
 20
-1.544304136526504
 30
0.0
 11
36.14430747931369
 21
-1.533590198126498
 31
0.0
  0
LINE
  5
D20
330
19
100
AcDbEntity
  8
TitleBlock&Notes
  6
Continuous
 62
     3
100
AcDbLine
 10
35.53050747931369
 20
-1.560146512526506
 30
0.0
 11
36.14430747931369
 21
-1.549432613726503
 31
0.0
  0
LINE
  5
D21
330
19
100
AcDbEntity
  8
TitleBlock&Notes
  6
Continuous
 62
     3
100
AcDbLine
 10
35.53050747931369
 20
-1.5759889281265
 30
0.0
 11
36.14430747931369
 21
-1.565275029326508
 31
0.0
  0
LINE
  5
D22
330
19
100
AcDbEntity
  8
TitleBlock&Notes
  6
Continuous
 62
     3
100
AcDbLine
 10
35.53050747931369
 20
-1.591831343726505
 30
0.0
 11
36.14430747931369
 21
-1.581117444926503
 31
0.0
  0
LINE
  5
D23
330
19
100
AcDbEntity
  8
TitleBlock&Notes
  6
Continuous
 62
     3
100
AcDbLine
 10
35.53050747931369
 20
-1.6076737593265
 30
0.0
 11
36.14430747931369
 21
-1.596959860526498
 31
0.0
  0
LINE
  5
D24
330
19
100
AcDbEntity
  8
TitleBlock&Notes
  6
Continuous
 62
     3
100
AcDbLine
 10
35.53050747931369
 20
-1.623516174926495
 30
0.0
 11
36.14430747931369
 21
-1.612802276126492
 31
0.0
  0
LINE
  5
D25
330
19
100
AcDbEntity
  8
TitleBlock&Notes
  6
Continuous
 62
     3
100
AcDbLine
 10
35.53050747931369
 20
-1.6393585905265
 30
0.0
 11
36.14430747931369
 21
-1.628644691726497
 31
0.0
  0
LINE
  5
D26
330
19
100
AcDbEntity
  8
TitleBlock&Notes
  6
Continuous
 62
     3
100
AcDbLine
 10
35.53050747931369
 20
-1.655201006126516
 30
0.0
 11
36.14430747931369
 21
-1.644487107326513
 31
0.0
  0
LINE
  5
D27
330
19
100
AcDbEntity
  8
TitleBlock&Notes
  6
Continuous
 62
     3
100
AcDbLine
 10
35.53050747931369
 20
-1.67104342172651
 30
0.0
 11
36.14430747931369
 21
-1.660329483326504
 31
0.0
  0
LINE
  5
D28
330
19
100
AcDbEntity
  8
TitleBlock&Notes
  6
Continuous
 62
     3
100
AcDbLine
 10
35.53050747931369
 20
-1.686885837326494
 30
0.0
 11
36.14430747931369
 21
-1.676171898926499
 31
0.0
  0
LINE
  5
D29
330
19
100
AcDbEntity
  8
TitleBlock&Notes
  6
Continuous
 62
     3
100
AcDbLine
 10
35.53050747931369
 20
-1.70272825292651
 30
0.0
 11
36.14430747931369
 21
-1.692014314526504
 31
0.0
  0
LINE
  5
D2A
330
19
100
AcDbEntity
  8
TitleBlock&Notes
  6
Continuous
 62
     3
100
AcDbLine
 10
35.64544172731372
 20
-1.065864064526502
 30
0.0
 11
36.14430747931369
 21
-1.057156341326502
 31
0.0
  0
LINE
  5
D2B
330
19
100
AcDbEntity
  8
TitleBlock&Notes
  6
Continuous
 62
     3
100
AcDbLine
 10
35.63856134611373
 20
-1.081826586926501
 30
0.0
 11
36.14430747931369
 21
-1.072998756926507
 31
0.0
  0
LINE
  5
D2C
330
19
100
AcDbEntity
  8
TitleBlock&Notes
  6
Continuous
 62
     3
100
AcDbLine
 10
35.63168096491377
 20
-1.0977891093265
 30
0.0
 11
36.14430747931369
 21
-1.088841172526501
 31
0.0
  0
LINE
  5
D2D
330
19
100
AcDbEntity
  8
TitleBlock&Notes
  6
Continuous
 62
     3
100
AcDbLine
 10
35.62480058371373
 20
-1.113751592126495
 30
0.0
 11
36.14430747931369
 21
-1.104683588126507
 31
0.0
  0
LINE
  5
D2E
330
19
100
AcDbEntity
  8
TitleBlock&Notes
  6
Continuous
 62
     3
100
AcDbLine
 10
35.6179201629137
 20
-1.129714114526494
 30
0.0
 11
36.14430747931369
 21
-1.120526003726501
 31
0.0
  0
LINE
  5
D2F
330
19
100
AcDbEntity
  8
TitleBlock&Notes
  6
Continuous
 62
     3
100
AcDbLine
 10
35.61103978171374
 20
-1.145676636926515
 30
0.0
 11
36.14430747931369
 21
-1.136368419326496
 31
0.0
  0
LINE
  5
D30
330
19
100
AcDbEntity
  8
TitleBlock&Notes
  6
Continuous
 62
     3
100
AcDbLine
 10
35.6041594005137
 20
-1.16163911972651
 30
0.0
 11
36.14430747931369
 21
-1.152210834926501
 31
0.0
  0
LINE
  5
D31
330
19
100
AcDbEntity
  8
TitleBlock&Notes
  6
Continuous
 62
     3
100
AcDbLine
 10
35.59727897971373
 20
-1.177601642126509
 30
0.0
 11
36.14430747931369
 21
-1.168053210926514
 31
0.0
  0
LINE
  5
D32
330
19
100
AcDbEntity
  8
TitleBlock&Notes
  6
Continuous
 62
     3
100
AcDbLine
 10
35.5903985985137
 20
-1.193564164526508
 30
0.0
 11
36.14430747931369
 21
-1.183895626526508
 31
0.0
  0
LINE
  5
D33
330
19
100
AcDbEntity
  8
TitleBlock&Notes
  6
Continuous
 62
     3
100
AcDbLine
 10
35.58351821731374
 20
-1.209526686926507
 30
0.0
 11
36.14430747931369
 21
-1.199738042126503
 31
0.0
  0
LINE
  5
D34
330
19
100
AcDbEntity
  8
TitleBlock&Notes
  6
Continuous
 62
     3
100
AcDbLine
 10
35.57663783611373
 20
-1.225489169726502
 30
0.0
 11
36.14430747931369
 21
-1.215580457726508
 31
0.0
  0
LINE
  5
D35
330
19
100
AcDbEntity
  8
TitleBlock&Notes
  6
Continuous
 62
     3
100
AcDbLine
 10
35.56975741531374
 20
-1.241451692126501
 30
0.0
 11
36.14430747931369
 21
-1.231422873326502
 31
0.0
  0
LINE
  5
D36
330
19
100
AcDbEntity
  8
TitleBlock&Notes
  6
Continuous
 62
     3
100
AcDbLine
 10
35.56287703411375
 20
-1.2574142145265
 30
0.0
 11
36.14430747931369
 21
-1.247265288926508
 31
0.0
  0
LINE
  5
D37
330
19
100
AcDbEntity
  8
TitleBlock&Notes
  6
Continuous
 62
     3
100
AcDbLine
 10
35.55599665291372
 20
-1.273376697326495
 30
0.0
 11
36.14430747931369
 21
-1.263107704526502
 31
0.0
  0
LINE
  5
D38
330
19
100
AcDbEntity
  8
TitleBlock&Notes
  6
Continuous
 62
     3
100
AcDbLine
 10
35.5491162321137
 20
-1.289339219726494
 30
0.0
 11
36.14430747931369
 21
-1.278950120126497
 31
0.0
  0
LINE
  5
D39
330
19
100
AcDbEntity
  8
TitleBlock&Notes
  6
Continuous
 62
     3
100
AcDbLine
 10
35.54223585091374
 20
-1.305301742126493
 30
0.0
 11
36.14430747931369
 21
-1.294792535726502
 31
0.0
  0
LINE
  5
D3A
330
19
100
AcDbEntity
  8
TitleBlock&Notes
  6
Continuous
 62
     3
100
AcDbLine
 10
35.5353554697137
 20
-1.321264224926499
 30
0.0
 11
36.14430747931369
 21
-1.310634951326496
 31
0.0
  0
LINE
  5
D3B
330
19
100
AcDbEntity
  8
TitleBlock&Notes
  6
Continuous
 62
     3
100
AcDbLine
 10
35.53050747931369
 20
-1.337191265726504
 30
0.0
 11
36.14430747931369
 21
-1.326477366926512
 31
0.0
  0
LINE
  5
D3C
330
19
100
AcDbEntity
  8
TitleBlock&Notes
  6
Continuous
 62
     3
100
AcDbLine
 10
35.53050747931369
 20
-1.353033681326499
 30
0.0
 11
36.14430747931369
 21
-1.342319782526507
 31
0.0
  0
LINE
  5
D3D
330
19
100
AcDbEntity
  8
TitleBlock&Notes
  6
Continuous
 62
     3
100
AcDbLine
 10
35.68825007971372
 20
-0.9665487297264991
 30
0.0
 11
36.14430747931369
 21
-0.958588218926506
 31
0.0
  0
LINE
  5
D3F
330
19
100
AcDbEntity
  8
TitleBlock&Notes
  6
Continuous
 62
     3
100
AcDbLine
 10
34.5161561325137
 20
-1.752118640126491
 30
0.0
 11
35.15430747931371
 21
-1.740979674926501
 31
0.0
  0
LINE
  5
D40
330
19
100
AcDbEntity
  8
TitleBlock&Notes
  6
Continuous
 62
     3
100
AcDbLine
 10
34.49885172451372
 20
-1.768263084926504
 30
0.0
 11
35.15430747931371
 21
-1.756822090526506
 31
0.0
  0
LINE
  5
D41
330
19
100
AcDbEntity
  8
TitleBlock&Notes
  6
Continuous
 62
     3
100
AcDbLine
 10
34.48034343691372
 20
-1.784428596926501
 30
0.0
 11
35.15430747931371
 21
-1.772664506126501
 31
0.0
  0
LINE
  5
D42
330
19
100
AcDbEntity
  8
TitleBlock&Notes
  6
Continuous
 62
     3
100
AcDbLine
 10
34.46047861171375
 20
-1.800617750126503
 30
0.0
 11
35.15430747931371
 21
-1.788506921726506
 31
0.0
  0
LINE
  5
D43
330
19
100
AcDbEntity
  8
TitleBlock&Notes
  6
Continuous
 62
     3
100
AcDbLine
 10
34.39805649811374
 20
-0.7897404717265016
 30
0.0
 11
34.69890747931371
 21
-0.7897404717265016
 31
0.0
  0
LINE
  5
D44
330
19
100
AcDbEntity
  8
TitleBlock&Notes
  6
Continuous
 62
     3
100
AcDbLine
 10
34.69890747931371
 20
-1.284740471726498
 30
0.0
 11
34.39981362931369
 21
-1.284740471726498
 31
0.0
  0
LINE
  5
D45
330
19
100
AcDbEntity
  8
TitleBlock&Notes
  6
Continuous
 62
     3
100
AcDbLine
 10
34.74226496491371
 20
-0.8293404717265051
 30
0.0
 11
34.36606536091371
 21
-0.8293404717265051
 31
0.0
  0
LINE
  5
D46
330
19
100
AcDbEntity
  8
TitleBlock&Notes
  6
Continuous
 62
     3
100
AcDbLine
 10
34.3643887761137
 20
-1.245140471726505
 30
0.0
 11
34.74094497811377
 21
-1.245140471726505
 31
0.0
  0
LINE
  5
D47
330
19
100
AcDbEntity
  8
TitleBlock&Notes
  6
Continuous
 62
     3
100
AcDbLine
 10
34.38315398851374
 20
-0.8095404717265086
 30
0.0
 11
34.72091684251374
 21
-0.8095404717265086
 31
0.0
  0
LINE
  5
D48
330
19
100
AcDbEntity
  8
TitleBlock&Notes
  6
Continuous
 62
     3
100
AcDbLine
 10
34.38252201211369
 20
-1.264940471726502
 30
0.0
 11
34.72023552451372
 21
-1.264940471726502
 31
0.0
  0
LINE
  5
D49
330
19
100
AcDbEntity
  8
TitleBlock&Notes
  6
Continuous
 62
     3
100
AcDbLine
 10
34.49755973491375
 20
-0.3240507285264922
 30
0.0
 11
34.71962604091372
 21
-0.3240507285264922
 31
0.0
  0
LINE
  5
D4A
330
19
100
AcDbEntity
  8
TitleBlock&Notes
  6
Continuous
 62
     3
100
AcDbLine
 10
34.72816051411371
 20
-0.34385072852651
 30
0.0
 11
34.5188498433137
 21
-0.34385072852651
 31
0.0
  0
LINE
  5
D4B
330
19
100
AcDbEntity
  8
TitleBlock&Notes
  6
Continuous
 62
     3
100
AcDbLine
 10
34.45081514251373
 20
-1.245140471726505
 30
0.0
 11
35.11167534691371
 21
-1.233605110526502
 31
0.0
  0
LINE
  5
D4C
330
19
100
AcDbEntity
  8
TitleBlock&Notes
  6
Continuous
 62
     3
100
AcDbLine
 10
33.65130725971376
 20
-1.046049135326507
 30
0.0
 11
35.03083226371372
 21
-1.046049135326507
 31
0.0
  0
LINE
  5
D4D
330
19
100
AcDbEntity
  8
TitleBlock&Notes
  6
Continuous
 62
     3
100
AcDbLine
 10
33.65194153291371
 20
-0.9680963769265051
 30
0.0
 11
34.99723194091375
 21
-0.9680963769265051
 31
0.0
  0
LINE
  5
D4E
330
19
100
AcDbEntity
  8
TitleBlock&Notes
  6
Continuous
 62
     3
100
AcDbLine
 10
33.6511206249137
 20
-1.068990246926512
 30
0.0
 11
34.96541559811372
 21
-1.046049135326507
 31
0.0
  0
LINE
  5
D4F
330
19
100
AcDbEntity
  8
TitleBlock&Notes
  6
Continuous
 62
     3
100
AcDbLine
 10
33.65099168731374
 20
-1.084834919726491
 30
0.0
 11
35.03712141691376
 21
-1.060639913726506
 31
0.0
  0
LINE
  5
D50
330
19
100
AcDbEntity
  8
TitleBlock&Notes
  6
Continuous
 62
     3
100
AcDbLine
 10
33.65086278931373
 20
-1.100679592526512
 30
0.0
 11
35.0438990361137
 21
-1.076364044126508
 31
0.0
  0
LINE
  5
D51
330
19
100
AcDbEntity
  8
TitleBlock&Notes
  6
Continuous
 62
     3
100
AcDbLine
 10
33.65073385171369
 20
-1.116524225726498
 30
0.0
 11
35.05067665531375
 21
-1.092088134926497
 31
0.0
  0
LINE
  5
D52
330
19
100
AcDbEntity
  8
TitleBlock&Notes
  6
Continuous
 62
     3
100
AcDbLine
 10
33.65060495371376
 20
-1.132368898526499
 30
0.0
 11
35.05745431411372
 21
-1.107812265326499
 31
0.0
  0
LINE
  5
D53
330
19
100
AcDbEntity
  8
TitleBlock&Notes
  6
Continuous
 62
     3
100
AcDbLine
 10
33.65047601611372
 20
-1.148213571326499
 30
0.0
 11
35.06423193331373
 21
-1.123536356126509
 31
0.0
  0
LINE
  5
D54
330
19
100
AcDbEntity
  8
TitleBlock&Notes
  6
Continuous
 62
     3
100
AcDbLine
 10
33.65034711811371
 20
-1.164058244126499
 30
0.0
 11
35.07100955251372
 21
-1.139260486526511
 31
0.0
  0
LINE
  5
D55
330
19
100
AcDbEntity
  8
TitleBlock&Notes
  6
Continuous
 62
     3
100
AcDbLine
 10
33.65021818051376
 20
-1.179902877326506
 30
0.0
 11
35.07778721131372
 21
-1.1549845773265
 31
0.0
  0
LINE
  5
D56
330
19
100
AcDbEntity
  8
TitleBlock&Notes
  6
Continuous
 62
     3
100
AcDbLine
 10
33.65008928251374
 20
-1.195747550126506
 30
0.0
 11
35.08456483051372
 21
-1.170708707726502
 31
0.0
  0
LINE
  5
D57
330
19
100
AcDbEntity
  8
TitleBlock&Notes
  6
Continuous
 62
     3
100
AcDbLine
 10
33.64996034491371
 20
-1.211592222926507
 30
0.0
 11
35.09134244971372
 21
-1.186432798526501
 31
0.0
  0
LINE
  5
D58
330
19
100
AcDbEntity
  8
TitleBlock&Notes
  6
Continuous
 62
     3
100
AcDbLine
 10
33.6498314469137
 20
-1.227436895726496
 30
0.0
 11
35.09812010851369
 21
-1.202156928926493
 31
0.0
  0
LINE
  5
D59
330
19
100
AcDbEntity
  8
TitleBlock&Notes
  6
Continuous
 62
     3
100
AcDbLine
 10
33.64970250931374
 20
-1.243281528926493
 30
0.0
 11
35.10489772771375
 21
-1.217881019726503
 31
0.0
  0
LINE
  5
D5A
330
19
100
AcDbEntity
  8
TitleBlock&Notes
  6
Continuous
 62
     3
100
AcDbLine
 10
33.65282512771375
 20
-0.8594955153265058
 30
0.0
 11
34.94073133411372
 21
-0.8370150309265103
 31
0.0
  0
LINE
  5
D5B
330
19
100
AcDbEntity
  8
TitleBlock&Notes
  6
Continuous
 62
     3
100
AcDbLine
 10
33.65269622971375
 20
-0.8753401485265026
 30
0.0
 11
34.94750899291374
 21
-0.8527391217264987
 31
0.0
  0
LINE
  5
D5C
330
19
100
AcDbEntity
  8
TitleBlock&Notes
  6
Continuous
 62
     3
100
AcDbLine
 10
33.65256729211371
 20
-0.8911848213265027
 30
0.0
 11
34.9542866121137
 21
-0.8684632521265012
 31
0.0
  0
LINE
  5
D5D
330
19
100
AcDbEntity
  8
TitleBlock&Notes
  6
Continuous
 62
     3
100
AcDbLine
 10
33.6524383941137
 20
-0.9070294941264922
 30
0.0
 11
34.96106423131375
 21
-0.8841873429265003
 31
0.0
  0
LINE
  5
D5E
330
19
100
AcDbEntity
  8
TitleBlock&Notes
  6
Continuous
 62
     3
100
AcDbLine
 10
33.65230945651374
 20
-0.9228741669265136
 30
0.0
 11
34.96784189011373
 21
-0.8999114337265101
 31
0.0
  0
LINE
  5
D5F
330
19
100
AcDbEntity
  8
TitleBlock&Notes
  6
Continuous
 62
     3
100
AcDbLine
 10
33.65218055851373
 20
-0.9387188397265031
 30
0.0
 11
34.97461950931374
 21
-0.9156355641265019
 31
0.0
  0
LINE
  5
D60
330
19
100
AcDbEntity
  8
TitleBlock&Notes
  6
Continuous
 62
     3
100
AcDbLine
 10
33.65205162091369
 20
-0.9545634729265
 30
0.0
 11
34.98139716811373
 21
-0.931359654926501
 31
0.0
  0
LINE
  5
D61
330
19
100
AcDbEntity
  8
TitleBlock&Notes
  6
Continuous
 62
     3
100
AcDbLine
 10
33.78436306171373
 20
-0.9680963769265051
 30
0.0
 11
34.98817478731372
 21
-0.9470837853265035
 31
0.0
  0
ARC
  5
D62
330
19
100
AcDbEntity
  8
TitleBlock&Notes
  6
Continuous
 62
     3
100
AcDbCircle
 10
34.00590747931373
 20
-0.8740501785264914
 30
0.0
 40
0.6981096672000002
100
AcDbArc
 50
6.936458519999985
 51
173.0635414800004
  0
ARC
  5
D63
330
19
100
AcDbEntity
  8
TitleBlock&Notes
  6
Continuous
 62
     3
100
AcDbCircle
 10
34.00590747931373
 20
-0.8740501785264914
 30
0.0
 40
0.7377135876
100
AcDbArc
 50
3.474582379999962
 51
173.2499419800004
  0
ARC
  5
D64
330
19
100
AcDbEntity
  8
TitleBlock&Notes
  6
Continuous
 62
     3
100
AcDbCircle
 10
34.00590747931373
 20
-0.8740501785264914
 30
0.0
 40
0.7179135876000001
100
AcDbArc
 50
5.15538982000006
 51
173.2499419800004
  0
LINE
  5
D65
330
19
100
AcDbEntity
  8
TitleBlock&Notes
  6
Continuous
 62
     3
100
AcDbLine
 10
33.65340934651372
 20
-0.7876918053265012
 30
0.0
 11
33.64950747931372
 21
-1.267254537326506
 31
0.0
  0
LINE
  5
D66
330
19
100
AcDbEntity
  8
TitleBlock&Notes
  6
Continuous
 62
     3
100
AcDbLine
 10
33.63361001971377
 20
-0.787530712526495
 30
0.0
 11
33.62970811291373
 21
-1.2670934445265
 31
0.0
  0
LINE
  5
D67
330
19
100
AcDbEntity
  8
TitleBlock&Notes
  6
Continuous
 62
     3
100
AcDbLine
 10
33.31290747931373
 20
-1.284740471726498
 30
0.0
 11
33.31290747931373
 21
-0.7897404717265016
 31
0.0
  0
LINE
  5
D68
330
19
100
AcDbEntity
  8
TitleBlock&Notes
  6
Continuous
 62
     3
100
AcDbLine
 10
33.27330747931371
 20
-1.286489049326503
 30
0.0
 11
33.27330747931371
 21
-0.7873404741264967
 31
0.0
  0
LINE
  5
D69
330
19
100
AcDbEntity
  8
TitleBlock&Notes
  6
Continuous
 62
     3
100
AcDbLine
 10
33.60990747931374
 20
-1.269598421726504
 30
0.0
 11
33.60990747931374
 21
-0.8102303037265112
 31
0.0
  0
LINE
  5
D6A
330
19
100
AcDbEntity
  8
TitleBlock&Notes
  6
Continuous
 62
     3
100
AcDbLine
 10
33.29310747931371
 20
-1.286489049326503
 30
0.0
 11
33.29310747931371
 21
-0.7873404741264967
 31
0.0
  0
LINE
  5
D6B
330
19
100
AcDbEntity
  8
TitleBlock&Notes
  6
Continuous
 62
     3
100
AcDbLine
 10
33.65321190091369
 20
-0.811961496926516
 30
0.0
 11
34.36111247011371
 21
-0.7996050693265016
 31
0.0
  0
ARC
  5
D6C
330
19
100
AcDbEntity
  8
TitleBlock&Notes
  6
Continuous
 62
     3
100
AcDbCircle
 10
34.00590747931373
 20
-0.8740501785264914
 30
0.0
 40
0.3629223972
100
AcDbArc
 50
7.07644385999991
 51
166.2342647900004
  0
LINE
  5
D6D
330
19
100
AcDbEntity
  8
TitleBlock&Notes
  6
Continuous
 62
     3
100
AcDbLine
 10
33.65124952291371
 20
-1.053145574126501
 30
0.0
 11
34.05780434851371
 21
-1.046049135326507
 31
0.0
  0
LINE
  5
D6E
330
19
100
AcDbEntity
  8
TitleBlock&Notes
  6
Continuous
 62
     3
100
AcDbLine
 10
33.64957361131372
 20
-1.259126201726504
 30
0.0
 11
34.3642904493137
 21
-1.246650776126513
 31
0.0
  0
LINE
  5
D6F
330
19
100
AcDbEntity
  8
TitleBlock&Notes
  6
Continuous
 62
     3
100
AcDbLine
 10
33.6505574337137
 20
-1.274951430926494
 30
0.0
 11
34.36286960131373
 21
-1.262517981326501
 31
0.0
  0
LINE
  5
D70
330
19
100
AcDbEntity
  8
TitleBlock&Notes
  6
Continuous
 62
     3
100
AcDbLine
 10
33.65324765971371
 20
-1.290746920526506
 30
0.0
 11
34.36073223091371
 21
-1.278397700126502
 31
0.0
  0
LINE
  5
D71
330
19
100
AcDbEntity
  8
TitleBlock&Notes
  6
Continuous
 62
     3
100
AcDbLine
 10
33.65666921851371
 20
-1.306529579726513
 30
0.0
 11
34.35786360691373
 21
-1.294290209726506
 31
0.0
  0
LINE
  5
D72
330
19
100
AcDbEntity
  8
TitleBlock&Notes
  6
Continuous
 62
     3
100
AcDbLine
 10
33.66084191011374
 20
-1.322299170926504
 30
0.0
 11
34.35424377091372
 21
-1.310195787326504
 31
0.0
  0
LINE
  5
D73
330
19
100
AcDbEntity
  8
TitleBlock&Notes
  6
Continuous
 62
     3
100
AcDbLine
 10
33.65308296331373
 20
-0.8278061697264949
 30
0.0
 11
34.36405878931371
 21
-0.8153960445265031
 31
0.0
  0
LINE
  5
D74
330
19
100
AcDbEntity
  8
TitleBlock&Notes
  6
Continuous
 62
     3
100
AcDbLine
 10
33.65295406531372
 20
-0.8436508425265056
 30
0.0
 11
34.47279377611371
 21
-0.8293404717265051
 31
0.0
  0
LINE
  5
D75
330
19
100
AcDbEntity
  8
TitleBlock&Notes
  6
Continuous
 62
     3
100
AcDbLine
 10
33.71687385091375
 20
-1.435812927326496
 30
0.0
 11
34.29494110771374
 21
-1.435812927326496
 31
0.0
  0
LINE
  5
D76
330
19
100
AcDbEntity
  8
TitleBlock&Notes
  6
Continuous
 62
     3
100
AcDbLine
 10
33.67317374611376
 20
-1.357860168926505
 30
0.0
 11
34.33864117291374
 21
-1.357860168926505
 31
0.0
  0
LINE
  5
D77
330
19
100
AcDbEntity
  8
TitleBlock&Notes
  6
Continuous
 62
     3
100
AcDbLine
 10
33.72711979651372
 20
-1.449043049726506
 30
0.0
 11
34.29242959651374
 21
-1.439175561326502
 31
0.0
  0
LINE
  5
D78
330
19
100
AcDbEntity
  8
TitleBlock&Notes
  6
Continuous
 62
     3
100
AcDbLine
 10
33.74056043251374
 20
-1.464650874926499
 30
0.0
 11
34.27954181611373
 21
-1.455242904926498
 31
0.0
  0
LINE
  5
D79
330
19
100
AcDbEntity
  8
TitleBlock&Notes
  6
Continuous
 62
     3
100
AcDbLine
 10
33.75566114011373
 20
-1.480229712926513
 30
0.0
 11
34.2649940433137
 21
-1.471339275326508
 31
0.0
  0
LINE
  5
D7A
330
19
100
AcDbEntity
  8
TitleBlock&Notes
  6
Continuous
 62
     3
100
AcDbLine
 10
33.77273194771372
 20
-1.495774138526494
 30
0.0
 11
34.24847609131376
 21
-1.487469978926503
 31
0.0
  0
LINE
  5
D7B
330
19
100
AcDbEntity
  8
TitleBlock&Notes
  6
Continuous
 62
     3
100
AcDbLine
 10
33.7922264337137
 20
-1.511276271326503
 30
0.0
 11
34.2295345005137
 21
-1.503643014926494
 31
0.0
  0
LINE
  5
D7C
330
19
100
AcDbEntity
  8
TitleBlock&Notes
  6
Continuous
 62
     3
100
AcDbLine
 10
33.81485514091368
 20
-1.526723716526495
 30
0.0
 11
34.20745868851371
 21
-1.519870778126493
 31
0.0
  0
LINE
  5
D7D
330
19
100
AcDbEntity
  8
TitleBlock&Notes
  6
Continuous
 62
     3
100
AcDbLine
 10
33.84185291611372
 20
-1.542094852526515
 30
0.0
 11
34.18101380851375
 21
-1.536174810926505
 31
0.0
  0
LINE
  5
D7E
330
19
100
AcDbEntity
  8
TitleBlock&Notes
  6
Continuous
 62
     3
100
AcDbLine
 10
33.87577229611373
 20
-1.557345208526507
 30
0.0
 11
34.14764732371372
 21
-1.552599623726502
 31
0.0
  0
LINE
  5
D7F
330
19
100
AcDbEntity
  8
TitleBlock&Notes
  6
Continuous
 62
     3
100
AcDbLine
 10
33.6715503045137
 20
-1.353797090126503
 30
0.0
 11
34.34464120651373
 21
-1.342048245326507
 31
0.0
  0
ARC
  5
D80
330
19
100
AcDbEntity
  8
TitleBlock&Notes
  6
Continuous
 62
     3
100
AcDbCircle
 10
34.00590747931373
 20
-1.222556116526507
 30
0.0
 40
0.3591920376
100
AcDbArc
 50
187.1485089300005
 51
356.3951218200007
  0
LINE
  5
D81
330
19
100
AcDbEntity
  8
TitleBlock&Notes
  6
Continuous
 62
     3
100
AcDbLine
 10
33.66579151411376
 20
-1.3380551793265
 30
0.0
 11
34.34984710171373
 21
-1.326114947726496
 31
0.0
  0
ARC
  5
D82
330
19
100
AcDbEntity
  8
TitleBlock&Notes
  6
Continuous
 62
     3
100
AcDbCircle
 10
34.00590747931373
 20
-1.222556116526507
 30
0.0
 40
0.3789920375999999
100
AcDbArc
 50
187.1485089300005
 51
353.5789239900008
  0
ARC
  5
D83
330
19
100
AcDbEntity
  8
TitleBlock&Notes
  6
Continuous
 62
     3
100
AcDbCircle
 10
34.00590747931373
 20
-1.222556116526507
 30
0.0
 40
0.3987843947999999
100
AcDbArc
 50
186.7746279100004
 51
351.0289824700008
  0
LINE
  5
D84
330
19
100
AcDbEntity
  8
TitleBlock&Notes
  6
Continuous
 62
     3
100
AcDbLine
 10
33.92424325051375
 20
-1.572341570126502
 30
0.0
 11
34.09972926451371
 21
-1.569278430926507
 31
0.0
  0
LINE
  5
D85
330
19
100
AcDbEntity
  8
TitleBlock&Notes
  6
Continuous
 62
     3
100
AcDbLine
 10
33.74939887531373
 20
-0.6173090037265095
 30
0.0
 11
34.26241604371371
 21
-0.6173090037265095
 31
0.0
  0
LINE
  5
D86
330
19
100
AcDbEntity
  8
TitleBlock&Notes
  6
Continuous
 62
     3
100
AcDbLine
 10
33.73100463571375
 20
-0.6371090037264953
 30
0.0
 11
34.28081028331374
 21
-0.6371090037264953
 31
0.0
  0
LINE
  5
D87
330
19
100
AcDbEntity
  8
TitleBlock&Notes
  6
Continuous
 62
     3
100
AcDbLine
 10
33.65531893771368
 20
-0.780239916926492
 30
0.0
 11
34.05780434851371
 21
-0.7732145205265031
 31
0.0
  0
LINE
  5
D88
330
19
100
AcDbEntity
  8
TitleBlock&Notes
  6
Continuous
 62
     3
100
AcDbLine
 10
33.69007938211372
 20
-0.6952617621265116
 30
0.0
 11
34.32173553691373
 21
-0.6952617621265116
 31
0.0
  0
LINE
  5
D89
330
19
100
AcDbEntity
  8
TitleBlock&Notes
  6
Continuous
 62
     3
100
AcDbLine
 10
34.35454029571373
 20
-0.7732145205265031
 30
0.0
 11
33.65727462331371
 21
-0.7732145205265031
 31
0.0
  0
LINE
  5
D8A
330
19
100
AcDbEntity
  8
TitleBlock&Notes
  6
Continuous
 62
     3
100
AcDbLine
 10
33.65334079891374
 20
-0.7961168637265086
 30
0.0
 11
34.35743616451371
 21
-0.7838268057265072
 31
0.0
  0
LINE
  5
D8B
330
19
100
AcDbEntity
  8
TitleBlock&Notes
  6
Continuous
 62
     3
100
AcDbLine
 10
33.71511133411372
 20
-0.6569090037265024
 30
0.0
 11
34.29670358491371
 21
-0.6569090037265024
 31
0.0
  0
LINE
  5
D8C
330
19
100
AcDbEntity
  8
TitleBlock&Notes
  6
Continuous
 62
     3
100
AcDbLine
 10
33.70132720771374
 20
-0.6767090037264989
 30
0.0
 11
34.31048771131375
 21
-0.6767090037264989
 31
0.0
  0
ARC
  5
D8D
330
19
100
AcDbEntity
  8
TitleBlock&Notes
  6
Continuous
 62
     3
100
AcDbCircle
 10
34.00590747931373
 20
-0.8740501785264914
 30
0.0
 40
0.3827223972
100
AcDbArc
 50
9.703799320000044
 51
166.2342647900004
  0
ARC
  5
D8E
330
19
100
AcDbEntity
  8
TitleBlock&Notes
  6
Continuous
 62
     3
100
AcDbCircle
 10
34.00590747931373
 20
-0.8740501785264914
 30
0.0
 40
0.4011096672
100
AcDbArc
 50
12.13355042000009
 51
170.8448616600005
  0
LINE
  5
D8F
330
19
100
AcDbEntity
  8
TitleBlock&Notes
  6
Continuous
 62
     3
100
AcDbLine
 10
35.34240747931375
 20
-0.9185371353265043
 30
0.0
 11
35.66249222011373
 21
-0.1759404717265038
 31
0.0
  0
LINE
  5
D90
330
19
100
AcDbEntity
  8
TitleBlock&Notes
  6
Continuous
 62
     3
100
AcDbLine
 10
35.63643918211373
 20
-0.1363404717265002
 30
0.0
 11
35.34240747931375
 21
-0.8184940317264928
 31
0.0
  0
LINE
  5
D91
330
19
100
AcDbEntity
  8
TitleBlock&Notes
  6
Continuous
 62
     3
100
AcDbLine
 10
35.34240747931375
 20
-0.8685156033264949
 30
0.0
 11
35.64946568131371
 21
-0.1561404717265074
 31
0.0
  0
LINE
  5
D92
330
19
100
AcDbEntity
  8
TitleBlock&Notes
  6
Continuous
 62
     3
100
AcDbLine
 10
35.34240747931375
 20
-0.9185371353265043
 30
0.0
 11
35.02232269891369
 21
-0.1759404717265038
 31
0.0
  0
LINE
  5
D93
330
19
100
AcDbEntity
  8
TitleBlock&Notes
  6
Continuous
 62
     3
100
AcDbLine
 10
35.34240747931375
 20
-0.8184940317264928
 30
0.0
 11
35.04837577651374
 21
-0.1363404717265002
 31
0.0
  0
LINE
  5
D94
330
19
100
AcDbEntity
  8
TitleBlock&Notes
  6
Continuous
 62
     3
100
AcDbLine
 10
35.34240747931375
 20
-0.8685156033264949
 30
0.0
 11
35.03534923771373
 21
-0.1561404717265074
 31
0.0
  0
LINE
  5
D95
330
19
100
AcDbEntity
  8
TitleBlock&Notes
  6
Continuous
 62
     3
100
AcDbLine
 10
35.19390747931372
 20
-1.324340471726502
 30
0.0
 11
34.69890747931371
 21
-0.1759404717265038
 31
0.0
  0
LINE
  5
D96
330
19
100
AcDbEntity
  8
TitleBlock&Notes
  6
Continuous
 62
     3
100
AcDbLine
 10
34.63871646931368
 20
-0.1363404717265002
 30
0.0
 11
35.15430747931371
 21
-1.332511614926497
 31
0.0
  0
LINE
  5
D97
330
19
100
AcDbEntity
  8
TitleBlock&Notes
  6
Continuous
 62
     3
100
AcDbLine
 10
34.66881195451371
 20
-0.1561404717265074
 30
0.0
 11
35.17410747931374
 21
-1.3284260433265
 31
0.0
  0
LINE
  5
D98
330
19
100
AcDbEntity
  8
TitleBlock&Notes
  6
Continuous
 62
     3
100
AcDbLine
 10
34.54762193611371
 20
-1.719884596526506
 30
0.0
 11
35.15430747931371
 21
-1.709294843726512
 31
0.0
  0
LINE
  5
D99
330
19
100
AcDbEntity
  8
TitleBlock&Notes
  6
Continuous
 62
     3
100
AcDbLine
 10
34.53237938131376
 20
-1.735993044926514
 30
0.0
 11
35.15430747931371
 21
-1.725137259326507
 31
0.0
  0
LINE
  5
D9A
330
19
100
AcDbEntity
  8
TitleBlock&Notes
  6
Continuous
 62
     3
100
AcDbLine
 10
34.58823577531372
 20
-1.671648430526508
 30
0.0
 11
35.15430747931371
 21
-1.661767596926496
 31
0.0
  0
LINE
  5
D9B
330
19
100
AcDbEntity
  8
TitleBlock&Notes
  6
Continuous
 62
     3
100
AcDbLine
 10
34.57548528811371
 20
-1.687713398126499
 30
0.0
 11
35.15430747931371
 21
-1.677610012526502
 31
0.0
  0
LINE
  5
D9C
330
19
100
AcDbEntity
  8
TitleBlock&Notes
  6
Continuous
 62
     3
100
AcDbLine
 10
34.56196719451368
 20
-1.7037917505265
 30
0.0
 11
35.15430747931371
 21
-1.693452428126496
 31
0.0
  0
LINE
  5
D9D
330
19
100
AcDbEntity
  8
TitleBlock&Notes
  6
Continuous
 62
     3
100
AcDbLine
 10
34.70969131171372
 20
-1.435812927326496
 30
0.0
 11
35.15430747931371
 21
-1.435812927326496
 31
0.0
  0
LINE
  5
D9E
330
19
100
AcDbEntity
  8
TitleBlock&Notes
  6
Continuous
 62
     3
100
AcDbLine
 10
34.70594701291374
 20
-1.447799966126504
 30
0.0
 11
35.15430747931371
 21
-1.439973818126501
 31
0.0
  0
LINE
  5
D9F
330
19
100
AcDbEntity
  8
TitleBlock&Notes
  6
Continuous
 62
     3
100
AcDbLine
 10
34.70061800131368
 20
-1.4637354021265
 30
0.0
 11
35.15430747931371
 21
-1.455816233726507
 31
0.0
  0
LINE
  5
DA0
330
19
100
AcDbEntity
  8
TitleBlock&Notes
  6
Continuous
 62
     3
100
AcDbLine
 10
34.6948765953137
 20
-1.479678045326506
 30
0.0
 11
35.15430747931371
 21
-1.471658649326501
 31
0.0
  0
LINE
  5
DA1
330
19
100
AcDbEntity
  8
TitleBlock&Notes
  6
Continuous
 62
     3
100
AcDbLine
 10
34.68871190491374
 20
-1.495628054126514
 30
0.0
 11
35.15430747931371
 21
-1.487501064926506
 31
0.0
  0
LINE
  5
DA2
330
19
100
AcDbEntity
  8
TitleBlock&Notes
  6
Continuous
 62
     3
100
AcDbLine
 10
34.68211165411372
 20
-1.511585666126501
 30
0.0
 11
35.15430747931371
 21
-1.503343480526501
 31
0.0
  0
LINE
  5
DA3
330
19
100
AcDbEntity
  8
TitleBlock&Notes
  6
Continuous
 62
     3
100
AcDbLine
 10
34.67506229971373
 20
-1.527551158526501
 30
0.0
 11
35.15430747931371
 21
-1.519185896126495
 31
0.0
  0
LINE
  5
DA4
330
19
100
AcDbEntity
  8
TitleBlock&Notes
  6
Continuous
 62
     3
100
AcDbLine
 10
34.66754887291371
 20
-1.543524689726494
 30
0.0
 11
35.15430747931371
 21
-1.535028311726501
 31
0.0
  0
LINE
  5
DA5
330
19
100
AcDbEntity
  8
TitleBlock&Notes
  6
Continuous
 62
     3
100
AcDbLine
 10
34.65955454371375
 20
-1.559506655726503
 30
0.0
 11
35.15430747931371
 21
-1.550870727326495
 31
0.0
  0
LINE
  5
DA6
330
19
100
AcDbEntity
  8
TitleBlock&Notes
  6
Continuous
 62
     3
100
AcDbLine
 10
34.65106066051372
 20
-1.575497333726497
 30
0.0
 11
35.15430747931371
 21
-1.566713142926511
 31
0.0
  0
LINE
  5
DA7
330
19
100
AcDbEntity
  8
TitleBlock&Notes
  6
Continuous
 62
     3
100
AcDbLine
 10
34.64204639371371
 20
-1.591497080126506
 30
0.0
 11
35.15430747931371
 21
-1.582555558526506
 31
0.0
  0
LINE
  5
DA8
330
19
100
AcDbEntity
  8
TitleBlock&Notes
  6
Continuous
 62
     3
100
AcDbLine
 10
34.63248826051372
 20
-1.607506330526502
 30
0.0
 11
35.15430747931371
 21
-1.598397934526508
 31
0.0
  0
LINE
  5
DA9
330
19
100
AcDbEntity
  8
TitleBlock&Notes
  6
Continuous
 62
     3
100
AcDbLine
 10
34.62235996651374
 20
-1.623525560126514
 30
0.0
 11
35.15430747931371
 21
-1.614240350126502
 31
0.0
  0
LINE
  5
DAA
330
19
100
AcDbEntity
  8
TitleBlock&Notes
  6
Continuous
 62
     3
100
AcDbLine
 10
34.61163177211375
 20
-1.639555204526503
 30
0.0
 11
35.15430747931371
 21
-1.630082765726507
 31
0.0
  0
LINE
  5
DAB
330
19
100
AcDbEntity
  8
TitleBlock&Notes
  6
Continuous
 62
     3
100
AcDbLine
 10
34.6002698589137
 20
-1.655595936926504
 30
0.0
 11
35.15430747931371
 21
-1.645925181326502
 31
0.0
  0
LINE
  5
DAC
330
19
100
AcDbEntity
  8
TitleBlock&Notes
  6
Continuous
 62
     3
100
AcDbLine
 10
34.74196463851375
 20
-0.8246420901265043
 30
0.0
 11
34.93395371491371
 21
-0.8212909005265078
 31
0.0
  0
LINE
  5
DAD
330
19
100
AcDbEntity
  8
TitleBlock&Notes
  6
Continuous
 62
     3
100
AcDbLine
 10
34.69197431131373
 20
-0.9680963769265051
 30
0.0
 11
34.99495240651373
 21
-0.9628078761265133
 31
0.0
  0
LINE
  5
DAE
330
19
100
AcDbEntity
  8
TitleBlock&Notes
  6
Continuous
 62
     3
100
AcDbLine
 10
34.74053432611372
 20
-1.255925848526507
 30
0.0
 11
35.11845300571375
 21
-1.249329240926504
 31
0.0
  0
LINE
  5
DAF
330
19
100
AcDbEntity
  8
TitleBlock&Notes
  6
Continuous
 62
     3
100
AcDbLine
 10
34.73964229651373
 20
-1.271783826926499
 30
0.0
 11
35.12523062491374
 21
-1.265053331726514
 31
0.0
  0
LINE
  5
DB0
330
19
100
AcDbEntity
  8
TitleBlock&Notes
  6
Continuous
 62
     3
100
AcDbLine
 10
34.73840543011371
 20
-1.2876478245265
 30
0.0
 11
35.13200824411373
 21
-1.280777462126506
 31
0.0
  0
LINE
  5
DB1
330
19
100
AcDbEntity
  8
TitleBlock&Notes
  6
Continuous
 62
     3
100
AcDbLine
 10
34.73682150931371
 20
-1.303517880926511
 30
0.0
 11
35.13878590291374
 21
-1.296501552926505
 31
0.0
  0
LINE
  5
DB2
330
19
100
AcDbEntity
  8
TitleBlock&Notes
  6
Continuous
 62
     3
100
AcDbLine
 10
34.73488799971373
 20
-1.319394035726505
 30
0.0
 11
35.14556352211373
 21
-1.312225683326508
 31
0.0
  0
LINE
  5
DB3
330
19
100
AcDbEntity
  8
TitleBlock&Notes
  6
Continuous
 62
     3
100
AcDbLine
 10
34.72873732771373
 20
-1.357860168926505
 30
0.0
 11
35.15430747931371
 21
-1.357860168926505
 31
0.0
  0
LINE
  5
DB4
330
19
100
AcDbEntity
  8
TitleBlock&Notes
  6
Continuous
 62
     3
100
AcDbLine
 10
34.72995855211371
 20
-1.351164917726494
 30
0.0
 11
35.15430747931371
 21
-1.343757856526496
 31
0.0
  0
LINE
  5
DB5
330
19
100
AcDbEntity
  8
TitleBlock&Notes
  6
Continuous
 62
     3
100
AcDbLine
 10
34.73260157491369
 20
-1.335276368126509
 30
0.0
 11
35.15234118091369
 21
-1.327949774126496
 31
0.0
  0
LINE
  5
DB6
330
19
100
AcDbEntity
  8
TitleBlock&Notes
  6
Continuous
 62
     3
100
AcDbLine
 10
35.34055388251373
 20
-0.8141936697265119
 30
0.0
 11
35.34428915251369
 21
-0.8141284881265011
 31
0.0
  0
LINE
  5
DB7
330
19
100
AcDbEntity
  8
TitleBlock&Notes
  6
Continuous
 62
     3
100
AcDbLine
 10
35.15488880731373
 20
-0.383450728526503
 30
0.0
 11
35.52992611171373
 21
-0.383450728526503
 31
0.0
  0
LINE
  5
DB8
330
19
100
AcDbEntity
  8
TitleBlock&Notes
  6
Continuous
 62
     3
100
AcDbLine
 10
35.12928534811371
 20
-0.3240507285264922
 30
0.0
 11
35.55552957091371
 21
-0.3240507285264922
 31
0.0
  0
LINE
  5
DB9
330
19
100
AcDbEntity
  8
TitleBlock&Notes
  6
Continuous
 62
     3
100
AcDbLine
 10
35.54699509771372
 20
-0.34385072852651
 30
0.0
 11
35.13781982131375
 21
-0.34385072852651
 31
0.0
  0
LINE
  5
DBA
330
19
100
AcDbEntity
  8
TitleBlock&Notes
  6
Continuous
 62
     3
100
AcDbLine
 10
35.53846062451369
 20
-0.3636507285265065
 30
0.0
 11
35.14635429451372
 21
-0.3636507285265065
 31
0.0
  0
LINE
  5
DBB
330
19
100
AcDbEntity
  8
TitleBlock&Notes
  6
Continuous
 62
     3
100
AcDbLine
 10
34.91323111411371
 20
-0.7732145205265031
 30
0.0
 11
34.73669708611373
 21
-0.7732145205265031
 31
0.0
  0
LINE
  5
DBC
330
19
100
AcDbEntity
  8
TitleBlock&Notes
  6
Continuous
 62
     3
100
AcDbLine
 10
34.73723560651375
 20
-0.7771974093264991
 30
0.0
 11
34.91362081771372
 21
-0.7741185885265072
 31
0.0
  0
LINE
  5
DBD
330
19
100
AcDbEntity
  8
TitleBlock&Notes
  6
Continuous
 62
     3
100
AcDbLine
 10
34.73915585011373
 20
-0.7930062837265109
 30
0.0
 11
34.92039843691374
 21
-0.789842679326517
 31
0.0
  0
LINE
  5
DBE
330
19
100
AcDbEntity
  8
TitleBlock&Notes
  6
Continuous
 62
     3
100
AcDbLine
 10
34.74073161331371
 20
-0.8088212169265016
 30
0.0
 11
34.92717609571371
 21
-0.8055668097265087
 31
0.0
  0
LINE
  5
DBF
330
19
100
AcDbEntity
  8
TitleBlock&Notes
  6
Continuous
 62
     3
100
AcDbLine
 10
34.87963079131371
 20
-0.6952617621265116
 30
0.0
 11
34.72162809811375
 21
-0.6952617621265116
 31
0.0
  0
LINE
  5
DC0
330
19
100
AcDbEntity
  8
TitleBlock&Notes
  6
Continuous
 62
     3
100
AcDbLine
 10
34.87163392771371
 20
-0.6767090037264989
 30
0.0
 11
34.71673638931372
 21
-0.6767090037264989
 31
0.0
  0
LINE
  5
DC1
330
19
100
AcDbEntity
  8
TitleBlock&Notes
  6
Continuous
 62
     3
100
AcDbLine
 10
34.74522950011369
 20
-0.383450728526503
 30
0.0
 11
34.5568462413137
 21
-0.383450728526503
 31
0.0
  0
LINE
  5
DC2
330
19
100
AcDbEntity
  8
TitleBlock&Notes
  6
Continuous
 62
     3
100
AcDbLine
 10
34.73669502691373
 20
-0.3636507285265065
 30
0.0
 11
34.53855531811372
 21
-0.3636507285265065
 31
0.0
  0
LINE
  5
DC3
330
19
100
AcDbEntity
  8
TitleBlock&Notes
  6
Continuous
 62
     3
100
AcDbLine
 10
34.69890747931371
 20
-0.1759404717265038
 30
0.0
 11
35.02232269891369
 21
-0.1759404717265038
 31
0.0
  0
LINE
  5
DC4
330
19
100
AcDbEntity
  8
TitleBlock&Notes
  6
Continuous
 62
     3
100
AcDbLine
 10
34.84603046851368
 20
-0.6173090037265095
 30
0.0
 11
34.69750365931372
 21
-0.6173090037265095
 31
0.0
  0
LINE
  5
DC5
330
19
100
AcDbEntity
  8
TitleBlock&Notes
  6
Continuous
 62
     3
100
AcDbLine
 10
35.03534923771373
 20
-0.1561404717265074
 30
0.0
 11
34.66881195451371
 21
-0.1561404717265074
 31
0.0
  0
LINE
  5
DC6
330
19
100
AcDbEntity
  8
TitleBlock&Notes
  6
Continuous
 62
     3
100
AcDbLine
 10
34.85456494171373
 20
-0.6371090037264953
 30
0.0
 11
34.70453483731374
 21
-0.6371090037264953
 31
0.0
  0
LINE
  5
DC7
330
19
100
AcDbEntity
  8
TitleBlock&Notes
  6
Continuous
 62
     3
100
AcDbLine
 10
34.63871646931368
 20
-0.1363404717265002
 30
0.0
 11
35.04837577651374
 21
-0.1363404717265002
 31
0.0
  0
LINE
  5
DC8
330
19
100
AcDbEntity
  8
TitleBlock&Notes
  6
Continuous
 62
     3
100
AcDbLine
 10
34.71094009771376
 20
-0.6569090037265024
 30
0.0
 11
34.86309945451374
 21
-0.6569090037265024
 31
0.0
  0
LINE
  5
DC9
330
19
100
AcDbEntity
  8
TitleBlock&Notes
  6
Continuous
 62
     3
100
AcDbLine
 10
35.36192449771373
 20
-0.7732145205265031
 30
0.0
 11
35.32289042131376
 21
-0.7732145205265031
 31
0.0
  0
LINE
  5
DCA
330
19
100
AcDbEntity
  8
TitleBlock&Notes
  6
Continuous
 62
     3
100
AcDbLine
 10
35.32699860451376
 20
-0.7827454485264998
 30
0.0
 11
35.35804995451369
 21
-0.7822034433265035
 31
0.0
  0
LINE
  5
DCB
330
19
100
AcDbEntity
  8
TitleBlock&Notes
  6
Continuous
 62
     3
100
AcDbLine
 10
35.33377622371371
 20
-0.7984695789265022
 30
0.0
 11
35.35116957331372
 21
-0.7981659657265024
 31
0.0
  0
LINE
  5
DCC
330
19
100
AcDbEntity
  8
TitleBlock&Notes
  6
Continuous
 62
     3
100
AcDbLine
 10
35.25568977571373
 20
-0.6173090037265095
 30
0.0
 11
35.42912514331374
 21
-0.6173090037265095
 31
0.0
  0
LINE
  5
DCD
330
19
100
AcDbEntity
  8
TitleBlock&Notes
  6
Continuous
 62
     3
100
AcDbLine
 10
35.42059067011372
 20
-0.6371090037264953
 30
0.0
 11
35.26422424891372
 21
-0.6371090037264953
 31
0.0
  0
LINE
  5
DCE
330
19
100
AcDbEntity
  8
TitleBlock&Notes
  6
Continuous
 62
     3
100
AcDbLine
 10
35.27275872211369
 20
-0.6569090037265024
 30
0.0
 11
35.41205619691373
 21
-0.6569090037265024
 31
0.0
  0
LINE
  5
DCF
330
19
100
AcDbEntity
  8
TitleBlock&Notes
  6
Continuous
 62
     3
100
AcDbLine
 10
35.28129323491376
 20
-0.6767090037264989
 30
0.0
 11
35.40352172371375
 21
-0.6767090037264989
 31
0.0
  0
LINE
  5
DD0
330
19
100
AcDbEntity
  8
TitleBlock&Notes
  6
Continuous
 62
     3
100
AcDbLine
 10
35.28982770811374
 20
-0.6965090037264954
 30
0.0
 11
35.39498721091375
 21
-0.6965090037264954
 31
0.0
  0
LINE
  5
DD1
330
19
100
AcDbEntity
  8
TitleBlock&Notes
  6
Continuous
 62
     3
100
AcDbLine
 10
36.48090747931373
 20
-1.621340471726503
 30
0.0
 11
37.23330747931372
 21
-1.621340471726503
 31
0.0
  0
LINE
  5
DD2
330
19
100
AcDbEntity
  8
TitleBlock&Notes
  6
Continuous
 62
     3
100
AcDbLine
 10
37.27290747931375
 20
-1.58174047172651
 30
0.0
 11
36.52050747931371
 21
-1.58174047172651
 31
0.0
  0
LINE
  5
DD3
330
19
100
AcDbEntity
  8
TitleBlock&Notes
  6
Continuous
 62
     3
100
AcDbLine
 10
37.71030036931373
 20
-1.435812927326507
 30
0.0
 11
36.52050747931371
 21
-1.435812927326496
 31
0.0
  0
LINE
  5
DD4
330
19
100
AcDbEntity
  8
TitleBlock&Notes
  6
Continuous
 62
     3
100
AcDbLine
 10
36.52050747931371
 20
-1.447811529326513
 30
0.0
 11
37.20790752451374
 21
-1.435812927326507
 31
0.0
  0
LINE
  5
DD5
330
19
100
AcDbEntity
  8
TitleBlock&Notes
  6
Continuous
 62
     3
100
AcDbLine
 10
36.52050747931371
 20
-1.463653944926507
 30
0.0
 11
37.71030036931373
 21
-1.442886041726501
 31
0.0
  0
LINE
  5
DD6
330
19
100
AcDbEntity
  8
TitleBlock&Notes
  6
Continuous
 62
     3
100
AcDbLine
 10
36.52050747931371
 20
-1.479496360526502
 30
0.0
 11
37.71030036931373
 21
-1.458728457326506
 31
0.0
  0
LINE
  5
DD7
330
19
100
AcDbEntity
  8
TitleBlock&Notes
  6
Continuous
 62
     3
100
AcDbLine
 10
36.52050747931371
 20
-1.495338776126507
 30
0.0
 11
37.71030036931373
 21
-1.4745708729265
 31
0.0
  0
LINE
  5
DD8
330
19
100
AcDbEntity
  8
TitleBlock&Notes
  6
Continuous
 62
     3
100
AcDbLine
 10
36.52050747931371
 20
-1.511181191726501
 30
0.0
 11
37.71030036931373
 21
-1.490413288526495
 31
0.0
  0
LINE
  5
DD9
330
19
100
AcDbEntity
  8
TitleBlock&Notes
  6
Continuous
 62
     3
100
AcDbLine
 10
36.52050747931371
 20
-1.527023607326507
 30
0.0
 11
37.71030036931373
 21
-1.506255704126511
 31
0.0
  0
LINE
  5
DDA
330
19
100
AcDbEntity
  8
TitleBlock&Notes
  6
Continuous
 62
     3
100
AcDbLine
 10
36.52050747931371
 20
-1.542866022926501
 30
0.0
 11
37.71030036931373
 21
-1.522098119726505
 31
0.0
  0
LINE
  5
DDB
330
19
100
AcDbEntity
  8
TitleBlock&Notes
  6
Continuous
 62
     3
100
AcDbLine
 10
36.52050747931371
 20
-1.558708438526496
 30
0.0
 11
37.71030036931373
 21
-1.53794053532651
 31
0.0
  0
LINE
  5
DDC
330
19
100
AcDbEntity
  8
TitleBlock&Notes
  6
Continuous
 62
     3
100
AcDbLine
 10
36.52050747931371
 20
-1.574550854126501
 30
0.0
 11
37.71030036931373
 21
-1.553782911326502
 31
0.0
  0
LINE
  5
DDD
330
19
100
AcDbEntity
  8
TitleBlock&Notes
  6
Continuous
 62
     3
100
AcDbLine
 10
37.25310747931372
 20
-1.601540471726506
 30
0.0
 11
36.50070747931373
 21
-1.601540471726506
 31
0.0
  0
LINE
  5
DDE
330
19
100
AcDbEntity
  8
TitleBlock&Notes
  6
Continuous
 62
     3
100
AcDbLine
 10
37.01622431851375
 20
-1.58174047172651
 30
0.0
 11
37.71030036931373
 21
-1.569625326926496
 31
0.0
  0
TEXT
  5
DDF
330
19
100
AcDbEntity
  8
TitleBlock&Notes
  6
Continuous
 62
     3
100
AcDbText
 10
36.87024264091375
 20
-0.5867787897265063
 30
0.0
 40
0.297
  1
R
 41
1.1965812
100
AcDbText
  0
LINE
  5
DE0
330
19
100
AcDbEntity
  8
TitleBlock&Notes
  6
Continuous
 62
     3
100
AcDbLine
 10
37.71030036931373
 20
-0.6952617621265116
 30
0.0
 11
36.52050747931371
 21
-0.6952617621265116
 31
0.0
  0
LINE
  5
DE1
330
19
100
AcDbEntity
  8
TitleBlock&Notes
  6
Continuous
 62
     3
100
AcDbLine
 10
37.71030036931373
 20
-0.7732145205265031
 30
0.0
 11
36.52050747931371
 21
-0.7732145205265031
 31
0.0
  0
LINE
  5
DE2
330
19
100
AcDbEntity
  8
TitleBlock&Notes
  6
Continuous
 62
     3
100
AcDbLine
 10
37.71030036931373
 20
-0.9680963769265051
 30
0.0
 11
36.52050747931371
 21
-0.9680963769265051
 31
0.0
  0
LINE
  5
DE3
330
19
100
AcDbEntity
  8
TitleBlock&Notes
  6
Continuous
 62
     3
100
AcDbLine
 10
37.71030036931373
 20
-1.046049135326507
 30
0.0
 11
36.52050747931371
 21
-1.046049135326507
 31
0.0
  0
LINE
  5
DE4
330
19
100
AcDbEntity
  8
TitleBlock&Notes
  6
Continuous
 62
     3
100
AcDbLine
 10
37.71030036931373
 20
-1.357860168926505
 30
0.0
 11
36.52050747931371
 21
-1.357860168926505
 31
0.0
  0
LINE
  5
DE5
330
19
100
AcDbEntity
  8
TitleBlock&Notes
  6
Continuous
 62
     3
100
AcDbLine
 10
36.52050747931371
 20
-1.066432166126505
 30
0.0
 11
37.68824926771368
 21
-1.046049135326507
 31
0.0
  0
LINE
  5
DE6
330
19
100
AcDbEntity
  8
TitleBlock&Notes
  6
Continuous
 62
     3
100
AcDbLine
 10
36.52050747931371
 20
-1.082274581726499
 30
0.0
 11
37.71030036931373
 21
-1.061506638926511
 31
0.0
  0
LINE
  5
DE7
330
19
100
AcDbEntity
  8
TitleBlock&Notes
  6
Continuous
 62
     3
100
AcDbLine
 10
36.52050747931371
 20
-1.098116997326505
 30
0.0
 11
37.71030036931373
 21
-1.077349054526505
 31
0.0
  0
LINE
  5
DE8
330
19
100
AcDbEntity
  8
TitleBlock&Notes
  6
Continuous
 62
     3
100
AcDbLine
 10
36.52050747931371
 20
-1.113959412926499
 30
0.0
 11
37.71030036931373
 21
-1.0931914701265
 31
0.0
  0
LINE
  5
DE9
330
19
100
AcDbEntity
  8
TitleBlock&Notes
  6
Continuous
 62
     3
100
AcDbLine
 10
36.52050747931371
 20
-1.129801788926512
 30
0.0
 11
37.71030036931373
 21
-1.109033885726505
 31
0.0
  0
LINE
  5
DEA
330
19
100
AcDbEntity
  8
TitleBlock&Notes
  6
Continuous
 62
     3
100
AcDbLine
 10
36.52050747931371
 20
-1.145644204526506
 30
0.0
 11
37.71030036931373
 21
-1.1248763013265
 31
0.0
  0
LINE
  5
DEB
330
19
100
AcDbEntity
  8
TitleBlock&Notes
  6
Continuous
 62
     3
100
AcDbLine
 10
36.52050747931371
 20
-1.16148662012649
 30
0.0
 11
37.71030036931373
 21
-1.140718716926505
 31
0.0
  0
LINE
  5
DEC
330
19
100
AcDbEntity
  8
TitleBlock&Notes
  6
Continuous
 62
     3
100
AcDbLine
 10
36.52050747931371
 20
-1.177329035726506
 30
0.0
 11
37.71030036931373
 21
-1.156561132526499
 31
0.0
  0
LINE
  5
DED
330
19
100
AcDbEntity
  8
TitleBlock&Notes
  6
Continuous
 62
     3
100
AcDbLine
 10
36.52050747931371
 20
-1.193171451326511
 30
0.0
 11
37.71030036931373
 21
-1.172403548126494
 31
0.0
  0
LINE
  5
DEE
330
19
100
AcDbEntity
  8
TitleBlock&Notes
  6
Continuous
 62
     3
100
AcDbLine
 10
36.52050747931371
 20
-1.209013866926506
 30
0.0
 11
37.71030036931373
 21
-1.18824596372651
 31
0.0
  0
LINE
  5
DEF
330
19
100
AcDbEntity
  8
TitleBlock&Notes
  6
Continuous
 62
     3
100
AcDbLine
 10
36.52050747931371
 20
-1.2248562825265
 30
0.0
 11
37.71030036931373
 21
-1.204088379326494
 31
0.0
  0
LINE
  5
DF0
330
19
100
AcDbEntity
  8
TitleBlock&Notes
  6
Continuous
 62
     3
100
AcDbLine
 10
36.52050747931371
 20
-1.240698698126495
 30
0.0
 11
37.71030036931373
 21
-1.21993079492651
 31
0.0
  0
LINE
  5
DF1
330
19
100
AcDbEntity
  8
TitleBlock&Notes
  6
Continuous
 62
     3
100
AcDbLine
 10
36.52050747931371
 20
-1.2565411137265
 30
0.0
 11
37.71030036931373
 21
-1.235773210526504
 31
0.0
  0
LINE
  5
DF2
330
19
100
AcDbEntity
  8
TitleBlock&Notes
  6
Continuous
 62
     3
100
AcDbLine
 10
36.52050747931371
 20
-1.272383529326505
 30
0.0
 11
37.71030036931373
 21
-1.251615626126499
 31
0.0
  0
LINE
  5
DF3
330
19
100
AcDbEntity
  8
TitleBlock&Notes
  6
Continuous
 62
     3
100
AcDbLine
 10
36.52050747931371
 20
-1.2882259449265
 30
0.0
 11
37.71030036931373
 21
-1.267458041726504
 31
0.0
  0
LINE
  5
DF4
330
19
100
AcDbEntity
  8
TitleBlock&Notes
  6
Continuous
 62
     3
100
AcDbLine
 10
36.52050747931371
 20
-1.304068360526494
 30
0.0
 11
37.71030036931373
 21
-1.283300417726506
 31
0.0
  0
LINE
  5
DF5
330
19
100
AcDbEntity
  8
TitleBlock&Notes
  6
Continuous
 62
     3
100
AcDbLine
 10
36.52050747931371
 20
-1.31991077612651
 30
0.0
 11
37.71030036931373
 21
-1.2991428333265
 31
0.0
  0
LINE
  5
DF6
330
19
100
AcDbEntity
  8
TitleBlock&Notes
  6
Continuous
 62
     3
100
AcDbLine
 10
36.52050747931371
 20
-1.335753191726505
 30
0.0
 11
37.71030036931373
 21
-1.314985248926495
 31
0.0
  0
LINE
  5
DF7
330
19
100
AcDbEntity
  8
TitleBlock&Notes
  6
Continuous
 62
     3
100
AcDbLine
 10
36.52050747931371
 20
-1.35159560732651
 30
0.0
 11
37.71030036931373
 21
-1.3308276645265
 31
0.0
  0
LINE
  5
DF8
330
19
100
AcDbEntity
  8
TitleBlock&Notes
  6
Continuous
 62
     3
100
AcDbLine
 10
36.52050747931371
 20
-0.7935975117264978
 30
0.0
 11
37.68824926771368
 21
-0.7732145205265031
 31
0.0
  0
LINE
  5
DF9
330
19
100
AcDbEntity
  8
TitleBlock&Notes
  6
Continuous
 62
     3
100
AcDbLine
 10
36.52050747931371
 20
-0.8094399273265029
 30
0.0
 11
37.71030036931373
 21
-0.7886720241264964
 31
0.0
  0
LINE
  5
DFA
330
19
100
AcDbEntity
  8
TitleBlock&Notes
  6
Continuous
 62
     3
100
AcDbLine
 10
36.52050747931371
 20
-0.8252823429265081
 30
0.0
 11
37.71030036931373
 21
-0.8045144397264909
 31
0.0
  0
LINE
  5
DFB
330
19
100
AcDbEntity
  8
TitleBlock&Notes
  6
Continuous
 62
     3
100
AcDbLine
 10
36.52050747931371
 20
-0.8411247585265027
 30
0.0
 11
37.71030036931373
 21
-0.8203568553265068
 31
0.0
  0
LINE
  5
DFC
330
19
100
AcDbEntity
  8
TitleBlock&Notes
  6
Continuous
 62
     3
100
AcDbLine
 10
36.52050747931371
 20
-0.8569671741264972
 30
0.0
 11
37.71030036931373
 21
-0.8361992313265087
 31
0.0
  0
LINE
  5
DFD
330
19
100
AcDbEntity
  8
TitleBlock&Notes
  6
Continuous
 62
     3
100
AcDbLine
 10
36.52050747931371
 20
-0.8728095897265024
 30
0.0
 11
37.71030036931373
 21
-0.8520416469265033
 31
0.0
  0
LINE
  5
DFE
330
19
100
AcDbEntity
  8
TitleBlock&Notes
  6
Continuous
 62
     3
100
AcDbLine
 10
36.52050747931371
 20
-0.888652005326497
 30
0.0
 11
37.71030036931373
 21
-0.8678840625264978
 31
0.0
  0
LINE
  5
DFF
330
19
100
AcDbEntity
  8
TitleBlock&Notes
  6
Continuous
 62
     3
100
AcDbLine
 10
36.52050747931371
 20
-0.9044943813265096
 30
0.0
 11
37.71030036931373
 21
-0.883726478126503
 31
0.0
  0
LINE
  5
E00
330
19
100
AcDbEntity
  8
TitleBlock&Notes
  6
Continuous
 62
     3
100
AcDbLine
 10
36.52050747931371
 20
-0.9203367969265041
 30
0.0
 11
37.71030036931373
 21
-0.8995688937264976
 31
0.0
  0
LINE
  5
E01
330
19
100
AcDbEntity
  8
TitleBlock&Notes
  6
Continuous
 62
     3
100
AcDbLine
 10
36.52050747931371
 20
-0.9361792125265093
 30
0.0
 11
37.71030036931373
 21
-0.9154113093265028
 31
0.0
  0
LINE
  5
E02
330
19
100
AcDbEntity
  8
TitleBlock&Notes
  6
Continuous
 62
     3
100
AcDbLine
 10
36.52050747931371
 20
-0.9520216281265039
 30
0.0
 11
37.71030036931373
 21
-0.9312537249264973
 31
0.0
  0
LINE
  5
E03
330
19
100
AcDbEntity
  8
TitleBlock&Notes
  6
Continuous
 62
     3
100
AcDbLine
 10
36.52050747931371
 20
-0.9678640437265091
 30
0.0
 11
37.71030036931373
 21
-0.9470961405264919
 31
0.0
  0
CIRCLE
  5
E04
330
19
100
AcDbEntity
  8
TitleBlock&Notes
  6
Continuous
 62
     3
100
AcDbCircle
 10
36.99391454971372
 20
-0.4333404717265142
 30
0.0
 40
0.2475
  0
LINE
  5
E05
330
19
100
AcDbEntity
  8
TitleBlock&Notes
  6
Continuous
 62
     3
100
AcDbLine
 10
37.71030036931373
 20
-0.6767090037264989
 30
0.0
 11
37.0389481053137
 21
-0.6767090037264989
 31
0.0
  0
LINE
  5
E06
330
19
100
AcDbEntity
  8
TitleBlock&Notes
  6
Continuous
 62
     3
100
AcDbLine
 10
37.06922095891373
 20
-1.357860168926505
 30
0.0
 11
37.71030036931373
 21
-1.346670080126495
 31
0.0
  0
LINE
  5
E07
330
19
100
AcDbEntity
  8
TitleBlock&Notes
  6
Continuous
 62
     3
100
AcDbLine
 10
36.48090747931373
 20
-0.1759404717265038
 30
0.0
 11
36.48090747931373
 21
-1.621340471726503
 31
0.0
  0
LINE
  5
E08
330
19
100
AcDbEntity
  8
TitleBlock&Notes
  6
Continuous
 62
     3
100
AcDbLine
 10
36.52050747931371
 20
-1.58174047172651
 30
0.0
 11
36.52050747931371
 21
-0.1363404717265002
 31
0.0
  0
LINE
  5
E09
330
19
100
AcDbEntity
  8
TitleBlock&Notes
  6
Continuous
 62
     3
100
AcDbLine
 10
36.50070747931373
 20
-1.601540471726506
 30
0.0
 11
36.50070747931373
 21
-0.1561404717265074
 31
0.0
  0
LINE
  5
E0A
330
19
100
AcDbEntity
  8
TitleBlock&Notes
  6
Continuous
 62
     3
100
AcDbLine
 10
36.52050747931371
 20
-1.05058975052651
 30
0.0
 11
36.78063801811374
 21
-1.046049135326507
 31
0.0
  0
LINE
  5
E0B
330
19
100
AcDbEntity
  8
TitleBlock&Notes
  6
Continuous
 62
     3
100
AcDbLine
 10
36.18390747931371
 20
-0.1759404717265038
 30
0.0
 11
36.48090747931373
 21
-0.1759404717265038
 31
0.0
  0
LINE
  5
E0C
330
19
100
AcDbEntity
  8
TitleBlock&Notes
  6
Continuous
 62
     3
100
AcDbLine
 10
36.14430747931369
 20
-0.1363404717265002
 30
0.0
 11
36.52050747931371
 21
-0.1363404717265002
 31
0.0
  0
LINE
  5
E0D
330
19
100
AcDbEntity
  8
TitleBlock&Notes
  6
Continuous
 62
     3
100
AcDbLine
 10
36.16410747931374
 20
-0.1561404717265074
 30
0.0
 11
36.50070747931373
 21
-0.1561404717265074
 31
0.0
  0
LINE
  5
E0E
330
19
100
AcDbEntity
  8
TitleBlock&Notes
  6
Continuous
 62
     3
100
AcDbLine
 10
36.14430747931369
 20
-0.6754617621264938
 30
0.0
 11
35.81371860091373
 21
-0.6754617621264938
 31
0.0
  0
LINE
  5
E0F
330
19
100
AcDbEntity
  8
TitleBlock&Notes
  6
Continuous
 62
     3
100
AcDbLine
 10
35.93958541891372
 20
-0.383450728526503
 30
0.0
 11
36.14430747931369
 21
-0.383450728526503
 31
0.0
  0
LINE
  5
E10
330
19
100
AcDbEntity
  8
TitleBlock&Notes
  6
Continuous
 62
     3
100
AcDbLine
 10
36.14430747931369
 20
-0.3240507285264922
 30
0.0
 11
35.96518887811375
 21
-0.3240507285264922
 31
0.0
  0
LINE
  5
E11
330
19
100
AcDbEntity
  8
TitleBlock&Notes
  6
Continuous
 62
     3
100
AcDbLine
 10
36.14430747931369
 20
-0.34385072852651
 30
0.0
 11
35.95665440491372
 21
-0.34385072852651
 31
0.0
  0
LINE
  5
E12
330
19
100
AcDbEntity
  8
TitleBlock&Notes
  6
Continuous
 62
     3
100
AcDbLine
 10
36.14430747931369
 20
-0.3636507285265065
 30
0.0
 11
35.94811989211369
 21
-0.3636507285265065
 31
0.0
  0
LINE
  5
E13
330
19
100
AcDbEntity
  8
TitleBlock&Notes
  6
Continuous
 62
     3
100
AcDbLine
 10
36.14430747931369
 20
-0.6173090037265095
 30
0.0
 11
35.83878445051374
 21
-0.6173090037265095
 31
0.0
  0
LINE
  5
E14
330
19
100
AcDbEntity
  8
TitleBlock&Notes
  6
Continuous
 62
     3
100
AcDbLine
 10
36.14430747931369
 20
-0.6371090037264953
 30
0.0
 11
35.83024997731375
 21
-0.6371090037264953
 31
0.0
  0
LINE
  5
E15
330
19
100
AcDbEntity
  8
TitleBlock&Notes
  6
Continuous
 62
     3
100
AcDbLine
 10
36.14430747931369
 20
-0.6569090037265024
 30
0.0
 11
35.82171546451373
 21
-0.6569090037265024
 31
0.0
  0
LINE
  5
E16
330
19
100
AcDbEntity
  8
TitleBlock&Notes
  6
Continuous
 62
     3
100
AcDbLine
 10
36.52050747931371
 20
-0.7777550961265032
 30
0.0
 11
36.78063801811374
 21
-0.7732145205265031
 31
0.0
  0
LINE
  5
E17
330
19
100
AcDbEntity
  8
TitleBlock&Notes
  6
Continuous
 62
     3
100
AcDbLine
 10
36.52050747931371
 20
-0.6173090037265095
 30
0.0
 11
36.82834932571374
 21
-0.6173090037265095
 31
0.0
  0
LINE
  5
E18
330
19
100
AcDbEntity
  8
TitleBlock&Notes
  6
Continuous
 62
     3
100
AcDbLine
 10
36.52050747931371
 20
-0.383450728526503
 30
0.0
 11
36.75149495251372
 21
-0.383450728526503
 31
0.0
  0
LINE
  5
E19
330
19
100
AcDbEntity
  8
TitleBlock&Notes
  6
Continuous
 62
     3
100
AcDbLine
 10
36.52050747931371
 20
-0.3240507285264922
 30
0.0
 11
36.77185149091373
 21
-0.3240507285264922
 31
0.0
  0
LINE
  5
E1A
330
19
100
AcDbEntity
  8
TitleBlock&Notes
  6
Continuous
 62
     3
100
AcDbLine
 10
36.52050747931371
 20
-0.34385072852651
 30
0.0
 11
36.76315964731372
 21
-0.34385072852651
 31
0.0
  0
LINE
  5
E1B
330
19
100
AcDbEntity
  8
TitleBlock&Notes
  6
Continuous
 62
     3
100
AcDbLine
 10
36.52050747931371
 20
-0.3636507285265065
 30
0.0
 11
36.75642855811371
 21
-0.3636507285265065
 31
0.0
  0
LINE
  5
E1C
330
19
100
AcDbEntity
  8
TitleBlock&Notes
  6
Continuous
 62
     3
100
AcDbLine
 10
36.52050747931371
 20
-0.6371090037264953
 30
0.0
 11
36.8534345001137
 21
-0.6371090037264953
 31
0.0
  0
LINE
  5
E1D
330
19
100
AcDbEntity
  8
TitleBlock&Notes
  6
Continuous
 62
     3
100
AcDbLine
 10
36.52050747931371
 20
-0.6569090037265024
 30
0.0
 11
36.88773839611373
 21
-0.6569090037265024
 31
0.0
  0
LINE
  5
E1E
330
19
100
AcDbEntity
  8
TitleBlock&Notes
  6
Continuous
 62
     3
100
AcDbLine
 10
36.52050747931371
 20
-0.6767090037264989
 30
0.0
 11
36.94888099411373
 21
-0.6767090037264989
 31
0.0
  0
LINE
  5
E1F
330
19
100
AcDbEntity
  8
TitleBlock&Notes
  6
Continuous
 62
     3
100
AcDbLine
 10
37.27290747931375
 20
-1.719841788926514
 30
0.0
 11
37.71030036931373
 21
-1.712207067326501
 31
0.0
  0
LINE
  5
E20
330
19
100
AcDbEntity
  8
TitleBlock&Notes
  6
Continuous
 62
     3
100
AcDbLine
 10
37.27290747931375
 20
-1.735684204526508
 30
0.0
 11
37.71030036931373
 21
-1.728049482926506
 31
0.0
  0
LINE
  5
E21
330
19
100
AcDbEntity
  8
TitleBlock&Notes
  6
Continuous
 62
     3
100
AcDbLine
 10
37.27290747931375
 20
-1.751526620126503
 30
0.0
 11
37.71030036931373
 21
-1.7438918985265
 31
0.0
  0
LINE
  5
E22
330
19
100
AcDbEntity
  8
TitleBlock&Notes
  6
Continuous
 62
     3
100
AcDbLine
 10
37.27290747931375
 20
-1.767369035726508
 30
0.0
 11
37.71030036931373
 21
-1.759734314126506
 31
0.0
  0
LINE
  5
E23
330
19
100
AcDbEntity
  8
TitleBlock&Notes
  6
Continuous
 62
     3
100
AcDbLine
 10
37.27290747931375
 20
-1.783211451326502
 30
0.0
 11
37.71030036931373
 21
-1.7755767297265
 31
0.0
  0
LINE
  5
E24
330
19
100
AcDbEntity
  8
TitleBlock&Notes
  6
Continuous
 62
     3
100
AcDbLine
 10
37.27290747931375
 20
-1.799053827326504
 30
0.0
 11
37.71030036931373
 21
-1.791419105726513
 31
0.0
  0
LINE
  5
E25
330
19
100
AcDbEntity
  8
TitleBlock&Notes
  6
Continuous
 62
     3
100
AcDbLine
 10
37.27290747931375
 20
-1.593102464126504
 30
0.0
 11
37.71030036931373
 21
-1.585467742526502
 31
0.0
  0
LINE
  5
E26
330
19
100
AcDbEntity
  8
TitleBlock&Notes
  6
Continuous
 62
     3
100
AcDbLine
 10
37.27290747931375
 20
-1.608944879726498
 30
0.0
 11
37.71030036931373
 21
-1.601310158126507
 31
0.0
  0
LINE
  5
E27
330
19
100
AcDbEntity
  8
TitleBlock&Notes
  6
Continuous
 62
     3
100
AcDbLine
 10
37.27290747931375
 20
-1.624787295326504
 30
0.0
 11
37.71030036931373
 21
-1.617152573726501
 31
0.0
  0
LINE
  5
E28
330
19
100
AcDbEntity
  8
TitleBlock&Notes
  6
Continuous
 62
     3
100
AcDbLine
 10
37.27290747931375
 20
-1.640629710926509
 30
0.0
 11
37.71030036931373
 21
-1.632994989326496
 31
0.0
  0
LINE
  5
E29
330
19
100
AcDbEntity
  8
TitleBlock&Notes
  6
Continuous
 62
     3
100
AcDbLine
 10
37.27290747931375
 20
-1.656472126526503
 30
0.0
 11
37.71030036931373
 21
-1.648837404926512
 31
0.0
  0
LINE
  5
E2A
330
19
100
AcDbEntity
  8
TitleBlock&Notes
  6
Continuous
 62
     3
100
AcDbLine
 10
37.27290747931375
 20
-1.672314542126498
 30
0.0
 11
37.71030036931373
 21
-1.664679820526506
 31
0.0
  0
LINE
  5
E2B
330
19
100
AcDbEntity
  8
TitleBlock&Notes
  6
Continuous
 62
     3
100
AcDbLine
 10
37.27290747931375
 20
-1.688156957726492
 30
0.0
 11
37.71030036931373
 21
-1.680522236126511
 31
0.0
  0
LINE
  5
E2C
330
19
100
AcDbEntity
  8
TitleBlock&Notes
  6
Continuous
 62
     3
100
AcDbLine
 10
37.27290747931375
 20
-1.703999373326498
 30
0.0
 11
37.71030036931373
 21
-1.696364651726506
 31
0.0
  0
LINE
  5
E2D
330
19
100
AcDbEntity
  8
TitleBlock&Notes
  6
Continuous
 62
     3
100
AcDbLine
 10
37.41480798091372
 20
-0.9680963769265051
 30
0.0
 11
37.71030036931373
 21
-0.9629385561265078
 31
0.0
  0
TEXT
  5
E2E
330
19
100
AcDbEntity
  8
TitleBlock&Notes
  6
Continuous
 62
     3
100
AcDbText
 10
37.32099890731375
 20
-0.5543122149264983
 30
0.0
 40
0.099
  1
INC.
 41
1.282051279999999
100
AcDbText
  0
LINE
  5
E2F
330
19
100
AcDbEntity
  8
TitleBlock&Notes
  6
Continuous
 62
     3
100
AcDbLine
 10
37.71030036931373
 20
-0.383450728526503
 30
0.0
 11
37.2363341469137
 21
-0.383450728526503
 31
0.0
  0
LINE
  5
E30
330
19
100
AcDbEntity
  8
TitleBlock&Notes
  6
Continuous
 62
     3
100
AcDbLine
 10
37.71030036931373
 20
-0.3240507285264922
 30
0.0
 11
37.21597760851377
 21
-0.3240507285264922
 31
0.0
  0
LINE
  5
E31
330
19
100
AcDbEntity
  8
TitleBlock&Notes
  6
Continuous
 62
     3
100
AcDbLine
 10
37.71030036931373
 20
-0.34385072852651
 30
0.0
 11
37.2246694521137
 21
-0.34385072852651
 31
0.0
  0
LINE
  5
E32
330
19
100
AcDbEntity
  8
TitleBlock&Notes
  6
Continuous
 62
     3
100
AcDbLine
 10
37.71030036931373
 20
-0.3636507285265065
 30
0.0
 11
37.2314005413137
 21
-0.3636507285265065
 31
0.0
  0
LINE
  5
E33
330
19
100
AcDbEntity
  8
TitleBlock&Notes
  6
Continuous
 62
     3
100
AcDbLine
 10
37.71030036931373
 20
-0.6173090037265095
 30
0.0
 11
37.15947977371373
 21
-0.6173090037265095
 31
0.0
  0
LINE
  5
E34
330
19
100
AcDbEntity
  8
TitleBlock&Notes
  6
Continuous
 62
     3
100
AcDbLine
 10
37.71030036931373
 20
-0.6371090037264953
 30
0.0
 11
37.13439459931369
 21
-0.6371090037264953
 31
0.0
  0
LINE
  5
E35
330
19
100
AcDbEntity
  8
TitleBlock&Notes
  6
Continuous
 62
     3
100
AcDbLine
 10
37.71030036931373
 20
-0.6569090037265024
 30
0.0
 11
37.10009070331373
 21
-0.6569090037265024
 31
0.0
  0
TEXT
  5
E39
330
19
100
AcDbEntity
  8
TitleBlock&Notes
  6
Continuous
 62
     3
100
AcDbText
 10
40.1538370418063
 20
-1.190653221329367
 30
0.0
 40
0.3168
  1
 Bolton, Ontario
 41
0.7000000000000001
100
AcDbText
  0
TEXT
  5
E3A
330
19
100
AcDbEntity
  8
TitleBlock&Notes
  6
Continuous
 62
     3
100
AcDbText
 10
38.14004750494614
 20
-1.720604487278969
 30
0.0
 40
0.3168
  1
          Canada L7E 5R1
 41
0.7000000000000001
100
AcDbText
  0
CIRCLE
  5
E3B
330
19
100
AcDbEntity
  8
TitleBlock&Notes
  6
Continuous
 62
     3
100
AcDbCircle
 10
42.92624958298849
 20
0.2909550999098469
 30
0.0
 40
0.1782
  0
TEXT
  5
E3C
330
19
100
AcDbEntity
  8
TitleBlock&Notes
  6
Continuous
 62
     3
100
AcDbText
 10
42.84350688778848
 20
0.1825489911098463
 30
0.0
 40
0.2178
  1
R
 41
1.165501169999999
100
AcDbText
  0
LINE
  5
E4A
330
19
100
AcDbEntity
  8
B.O.M
100
AcDbLine
 10
45.60691454971378
 20
39.1036752622735
 30
0.0
 11
28.20564268091258
 21
39.1036752622735
 31
0.0
  0
ENDSEC
  0
SECTION
  2
OBJECTS
  0
DICTIONARY
  5
C
330
0
100
AcDbDictionary
281
     1
  3
ACAD_GROUP
350
D
  3
ACAD_LAYOUT
350
35A
  3
ACAD_MLINESTYLE
350
E
  3
ACAD_PLOTSETTINGS
350
35B
  3
ACAD_PLOTSTYLENAME
350
358
  3
ASE_INDEX_DICTIONARY
350
369
  0
DICTIONARY
  5
D
102
{ACAD_REACTORS
330
C
102
}
330
C
100
AcDbDictionary
281
     1
  0
DICTIONARY
  5
35A
102
{ACAD_REACTORS
330
C
102
}
330
C
100
AcDbDictionary
281
     1
  3
Layout1
350
35D
  3
Model
350
35C
  0
DICTIONARY
  5
E
102
{ACAD_REACTORS
330
C
102
}
330
C
100
AcDbDictionary
281
     1
  3
STANDARD
350
1C
  0
DICTIONARY
  5
35B
102
{ACAD_REACTORS
330
C
102
}
330
C
100
AcDbDictionary
281
     1
  0
ACDBDICTIONARYWDFLT
  5
358
102
{ACAD_REACTORS
330
C
102
}
330
C
100
AcDbDictionary
281
     1
  3
Normal
350
359
100
AcDbDictionaryWithDefault
340
359
  0
DICTIONARY
  5
369
102
{ACAD_REACTORS
330
C
102
}
330
C
100
AcDbDictionary
281
     1
  3
ASEBlockHierarchyIndexRecord
350
36B
1001
DCO15
1040
1374491307.39
  0
LAYOUT
  5
35D
102
{ACAD_REACTORS
330
35A
102
}
330
35A
100
AcDbPlotSettings
  1

  2
HP LaserJet III
  4

  6

 40
0.0
 41
0.0
 42
0.0
 43
0.0
 44
0.0
 45
0.0
 46
0.0
 47
0.0
 48
0.0
 49
0.0
140
0.0
141
0.0
142
1.0
143
1.0
 70
   688
 72
     0
 73
     0
 74
     5
  7

 75
    16
147
1.0
148
0.0
149
0.0
100
AcDbLayout
  1
Layout1
 70
     1
 71
     1
 10
0.0
 20
0.0
 11
12.0
 21
9.0
 12
0.0
 22
0.0
 32
0.0
 14
1.000000000000000E+20
 24
1.000000000000000E+20
 34
1.000000000000000E+20
 15
-1.000000000000000E+20
 25
-1.000000000000000E+20
 35
-1.000000000000000E+20
146
0.0
 13
0.0
 23
0.0
 33
0.0
 16
1.0
 26
0.0
 36
0.0
 17
0.0
 27
1.0
 37
0.0
 76
     0
330
16
  0
LAYOUT
  5
35C
102
{ACAD_REACTORS
330
35A
102
}
330
35A
100
AcDbPlotSettings
  1

  2
HP LaserJet III
  4

  6

 40
0.0
 41
0.0
 42
0.0
 43
0.0
 44
0.0
 45
0.0
 46
0.0
 47
0.0
 48
0.0
 49
0.0
140
0.0
141
0.0
142
1.0
143
1.0
 70
  1712
 72
     0
 73
     0
 74
     0
  7

 75
     0
147
1.0
148
0.0
149
0.0
100
AcDbLayout
  1
Model
 70
     1
 71
     0
 10
0.0
 20
0.0
 11
12.0
 21
9.0
 12
0.0
 22
0.0
 32
0.0
 14
0.0
 24
0.0
 34
0.0
 15
0.0
 25
0.0
 35
0.0
146
0.0
 13
0.0
 23
0.0
 33
0.0
 16
1.0
 26
0.0
 36
0.0
 17
0.0
 27
1.0
 37
0.0
 76
     0
330
19
  0
MLINESTYLE
  5
1C
102
{ACAD_REACTORS
330
E
102
}
330
E
100
AcDbMlineStyle
  2
STANDARD
 70
     0
  3

 62
     0
 51
90.0
 52
90.0
 71
     2
 49
0.5
 62
   256
  6
BYLAYER
 49
-0.5
 62
   256
  6
BYLAYER
  0
ACDBPLACEHOLDER
  5
359
102
{ACAD_REACTORS
330
358
102
}
330
358
  0
XRECORD
  5
36B
102
{ACAD_REACTORS
330
369
102
}
330
369
100
AcDbXrecord
280
     1
  0
ENDSEC
  0
EOF
