  0
SECTION
  2
HEADER
  9
$ACADVER
  1
AC1015
  9
$ACADMAINTVER
 70
     6
  9
$DWGCODEPAGE
  3
ANSI_1252
  9
$INSBASE
 10
0.0
 20
0.0
 30
0.0
  9
$EXTMIN
 10
-5.856637451655499
 20
-4.56037614464817
 30
0.0
  9
$EXTMAX
 10
39.51836254834452
 20
30.50549024529015
 30
0.0
  9
$LIMMIN
 10
0.0
 20
0.0
  9
$LIMMAX
 10
12.0
 20
9.0
  9
$ORTHOMODE
 70
     0
  9
$REGENMODE
 70
     1
  9
$FILLMODE
 70
     1
  9
$QTEXTMODE
 70
     0
  9
$MIRRTEXT
 70
     1
  9
$LTSCALE
 40
1.0
  9
$ATTMODE
 70
     1
  9
$TEXTSIZE
 40
0.2
  9
$TRACEWID
 40
0.05
  9
$TEXTSTYLE
  7
Standard
  9
$CLAYER
  8
0
  9
$CELTYPE
  6
ByLayer
  9
$CECOLOR
 62
   256
  9
$CELTSCALE
 40
1.0
  9
$DISPSILH
 70
     0
  9
$DIMSCALE
 40
1.0
  9
$DIMASZ
 40
0.25
  9
$DIMEXO
 40
0.0625
  9
$DIMDLI
 40
0.38
  9
$DIMRND
 40
0.0
  9
$DIMDLE
 40
0.0
  9
$DIMEXE
 40
0.18
  9
$DIMTP
 40
0.0
  9
$DIMTM
 40
0.0
  9
$DIMTXT
 40
0.25
  9
$DIMCEN
 40
0.09
  9
$DIMTSZ
 40
0.0
  9
$DIMTOL
 70
     0
  9
$DIMLIM
 70
     0
  9
$DIMTIH
 70
     1
  9
$DIMTOH
 70
     1
  9
$DIMSE1
 70
     0
  9
$DIMSE2
 70
     0
  9
$DIMTAD
 70
     0
  9
$DIMZIN
 70
     0
  9
$DIMBLK
  1

  9
$DIMASO
 70
     1
  9
$DIMSHO
 70
     1
  9
$DIMPOST
  1

  9
$DIMAPOST
  1

  9
$DIMALT
 70
     0
  9
$DIMALTD
 70
     2
  9
$DIMALTF
 40
25.4
  9
$DIMLFAC
 40
1.0
  9
$DIMTOFL
 70
     0
  9
$DIMTVP
 40
0.0
  9
$DIMTIX
 70
     0
  9
$DIMSOXD
 70
     0
  9
$DIMSAH
 70
     0
  9
$DIMBLK1
  1

  9
$DIMBLK2
  1

  9
$DIMSTYLE
  2
Standard
  9
$DIMCLRD
 70
     0
  9
$DIMCLRE
 70
     0
  9
$DIMCLRT
 70
     0
  9
$DIMTFAC
 40
1.0
  9
$DIMGAP
 40
0.09
  9
$DIMJUST
 70
     0
  9
$DIMSD1
 70
     0
  9
$DIMSD2
 70
     0
  9
$DIMTOLJ
 70
     1
  9
$DIMTZIN
 70
     0
  9
$DIMALTZ
 70
     0
  9
$DIMALTTZ
 70
     0
  9
$DIMUPT
 70
     0
  9
$DIMDEC
 70
     2
  9
$DIMTDEC
 70
     2
  9
$DIMALTU
 70
     2
  9
$DIMALTTD
 70
     2
  9
$DIMTXSTY
  7
Standard
  9
$DIMAUNIT
 70
     0
  9
$DIMADEC
 70
     0
  9
$DIMALTRND
 40
0.0
  9
$DIMAZIN
 70
     0
  9
$DIMDSEP
 70
    46
  9
$DIMATFIT
 70
     3
  9
$DIMFRAC
 70
     0
  9
$DIMLDRBLK
  1

  9
$DIMLUNIT
 70
     5
  9
$DIMLWD
 70
    -2
  9
$DIMLWE
 70
    -2
  9
$DIMTMOVE
 70
     0
  9
$LUNITS
 70
     2
  9
$LUPREC
 70
     4
  9
$SKETCHINC
 40
0.1
  9
$FILLETRAD
 40
0.5
  9
$AUNITS
 70
     0
  9
$AUPREC
 70
     0
  9
$MENU
  1
.
  9
$ELEVATION
 40
0.0
  9
$PELEVATION
 40
0.0
  9
$THICKNESS
 40
0.0
  9
$LIMCHECK
 70
     0
  9
$CHAMFERA
 40
0.5
  9
$CHAMFERB
 40
0.5
  9
$CHAMFERC
 40
1.0
  9
$CHAMFERD
 40
0.0
  9
$SKPOLY
 70
     0
  9
$TDCREATE
 40
2451724.629798032
  9
$TDUCREATE
 40
2451724.838131366
  9
$TDUPDATE
 40
2452345.660911921
  9
$TDUUPDATE
 40
2452345.869245254
  9
$TDINDWG
 40
0.0412983796
  9
$TDUSRTIMER
 40
0.0412983796
  9
$USRTIMER
 70
     1
  9
$ANGBASE
 50
0.0
  9
$ANGDIR
 70
     0
  9
$PDMODE
 70
     0
  9
$PDSIZE
 40
0.0
  9
$PLINEWID
 40
0.0
  9
$SPLFRAME
 70
     0
  9
$SPLINETYPE
 70
     6
  9
$SPLINESEGS
 70
     8
  9
$HANDSEED
  5
BF5
  9
$SURFTAB1
 70
     6
  9
$SURFTAB2
 70
     6
  9
$SURFTYPE
 70
     6
  9
$SURFU
 70
     6
  9
$SURFV
 70
     6
  9
$UCSBASE
  2

  9
$UCSNAME
  2

  9
$UCSORG
 10
0.0
 20
0.0
 30
0.0
  9
$UCSXDIR
 10
1.0
 20
0.0
 30
0.0
  9
$UCSYDIR
 10
0.0
 20
1.0
 30
0.0
  9
$UCSORTHOREF
  2

  9
$UCSORTHOVIEW
 70
     0
  9
$UCSORGTOP
 10
0.0
 20
0.0
 30
0.0
  9
$UCSORGBOTTOM
 10
0.0
 20
0.0
 30
0.0
  9
$UCSORGLEFT
 10
0.0
 20
0.0
 30
0.0
  9
$UCSORGRIGHT
 10
0.0
 20
0.0
 30
0.0
  9
$UCSORGFRONT
 10
0.0
 20
0.0
 30
0.0
  9
$UCSORGBACK
 10
0.0
 20
0.0
 30
0.0
  9
$PUCSBASE
  2

  9
$PUCSNAME
  2

  9
$PUCSORG
 10
0.0
 20
0.0
 30
0.0
  9
$PUCSXDIR
 10
1.0
 20
0.0
 30
0.0
  9
$PUCSYDIR
 10
0.0
 20
1.0
 30
0.0
  9
$PUCSORTHOREF
  2

  9
$PUCSORTHOVIEW
 70
     0
  9
$PUCSORGTOP
 10
0.0
 20
0.0
 30
0.0
  9
$PUCSORGBOTTOM
 10
0.0
 20
0.0
 30
0.0
  9
$PUCSORGLEFT
 10
0.0
 20
0.0
 30
0.0
  9
$PUCSORGRIGHT
 10
0.0
 20
0.0
 30
0.0
  9
$PUCSORGFRONT
 10
0.0
 20
0.0
 30
0.0
  9
$PUCSORGBACK
 10
0.0
 20
0.0
 30
0.0
  9
$USERI1
 70
     0
  9
$USERI2
 70
     0
  9
$USERI3
 70
     0
  9
$USERI4
 70
     0
  9
$USERI5
 70
     0
  9
$USERR1
 40
0.0
  9
$USERR2
 40
0.0
  9
$USERR3
 40
0.0
  9
$USERR4
 40
0.0
  9
$USERR5
 40
0.0
  9
$WORLDVIEW
 70
     1
  9
$SHADEDGE
 70
     3
  9
$SHADEDIF
 70
    70
  9
$TILEMODE
 70
     1
  9
$MAXACTVP
 70
    64
  9
$PINSBASE
 10
0.0
 20
0.0
 30
0.0
  9
$PLIMCHECK
 70
     0
  9
$PEXTMIN
 10
1.000000000000000E+20
 20
1.000000000000000E+20
 30
1.000000000000000E+20
  9
$PEXTMAX
 10
-1.000000000000000E+20
 20
-1.000000000000000E+20
 30
-1.000000000000000E+20
  9
$PLIMMIN
 10
0.0
 20
0.0
  9
$PLIMMAX
 10
12.0
 20
9.0
  9
$UNITMODE
 70
     0
  9
$VISRETAIN
 70
     1
  9
$PLINEGEN
 70
     0
  9
$PSLTSCALE
 70
     1
  9
$TREEDEPTH
 70
  3020
  9
$CMLSTYLE
  2
Standard
  9
$CMLJUST
 70
     0
  9
$CMLSCALE
 40
1.0
  9
$PROXYGRAPHICS
 70
     1
  9
$MEASUREMENT
 70
     0
  9
$CELWEIGHT
370
    -1
  9
$ENDCAPS
280
     0
  9
$JOINSTYLE
280
     0
  9
$LWDISPLAY
290
     0
  9
$INSUNITS
 70
     1
  9
$HYPERLINKBASE
  1

  9
$STYLESHEET
  1

  9
$XEDIT
290
     1
  9
$CEPSNTYPE
380
     0
  9
$PSTYLEMODE
290
     1
  9
$FINGERPRINTGUID
  2
{7516F52A-0BD7-11D4-8360-004F4908EF25}
  9
$VERSIONGUID
  2
{850AA29E-4D0C-11D4-8360-004F4908EF25}
  9
$EXTNAMES
290
     1
  9
$PSVPSCALE
 40
0.0
  9
$OLESTARTUP
290
     0
  0
ENDSEC
  0
SECTION
  2
CLASSES
  0
CLASS
  1
ACDBDICTIONARYWDFLT
  2
AcDbDictionaryWithDefault
  3
AutoCAD 2000
 90
        0
280
     0
281
     0
  0
CLASS
  1
ACDBPLACEHOLDER
  2
AcDbPlaceHolder
  3
AutoCAD 2000
 90
        0
280
     0
281
     0
  0
CLASS
  1
LAYOUT
  2
AcDbLayout
  3
AutoCAD 2000
 90
        0
280
     0
281
     0
  0
ENDSEC
  0
SECTION
  2
TABLES
  0
TABLE
  2
VPORT
  5
8
330
0
100
AcDbSymbolTable
 70
     2
  0
VPORT
  5
BF4
330
8
100
AcDbSymbolTableRecord
100
AcDbViewportTableRecord
  2
*Active
 70
     0
 10
0.0
 20
0.0
 11
1.0
 21
1.0
 12
16.98107632182448
 22
12.97251289548206
 13
0.0
 23
0.0
 14
0.5
 24
0.5
 15
0.5
 25
0.5
 16
0.0
 26
0.0
 36
1.0
 17
0.0
 27
0.0
 37
0.0
 40
35.50589405597425
 41
1.378947368421052
 42
50.0
 43
0.0
 44
0.0
 50
0.0
 51
0.0
 71
     0
 72
   100
 73
     1
 74
     3
 75
     0
 76
     0
 77
     0
 78
     0
281
     0
 65
     1
110
0.0
120
0.0
130
0.0
111
1.0
121
0.0
131
0.0
112
0.0
122
1.0
132
0.0
 79
     0
146
0.0
  0
ENDTAB
  0
TABLE
  2
LTYPE
  5
5
330
0
100
AcDbSymbolTable
 70
     2
  0
LTYPE
  5
14
330
5
100
AcDbSymbolTableRecord
100
AcDbLinetypeTableRecord
  2
ByBlock
 70
     0
  3

 72
    65
 73
     0
 40
0.0
  0
LTYPE
  5
15
330
5
100
AcDbSymbolTableRecord
100
AcDbLinetypeTableRecord
  2
ByLayer
 70
     0
  3

 72
    65
 73
     0
 40
0.0
  0
LTYPE
  5
16
330
5
100
AcDbSymbolTableRecord
100
AcDbLinetypeTableRecord
  2
Continuous
 70
     0
  3
Solid line
 72
    65
 73
     0
 40
0.0
  0
LTYPE
  5
A17
330
5
100
AcDbSymbolTableRecord
100
AcDbLinetypeTableRecord
  2
HIDDEN
 70
     0
  3
_____________________                     _____________________
 72
    65
 73
     2
 40
0.2
 49
0.133333
 74
     0
 49
-0.066667
 74
     0
  0
ENDTAB
  0
TABLE
  2
LAYER
  5
2
330
0
100
AcDbSymbolTable
 70
     5
  0
LAYER
  5
10
330
2
100
AcDbSymbolTableRecord
100
AcDbLayerTableRecord
  2
0
 70
     0
 62
     7
  6
Continuous
370
    -3
390
F
  0
LAYER
  5
2B
330
2
100
AcDbSymbolTableRecord
100
AcDbLayerTableRecord
  2
TitleBlock&Notes
 70
     0
 62
     3
  6
Continuous
370
    -3
390
F
  0
LAYER
  5
2C
330
2
100
AcDbSymbolTableRecord
100
AcDbLayerTableRecord
  2
B.O.M
 70
     0
 62
     3
  6
Continuous
370
    -3
390
F
  0
LAYER
  5
B48
330
2
100
AcDbSymbolTableRecord
100
AcDbLayerTableRecord
  2
Defpoints
 70
     0
 62
     7
  6
Continuous
290
     0
370
    -3
390
F
  0
LAYER
  5
B49
330
2
100
AcDbSymbolTableRecord
100
AcDbLayerTableRecord
  2
Dimensions
 70
     0
 62
     1
  6
Continuous
370
    -3
390
F
  0
ENDTAB
  0
TABLE
  2
STYLE
  5
3
330
0
100
AcDbSymbolTable
 70
     2
  0
STYLE
  5
11
330
3
100
AcDbSymbolTableRecord
100
AcDbTextStyleTableRecord
  2
Standard
 70
     0
 40
0.0
 41
1.0
 50
0.0
 71
     0
 42
0.2
  3
txt
  4

  0
STYLE
  5
A18
330
3
100
AcDbSymbolTableRecord
100
AcDbTextStyleTableRecord
  2
SAS_____
 70
     0
 40
0.0
 41
1.0
 50
0.0
 71
     0
 42
0.25
  3
SAS_____
  4

  0
ENDTAB
  0
TABLE
  2
VIEW
  5
6
330
0
100
AcDbSymbolTable
 70
     0
  0
ENDTAB
  0
TABLE
  2
UCS
  5
7
330
0
100
AcDbSymbolTable
 70
     0
  0
ENDTAB
  0
TABLE
  2
APPID
  5
9
330
0
100
AcDbSymbolTable
 70
     1
  0
APPID
  5
12
330
9
100
AcDbSymbolTableRecord
100
AcDbRegAppTableRecord
  2
ACAD
 70
     0
  0
ENDTAB
  0
TABLE
  2
DIMSTYLE
  5
A
330
0
100
AcDbSymbolTable
 70
     1
100
AcDbDimStyleTable
 71
     1
340
27
  0
DIMSTYLE
105
27
102
{ACAD_REACTORS
330
B6D
330
B6E
330
BB9
330
BC7
102
}
330
A
100
AcDbSymbolTableRecord
100
AcDbDimStyleTableRecord
  2
Standard
 70
     0
340
11
  0
ENDTAB
  0
TABLE
  2
BLOCK_RECORD
  5
1
330
0
100
AcDbSymbolTable
 70
     7
  0
BLOCK_RECORD
  5
1F
330
1
100
AcDbSymbolTableRecord
100
AcDbBlockTableRecord
  2
*Model_Space
340
22
  0
BLOCK_RECORD
  5
1B
330
1
100
AcDbSymbolTableRecord
100
AcDbBlockTableRecord
  2
*Paper_Space
340
1E
  0
BLOCK_RECORD
  5
23
330
1
100
AcDbSymbolTableRecord
100
AcDbBlockTableRecord
  2
*Paper_Space0
340
26
  0
BLOCK_RECORD
  5
B74
330
1
100
AcDbSymbolTableRecord
100
AcDbBlockTableRecord
  2
*D3
340
0
  0
BLOCK_RECORD
  5
B81
330
1
100
AcDbSymbolTableRecord
100
AcDbBlockTableRecord
  2
*D4
340
0
  0
BLOCK_RECORD
  5
BBA
330
1
100
AcDbSymbolTableRecord
100
AcDbBlockTableRecord
  2
*D5
340
0
  0
BLOCK_RECORD
  5
BC8
330
1
100
AcDbSymbolTableRecord
100
AcDbBlockTableRecord
  2
*D6
340
0
  0
ENDTAB
  0
ENDSEC
  0
SECTION
  2
BLOCKS
  0
BLOCK
  5
20
330
1F
100
AcDbEntity
  8
0
100
AcDbBlockBegin
  2
*Model_Space
 70
     0
 10
0.0
 20
0.0
 30
0.0
  3
*Model_Space
  1

  0
ENDBLK
  5
21
330
1F
100
AcDbEntity
  8
0
100
AcDbBlockEnd
  0
BLOCK
  5
1C
330
1B
100
AcDbEntity
 67
     1
  8
0
100
AcDbBlockBegin
  2
*Paper_Space
 70
     0
 10
0.0
 20
0.0
 30
0.0
  3
*Paper_Space
  1

  0
ENDBLK
  5
1D
330
1B
100
AcDbEntity
 67
     1
  8
0
100
AcDbBlockEnd
  0
BLOCK
  5
24
330
23
100
AcDbEntity
  8
0
100
AcDbBlockBegin
  2
*Paper_Space0
 70
     0
 10
0.0
 20
0.0
 30
0.0
  3
*Paper_Space0
  1

  0
ENDBLK
  5
25
330
23
100
AcDbEntity
  8
0
100
AcDbBlockEnd
  0
BLOCK
  5
B7F
330
B74
100
AcDbEntity
  8
0
100
AcDbBlockBegin
  2
*D3
 70
     1
 10
0.0
 20
0.0
 30
0.0
  3
*D3
  1

  0
LINE
  5
BAC
330
B74
100
AcDbEntity
  8
Dimensions
 62
     0
370
    -2
100
AcDbLine
 10
15.06259338115625
 20
2.536277784640711
 30
0.0
 11
14.19951461589216
 21
2.536277784640712
 31
0.0
  0
LINE
  5
BAD
330
B74
100
AcDbEntity
  8
Dimensions
 62
     0
370
    -2
100
AcDbLine
 10
15.06259338115625
 20
7.536277784640711
 30
0.0
 11
14.19951461589216
 21
7.536277784640711
 31
0.0
  0
LINE
  5
BAE
330
B74
100
AcDbEntity
  8
Dimensions
 62
     0
370
    -2
100
AcDbLine
 10
14.37951461589216
 20
2.786277784640712
 30
0.0
 11
14.37951461589216
 21
4.821277784640711
 31
0.0
  0
LINE
  5
BAF
330
B74
100
AcDbEntity
  8
Dimensions
 62
     0
370
    -2
100
AcDbLine
 10
14.37951461589216
 20
7.286277784640711
 30
0.0
 11
14.37951461589216
 21
5.251277784640711
 31
0.0
  0
SOLID
  5
BB0
330
B74
100
AcDbEntity
  8
Dimensions
 62
     0
100
AcDbTrace
 10
14.33784794922549
 20
2.786277784640712
 30
0.0
 11
14.42118128255883
 21
2.786277784640712
 31
0.0
 12
14.37951461589216
 22
2.536277784640712
 32
0.0
 13
14.37951461589216
 23
2.536277784640712
 33
0.0
  0
SOLID
  5
BB1
330
B74
100
AcDbEntity
  8
Dimensions
 62
     0
100
AcDbTrace
 10
14.3378479492255
 20
7.286277784640711
 30
0.0
 11
14.42118128255883
 21
7.286277784640711
 31
0.0
 12
14.37951461589216
 22
7.536277784640711
 32
0.0
 13
14.37951461589216
 23
7.536277784640711
 33
0.0
  0
MTEXT
  5
BB2
330
B74
100
AcDbEntity
  8
Dimensions
 62
     0
100
AcDbMText
 10
14.37951461589216
 20
5.036277784640714
 30
0.0
 40
0.25
 41
0.0
 71
     5
 72
     1
  1
\A1;5
 73
     1
 44
1.0
  0
POINT
  5
BB3
330
B74
100
AcDbEntity
  8
Defpoints
 62
     0
100
AcDbPoint
 10
15.12509338115625
 20
2.536277784640711
 30
0.0
  0
POINT
  5
BB4
330
B74
100
AcDbEntity
  8
Defpoints
 62
     0
100
AcDbPoint
 10
15.12509338115625
 20
7.536277784640711
 30
0.0
  0
POINT
  5
BB5
330
B74
100
AcDbEntity
  8
Defpoints
 62
     0
100
AcDbPoint
 10
14.37951461589216
 20
7.536277784640711
 30
0.0
  0
ENDBLK
  5
B80
330
B74
100
AcDbEntity
  8
0
100
AcDbBlockEnd
  0
BLOCK
  5
B8C
330
B81
100
AcDbEntity
  8
0
100
AcDbBlockBegin
  2
*D4
 70
     1
 10
0.0
 20
0.0
 30
0.0
  3
*D4
  1

  0
LINE
  5
BA2
330
B81
100
AcDbEntity
  8
Dimensions
 62
     0
370
    -2
100
AcDbLine
 10
15.48759338115625
 20
1.411277784640711
 30
0.0
 11
14.44237300240321
 21
1.411277784640712
 31
0.0
  0
LINE
  5
BA3
330
B81
100
AcDbEntity
  8
Dimensions
 62
     0
370
    -2
100
AcDbLine
 10
15.06259338115625
 20
2.536277784640711
 30
0.0
 11
14.44237300240321
 21
2.536277784640712
 31
0.0
  0
LINE
  5
BA4
330
B81
100
AcDbEntity
  8
Dimensions
 62
     0
370
    -2
100
AcDbLine
 10
14.62237300240321
 20
1.161277784640711
 30
0.0
 11
14.62237300240321
 21
0.9112777846407119
 31
0.0
  0
LINE
  5
BA5
330
B81
100
AcDbEntity
  8
Dimensions
 62
     0
370
    -2
100
AcDbLine
 10
14.62237300240321
 20
2.786277784640712
 30
0.0
 11
14.62237300240321
 21
3.036277784640712
 31
0.0
  0
SOLID
  5
BA6
330
B81
100
AcDbEntity
  8
Dimensions
 62
     0
100
AcDbTrace
 10
14.58070633573654
 20
1.161277784640711
 30
0.0
 11
14.66403966906987
 21
1.161277784640711
 31
0.0
 12
14.62237300240321
 22
1.411277784640711
 32
0.0
 13
14.62237300240321
 23
1.411277784640711
 33
0.0
  0
SOLID
  5
BA7
330
B81
100
AcDbEntity
  8
Dimensions
 62
     0
100
AcDbTrace
 10
14.58070633573654
 20
2.786277784640712
 30
0.0
 11
14.66403966906987
 21
2.786277784640712
 31
0.0
 12
14.62237300240321
 22
2.536277784640712
 32
0.0
 13
14.62237300240321
 23
2.536277784640712
 33
0.0
  0
MTEXT
  5
BA8
330
B81
100
AcDbEntity
  8
Dimensions
 62
     0
100
AcDbMText
 10
14.62237300240321
 20
1.973777784640714
 30
0.0
 40
0.25
 41
0.0
 71
     5
 72
     1
  1
\A1;1{\H1.000000x;\S1/8;}
 73
     1
 44
1.0
  0
POINT
  5
BA9
330
B81
100
AcDbEntity
  8
Defpoints
 62
     0
100
AcDbPoint
 10
15.55009338115625
 20
1.411277784640711
 30
0.0
  0
POINT
  5
BAA
330
B81
100
AcDbEntity
  8
Defpoints
 62
     0
100
AcDbPoint
 10
15.12509338115625
 20
2.536277784640711
 30
0.0
  0
POINT
  5
BAB
330
B81
100
AcDbEntity
  8
Defpoints
 62
     0
100
AcDbPoint
 10
14.62237300240321
 20
2.536277784640712
 30
0.0
  0
ENDBLK
  5
B8D
330
B81
100
AcDbEntity
  8
0
100
AcDbBlockEnd
  0
BLOCK
  5
BC5
330
BBA
100
AcDbEntity
  8
0
100
AcDbBlockBegin
  2
*D5
 70
     1
 10
0.0
 20
0.0
 30
0.0
  3
*D5
  1

  0
LINE
  5
BDF
330
BBA
100
AcDbEntity
  8
Dimensions
 62
     0
370
    -2
100
AcDbLine
 10
15.48759338115625
 20
1.411277784640711
 30
0.0
 11
12.93551715979157
 21
1.411277784640712
 31
0.0
  0
LINE
  5
BE0
330
BBA
100
AcDbEntity
  8
Dimensions
 62
     0
370
    -2
100
AcDbLine
 10
14.59259338115625
 20
26.65050878464071
 30
0.0
 11
12.93551715979158
 21
26.65050878464071
 31
0.0
  0
LINE
  5
BE1
330
BBA
100
AcDbEntity
  8
Dimensions
 62
     0
370
    -2
100
AcDbLine
 10
13.11551715979157
 20
1.661277784640712
 30
0.0
 11
13.11551715979158
 21
13.64922661797404
 31
0.0
  0
LINE
  5
BE2
330
BBA
100
AcDbEntity
  8
Dimensions
 62
     0
370
    -2
100
AcDbLine
 10
13.11551715979158
 20
26.40050878464071
 30
0.0
 11
13.11551715979158
 21
14.41255995130737
 31
0.0
  0
SOLID
  5
BE3
330
BBA
100
AcDbEntity
  8
Dimensions
 62
     0
100
AcDbTrace
 10
13.0738504931249
 20
1.661277784640712
 30
0.0
 11
13.15718382645824
 21
1.661277784640712
 31
0.0
 12
13.11551715979157
 22
1.411277784640712
 32
0.0
 13
13.11551715979157
 23
1.411277784640712
 33
0.0
  0
SOLID
  5
BE4
330
BBA
100
AcDbEntity
  8
Dimensions
 62
     0
100
AcDbTrace
 10
13.07385049312491
 20
26.40050878464071
 30
0.0
 11
13.15718382645824
 21
26.40050878464071
 31
0.0
 12
13.11551715979158
 22
26.65050878464071
 32
0.0
 13
13.11551715979158
 23
26.65050878464071
 33
0.0
  0
MTEXT
  5
BE5
330
BBA
100
AcDbEntity
  8
Dimensions
 62
     0
100
AcDbMText
 10
13.11551715979157
 20
14.03089328464071
 30
0.0
 40
0.25
 41
0.0
 71
     5
 72
     1
  1
\A1;25{\H1.000000x;\S1/4;}
 73
     1
 44
1.0
  0
POINT
  5
BE6
330
BBA
100
AcDbEntity
  8
Defpoints
 62
     0
100
AcDbPoint
 10
15.55009338115625
 20
1.411277784640711
 30
0.0
  0
POINT
  5
BE7
330
BBA
100
AcDbEntity
  8
Defpoints
 62
     0
100
AcDbPoint
 10
14.65509338115625
 20
26.65050878464071
 30
0.0
  0
POINT
  5
BE8
330
BBA
100
AcDbEntity
  8
Defpoints
 62
     0
100
AcDbPoint
 10
13.11551715979158
 20
26.65050878464071
 30
0.0
  0
ENDBLK
  5
BC6
330
BBA
100
AcDbEntity
  8
0
100
AcDbBlockEnd
  0
BLOCK
  5
BD3
330
BC8
100
AcDbEntity
  8
0
100
AcDbBlockBegin
  2
*D6
 70
     1
 10
0.0
 20
0.0
 30
0.0
  3
*D6
  1

  0
LINE
  5
BD5
330
BC8
100
AcDbEntity
  8
Dimensions
 62
     0
370
    -2
100
AcDbLine
 10
14.50009338115625
 20
26.44300878464071
 30
0.0
 11
14.50009338115625
 21
27.38098093203874
 31
0.0
  0
LINE
  5
BD6
330
BC8
100
AcDbEntity
  8
Dimensions
 62
     0
370
    -2
100
AcDbLine
 10
18.25009338115625
 20
26.44300878464071
 30
0.0
 11
18.25009338115625
 21
27.38098093203874
 31
0.0
  0
LINE
  5
BD7
330
BC8
100
AcDbEntity
  8
Dimensions
 62
     0
370
    -2
100
AcDbLine
 10
14.75009338115625
 20
27.20098093203874
 30
0.0
 11
16.07676004782292
 21
27.20098093203874
 31
0.0
  0
LINE
  5
BD8
330
BC8
100
AcDbEntity
  8
Dimensions
 62
     0
370
    -2
100
AcDbLine
 10
18.00009338115625
 20
27.20098093203874
 30
0.0
 11
16.67342671448958
 21
27.20098093203874
 31
0.0
  0
SOLID
  5
BD9
330
BC8
100
AcDbEntity
  8
Dimensions
 62
     0
100
AcDbTrace
 10
14.75009338115625
 20
27.24264759870541
 30
0.0
 11
14.75009338115625
 21
27.15931426537208
 31
0.0
 12
14.50009338115625
 22
27.20098093203874
 32
0.0
 13
14.50009338115625
 23
27.20098093203874
 33
0.0
  0
SOLID
  5
BDA
330
BC8
100
AcDbEntity
  8
Dimensions
 62
     0
100
AcDbTrace
 10
18.00009338115625
 20
27.24264759870541
 30
0.0
 11
18.00009338115625
 21
27.15931426537208
 31
0.0
 12
18.25009338115625
 22
27.20098093203874
 32
0.0
 13
18.25009338115625
 23
27.20098093203874
 33
0.0
  0
MTEXT
  5
BDB
330
BC8
100
AcDbEntity
  8
Dimensions
 62
     0
100
AcDbMText
 10
16.37509338115625
 20
27.20098093203874
 30
0.0
 40
0.25
 41
0.0
 71
     5
 72
     1
  1
\A1;3{\H1.000000x;\S3/4;}
 73
     1
 44
1.0
  0
POINT
  5
BDC
330
BC8
100
AcDbEntity
  8
Defpoints
 62
     0
100
AcDbPoint
 10
14.50009338115625
 20
26.38050878464071
 30
0.0
  0
POINT
  5
BDD
330
BC8
100
AcDbEntity
  8
Defpoints
 62
     0
100
AcDbPoint
 10
18.25009338115625
 20
26.38050878464071
 30
0.0
  0
POINT
  5
BDE
330
BC8
100
AcDbEntity
  8
Defpoints
 62
     0
100
AcDbPoint
 10
18.25009338115625
 20
27.20098093203874
 30
0.0
  0
ENDBLK
  5
BD4
330
BC8
100
AcDbEntity
  8
0
100
AcDbBlockEnd
  0
ENDSEC
  0
SECTION
  2
ENTITIES
  0
LWPOLYLINE
  5
520
330
1F
100
AcDbEntity
  8
TitleBlock&Notes
100
AcDbPolyline
 90
        4
 70
     1
 43
0.0
 10
-5.856637451655499
 20
-4.557009754709845
 10
39.5183625483445
 20
-4.557009754709852
 10
39.51836254834452
 20
30.50549024529014
 10
-5.856637451655492
 20
30.50549024529015
  0
LINE
  5
521
330
1F
100
AcDbEntity
  8
TitleBlock&Notes
 62
     3
100
AcDbLine
 10
39.5183625483445
 20
2.997927745290139
 30
0.0
 11
39.5183625483445
 21
-4.557009754709852
 31
0.0
  0
TEXT
  5
53E
330
1F
100
AcDbEntity
  8
TitleBlock&Notes
  6
Continuous
 62
     3
100
AcDbText
 10
32.96177884868403
 20
-1.776784225891666
 30
0.0
 40
0.3267
  1
640 Hardwick Road, Unit 5
 41
0.7000000000000001
100
AcDbText
  0
TEXT
  5
53F
330
1F
100
AcDbEntity
  8
TitleBlock&Notes
  6
Continuous
 62
     3
100
AcDbText
 10
32.42982384445314
 20
-1.158345246812868
 30
0.0
 40
0.6125625000000002
  1
MULTICYL  Inc.
 41
0.85470085
100
AcDbText
  0
TEXT
  5
540
330
1F
100
AcDbEntity
  8
TitleBlock&Notes
  6
Continuous
 62
     3
100
AcDbText
 10
33.59239443732624
 20
-3.376853769413063
 30
0.0
 40
0.26136
  1
(905) 951-0670 
 41
1.282051279999999
100
AcDbText
  0
TEXT
  5
541
330
1F
100
AcDbEntity
  8
TitleBlock&Notes
  6
Continuous
 62
     3
100
AcDbText
 10
32.8786636766123
 20
-3.836166162520191
 30
0.0
 40
0.26136
  1
FAX (905) 951-0672
 41
1.282051279999999
100
AcDbText
  0
TEXT
  5
542
330
1F
100
AcDbEntity
  8
TitleBlock&Notes
  6
Continuous
 62
     3
100
AcDbText
 10
31.81815590842787
 20
-2.828923246435842
 30
0.0
 40
0.3267
  1
          Canada L7E 5R1
 41
0.7000000000000001
100
AcDbText
  0
LINE
  5
543
330
1F
100
AcDbEntity
  8
TitleBlock&Notes
 62
     3
100
AcDbLine
 10
20.12055004834448
 20
-4.557009754709863
 30
0.0
 11
39.5183625483445
 21
-4.557009754709852
 31
0.0
  0
LINE
  5
544
330
1F
100
AcDbEntity
  8
TitleBlock&Notes
  6
Continuous
 62
     3
100
AcDbLine
 10
20.12055004834448
 20
0.0372089952901442
 30
0.0
 11
39.5183625483445
 21
0.0372089952901442
 31
0.0
  0
LINE
  5
547
330
1F
100
AcDbEntity
  8
TitleBlock&Notes
 62
     3
100
AcDbLine
 10
26.58648754834449
 20
-4.557009754709859
 30
0.0
 11
16.99726397312006
 21
-4.56037614464817
 31
0.0
  0
LINE
  5
553
330
1F
100
AcDbEntity
  8
TitleBlock&Notes
  6
Continuous
 62
     3
100
AcDbLine
 10
24.77787400699444
 20
-1.215569730397363
 30
0.0
 11
26.04383650699446
 21
-1.215569730397363
 31
0.0
  0
LINE
  5
554
330
1F
100
AcDbEntity
  8
TitleBlock&Notes
  6
Continuous
 62
     3
100
AcDbLine
 10
24.75745525699446
 20
-1.195150980397357
 30
0.0
 11
26.06425525699443
 21
-1.195150980397357
 31
0.0
  0
LINE
  5
555
330
1F
100
AcDbEntity
  8
TitleBlock&Notes
  6
Continuous
 62
     3
100
AcDbLine
 10
24.79829275699448
 20
-1.235988480397361
 30
0.0
 11
26.02341775699446
 21
-1.235988480397361
 31
0.0
  0
LINE
  5
556
330
1F
100
AcDbEntity
  8
TitleBlock&Notes
  6
Continuous
 62
     3
100
AcDbLine
 10
25.25771463199448
 20
-3.03283848039737
 30
0.0
 11
25.56399588199449
 21
-3.03283848039737
 31
0.0
  0
LINE
  5
557
330
1F
100
AcDbEntity
  8
TitleBlock&Notes
  6
Continuous
 62
     3
100
AcDbLine
 10
25.23729588199448
 20
-3.053257230397369
 30
0.0
 11
25.58441463199446
 21
-3.053257230397369
 31
0.0
  0
LINE
  5
558
330
1F
100
AcDbEntity
  8
TitleBlock&Notes
  6
Continuous
 62
     3
100
AcDbLine
 10
25.21687713199444
 20
-3.073675980397364
 30
0.0
 11
25.60483338199444
 21
-3.073675980397364
 31
0.0
  0
TEXT
  5
559
330
1F
100
AcDbEntity
  8
TitleBlock&Notes
  6
Continuous
 62
     3
100
AcDbText
 10
23.978155653907
 20
-4.025127698234847
 30
0.0
 40
0.2858625
  1
 with the
 41
0.8
 51
11.0
100
AcDbText
  0
LINE
  5
55A
330
1F
100
AcDbEntity
  8
TitleBlock&Notes
  6
Continuous
 62
     3
100
AcDbLine
 10
25.04907090315693
 20
-3.339119730397348
 30
0.0
 11
31.37497917480696
 21
-3.228700602622351
 31
0.0
  0
LINE
  5
55B
330
1F
100
AcDbEntity
  8
TitleBlock&Notes
  6
Continuous
 62
     3
100
AcDbLine
 10
24.11309684284447
 20
-3.339119730397348
 30
0.0
 11
31.37497917480696
 21
-3.212363111534858
 31
0.0
  0
LINE
  5
55C
330
1F
100
AcDbEntity
  8
TitleBlock&Notes
  6
Continuous
 62
     3
100
AcDbLine
 10
23.17712274169446
 20
-3.339119730397348
 30
0.0
 11
31.37497917480696
 21
-3.196025620447354
 31
0.0
  0
LINE
  5
55D
330
1F
100
AcDbEntity
  8
TitleBlock&Notes
  6
Continuous
 62
     3
100
AcDbLine
 10
22.24114868138194
 20
-3.339119730397348
 30
0.0
 11
31.37497917480696
 21
-3.179688129359858
 31
0.0
  0
LINE
  5
55E
330
1F
100
AcDbEntity
  8
TitleBlock&Notes
  6
Continuous
 62
     3
100
AcDbLine
 10
21.30517462106943
 20
-3.339119730397348
 30
0.0
 11
31.37497917480696
 21
-3.163350638272365
 31
0.0
  0
LINE
  5
55F
330
1F
100
AcDbEntity
  8
TitleBlock&Notes
  6
Continuous
 62
     3
100
AcDbLine
 10
20.36920051991949
 20
-3.339119730397348
 30
0.0
 11
31.37497917480696
 21
-3.147013147184858
 31
0.0
  0
LINE
  5
560
330
1F
100
AcDbEntity
  8
TitleBlock&Notes
  6
Continuous
 62
     3
100
AcDbLine
 10
20.12055004834448
 20
-3.32712244880985
 30
0.0
 11
31.37497917480696
 21
-3.130675656097364
 31
0.0
  0
LINE
  5
561
330
1F
100
AcDbEntity
  8
TitleBlock&Notes
  6
Continuous
 62
     3
100
AcDbLine
 10
20.12055004834448
 20
-3.310784998559858
 30
0.0
 11
31.37497917480696
 21
-3.114338205847362
 31
0.0
  0
LINE
  5
562
330
1F
100
AcDbEntity
  8
TitleBlock&Notes
  6
Continuous
 62
     3
100
AcDbLine
 10
20.12055004834448
 20
-3.294447507472354
 30
0.0
 11
31.37497917480696
 21
-3.098000714759868
 31
0.0
  0
LINE
  5
563
330
1F
100
AcDbEntity
  8
TitleBlock&Notes
  6
Continuous
 62
     3
100
AcDbLine
 10
20.12055004834448
 20
-3.278110016384858
 30
0.0
 11
31.37497917480696
 21
-3.081663223672351
 31
0.0
  0
LINE
  5
564
330
1F
100
AcDbEntity
  8
TitleBlock&Notes
  6
Continuous
 62
     3
100
AcDbLine
 10
20.12055004834448
 20
-3.261772525297354
 30
0.0
 11
30.89659240564444
 21
-3.073675980397364
 31
0.0
  0
LINE
  5
565
330
1F
100
AcDbEntity
  8
TitleBlock&Notes
  6
Continuous
 62
     3
100
AcDbLine
 10
20.12055004834448
 20
-3.245435034209858
 30
0.0
 11
29.96061830449445
 21
-3.073675980397364
 31
0.0
  0
LINE
  5
566
330
1F
100
AcDbEntity
  8
TitleBlock&Notes
  6
Continuous
 62
     3
100
AcDbLine
 10
20.12055004834448
 20
-3.339119730397348
 30
0.0
 11
31.37497917480696
 21
-3.339119730397348
 31
0.0
  0
LINE
  5
567
330
1F
100
AcDbEntity
  8
TitleBlock&Notes
  6
Continuous
 62
     3
100
AcDbLine
 10
31.37497917480696
 20
-1.088233913272361
 30
0.0
 11
20.12055004834448
 21
-1.088233913272361
 31
0.0
  0
LINE
  5
568
330
1F
100
AcDbEntity
  8
TitleBlock&Notes
  6
Continuous
 62
     3
100
AcDbLine
 10
31.37497917480696
 20
-0.6862900027723598
 30
0.0
 11
20.12055004834448
 21
-0.6862900027723598
 31
0.0
  0
LINE
  5
569
330
1F
100
AcDbEntity
  8
TitleBlock&Notes
  6
Continuous
 62
     3
100
AcDbLine
 10
20.12055004834448
 20
-3.229097543122365
 30
0.0
 11
29.02464424418193
 21
-3.073675980397364
 31
0.0
  0
LINE
  5
56A
330
1F
100
AcDbEntity
  8
TitleBlock&Notes
  6
Continuous
 62
     3
100
AcDbLine
 10
20.12055004834448
 20
-3.212760052034861
 30
0.0
 11
28.73911150699444
 21
-3.062322501997358
 31
0.0
  0
LINE
  5
56B
330
1F
100
AcDbEntity
  8
TitleBlock&Notes
  6
Continuous
 62
     3
100
AcDbLine
 10
20.12055004834448
 20
-3.196422560947365
 30
0.0
 11
27.46417745745696
 21
-3.068239079834862
 31
0.0
  0
LINE
  5
56C
330
1F
100
AcDbEntity
  8
TitleBlock&Notes
  6
Continuous
 62
     3
100
AcDbLine
 10
20.12055004834448
 20
-3.180085069859861
 30
0.0
 11
26.21672202240695
 21
-3.073675980397364
 31
0.0
  0
LINE
  5
56D
330
1F
100
AcDbEntity
  8
TitleBlock&Notes
  6
Continuous
 62
     3
100
AcDbLine
 10
20.12055004834448
 20
-4.557009754709863
 30
0.0
 11
20.12055004834449
 21
0.0372089952901442
 31
0.0
  0
LINE
  5
574
330
1F
100
AcDbEntity
  8
TitleBlock&Notes
  6
Continuous
 62
     3
100
AcDbLine
 10
21.09838805921947
 20
-1.215569730397363
 30
0.0
 11
20.59203025699448
 21
-1.215569730397363
 31
0.0
  0
LINE
  5
575
330
1F
100
AcDbEntity
  8
TitleBlock&Notes
  6
Continuous
 62
     3
100
AcDbLine
 10
20.61244900699445
 20
-1.235988480397361
 30
0.0
 11
21.08208025699443
 21
-1.235988480397361
 31
0.0
  0
LINE
  5
576
330
1F
100
AcDbEntity
  8
TitleBlock&Notes
  6
Continuous
 62
     3
100
AcDbLine
 10
20.57161150699444
 20
-1.195150980397357
 30
0.0
 11
21.11469586144444
 21
-1.195150980397357
 31
0.0
  0
LINE
  5
577
330
1F
100
AcDbEntity
  8
TitleBlock&Notes
  6
Continuous
 62
     3
100
AcDbLine
 10
20.95956775699444
 20
-2.822352694447356
 30
0.0
 11
21.10743495394449
 21
-2.819771682772361
 31
0.0
  0
LINE
  5
578
330
1F
100
AcDbEntity
  8
TitleBlock&Notes
  6
Continuous
 62
     3
100
AcDbLine
 10
20.95956775699444
 20
-2.80601520335986
 30
0.0
 11
21.10177034348196
 21
-2.803533059272358
 31
0.0
  0
LINE
  5
579
330
1F
100
AcDbEntity
  8
TitleBlock&Notes
  6
Continuous
 62
     3
100
AcDbLine
 10
20.95956775699444
 20
-2.78967775310986
 30
0.0
 11
21.096105692182
 21
-2.787294435772357
 31
0.0
  0
LINE
  5
57A
330
1F
100
AcDbEntity
  8
TitleBlock&Notes
  6
Continuous
 62
     3
100
AcDbLine
 10
20.95956775699444
 20
-2.773340262022364
 30
0.0
 11
21.09044108171945
 21
-2.771055853109869
 31
0.0
  0
LINE
  5
57B
330
1F
100
AcDbEntity
  8
TitleBlock&Notes
  6
Continuous
 62
     3
100
AcDbLine
 10
20.95956775699444
 20
-2.757002770934871
 30
0.0
 11
21.08477643041949
 21
-2.754817229609866
 31
0.0
  0
LINE
  5
57C
330
1F
100
AcDbEntity
  8
TitleBlock&Notes
  6
Continuous
 62
     3
100
AcDbLine
 10
20.95956775699444
 20
-2.740665279847354
 30
0.0
 11
21.07911181995695
 21
-2.738578606109852
 31
0.0
  0
LINE
  5
57D
330
1F
100
AcDbEntity
  8
TitleBlock&Notes
  6
Continuous
 62
     3
100
AcDbLine
 10
20.95956775699444
 20
-2.72432778875985
 30
0.0
 11
21.07344716865699
 21
-2.722340023447364
 31
0.0
  0
LINE
  5
57E
330
1F
100
AcDbEntity
  8
TitleBlock&Notes
  6
Continuous
 62
     3
100
AcDbLine
 10
20.95956775699444
 20
-2.707990297672353
 30
0.0
 11
21.06778255819445
 21
-2.70610139994735
 31
0.0
  0
LINE
  5
57F
330
1F
100
AcDbEntity
  8
TitleBlock&Notes
  6
Continuous
 62
     3
100
AcDbLine
 10
20.95956775699444
 20
-2.69165280658486
 30
0.0
 11
21.0621179068945
 21
-2.68986277644736
 31
0.0
  0
LINE
  5
580
330
1F
100
AcDbEntity
  8
TitleBlock&Notes
  6
Continuous
 62
     3
100
AcDbLine
 10
20.95956775699444
 20
-2.675315315497353
 30
0.0
 11
21.05645329643195
 21
-2.673624152947357
 31
0.0
  0
LINE
  5
581
330
1F
100
AcDbEntity
  8
TitleBlock&Notes
  6
Continuous
 62
     3
100
AcDbLine
 10
20.95956775699444
 20
-3.067415019922368
 30
0.0
 11
21.19240443758195
 21
-3.063350871922363
 31
0.0
  0
LINE
  5
582
330
1F
100
AcDbEntity
  8
TitleBlock&Notes
  6
Continuous
 62
     3
100
AcDbLine
 10
20.95956775699444
 20
-3.051077528834872
 30
0.0
 11
21.18673982711948
 21
-3.04711224842236
 31
0.0
  0
LINE
  5
583
330
1F
100
AcDbEntity
  8
TitleBlock&Notes
  6
Continuous
 62
     3
100
AcDbLine
 10
20.95956775699444
 20
-3.034740037747357
 30
0.0
 11
21.18107517581945
 21
-3.030873624922357
 31
0.0
  0
LINE
  5
584
330
1F
100
AcDbEntity
  8
TitleBlock&Notes
  6
Continuous
 62
     3
100
AcDbLine
 10
20.95956775699444
 20
-3.018402587497354
 30
0.0
 11
21.17541056535696
 21
-3.014635001422356
 31
0.0
  0
LINE
  5
585
330
1F
100
AcDbEntity
  8
TitleBlock&Notes
  6
Continuous
 62
     3
100
AcDbLine
 10
20.95956775699444
 20
-3.002065096409861
 30
0.0
 11
21.16974591405695
 21
-2.998396418759857
 31
0.0
  0
LINE
  5
586
330
1F
100
AcDbEntity
  8
TitleBlock&Notes
  6
Continuous
 62
     3
100
AcDbLine
 10
20.95956775699444
 20
-2.985727605322365
 30
0.0
 11
21.16408130359447
 21
-2.982157795259865
 31
0.0
  0
LINE
  5
587
330
1F
100
AcDbEntity
  8
TitleBlock&Notes
  6
Continuous
 62
     3
100
AcDbLine
 10
20.95956775699444
 20
-2.969390114234861
 30
0.0
 11
21.15841665229446
 21
-2.965919171759861
 31
0.0
  0
LINE
  5
588
330
1F
100
AcDbEntity
  8
TitleBlock&Notes
  6
Continuous
 62
     3
100
AcDbLine
 10
20.95956775699444
 20
-2.953052623147365
 30
0.0
 11
21.15275200099449
 21
-2.949680589097352
 31
0.0
  0
LINE
  5
589
330
1F
100
AcDbEntity
  8
TitleBlock&Notes
  6
Continuous
 62
     3
100
AcDbLine
 10
20.95956775699444
 20
-2.936715132059861
 30
0.0
 11
21.14708739053195
 21
-2.933441965597362
 31
0.0
  0
LINE
  5
58A
330
1F
100
AcDbEntity
  8
TitleBlock&Notes
  6
Continuous
 62
     3
100
AcDbLine
 10
20.95956775699444
 20
-2.920377640972365
 30
0.0
 11
21.14142273923199
 21
-2.917203342097348
 31
0.0
  0
LINE
  5
58B
330
1F
100
AcDbEntity
  8
TitleBlock&Notes
  6
Continuous
 62
     3
100
AcDbLine
 10
20.95956775699444
 20
-2.904040149884871
 30
0.0
 11
21.13575812876946
 21
-2.900964718597355
 31
0.0
  0
LINE
  5
58C
330
1F
100
AcDbEntity
  8
TitleBlock&Notes
  6
Continuous
 62
     3
100
AcDbLine
 10
20.95956775699444
 20
-2.887702658797357
 30
0.0
 11
21.13009347746949
 21
-2.884726135934856
 31
0.0
  0
LINE
  5
58D
330
1F
100
AcDbEntity
  8
TitleBlock&Notes
  6
Continuous
 62
     3
100
AcDbLine
 10
20.95956775699444
 20
-2.87136516770985
 30
0.0
 11
21.12442886700695
 21
-2.868487512434864
 31
0.0
  0
LINE
  5
58E
330
1F
100
AcDbEntity
  8
TitleBlock&Notes
  6
Continuous
 62
     3
100
AcDbLine
 10
20.95956775699444
 20
-2.855027676622357
 30
0.0
 11
21.118764215707
 21
-2.852248888934863
 31
0.0
  0
LINE
  5
58F
330
1F
100
AcDbEntity
  8
TitleBlock&Notes
  6
Continuous
 62
     3
100
AcDbLine
 10
20.95956775699444
 20
-2.83869018553486
 30
0.0
 11
21.11309960524445
 21
-2.836010306272364
 31
0.0
  0
LINE
  5
590
330
1F
100
AcDbEntity
  8
TitleBlock&Notes
  6
Continuous
 62
     3
100
AcDbLine
 10
20.93914900699444
 20
-2.275358925284864
 30
0.0
 11
21.21050884478195
 21
-3.053257230397369
 31
0.0
  0
LINE
  5
591
330
1F
100
AcDbEntity
  8
TitleBlock&Notes
  6
Continuous
 62
     3
100
AcDbLine
 10
21.19600622340696
 20
-3.073675980397364
 30
0.0
 11
20.95956775699444
 21
-2.395885620172365
 31
0.0
  0
LINE
  5
592
330
1F
100
AcDbEntity
  8
TitleBlock&Notes
  6
Continuous
 62
     3
100
AcDbLine
 10
20.91873025699447
 20
-2.154832230397349
 30
0.0
 11
21.22501150699447
 21
-3.03283848039737
 31
0.0
  0
LINE
  5
593
330
1F
100
AcDbEntity
  8
TitleBlock&Notes
  6
Continuous
 62
     3
100
AcDbLine
 10
20.12055004834448
 20
-3.11473510550986
 30
0.0
 11
22.87226243250698
 21
-3.066703794022356
 31
0.0
  0
LINE
  5
594
330
1F
100
AcDbEntity
  8
TitleBlock&Notes
  6
Continuous
 62
     3
100
AcDbLine
 10
20.12055004834448
 20
-3.098397614422356
 30
0.0
 11
21.53685163916947
 21
-3.073675980397364
 31
0.0
  0
LINE
  5
595
330
1F
100
AcDbEntity
  8
TitleBlock&Notes
  6
Continuous
 62
     3
100
AcDbLine
 10
20.12055004834448
 20
-3.163747578772365
 30
0.0
 11
25.28074792125695
 21
-3.073675980397364
 31
0.0
  0
LINE
  5
596
330
1F
100
AcDbEntity
  8
TitleBlock&Notes
  6
Continuous
 62
     3
100
AcDbLine
 10
20.12055004834448
 20
-3.147410087684871
 30
0.0
 11
24.34477386094449
 21
-3.073675980397364
 31
0.0
  0
LINE
  5
597
330
1F
100
AcDbEntity
  8
TitleBlock&Notes
  6
Continuous
 62
     3
100
AcDbLine
 10
20.12055004834448
 20
-3.131072596597354
 30
0.0
 11
23.87944900699445
 21
-3.065460782197364
 31
0.0
  0
TEXT
  5
598
330
1F
100
AcDbEntity
  8
TitleBlock&Notes
  6
Continuous
 62
     3
100
AcDbText
 10
20.16490153354445
 20
-4.025127698234847
 30
0.0
 40
0.2858625
  1
The
 41
0.8
 51
11.0
100
AcDbText
  0
LINE
  5
599
330
1F
100
AcDbEntity
  8
TitleBlock&Notes
  6
Continuous
 62
     3
100
AcDbLine
 10
20.59203025699448
 20
-3.053257230397369
 30
0.0
 11
20.59203025699448
 21
-1.215569730397363
 31
0.0
  0
LINE
  5
59A
330
1F
100
AcDbEntity
  8
TitleBlock&Notes
  6
Continuous
 62
     3
100
AcDbLine
 10
20.61244900699445
 20
-3.03283848039737
 30
0.0
 11
20.61244900699445
 21
-1.235988480397361
 31
0.0
  0
LINE
  5
59B
330
1F
100
AcDbEntity
  8
TitleBlock&Notes
  6
Continuous
 62
     3
100
AcDbLine
 10
20.57161150699444
 20
-3.073675980397364
 30
0.0
 11
20.57161150699444
 21
-1.195150980397357
 31
0.0
  0
LINE
  5
59C
330
1F
100
AcDbEntity
  8
TitleBlock&Notes
  6
Continuous
 62
     3
100
AcDbLine
 10
20.93914900699444
 20
-2.275358925284864
 30
0.0
 11
20.93914900699444
 21
-3.053257230397369
 31
0.0
  0
LINE
  5
59D
330
1F
100
AcDbEntity
  8
TitleBlock&Notes
  6
Continuous
 62
     3
100
AcDbLine
 10
20.95956775699444
 20
-3.073675980397364
 30
0.0
 11
20.95956775699444
 21
-2.395885620172365
 31
0.0
  0
LINE
  5
59E
330
1F
100
AcDbEntity
  8
TitleBlock&Notes
  6
Continuous
 62
     3
100
AcDbLine
 10
20.91873025699447
 20
-3.03283848039737
 30
0.0
 11
20.91873025699447
 21
-2.154832230397349
 31
0.0
  0
LINE
  5
59F
330
1F
100
AcDbEntity
  8
TitleBlock&Notes
  6
Continuous
 62
     3
100
AcDbLine
 10
20.12055004834448
 20
-1.731987279022358
 30
0.0
 11
20.57161150699444
 21
-1.731987279022358
 31
0.0
  0
LINE
  5
5A0
330
1F
100
AcDbEntity
  8
TitleBlock&Notes
  6
Continuous
 62
     3
100
AcDbLine
 10
20.12055004834448
 20
-1.75111981112235
 30
0.0
 11
20.57161150699444
 21
-1.75111981112235
 31
0.0
  0
LINE
  5
5A1
330
1F
100
AcDbEntity
  8
TitleBlock&Notes
  6
Continuous
 62
     3
100
AcDbLine
 10
20.12055004834448
 20
-1.771538561122367
 30
0.0
 11
20.57161150699444
 21
-1.771538561122367
 31
0.0
  0
LINE
  5
5A2
330
1F
100
AcDbEntity
  8
TitleBlock&Notes
  6
Continuous
 62
     3
100
AcDbLine
 10
20.12055004834448
 20
-1.711568529022351
 30
0.0
 11
20.57161150699444
 21
-1.711568529022351
 31
0.0
  0
LINE
  5
5A3
330
1F
100
AcDbEntity
  8
TitleBlock&Notes
  6
Continuous
 62
     3
100
AcDbLine
 10
20.12055004834448
 20
-1.429564682722352
 30
0.0
 11
20.57161150699444
 21
-1.429564682722352
 31
0.0
  0
LINE
  5
5A4
330
1F
100
AcDbEntity
  8
TitleBlock&Notes
  6
Continuous
 62
     3
100
AcDbLine
 10
20.12055004834448
 20
-1.409145932722367
 30
0.0
 11
20.57161150699444
 21
-1.409145932722367
 31
0.0
  0
LINE
  5
5A5
330
1F
100
AcDbEntity
  8
TitleBlock&Notes
  6
Continuous
 62
     3
100
AcDbLine
 10
20.12055004834448
 20
-1.388727182722347
 30
0.0
 11
20.57161150699444
 21
-1.388727182722347
 31
0.0
  0
LINE
  5
5A6
330
1F
100
AcDbEntity
  8
TitleBlock&Notes
  6
Continuous
 62
     3
100
AcDbLine
 10
20.12055004834448
 20
-1.449983432722348
 30
0.0
 11
20.57161150699444
 21
-1.449983432722348
 31
0.0
  0
LINE
  5
5A7
330
1F
100
AcDbEntity
  8
TitleBlock&Notes
  6
Continuous
 62
     3
100
AcDbLine
 10
20.12055004834448
 20
-1.691149779022366
 30
0.0
 11
20.57161150699444
 21
-1.691149779022366
 31
0.0
  0
LINE
  5
5A8
330
1F
100
AcDbEntity
  8
TitleBlock&Notes
  6
Continuous
 62
     3
100
AcDbLine
 10
20.95956775699444
 20
-2.51194044545986
 30
0.0
 11
20.99980694678197
 21
-2.511238040459864
 31
0.0
  0
LINE
  5
5A9
330
1F
100
AcDbEntity
  8
TitleBlock&Notes
  6
Continuous
 62
     3
100
AcDbLine
 10
20.95956775699444
 20
-2.495602954372353
 30
0.0
 11
20.99414233631949
 21
-2.494999457797354
 31
0.0
  0
LINE
  5
5AA
330
1F
100
AcDbEntity
  8
TitleBlock&Notes
  6
Continuous
 62
     3
100
AcDbLine
 10
20.95956775699444
 20
-2.47926546328486
 30
0.0
 11
20.98847768501948
 21
-2.478760834297362
 31
0.0
  0
LINE
  5
5AB
330
1F
100
AcDbEntity
  8
TitleBlock&Notes
  6
Continuous
 62
     3
100
AcDbLine
 10
20.95956775699444
 20
-2.462927972197366
 30
0.0
 11
20.982813074557
 21
-2.462522210797359
 31
0.0
  0
LINE
  5
5AC
330
1F
100
AcDbEntity
  8
TitleBlock&Notes
  6
Continuous
 62
     3
100
AcDbLine
 10
20.95956775699444
 20
-2.446590481109859
 30
0.0
 11
20.97714842325699
 21
-2.446283628134859
 31
0.0
  0
LINE
  5
5AD
330
1F
100
AcDbEntity
  8
TitleBlock&Notes
  6
Continuous
 62
     3
100
AcDbLine
 10
20.95956775699444
 20
-2.430252990022366
 30
0.0
 11
20.97148381279449
 21
-2.430045004634859
 31
0.0
  0
LINE
  5
5AE
330
1F
100
AcDbEntity
  8
TitleBlock&Notes
  6
Continuous
 62
     3
100
AcDbLine
 10
20.95956775699444
 20
-2.413915498934849
 30
0.0
 11
20.96581916149448
 21
-2.413806381134866
 31
0.0
  0
LINE
  5
5AF
330
1F
100
AcDbEntity
  8
TitleBlock&Notes
  6
Continuous
 62
     3
100
AcDbLine
 10
20.95956775699444
 20
-2.397578007847355
 30
0.0
 11
20.96015455103199
 21
-2.397567757634853
 31
0.0
  0
LINE
  5
5B0
330
1F
100
AcDbEntity
  8
TitleBlock&Notes
  6
Continuous
 62
     3
100
AcDbLine
 10
20.41815120604447
 20
-2.454843168134861
 30
0.0
 11
20.57161150699444
 21
-2.452164513997356
 31
0.0
  0
LINE
  5
5B1
330
1F
100
AcDbEntity
  8
TitleBlock&Notes
  6
Continuous
 62
     3
100
AcDbLine
 10
20.12055004834448
 20
-2.443700329559864
 30
0.0
 11
20.57161150699444
 21
-2.435827022909849
 31
0.0
  0
LINE
  5
5B2
330
1F
100
AcDbEntity
  8
TitleBlock&Notes
  6
Continuous
 62
     3
100
AcDbLine
 10
20.12055004834448
 20
-2.454843168134861
 30
0.0
 11
20.57161150699444
 21
-2.454843168134861
 31
0.0
  0
LINE
  5
5B3
330
1F
100
AcDbEntity
  8
TitleBlock&Notes
  6
Continuous
 62
     3
100
AcDbLine
 10
20.12055004834448
 20
-2.047977195434854
 30
0.0
 11
20.57161150699444
 21
-2.040103888784853
 31
0.0
  0
LINE
  5
5B4
330
1F
100
AcDbEntity
  8
TitleBlock&Notes
  6
Continuous
 62
     3
100
AcDbLine
 10
20.12055004834448
 20
-2.031639704347361
 30
0.0
 11
20.57161150699444
 21
-2.023766397697357
 31
0.0
  0
LINE
  5
5B5
330
1F
100
AcDbEntity
  8
TitleBlock&Notes
  6
Continuous
 62
     3
100
AcDbLine
 10
20.12055004834448
 20
-2.015302213259854
 30
0.0
 11
20.57161150699444
 21
-2.007428906609863
 31
0.0
  0
LINE
  5
5B6
330
1F
100
AcDbEntity
  8
TitleBlock&Notes
  6
Continuous
 62
     3
100
AcDbLine
 10
20.12055004834448
 20
-1.99896472217236
 30
0.0
 11
20.57161150699444
 21
-1.991091415522356
 31
0.0
  0
LINE
  5
5B7
330
1F
100
AcDbEntity
  8
TitleBlock&Notes
  6
Continuous
 62
     3
100
AcDbLine
 10
20.12055004834448
 20
-1.982627231084867
 30
0.0
 11
20.57161150699444
 21
-1.974753924434852
 31
0.0
  0
LINE
  5
5B8
330
1F
100
AcDbEntity
  8
TitleBlock&Notes
  6
Continuous
 62
     3
100
AcDbLine
 10
20.12055004834448
 20
-1.96628973999736
 30
0.0
 11
20.57161150699444
 21
-1.958416433347359
 31
0.0
  0
LINE
  5
5B9
330
1F
100
AcDbEntity
  8
TitleBlock&Notes
  6
Continuous
 62
     3
100
AcDbLine
 10
20.12055004834448
 20
-1.949952248909867
 30
0.0
 11
20.57161150699444
 21
-1.942078942259863
 31
0.0
  0
LINE
  5
5BA
330
1F
100
AcDbEntity
  8
TitleBlock&Notes
  6
Continuous
 62
     3
100
AcDbLine
 10
20.12055004834448
 20
-1.93361475782235
 30
0.0
 11
20.57161150699444
 21
-1.925741451172359
 31
0.0
  0
LINE
  5
5BB
330
1F
100
AcDbEntity
  8
TitleBlock&Notes
  6
Continuous
 62
     3
100
AcDbLine
 10
20.12055004834448
 20
-1.917277266734856
 30
0.0
 11
20.57161150699444
 21
-1.909403960084863
 31
0.0
  0
LINE
  5
5BC
330
1F
100
AcDbEntity
  8
TitleBlock&Notes
  6
Continuous
 62
     3
100
AcDbLine
 10
20.12055004834448
 20
-1.90093977564736
 30
0.0
 11
20.57161150699444
 21
-1.893066468997348
 31
0.0
  0
LINE
  5
5BD
330
1F
100
AcDbEntity
  8
TitleBlock&Notes
  6
Continuous
 62
     3
100
AcDbLine
 10
20.12055004834448
 20
-1.884602284559856
 30
0.0
 11
20.57161150699444
 21
-1.876728977909863
 31
0.0
  0
LINE
  5
5BE
330
1F
100
AcDbEntity
  8
TitleBlock&Notes
  6
Continuous
 62
     3
100
AcDbLine
 10
20.12055004834448
 20
-1.86826479347236
 30
0.0
 11
20.57161150699444
 21
-1.860391486822369
 31
0.0
  0
LINE
  5
5BF
330
1F
100
AcDbEntity
  8
TitleBlock&Notes
  6
Continuous
 62
     3
100
AcDbLine
 10
20.12055004834448
 20
-2.427362838472357
 30
0.0
 11
20.57161150699444
 21
-2.419489531822356
 31
0.0
  0
LINE
  5
5C0
330
1F
100
AcDbEntity
  8
TitleBlock&Notes
  6
Continuous
 62
     3
100
AcDbLine
 10
20.12055004834448
 20
-2.411025347384864
 30
0.0
 11
20.57161150699444
 21
-2.403152040734862
 31
0.0
  0
LINE
  5
5C1
330
1F
100
AcDbEntity
  8
TitleBlock&Notes
  6
Continuous
 62
     3
100
AcDbLine
 10
20.12055004834448
 20
-2.394687856297357
 30
0.0
 11
20.57161150699444
 21
-2.386814549647356
 31
0.0
  0
LINE
  5
5C2
330
1F
100
AcDbEntity
  8
TitleBlock&Notes
  6
Continuous
 62
     3
100
AcDbLine
 10
20.12055004834448
 20
-2.378350365209864
 30
0.0
 11
20.57161150699444
 21
-2.370477058559862
 31
0.0
  0
LINE
  5
5C3
330
1F
100
AcDbEntity
  8
TitleBlock&Notes
  6
Continuous
 62
     3
100
AcDbLine
 10
20.12055004834448
 20
-2.36201287412237
 30
0.0
 11
20.57161150699444
 21
-2.354139567472356
 31
0.0
  0
LINE
  5
5C4
330
1F
100
AcDbEntity
  8
TitleBlock&Notes
  6
Continuous
 62
     3
100
AcDbLine
 10
20.12055004834448
 20
-2.345675383034853
 30
0.0
 11
20.57161150699444
 21
-2.337802076384862
 31
0.0
  0
LINE
  5
5C5
330
1F
100
AcDbEntity
  8
TitleBlock&Notes
  6
Continuous
 62
     3
100
AcDbLine
 10
20.12055004834448
 20
-2.32933789194736
 30
0.0
 11
20.57161150699444
 21
-2.321464585297366
 31
0.0
  0
LINE
  5
5C6
330
1F
100
AcDbEntity
  8
TitleBlock&Notes
  6
Continuous
 62
     3
100
AcDbLine
 10
20.12055004834448
 20
-2.313000441697357
 30
0.0
 11
20.57161150699444
 21
-2.305127135047366
 31
0.0
  0
LINE
  5
5C7
330
1F
100
AcDbEntity
  8
TitleBlock&Notes
  6
Continuous
 62
     3
100
AcDbLine
 10
20.12055004834448
 20
-2.296662950609864
 30
0.0
 11
20.57161150699444
 21
-2.288789643959849
 31
0.0
  0
LINE
  5
5C8
330
1F
100
AcDbEntity
  8
TitleBlock&Notes
  6
Continuous
 62
     3
100
AcDbLine
 10
20.12055004834448
 20
-2.280325459522357
 30
0.0
 11
20.57161150699444
 21
-2.272452152872356
 31
0.0
  0
LINE
  5
5C9
330
1F
100
AcDbEntity
  8
TitleBlock&Notes
  6
Continuous
 62
     3
100
AcDbLine
 10
20.12055004834448
 20
-2.263987968434864
 30
0.0
 11
20.57161150699444
 21
-2.256114661784859
 31
0.0
  0
LINE
  5
5CA
330
1F
100
AcDbEntity
  8
TitleBlock&Notes
  6
Continuous
 62
     3
100
AcDbLine
 10
20.12055004834448
 20
-2.247650477347357
 30
0.0
 11
20.57161150699444
 21
-2.239777170697355
 31
0.0
  0
LINE
  5
5CB
330
1F
100
AcDbEntity
  8
TitleBlock&Notes
  6
Continuous
 62
     3
100
AcDbLine
 10
20.12055004834448
 20
-2.231312986259863
 30
0.0
 11
20.57161150699444
 21
-2.223439679609859
 31
0.0
  0
LINE
  5
5CC
330
1F
100
AcDbEntity
  8
TitleBlock&Notes
  6
Continuous
 62
     3
100
AcDbLine
 10
20.12055004834448
 20
-2.214975495172367
 30
0.0
 11
20.57161150699444
 21
-2.207102188522355
 31
0.0
  0
LINE
  5
5CD
330
1F
100
AcDbEntity
  8
TitleBlock&Notes
  6
Continuous
 62
     3
100
AcDbLine
 10
20.12055004834448
 20
-2.198638004084863
 30
0.0
 11
20.57161150699444
 21
-2.190764697434859
 31
0.0
  0
LINE
  5
5CE
330
1F
100
AcDbEntity
  8
TitleBlock&Notes
  6
Continuous
 62
     3
100
AcDbLine
 10
20.12055004834448
 20
-2.18230051299737
 30
0.0
 11
20.57161150699444
 21
-2.174427206347366
 31
0.0
  0
LINE
  5
5CF
330
1F
100
AcDbEntity
  8
TitleBlock&Notes
  6
Continuous
 62
     3
100
AcDbLine
 10
20.12055004834448
 20
-2.165963021909853
 30
0.0
 11
20.57161150699444
 21
-2.158089715259862
 31
0.0
  0
LINE
  5
5D0
330
1F
100
AcDbEntity
  8
TitleBlock&Notes
  6
Continuous
 62
     3
100
AcDbLine
 10
20.12055004834448
 20
-2.149625530822357
 30
0.0
 11
20.57161150699444
 21
-2.141752224172366
 31
0.0
  0
LINE
  5
5D1
330
1F
100
AcDbEntity
  8
TitleBlock&Notes
  6
Continuous
 62
     3
100
AcDbLine
 10
20.12055004834448
 20
-1.85192734322236
 30
0.0
 11
20.57161150699444
 21
-1.85192734322236
 31
0.0
  0
LINE
  5
5D2
330
1F
100
AcDbEntity
  8
TitleBlock&Notes
  6
Continuous
 62
     3
100
AcDbLine
 10
20.12055004834448
 20
-2.052899257634862
 30
0.0
 11
20.57161150699444
 21
-2.052899257634862
 31
0.0
  0
LINE
  5
5D3
330
1F
100
AcDbEntity
  8
TitleBlock&Notes
  6
Continuous
 62
     3
100
AcDbLine
 10
20.12055004834448
 20
-2.133288039734863
 30
0.0
 11
20.57161150699444
 21
-2.133288039734863
 31
0.0
  0
LINE
  5
5D4
330
1F
100
AcDbEntity
  8
TitleBlock&Notes
  6
Continuous
 62
     3
100
AcDbLine
 10
20.95956775699444
 20
-2.65897782440986
 30
0.0
 11
21.05078864513199
 21
-2.657385570284868
 31
0.0
  0
LINE
  5
5D5
330
1F
100
AcDbEntity
  8
TitleBlock&Notes
  6
Continuous
 62
     3
100
AcDbLine
 10
20.95956775699444
 20
-2.642640333322356
 30
0.0
 11
21.04512399383198
 21
-2.641146946784854
 31
0.0
  0
LINE
  5
5D6
330
1F
100
AcDbEntity
  8
TitleBlock&Notes
  6
Continuous
 62
     3
100
AcDbLine
 10
20.95956775699444
 20
-2.62630284223486
 30
0.0
 11
21.0394593833695
 21
-2.624908323284865
 31
0.0
  0
LINE
  5
5D7
330
1F
100
AcDbEntity
  8
TitleBlock&Notes
  6
Continuous
 62
     3
100
AcDbLine
 10
20.95956775699444
 20
-2.609965351147367
 30
0.0
 11
21.03379473206949
 21
-2.608669740622352
 31
0.0
  0
LINE
  5
5D8
330
1F
100
AcDbEntity
  8
TitleBlock&Notes
  6
Continuous
 62
     3
100
AcDbLine
 10
20.95956775699444
 20
-2.59362786005986
 30
0.0
 11
21.02813012160699
 21
-2.592431117122362
 31
0.0
  0
LINE
  5
5D9
330
1F
100
AcDbEntity
  8
TitleBlock&Notes
  6
Continuous
 62
     3
100
AcDbLine
 10
20.95956775699444
 20
-2.577290368972366
 30
0.0
 11
21.02246547030698
 21
-2.576192493622359
 31
0.0
  0
LINE
  5
5DA
330
1F
100
AcDbEntity
  8
TitleBlock&Notes
  6
Continuous
 62
     3
100
AcDbLine
 10
20.95956775699444
 20
-2.560952877884849
 30
0.0
 11
21.01680085984449
 21
-2.559953870122367
 31
0.0
  0
LINE
  5
5DB
330
1F
100
AcDbEntity
  8
TitleBlock&Notes
  6
Continuous
 62
     3
100
AcDbLine
 10
20.95956775699444
 20
-2.54461542763486
 30
0.0
 11
21.01113620854449
 21
-2.543715287459857
 31
0.0
  0
LINE
  5
5DC
330
1F
100
AcDbEntity
  8
TitleBlock&Notes
  6
Continuous
 62
     3
100
AcDbLine
 10
20.95956775699444
 20
-2.528277936547353
 30
0.0
 11
21.005471598082
 21
-2.527476663959854
 31
0.0
  0
LINE
  5
5DD
330
1F
100
AcDbEntity
  8
TitleBlock&Notes
  6
Continuous
 62
     3
100
AcDbLine
 10
20.59203025699448
 20
-3.053257230397369
 30
0.0
 11
20.93914900699444
 21
-3.053257230397369
 31
0.0
  0
LINE
  5
5DE
330
1F
100
AcDbEntity
  8
TitleBlock&Notes
  6
Continuous
 62
     3
100
AcDbLine
 10
20.61244900699445
 20
-3.03283848039737
 30
0.0
 11
20.91873025699447
 21
-3.03283848039737
 31
0.0
  0
LINE
  5
5DF
330
1F
100
AcDbEntity
  8
TitleBlock&Notes
  6
Continuous
 62
     3
100
AcDbLine
 10
20.57161150699444
 20
-3.073675980397364
 30
0.0
 11
20.95956775699444
 21
-3.073675980397364
 31
0.0
  0
LINE
  5
5E0
330
1F
100
AcDbEntity
  8
TitleBlock&Notes
  6
Continuous
 62
     3
100
AcDbLine
 10
20.12055004834448
 20
-3.065722673084858
 30
0.0
 11
20.57161150699444
 21
-3.057849366434856
 31
0.0
  0
LINE
  5
5E1
330
1F
100
AcDbEntity
  8
TitleBlock&Notes
  6
Continuous
 62
     3
100
AcDbLine
 10
20.12055004834448
 20
-3.049385181997364
 30
0.0
 11
20.57161150699444
 21
-3.041511875347363
 31
0.0
  0
LINE
  5
5E2
330
1F
100
AcDbEntity
  8
TitleBlock&Notes
  6
Continuous
 62
     3
100
AcDbLine
 10
20.12055004834448
 20
-3.03304769090986
 30
0.0
 11
20.57161150699444
 21
-3.025174384259856
 31
0.0
  0
LINE
  5
5E3
330
1F
100
AcDbEntity
  8
TitleBlock&Notes
  6
Continuous
 62
     3
100
AcDbLine
 10
20.12055004834448
 20
-3.016710199822364
 30
0.0
 11
20.57161150699444
 21
-3.008836893172363
 31
0.0
  0
LINE
  5
5E4
330
1F
100
AcDbEntity
  8
TitleBlock&Notes
  6
Continuous
 62
     3
100
AcDbLine
 10
20.12055004834448
 20
-3.000372708734871
 30
0.0
 11
20.57161150699444
 21
-2.992499402084856
 31
0.0
  0
LINE
  5
5E5
330
1F
100
AcDbEntity
  8
TitleBlock&Notes
  6
Continuous
 62
     3
100
AcDbLine
 10
20.12055004834448
 20
-2.984035217647353
 30
0.0
 11
20.57161150699444
 21
-2.976161910997363
 31
0.0
  0
LINE
  5
5E6
330
1F
100
AcDbEntity
  8
TitleBlock&Notes
  6
Continuous
 62
     3
100
AcDbLine
 10
20.12055004834448
 20
-2.96769772655986
 30
0.0
 11
20.57161150699444
 21
-2.959824419909869
 31
0.0
  0
LINE
  5
5E7
330
1F
100
AcDbEntity
  8
TitleBlock&Notes
  6
Continuous
 62
     3
100
AcDbLine
 10
20.12055004834448
 20
-2.951360235472353
 30
0.0
 11
20.57161150699444
 21
-2.943486928822352
 31
0.0
  0
LINE
  5
5E8
330
1F
100
AcDbEntity
  8
TitleBlock&Notes
  6
Continuous
 62
     3
100
AcDbLine
 10
20.12055004834448
 20
-2.93502274438486
 30
0.0
 11
20.57161150699444
 21
-2.927149437734869
 31
0.0
  0
LINE
  5
5E9
330
1F
100
AcDbEntity
  8
TitleBlock&Notes
  6
Continuous
 62
     3
100
AcDbLine
 10
20.12055004834448
 20
-2.918685253297367
 30
0.0
 11
20.57161150699444
 21
-2.910811946647352
 31
0.0
  0
LINE
  5
5EA
330
1F
100
AcDbEntity
  8
TitleBlock&Notes
  6
Continuous
 62
     3
100
AcDbLine
 10
20.12055004834448
 20
-2.90234776220986
 30
0.0
 11
20.57161150699444
 21
-2.894474455559858
 31
0.0
  0
LINE
  5
5EB
330
1F
100
AcDbEntity
  8
TitleBlock&Notes
  6
Continuous
 62
     3
100
AcDbLine
 10
20.12055004834448
 20
-2.886010271122353
 30
0.0
 11
20.57161150699444
 21
-2.878136964472362
 31
0.0
  0
LINE
  5
5EC
330
1F
100
AcDbEntity
  8
TitleBlock&Notes
  6
Continuous
 62
     3
100
AcDbLine
 10
20.12055004834448
 20
-2.86967278003486
 30
0.0
 11
20.57161150699444
 21
-2.861799473384858
 31
0.0
  0
LINE
  5
5ED
330
1F
100
AcDbEntity
  8
TitleBlock&Notes
  6
Continuous
 62
     3
100
AcDbLine
 10
20.12055004834448
 20
-2.853335288947366
 30
0.0
 11
20.57161150699444
 21
-2.845461982297362
 31
0.0
  0
LINE
  5
5EE
330
1F
100
AcDbEntity
  8
TitleBlock&Notes
  6
Continuous
 62
     3
100
AcDbLine
 10
20.12055004834448
 20
-2.836997838697353
 30
0.0
 11
20.57161150699444
 21
-2.829124532047362
 31
0.0
  0
LINE
  5
5EF
330
1F
100
AcDbEntity
  8
TitleBlock&Notes
  6
Continuous
 62
     3
100
AcDbLine
 10
20.12055004834448
 20
-2.82066034760987
 30
0.0
 11
20.57161150699444
 21
-2.812787040959866
 31
0.0
  0
LINE
  5
5F0
330
1F
100
AcDbEntity
  8
TitleBlock&Notes
  6
Continuous
 62
     3
100
AcDbLine
 10
20.12055004834448
 20
-2.804322856522353
 30
0.0
 11
20.57161150699444
 21
-2.796449549872362
 31
0.0
  0
LINE
  5
5F1
330
1F
100
AcDbEntity
  8
TitleBlock&Notes
  6
Continuous
 62
     3
100
AcDbLine
 10
20.12055004834448
 20
-2.78798536543486
 30
0.0
 11
20.57161150699444
 21
-2.780112058784866
 31
0.0
  0
LINE
  5
5F2
330
1F
100
AcDbEntity
  8
TitleBlock&Notes
  6
Continuous
 62
     3
100
AcDbLine
 10
20.12055004834448
 20
-2.771647874347364
 30
0.0
 11
20.57161150699444
 21
-2.763774567697351
 31
0.0
  0
LINE
  5
5F3
330
1F
100
AcDbEntity
  8
TitleBlock&Notes
  6
Continuous
 62
     3
100
AcDbLine
 10
20.12055004834448
 20
-2.755310383259859
 30
0.0
 11
20.57161150699444
 21
-2.747437076609855
 31
0.0
  0
LINE
  5
5F4
330
1F
100
AcDbEntity
  8
TitleBlock&Notes
  6
Continuous
 62
     3
100
AcDbLine
 10
20.12055004834448
 20
-2.738972892172353
 30
0.0
 11
20.57161150699444
 21
-2.731099585522362
 31
0.0
  0
LINE
  5
5F5
330
1F
100
AcDbEntity
  8
TitleBlock&Notes
  6
Continuous
 62
     3
100
AcDbLine
 10
20.12055004834448
 20
-2.722635401084859
 30
0.0
 11
20.57161150699444
 21
-2.714762094434858
 31
0.0
  0
LINE
  5
5F6
330
1F
100
AcDbEntity
  8
TitleBlock&Notes
  6
Continuous
 62
     3
100
AcDbLine
 10
20.12055004834448
 20
-2.706297909997363
 30
0.0
 11
20.57161150699444
 21
-2.698424603347362
 31
0.0
  0
LINE
  5
5F7
330
1F
100
AcDbEntity
  8
TitleBlock&Notes
  6
Continuous
 62
     3
100
AcDbLine
 10
20.12055004834448
 20
-2.689960418909859
 30
0.0
 11
20.57161150699444
 21
-2.682087112259858
 31
0.0
  0
LINE
  5
5F8
330
1F
100
AcDbEntity
  8
TitleBlock&Notes
  6
Continuous
 62
     3
100
AcDbLine
 10
20.12055004834448
 20
-2.673622927822366
 30
0.0
 11
20.57161150699444
 21
-2.665749621172362
 31
0.0
  0
LINE
  5
5F9
330
1F
100
AcDbEntity
  8
TitleBlock&Notes
  6
Continuous
 62
     3
100
AcDbLine
 10
20.12055004834448
 20
-2.657285436734849
 30
0.0
 11
20.57161150699444
 21
-2.649412130084868
 31
0.0
  0
LINE
  5
5FA
330
1F
100
AcDbEntity
  8
TitleBlock&Notes
  6
Continuous
 62
     3
100
AcDbLine
 10
20.12055004834448
 20
-2.640947945647355
 30
0.0
 11
20.57161150699444
 21
-2.633074638997362
 31
0.0
  0
LINE
  5
5FB
330
1F
100
AcDbEntity
  8
TitleBlock&Notes
  6
Continuous
 62
     3
100
AcDbLine
 10
20.12055004834448
 20
-2.624610454559859
 30
0.0
 11
20.57161150699444
 21
-2.616737147909847
 31
0.0
  0
LINE
  5
5FC
330
1F
100
AcDbEntity
  8
TitleBlock&Notes
  6
Continuous
 62
     3
100
AcDbLine
 10
20.12055004834448
 20
-2.608272963472355
 30
0.0
 11
20.57161150699444
 21
-2.600399656822351
 31
0.0
  0
LINE
  5
5FD
330
1F
100
AcDbEntity
  8
TitleBlock&Notes
  6
Continuous
 62
     3
100
AcDbLine
 10
20.12055004834448
 20
-2.591935513222352
 30
0.0
 11
20.57161150699444
 21
-2.584062206572362
 31
0.0
  0
LINE
  5
5FE
330
1F
100
AcDbEntity
  8
TitleBlock&Notes
  6
Continuous
 62
     3
100
AcDbLine
 10
20.12055004834448
 20
-2.575598022134859
 30
0.0
 11
20.57161150699444
 21
-2.567724715484855
 31
0.0
  0
LINE
  5
5FF
330
1F
100
AcDbEntity
  8
TitleBlock&Notes
  6
Continuous
 62
     3
100
AcDbLine
 10
20.12055004834448
 20
-2.559260531047363
 30
0.0
 11
20.57161150699444
 21
-2.551387224397362
 31
0.0
  0
LINE
  5
600
330
1F
100
AcDbEntity
  8
TitleBlock&Notes
  6
Continuous
 62
     3
100
AcDbLine
 10
20.12055004834448
 20
-2.542923039959859
 30
0.0
 11
20.56117172681947
 21
-2.535231950234852
 31
0.0
  0
LINE
  5
601
330
1F
100
AcDbEntity
  8
TitleBlock&Notes
  6
Continuous
 62
     3
100
AcDbLine
 10
20.12055004834448
 20
-2.535231950234852
 30
0.0
 11
20.57161150699444
 21
-2.535231950234852
 31
0.0
  0
LINE
  5
602
330
1F
100
AcDbEntity
  8
TitleBlock&Notes
  6
Continuous
 62
     3
100
AcDbLine
 10
20.12055004834448
 20
-3.08206012333486
 30
0.0
 11
20.60087757885695
 21
-3.073675980397364
 31
0.0
  0
TEXT
  5
603
330
1F
100
AcDbEntity
  8
TitleBlock&Notes
  6
Continuous
 62
     3
100
AcDbText
 10
22.89040330759447
 20
-4.025127698234847
 30
0.0
 40
0.2858625
  1
 AIR
 41
1.098901099999999
 51
11.0
100
AcDbText
  0
TEXT
  5
604
330
1F
100
AcDbEntity
  8
TitleBlock&Notes
  6
Continuous
 62
     3
100
AcDbText
 10
22.15309094348195
 20
-4.025127698234847
 30
0.0
 40
0.2858625
  1
 of
 41
1.098901099999999
 51
11.0
100
AcDbText
  0
TEXT
  5
605
330
1F
100
AcDbEntity
  8
TitleBlock&Notes
  6
Continuous
 62
     3
100
AcDbText
 10
20.91939309045694
 20
-4.025127698234857
 30
0.0
 40
0.2858625
  1
 SPEED
 41
0.8
 51
11.0
100
AcDbText
  0
ARC
  5
606
330
1F
100
AcDbEntity
  8
TitleBlock&Notes
  6
Continuous
 62
     3
100
AcDbCircle
 10
23.16479275699447
 20
-2.522369730397363
 30
0.0
 40
0.18376875
100
AcDbArc
 50
270.0000000000008
 51
359.9999953200008
  0
LINE
  5
607
330
1F
100
AcDbEntity
  8
TitleBlock&Notes
  6
Continuous
 62
     3
100
AcDbLine
 10
23.22607342781945
 20
-2.454843168134861
 30
0.0
 11
23.32814275699447
 21
-2.453061550522352
 31
0.0
  0
ARC
  5
608
330
1F
100
AcDbEntity
  8
TitleBlock&Notes
  6
Continuous
 62
     3
100
AcDbCircle
 10
23.16479275699447
 20
-2.522369730397363
 30
0.0
 40
0.16335
100
AcDbArc
 50
270.0000000000008
 51
0.0000000000008015
  0
ARC
  5
609
330
1F
100
AcDbEntity
  8
TitleBlock&Notes
  6
Continuous
 62
     3
100
AcDbCircle
 10
23.16479275699447
 20
-2.522369730397363
 30
0.0
 40
0.2041875
100
AcDbArc
 50
270.0000000000008
 51
359.9999953200008
  0
LINE
  5
60A
330
1F
100
AcDbEntity
  8
TitleBlock&Notes
  6
Continuous
 62
     3
100
AcDbLine
 10
23.32814275699447
 20
-1.752406029022356
 30
0.0
 11
22.79725525699443
 21
-1.752406029022356
 31
0.0
  0
LINE
  5
60B
330
1F
100
AcDbEntity
  8
TitleBlock&Notes
  6
Continuous
 62
     3
100
AcDbLine
 10
23.32814275699447
 20
-1.731987279022358
 30
0.0
 11
22.79725525699443
 21
-1.731987279022358
 31
0.0
  0
LINE
  5
60C
330
1F
100
AcDbEntity
  8
TitleBlock&Notes
  6
Continuous
 62
     3
100
AcDbLine
 10
23.32814275699447
 20
-1.711568529022351
 30
0.0
 11
22.79725525699443
 21
-1.711568529022351
 31
0.0
  0
LINE
  5
60D
330
1F
100
AcDbEntity
  8
TitleBlock&Notes
  6
Continuous
 62
     3
100
AcDbLine
 10
23.32814275699447
 20
-1.429564682722363
 30
0.0
 11
22.79725525699443
 21
-1.429564682722363
 31
0.0
  0
LINE
  5
60E
330
1F
100
AcDbEntity
  8
TitleBlock&Notes
  6
Continuous
 62
     3
100
AcDbLine
 10
23.32814275699447
 20
-1.409145932722367
 30
0.0
 11
22.79725525699443
 21
-1.409145932722367
 31
0.0
  0
LINE
  5
60F
330
1F
100
AcDbEntity
  8
TitleBlock&Notes
  6
Continuous
 62
     3
100
AcDbLine
 10
22.88008407971942
 20
-2.664494929822361
 30
0.0
 11
23.25592670209444
 21
-2.657934548797365
 31
0.0
  0
LINE
  5
610
330
1F
100
AcDbEntity
  8
TitleBlock&Notes
  6
Continuous
 62
     3
100
AcDbLine
 10
22.85688143734444
 20
-2.648562424222352
 30
0.0
 11
23.27684179106945
 21
-2.641232011297358
 31
0.0
  0
LINE
  5
611
330
1F
100
AcDbEntity
  8
TitleBlock&Notes
  6
Continuous
 62
     3
100
AcDbLine
 10
22.83998120550696
 20
-2.632519943234855
 30
0.0
 11
23.29217684404449
 21
-2.624626830397353
 31
0.0
  0
LINE
  5
612
330
1F
100
AcDbEntity
  8
TitleBlock&Notes
  6
Continuous
 62
     3
100
AcDbLine
 10
22.82703894416948
 20
-2.616408365197368
 30
0.0
 11
23.30384669055698
 21
-2.608085641859864
 31
0.0
  0
LINE
  5
613
330
1F
100
AcDbEntity
  8
TitleBlock&Notes
  6
Continuous
 62
     3
100
AcDbLine
 10
22.817013705457
 20
-2.600245862797356
 30
0.0
 11
23.31275016398196
 21
-2.591592764084851
 31
0.0
  0
LINE
  5
614
330
1F
100
AcDbEntity
  8
TitleBlock&Notes
  6
Continuous
 62
     3
100
AcDbLine
 10
22.80934479049447
 20
-2.584042237034869
 30
0.0
 11
23.31938437920695
 21
-2.575139457847357
 31
0.0
  0
LINE
  5
615
330
1F
100
AcDbEntity
  8
TitleBlock&Notes
  6
Continuous
 62
     3
100
AcDbLine
 10
22.80370076213195
 20
-2.56780328683486
 30
0.0
 11
23.3240467557445
 21
-2.558720618459858
 31
0.0
  0
LINE
  5
616
330
1F
100
AcDbEntity
  8
TitleBlock&Notes
  6
Continuous
 62
     3
100
AcDbLine
 10
22.79987951558195
 20
-2.551532483384856
 30
0.0
 11
23.3269182853945
 21
-2.542332978922348
 31
0.0
  0
LINE
  5
617
330
1F
100
AcDbEntity
  8
TitleBlock&Notes
  6
Continuous
 62
     3
100
AcDbLine
 10
22.79725525699443
 20
-2.050267566622372
 30
0.0
 11
23.32814275699447
 21
-2.041000925309849
 31
0.0
  0
LINE
  5
618
330
1F
100
AcDbEntity
  8
TitleBlock&Notes
  6
Continuous
 62
     3
100
AcDbLine
 10
22.79725525699443
 20
-2.033930116372359
 30
0.0
 11
23.32814275699447
 21
-2.024663434222356
 31
0.0
  0
LINE
  5
619
330
1F
100
AcDbEntity
  8
TitleBlock&Notes
  6
Continuous
 62
     3
100
AcDbLine
 10
22.79725525699443
 20
-2.017592625284855
 30
0.0
 11
23.32814275699447
 21
-2.00832594313486
 31
0.0
  0
LINE
  5
61A
330
1F
100
AcDbEntity
  8
TitleBlock&Notes
  6
Continuous
 62
     3
100
AcDbLine
 10
22.79725525699443
 20
-2.001255134197359
 30
0.0
 11
23.32814275699447
 21
-1.991988452047356
 31
0.0
  0
LINE
  5
61B
330
1F
100
AcDbEntity
  8
TitleBlock&Notes
  6
Continuous
 62
     3
100
AcDbLine
 10
22.79725525699443
 20
-1.984917643109866
 30
0.0
 11
23.32814275699447
 21
-1.975650960959862
 31
0.0
  0
LINE
  5
61C
330
1F
100
AcDbEntity
  8
TitleBlock&Notes
  6
Continuous
 62
     3
100
AcDbLine
 10
22.79725525699443
 20
-1.968580152022359
 30
0.0
 11
23.32814275699447
 21
-1.959313469872355
 31
0.0
  0
LINE
  5
61D
330
1F
100
AcDbEntity
  8
TitleBlock&Notes
  6
Continuous
 62
     3
100
AcDbLine
 10
22.79725525699443
 20
-1.952242660934865
 30
0.0
 11
23.32814275699447
 21
-1.942975978784862
 31
0.0
  0
LINE
  5
61E
330
1F
100
AcDbEntity
  8
TitleBlock&Notes
  6
Continuous
 62
     3
100
AcDbLine
 10
22.79725525699443
 20
-1.935905169847359
 30
0.0
 11
23.32814275699447
 21
-1.926638487697366
 31
0.0
  0
LINE
  5
61F
330
1F
100
AcDbEntity
  8
TitleBlock&Notes
  6
Continuous
 62
     3
100
AcDbLine
 10
22.79725525699443
 20
-1.919567678759865
 30
0.0
 11
23.32814275699447
 21
-1.910300996609862
 31
0.0
  0
LINE
  5
620
330
1F
100
AcDbEntity
  8
TitleBlock&Notes
  6
Continuous
 62
     3
100
AcDbLine
 10
22.79725525699443
 20
-1.903230187672372
 30
0.0
 11
23.32814275699447
 21
-1.893963505522366
 31
0.0
  0
LINE
  5
621
330
1F
100
AcDbEntity
  8
TitleBlock&Notes
  6
Continuous
 62
     3
100
AcDbLine
 10
22.79725525699443
 20
-1.886892696584855
 30
0.0
 11
23.32814275699447
 21
-1.877626014434851
 31
0.0
  0
LINE
  5
622
330
1F
100
AcDbEntity
  8
TitleBlock&Notes
  6
Continuous
 62
     3
100
AcDbLine
 10
22.79725525699443
 20
-1.870555205497348
 30
0.0
 11
23.32814275699447
 21
-1.861288523347355
 31
0.0
  0
LINE
  5
623
330
1F
100
AcDbEntity
  8
TitleBlock&Notes
  6
Continuous
 62
     3
100
AcDbLine
 10
22.79725525699443
 20
-2.445990741584862
 30
0.0
 11
23.32814275699447
 21
-2.436724059434859
 31
0.0
  0
LINE
  5
624
330
1F
100
AcDbEntity
  8
TitleBlock&Notes
  6
Continuous
 62
     3
100
AcDbLine
 10
22.79725525699443
 20
-2.429653250497356
 30
0.0
 11
23.32814275699447
 21
-2.420386568347352
 31
0.0
  0
LINE
  5
625
330
1F
100
AcDbEntity
  8
TitleBlock&Notes
  6
Continuous
 62
     3
100
AcDbLine
 10
22.79725525699443
 20
-2.413315759409862
 30
0.0
 11
23.32814275699447
 21
-2.404049077259859
 31
0.0
  0
LINE
  5
626
330
1F
100
AcDbEntity
  8
TitleBlock&Notes
  6
Continuous
 62
     3
100
AcDbLine
 10
22.79725525699443
 20
-2.396978268322358
 30
0.0
 11
23.32814275699447
 21
-2.387711586172363
 31
0.0
  0
LINE
  5
627
330
1F
100
AcDbEntity
  8
TitleBlock&Notes
  6
Continuous
 62
     3
100
AcDbLine
 10
22.79725525699443
 20
-2.380640777234862
 30
0.0
 11
23.32814275699447
 21
-2.371374095084859
 31
0.0
  0
LINE
  5
628
330
1F
100
AcDbEntity
  8
TitleBlock&Notes
  6
Continuous
 62
     3
100
AcDbLine
 10
22.79725525699443
 20
-2.364303286147369
 30
0.0
 11
23.32814275699447
 21
-2.355036603997366
 31
0.0
  0
LINE
  5
629
330
1F
100
AcDbEntity
  8
TitleBlock&Notes
  6
Continuous
 62
     3
100
AcDbLine
 10
22.79725525699443
 20
-2.347965795059862
 30
0.0
 11
23.32814275699447
 21
-2.338699112909859
 31
0.0
  0
LINE
  5
62A
330
1F
100
AcDbEntity
  8
TitleBlock&Notes
  6
Continuous
 62
     3
100
AcDbLine
 10
22.79725525699443
 20
-2.331628303972347
 30
0.0
 11
23.32814275699447
 21
-2.322361621822365
 31
0.0
  0
LINE
  5
62B
330
1F
100
AcDbEntity
  8
TitleBlock&Notes
  6
Continuous
 62
     3
100
AcDbLine
 10
22.79725525699443
 20
-2.315290812884851
 30
0.0
 11
23.32814275699447
 21
-2.306024130734869
 31
0.0
  0
LINE
  5
62C
330
1F
100
AcDbEntity
  8
TitleBlock&Notes
  6
Continuous
 62
     3
100
AcDbLine
 10
22.79725525699443
 20
-2.298953321797358
 30
0.0
 11
23.32814275699447
 21
-2.289686680484859
 31
0.0
  0
LINE
  5
62D
330
1F
100
AcDbEntity
  8
TitleBlock&Notes
  6
Continuous
 62
     3
100
AcDbLine
 10
22.79725525699443
 20
-2.282615830709854
 30
0.0
 11
23.32814275699447
 21
-2.273349189397352
 31
0.0
  0
LINE
  5
62E
330
1F
100
AcDbEntity
  8
TitleBlock&Notes
  6
Continuous
 62
     3
100
AcDbLine
 10
22.79725525699443
 20
-2.266278380459862
 30
0.0
 11
23.32814275699447
 21
-2.257011698309859
 31
0.0
  0
LINE
  5
62F
330
1F
100
AcDbEntity
  8
TitleBlock&Notes
  6
Continuous
 62
     3
100
AcDbLine
 10
22.79725525699443
 20
-2.249940889372355
 30
0.0
 11
23.32814275699447
 21
-2.240674207222363
 31
0.0
  0
LINE
  5
630
330
1F
100
AcDbEntity
  8
TitleBlock&Notes
  6
Continuous
 62
     3
100
AcDbLine
 10
22.79725525699443
 20
-2.233603398284862
 30
0.0
 11
23.32814275699447
 21
-2.224336716134859
 31
0.0
  0
LINE
  5
631
330
1F
100
AcDbEntity
  8
TitleBlock&Notes
  6
Continuous
 62
     3
100
AcDbLine
 10
22.79725525699443
 20
-2.217265907197369
 30
0.0
 11
23.32814275699447
 21
-2.207999225047363
 31
0.0
  0
LINE
  5
632
330
1F
100
AcDbEntity
  8
TitleBlock&Notes
  6
Continuous
 62
     3
100
AcDbLine
 10
22.79725525699443
 20
-2.200928416109862
 30
0.0
 11
23.32814275699447
 21
-2.191661733959858
 31
0.0
  0
LINE
  5
633
330
1F
100
AcDbEntity
  8
TitleBlock&Notes
  6
Continuous
 62
     3
100
AcDbLine
 10
22.79725525699443
 20
-2.184590925022344
 30
0.0
 11
23.32814275699447
 21
-2.175324242872365
 31
0.0
  0
LINE
  5
634
330
1F
100
AcDbEntity
  8
TitleBlock&Notes
  6
Continuous
 62
     3
100
AcDbLine
 10
22.79725525699443
 20
-2.168253433934851
 30
0.0
 11
23.32814275699447
 21
-2.158986751784869
 31
0.0
  0
LINE
  5
635
330
1F
100
AcDbEntity
  8
TitleBlock&Notes
  6
Continuous
 62
     3
100
AcDbLine
 10
22.79725525699443
 20
-2.151915942847358
 30
0.0
 11
23.32814275699447
 21
-2.142649260697365
 31
0.0
  0
LINE
  5
636
330
1F
100
AcDbEntity
  8
TitleBlock&Notes
  6
Continuous
 62
     3
100
AcDbLine
 10
23.32814275699447
 20
-1.388727182722347
 30
0.0
 11
22.79725525699443
 21
-1.388727182722347
 31
0.0
  0
LINE
  5
637
330
1F
100
AcDbEntity
  8
TitleBlock&Notes
  6
Continuous
 62
     3
100
AcDbLine
 10
23.32814275699447
 20
-1.449983432722358
 30
0.0
 11
22.79725525699443
 21
-1.449983432722358
 31
0.0
  0
LINE
  5
638
330
1F
100
AcDbEntity
  8
TitleBlock&Notes
  6
Continuous
 62
     3
100
AcDbLine
 10
23.32814275699447
 20
-1.85192734322236
 30
0.0
 11
22.79725525699443
 21
-1.85192734322236
 31
0.0
  0
LINE
  5
639
330
1F
100
AcDbEntity
  8
TitleBlock&Notes
  6
Continuous
 62
     3
100
AcDbLine
 10
23.32814275699447
 20
-1.691149779022366
 30
0.0
 11
22.79725525699443
 21
-1.691149779022366
 31
0.0
  0
LINE
  5
63A
330
1F
100
AcDbEntity
  8
TitleBlock&Notes
  6
Continuous
 62
     3
100
AcDbLine
 10
23.32814275699447
 20
-1.771538561122367
 30
0.0
 11
22.79725525699443
 21
-1.771538561122367
 31
0.0
  0
LINE
  5
63B
330
1F
100
AcDbEntity
  8
TitleBlock&Notes
  6
Continuous
 62
     3
100
AcDbLine
 10
23.32814275699447
 20
-2.052899257634862
 30
0.0
 11
22.79725525699443
 21
-2.052899257634862
 31
0.0
  0
LINE
  5
63C
330
1F
100
AcDbEntity
  8
TitleBlock&Notes
  6
Continuous
 62
     3
100
AcDbLine
 10
23.32814275699447
 20
-2.133288039734863
 30
0.0
 11
22.79725525699443
 21
-2.133288039734863
 31
0.0
  0
LINE
  5
63D
330
1F
100
AcDbEntity
  8
TitleBlock&Notes
  6
Continuous
 62
     3
100
AcDbLine
 10
23.32814275699447
 20
-2.454843168134861
 30
0.0
 11
22.79725525699443
 21
-2.454843168134861
 31
0.0
  0
LINE
  5
63E
330
1F
100
AcDbEntity
  8
TitleBlock&Notes
  6
Continuous
 62
     3
100
AcDbLine
 10
23.32763555524448
 20
-2.535231950234852
 30
0.0
 11
22.79776241790699
 21
-2.535231950234852
 31
0.0
  0
ARC
  5
63F
330
1F
100
AcDbEntity
  8
TitleBlock&Notes
  6
Continuous
 62
     3
100
AcDbCircle
 10
23.16479275699447
 20
-2.522369730397363
 30
0.0
 40
0.5308875000000001
100
AcDbArc
 50
270.0000000000008
 51
0.0000000000008015
  0
ARC
  5
640
330
1F
100
AcDbEntity
  8
TitleBlock&Notes
  6
Continuous
 62
     3
100
AcDbCircle
 10
23.16479275699447
 20
-2.522369730397363
 30
0.0
 40
0.5513062500000001
100
AcDbArc
 50
270.0000000000008
 51
0.0000000000008015
  0
ARC
  5
641
330
1F
100
AcDbEntity
  8
TitleBlock&Notes
  6
Continuous
 62
     3
100
AcDbCircle
 10
23.16479275699447
 20
-2.522369730397363
 30
0.0
 40
0.5104687500000001
100
AcDbArc
 50
270.0000000000008
 51
0.0000000000008015
  0
LINE
  5
642
330
1F
100
AcDbEntity
  8
TitleBlock&Notes
  6
Continuous
 62
     3
100
AcDbLine
 10
22.77683650699447
 20
-2.522369771234856
 30
0.0
 11
22.77683650699447
 21
-1.215569730397363
 31
0.0
  0
LINE
  5
643
330
1F
100
AcDbEntity
  8
TitleBlock&Notes
  6
Continuous
 62
     3
100
AcDbLine
 10
22.42971775699448
 20
-2.522369730397363
 30
0.0
 11
22.42971775699448
 21
-1.215569730397363
 31
0.0
  0
LINE
  5
644
330
1F
100
AcDbEntity
  8
TitleBlock&Notes
  6
Continuous
 62
     3
100
AcDbLine
 10
22.79725525699443
 20
-2.522369771234856
 30
0.0
 11
22.79725525699443
 21
-1.195150980397357
 31
0.0
  0
LINE
  5
645
330
1F
100
AcDbEntity
  8
TitleBlock&Notes
  6
Continuous
 62
     3
100
AcDbLine
 10
22.40929900699444
 20
-1.195150980397357
 30
0.0
 11
22.40929900699444
 21
-2.522369730397363
 31
0.0
  0
LINE
  5
646
330
1F
100
AcDbEntity
  8
TitleBlock&Notes
  6
Continuous
 62
     3
100
AcDbLine
 10
22.75641775699449
 20
-1.235988480397361
 30
0.0
 11
22.75641775699449
 21
-2.522369771234856
 31
0.0
  0
LINE
  5
647
330
1F
100
AcDbEntity
  8
TitleBlock&Notes
  6
Continuous
 62
     3
100
AcDbLine
 10
22.45013650699448
 20
-1.235988480397361
 30
0.0
 11
22.45013650699448
 21
-2.522369730397363
 31
0.0
  0
LINE
  5
648
330
1F
100
AcDbEntity
  8
TitleBlock&Notes
  6
Continuous
 62
     3
100
AcDbLine
 10
21.37815213199446
 20
-2.541947432084855
 30
0.0
 11
21.08208025699443
 21
-1.235988480397361
 31
0.0
  0
LINE
  5
649
330
1F
100
AcDbEntity
  8
TitleBlock&Notes
  6
Continuous
 62
     3
100
AcDbLine
 10
21.37815213199446
 20
-2.541947432084855
 30
0.0
 11
21.67422400699448
 21
-1.235988480397361
 31
0.0
  0
LINE
  5
64A
330
1F
100
AcDbEntity
  8
TitleBlock&Notes
  6
Continuous
 62
     3
100
AcDbLine
 10
22.16427400699449
 20
-1.215569730397363
 30
0.0
 11
22.16427400699449
 21
-3.053257230397369
 31
0.0
  0
LINE
  5
64B
330
1F
100
AcDbEntity
  8
TitleBlock&Notes
  6
Continuous
 62
     3
100
AcDbLine
 10
22.18469275699448
 20
-3.073675980397364
 30
0.0
 11
22.18469275699448
 21
-1.195150980397357
 31
0.0
  0
LINE
  5
64C
330
1F
100
AcDbEntity
  8
TitleBlock&Notes
  6
Continuous
 62
     3
100
AcDbLine
 10
22.14385525699447
 20
-3.03283848039737
 30
0.0
 11
22.14385525699447
 21
-1.235988480397361
 31
0.0
  0
LINE
  5
64D
330
1F
100
AcDbEntity
  8
TitleBlock&Notes
  6
Continuous
 62
     3
100
AcDbLine
 10
21.81715525699446
 20
-2.275358925284864
 30
0.0
 11
21.81715525699446
 21
-3.053257230397369
 31
0.0
  0
LINE
  5
64E
330
1F
100
AcDbEntity
  8
TitleBlock&Notes
  6
Continuous
 62
     3
100
AcDbLine
 10
21.81715525699446
 20
-2.275358925284864
 30
0.0
 11
21.54579537836949
 21
-3.053257230397369
 31
0.0
  0
LINE
  5
64F
330
1F
100
AcDbEntity
  8
TitleBlock&Notes
  6
Continuous
 62
     3
100
AcDbLine
 10
21.79673650699449
 20
-2.395885620172365
 30
0.0
 11
21.79673650699449
 21
-3.073675980397364
 31
0.0
  0
LINE
  5
650
330
1F
100
AcDbEntity
  8
TitleBlock&Notes
  6
Continuous
 62
     3
100
AcDbLine
 10
21.56029799974448
 20
-3.073675980397364
 30
0.0
 11
21.79673650699449
 21
-2.395885620172365
 31
0.0
  0
LINE
  5
651
330
1F
100
AcDbEntity
  8
TitleBlock&Notes
  6
Continuous
 62
     3
100
AcDbLine
 10
21.83757400699446
 20
-3.03283848039737
 30
0.0
 11
21.83757400699446
 21
-2.154832230397349
 31
0.0
  0
LINE
  5
652
330
1F
100
AcDbEntity
  8
TitleBlock&Notes
  6
Continuous
 62
     3
100
AcDbLine
 10
21.53129275699449
 20
-3.03283848039737
 30
0.0
 11
21.83757400699446
 21
-2.154832230397349
 31
0.0
  0
LINE
  5
653
330
1F
100
AcDbEntity
  8
TitleBlock&Notes
  6
Continuous
 62
     3
100
AcDbLine
 10
21.65791620476945
 20
-1.215569730397363
 30
0.0
 11
22.16427400699449
 21
-1.215569730397363
 31
0.0
  0
LINE
  5
654
330
1F
100
AcDbEntity
  8
TitleBlock&Notes
  6
Continuous
 62
     3
100
AcDbLine
 10
22.18469275699448
 20
-1.195150980397357
 30
0.0
 11
21.64160840254446
 21
-1.195150980397357
 31
0.0
  0
LINE
  5
655
330
1F
100
AcDbEntity
  8
TitleBlock&Notes
  6
Continuous
 62
     3
100
AcDbLine
 10
22.14385525699447
 20
-1.235988480397361
 30
0.0
 11
21.67422400699448
 21
-1.235988480397361
 31
0.0
  0
LINE
  5
656
330
1F
100
AcDbEntity
  8
TitleBlock&Notes
  6
Continuous
 62
     3
100
AcDbLine
 10
21.37815213199446
 20
-2.449595753572351
 30
0.0
 11
21.09838805921947
 21
-1.215569730397363
 31
0.0
  0
LINE
  5
657
330
1F
100
AcDbEntity
  8
TitleBlock&Notes
  6
Continuous
 62
     3
100
AcDbLine
 10
21.37815213199446
 20
-2.357244075059861
 30
0.0
 11
21.11469586144444
 21
-1.195150980397357
 31
0.0
  0
LINE
  5
658
330
1F
100
AcDbEntity
  8
TitleBlock&Notes
  6
Continuous
 62
     3
100
AcDbLine
 10
21.65791620476945
 20
-1.215569730397363
 30
0.0
 11
21.37815213199446
 21
-2.449595753572351
 31
0.0
  0
LINE
  5
659
330
1F
100
AcDbEntity
  8
TitleBlock&Notes
  6
Continuous
 62
     3
100
AcDbLine
 10
21.64160840254446
 20
-1.195150980397357
 30
0.0
 11
21.37815213199446
 21
-2.357244075059861
 31
0.0
  0
LINE
  5
65A
330
1F
100
AcDbEntity
  8
TitleBlock&Notes
  6
Continuous
 62
     3
100
AcDbLine
 10
21.23610954683194
 20
-1.730701061122355
 30
0.0
 11
21.52019467631944
 21
-1.730701061122355
 31
0.0
  0
LINE
  5
65B
330
1F
100
AcDbEntity
  8
TitleBlock&Notes
  6
Continuous
 62
     3
100
AcDbLine
 10
21.23177203260694
 20
-1.711568529022351
 30
0.0
 11
21.52453219054444
 21
-1.711568529022351
 31
0.0
  0
LINE
  5
65C
330
1F
100
AcDbEntity
  8
TitleBlock&Notes
  6
Continuous
 62
     3
100
AcDbLine
 10
21.59309394259448
 20
-1.409145932722367
 30
0.0
 11
21.16321028055696
 21
-1.409145932722367
 31
0.0
  0
LINE
  5
65D
330
1F
100
AcDbEntity
  8
TitleBlock&Notes
  6
Continuous
 62
     3
100
AcDbLine
 10
21.58846484861944
 20
-1.429564682722352
 30
0.0
 11
21.16783941536947
 21
-1.429564682722352
 31
0.0
  0
LINE
  5
65E
330
1F
100
AcDbEntity
  8
TitleBlock&Notes
  6
Continuous
 62
     3
100
AcDbLine
 10
21.15858118658197
 20
-1.388727182722347
 30
0.0
 11
21.59772303656947
 21
-1.388727182722347
 31
0.0
  0
LINE
  5
65F
330
1F
100
AcDbEntity
  8
TitleBlock&Notes
  6
Continuous
 62
     3
100
AcDbLine
 10
21.17246850934447
 20
-1.449983432722348
 30
0.0
 11
21.58383571380697
 21
-1.449983432722348
 31
0.0
  0
LINE
  5
660
330
1F
100
AcDbEntity
  8
TitleBlock&Notes
  6
Continuous
 62
     3
100
AcDbLine
 10
21.22714293863194
 20
-1.691149779022366
 30
0.0
 11
21.52916128451943
 21
-1.691149779022366
 31
0.0
  0
LINE
  5
661
330
1F
100
AcDbEntity
  8
TitleBlock&Notes
  6
Continuous
 62
     3
100
AcDbLine
 10
21.51556558234444
 20
-1.75111981112235
 30
0.0
 11
21.24073864080693
 21
-1.75111981112235
 31
0.0
  0
LINE
  5
662
330
1F
100
AcDbEntity
  8
TitleBlock&Notes
  6
Continuous
 62
     3
100
AcDbLine
 10
21.24536773478199
 20
-1.771538561122367
 30
0.0
 11
21.51093648836945
 21
-1.771538561122367
 31
0.0
  0
LINE
  5
663
330
1F
100
AcDbEntity
  8
TitleBlock&Notes
  6
Continuous
 62
     3
100
AcDbLine
 10
21.75539895180694
 20
-2.514386652547357
 30
0.0
 11
21.79673650699449
 21
-2.513665094759869
 31
0.0
  0
LINE
  5
664
330
1F
100
AcDbEntity
  8
TitleBlock&Notes
  6
Continuous
 62
     3
100
AcDbLine
 10
21.76113298601948
 20
-2.497949068747367
 30
0.0
 11
21.79673650699449
 21
-2.497327603672365
 31
0.0
  0
LINE
  5
665
330
1F
100
AcDbEntity
  8
TitleBlock&Notes
  6
Continuous
 62
     3
100
AcDbLine
 10
21.76686702023197
 20
-2.481511484947358
 30
0.0
 11
21.79673650699449
 21
-2.480990112584848
 31
0.0
  0
LINE
  5
666
330
1F
100
AcDbEntity
  8
TitleBlock&Notes
  6
Continuous
 62
     3
100
AcDbLine
 10
21.77260105444443
 20
-2.465073901147367
 30
0.0
 11
21.79673650699449
 21
-2.464652621497354
 31
0.0
  0
LINE
  5
667
330
1F
100
AcDbEntity
  8
TitleBlock&Notes
  6
Continuous
 62
     3
100
AcDbLine
 10
21.77833508865699
 20
-2.448636317347358
 30
0.0
 11
21.79673650699449
 21
-2.448315130409858
 31
0.0
  0
LINE
  5
668
330
1F
100
AcDbEntity
  8
TitleBlock&Notes
  6
Continuous
 62
     3
100
AcDbLine
 10
21.78406912286946
 20
-2.432198774384861
 30
0.0
 11
21.79673650699449
 21
-2.431977639322354
 31
0.0
  0
LINE
  5
669
330
1F
100
AcDbEntity
  8
TitleBlock&Notes
  6
Continuous
 62
     3
100
AcDbLine
 10
21.78980315708195
 20
-2.415761190584849
 30
0.0
 11
21.79673650699449
 21
-2.415640148234858
 31
0.0
  0
LINE
  5
66A
330
1F
100
AcDbEntity
  8
TitleBlock&Notes
  6
Continuous
 62
     3
100
AcDbLine
 10
21.79553719129448
 20
-2.399323606784862
 30
0.0
 11
21.79673650699449
 21
-2.399302657147354
 31
0.0
  0
LINE
  5
66B
330
1F
100
AcDbEntity
  8
TitleBlock&Notes
  6
Continuous
 62
     3
100
AcDbLine
 10
21.30335808739451
 20
-2.02733118474736
 30
0.0
 11
21.4535404438945
 21
-2.024709743947362
 31
0.0
  0
LINE
  5
66C
330
1F
100
AcDbEntity
  8
TitleBlock&Notes
  6
Continuous
 62
     3
100
AcDbLine
 10
21.29966882764443
 20
-2.011058094397354
 30
0.0
 11
21.45725898413194
 21
-2.008307362072363
 31
0.0
  0
LINE
  5
66D
330
1F
100
AcDbEntity
  8
TitleBlock&Notes
  6
Continuous
 62
     3
100
AcDbLine
 10
21.29597960873192
 20
-1.994785004047368
 30
0.0
 11
21.46097756520697
 21
-1.99190493935987
 31
0.0
  0
LINE
  5
66E
330
1F
100
AcDbEntity
  8
TitleBlock&Notes
  6
Continuous
 62
     3
100
AcDbLine
 10
21.29229034898193
 20
-1.978511913697359
 30
0.0
 11
21.46469610544444
 21
-1.97550255748486
 31
0.0
  0
LINE
  5
66F
330
1F
100
AcDbEntity
  8
TitleBlock&Notes
  6
Continuous
 62
     3
100
AcDbLine
 10
21.28860108923193
 20
-1.962238823347353
 30
0.0
 11
21.46841468651947
 21
-1.959100175609858
 31
0.0
  0
LINE
  5
670
330
1F
100
AcDbEntity
  8
TitleBlock&Notes
  6
Continuous
 62
     3
100
AcDbLine
 10
21.28491187031948
 20
-1.945965732997367
 30
0.0
 11
21.47213326759446
 21
-1.942697752897368
 31
0.0
  0
LINE
  5
671
330
1F
100
AcDbEntity
  8
TitleBlock&Notes
  6
Continuous
 62
     3
100
AcDbLine
 10
21.28122261056947
 20
-1.929692642647358
 30
0.0
 11
21.47585180783196
 21
-1.926295371022355
 31
0.0
  0
LINE
  5
672
330
1F
100
AcDbEntity
  8
TitleBlock&Notes
  6
Continuous
 62
     3
100
AcDbLine
 10
21.27753335081949
 20
-1.913419552297352
 30
0.0
 11
21.47957038890695
 21
-1.909892989147356
 31
0.0
  0
LINE
  5
673
330
1F
100
AcDbEntity
  8
TitleBlock&Notes
  6
Continuous
 62
     3
100
AcDbLine
 10
21.27384413190697
 20
-1.897146461947356
 30
0.0
 11
21.48328892914446
 21
-1.893490566434866
 31
0.0
  0
LINE
  5
674
330
1F
100
AcDbEntity
  8
TitleBlock&Notes
  6
Continuous
 62
     3
100
AcDbLine
 10
21.27015487215697
 20
-1.880873371597357
 30
0.0
 11
21.48700751021949
 21
-1.877088184559866
 31
0.0
  0
LINE
  5
675
330
1F
100
AcDbEntity
  8
TitleBlock&Notes
  6
Continuous
 62
     3
100
AcDbLine
 10
21.26646561240698
 20
-1.864600281247361
 30
0.0
 11
21.49072605045696
 21
-1.860685802684853
 31
0.0
  0
LINE
  5
676
330
1F
100
AcDbEntity
  8
TitleBlock&Notes
  6
Continuous
 62
     3
100
AcDbLine
 10
21.26359257176944
 20
-1.85192734322236
 30
0.0
 11
21.49271165138195
 21
-1.85192734322236
 31
0.0
  0
LINE
  5
677
330
1F
100
AcDbEntity
  8
TitleBlock&Notes
  6
Continuous
 62
     3
100
AcDbLine
 10
21.30704734714448
 20
-2.043604275097367
 30
0.0
 11
21.44982186281944
 21
-2.041112125822351
 31
0.0
  0
LINE
  5
678
330
1F
100
AcDbEntity
  8
TitleBlock&Notes
  6
Continuous
 62
     3
100
AcDbLine
 10
21.37796125751945
 20
-2.356402169159863
 30
0.0
 11
21.37834447661946
 21
-2.356395512647361
 31
0.0
  0
LINE
  5
679
330
1F
100
AcDbEntity
  8
TitleBlock&Notes
  6
Continuous
 62
     3
100
AcDbLine
 10
21.37427199776945
 20
-2.340129078809853
 30
0.0
 11
21.38206305769445
 21
-2.339993089934858
 31
0.0
  0
LINE
  5
67A
330
1F
100
AcDbEntity
  8
TitleBlock&Notes
  6
Continuous
 62
     3
100
AcDbLine
 10
21.37058273801947
 20
-2.323855988459868
 30
0.0
 11
21.38578159793196
 21
-2.323590708059848
 31
0.0
  0
LINE
  5
67B
330
1F
100
AcDbEntity
  8
TitleBlock&Notes
  6
Continuous
 62
     3
100
AcDbLine
 10
21.36689351910695
 20
-2.307582898109862
 30
0.0
 11
21.38950017900695
 21
-2.307188285347355
 31
0.0
  0
LINE
  5
67C
330
1F
100
AcDbEntity
  8
TitleBlock&Notes
  6
Continuous
 62
     3
100
AcDbLine
 10
21.36320425935694
 20
-2.291309807759855
 30
0.0
 11
21.39321876008198
 21
-2.290785903472356
 31
0.0
  0
LINE
  5
67D
330
1F
100
AcDbEntity
  8
TitleBlock&Notes
  6
Continuous
 62
     3
100
AcDbLine
 10
21.35951499960696
 20
-2.275036717409846
 30
0.0
 11
21.39693730031948
 21
-2.274383521597367
 31
0.0
  0
LINE
  5
67E
330
1F
100
AcDbEntity
  8
TitleBlock&Notes
  6
Continuous
 62
     3
100
AcDbLine
 10
21.35582578069444
 20
-2.258763627059861
 30
0.0
 11
21.40065588139448
 21
-2.257981098884863
 31
0.0
  0
LINE
  5
67F
330
1F
100
AcDbEntity
  8
TitleBlock&Notes
  6
Continuous
 62
     3
100
AcDbLine
 10
21.35213652094444
 20
-2.242490536709854
 30
0.0
 11
21.40437442163191
 21
-2.241578717009853
 31
0.0
  0
LINE
  5
680
330
1F
100
AcDbEntity
  8
TitleBlock&Notes
  6
Continuous
 62
     3
100
AcDbLine
 10
21.34844726119443
 20
-2.226217446359869
 30
0.0
 11
21.40809300270697
 21
-2.225176335134865
 31
0.0
  0
LINE
  5
681
330
1F
100
AcDbEntity
  8
TitleBlock&Notes
  6
Continuous
 62
     3
100
AcDbLine
 10
21.34475804228198
 20
-2.209944356009859
 30
0.0
 11
21.41181154294448
 21
-2.208773912422361
 31
0.0
  0
LINE
  5
682
330
1F
100
AcDbEntity
  8
TitleBlock&Notes
  6
Continuous
 62
     3
100
AcDbLine
 10
21.341068782532
 20
-2.193671265659864
 30
0.0
 11
21.41553012401947
 21
-2.192371530547351
 31
0.0
  0
LINE
  5
683
330
1F
100
AcDbEntity
  8
TitleBlock&Notes
  6
Continuous
 62
     3
100
AcDbLine
 10
21.337379522782
 20
-2.177398175309857
 30
0.0
 11
21.41924866425698
 21
-2.175969148672362
 31
0.0
  0
LINE
  5
684
330
1F
100
AcDbEntity
  8
TitleBlock&Notes
  6
Continuous
 62
     3
100
AcDbLine
 10
21.33369030386947
 20
-2.161125084959858
 30
0.0
 11
21.42296724533194
 21
-2.159566725959859
 31
0.0
  0
LINE
  5
685
330
1F
100
AcDbEntity
  8
TitleBlock&Notes
  6
Continuous
 62
     3
100
AcDbLine
 10
21.33000104411947
 20
-2.144851994609862
 30
0.0
 11
21.42668578556945
 21
-2.14316434408487
 31
0.0
  0
LINE
  5
686
330
1F
100
AcDbEntity
  8
TitleBlock&Notes
  6
Continuous
 62
     3
100
AcDbLine
 10
21.32737939913195
 20
-2.133288039734863
 30
0.0
 11
21.42892482401948
 21
-2.133288039734863
 31
0.0
  0
LINE
  5
687
330
1F
100
AcDbEntity
  8
TitleBlock&Notes
  6
Continuous
 62
     3
100
AcDbLine
 10
21.30915460298193
 20
-2.052899257634862
 30
0.0
 11
21.44714962016946
 21
-2.052899257634862
 31
0.0
  0
LINE
  5
688
330
1F
100
AcDbEntity
  8
TitleBlock&Notes
  6
Continuous
 62
     3
100
AcDbLine
 10
22.42971775699448
 20
-1.215569730397363
 30
0.0
 11
22.77683650699447
 21
-1.215569730397363
 31
0.0
  0
LINE
  5
689
330
1F
100
AcDbEntity
  8
TitleBlock&Notes
  6
Continuous
 62
     3
100
AcDbLine
 10
22.40929900699444
 20
-1.195150980397357
 30
0.0
 11
22.79725525699443
 21
-1.195150980397357
 31
0.0
  0
LINE
  5
68A
330
1F
100
AcDbEntity
  8
TitleBlock&Notes
  6
Continuous
 62
     3
100
AcDbLine
 10
22.45013650699448
 20
-1.235988480397361
 30
0.0
 11
22.75641775699449
 21
-1.235988480397361
 31
0.0
  0
LINE
  5
68B
330
1F
100
AcDbEntity
  8
TitleBlock&Notes
  6
Continuous
 62
     3
100
AcDbLine
 10
22.40929900699444
 20
-1.730701061122355
 30
0.0
 11
22.18469275699448
 21
-1.730701061122355
 31
0.0
  0
LINE
  5
68C
330
1F
100
AcDbEntity
  8
TitleBlock&Notes
  6
Continuous
 62
     3
100
AcDbLine
 10
22.40929900699444
 20
-1.711568529022351
 30
0.0
 11
22.18469275699448
 21
-1.711568529022351
 31
0.0
  0
LINE
  5
68D
330
1F
100
AcDbEntity
  8
TitleBlock&Notes
  6
Continuous
 62
     3
100
AcDbLine
 10
22.40929900699444
 20
-1.409145932722367
 30
0.0
 11
22.18469275699448
 21
-1.409145932722367
 31
0.0
  0
LINE
  5
68E
330
1F
100
AcDbEntity
  8
TitleBlock&Notes
  6
Continuous
 62
     3
100
AcDbLine
 10
22.40929900699444
 20
-1.429564682722363
 30
0.0
 11
22.18469275699448
 21
-1.429564682722363
 31
0.0
  0
LINE
  5
68F
330
1F
100
AcDbEntity
  8
TitleBlock&Notes
  6
Continuous
 62
     3
100
AcDbLine
 10
22.40929900699444
 20
-1.388727182722347
 30
0.0
 11
22.18469275699448
 21
-1.388727182722347
 31
0.0
  0
LINE
  5
690
330
1F
100
AcDbEntity
  8
TitleBlock&Notes
  6
Continuous
 62
     3
100
AcDbLine
 10
22.40929900699444
 20
-1.449983432722358
 30
0.0
 11
22.18469275699448
 21
-1.449983432722358
 31
0.0
  0
LINE
  5
691
330
1F
100
AcDbEntity
  8
TitleBlock&Notes
  6
Continuous
 62
     3
100
AcDbLine
 10
22.40929900699444
 20
-1.691149779022366
 30
0.0
 11
22.18469275699448
 21
-1.691149779022366
 31
0.0
  0
LINE
  5
692
330
1F
100
AcDbEntity
  8
TitleBlock&Notes
  6
Continuous
 62
     3
100
AcDbLine
 10
22.40929900699444
 20
-1.75111981112235
 30
0.0
 11
22.18469275699448
 21
-1.75111981112235
 31
0.0
  0
LINE
  5
693
330
1F
100
AcDbEntity
  8
TitleBlock&Notes
  6
Continuous
 62
     3
100
AcDbLine
 10
22.40929900699444
 20
-1.771538561122367
 30
0.0
 11
22.18469275699448
 21
-1.771538561122367
 31
0.0
  0
LINE
  5
694
330
1F
100
AcDbEntity
  8
TitleBlock&Notes
  6
Continuous
 62
     3
100
AcDbLine
 10
22.79725525699443
 20
-1.854217714409855
 30
0.0
 11
22.92847227011946
 21
-1.85192734322236
 31
0.0
  0
LINE
  5
695
330
1F
100
AcDbEntity
  8
TitleBlock&Notes
  6
Continuous
 62
     3
100
AcDbLine
 10
22.79725525699443
 20
-2.135578451759872
 30
0.0
 11
22.92847227011946
 21
-2.133288039734863
 31
0.0
  0
LINE
  5
696
330
1F
100
AcDbEntity
  8
TitleBlock&Notes
  6
Continuous
 62
     3
100
AcDbLine
 10
22.29009936750693
 20
-2.454843168134861
 30
0.0
 11
22.40929900699444
 21
-2.452762538347354
 31
0.0
  0
LINE
  5
697
330
1F
100
AcDbEntity
  8
TitleBlock&Notes
  6
Continuous
 62
     3
100
AcDbLine
 10
22.18469275699448
 20
-2.440345569772362
 30
0.0
 11
22.40929900699444
 21
-2.43642504725986
 31
0.0
  0
LINE
  5
698
330
1F
100
AcDbEntity
  8
TitleBlock&Notes
  6
Continuous
 62
     3
100
AcDbLine
 10
22.40929900699444
 20
-2.454843168134861
 30
0.0
 11
22.18469275699448
 21
-2.454843168134861
 31
0.0
  0
LINE
  5
699
330
1F
100
AcDbEntity
  8
TitleBlock&Notes
  6
Continuous
 62
     3
100
AcDbLine
 10
22.18469275699448
 20
-2.044622394809872
 30
0.0
 11
22.40929900699444
 21
-2.040701913134861
 31
0.0
  0
LINE
  5
69A
330
1F
100
AcDbEntity
  8
TitleBlock&Notes
  6
Continuous
 62
     3
100
AcDbLine
 10
22.18469275699448
 20
-2.028284944559858
 30
0.0
 11
22.40929900699444
 21
-2.024364422047357
 31
0.0
  0
LINE
  5
69B
330
1F
100
AcDbEntity
  8
TitleBlock&Notes
  6
Continuous
 62
     3
100
AcDbLine
 10
22.18469275699448
 20
-2.011947453472352
 30
0.0
 11
22.40929900699444
 21
-2.008026930959861
 31
0.0
  0
LINE
  5
69C
330
1F
100
AcDbEntity
  8
TitleBlock&Notes
  6
Continuous
 62
     3
100
AcDbLine
 10
22.18469275699448
 20
-1.995609962384858
 30
0.0
 11
22.40929900699444
 21
-1.991689439872357
 31
0.0
  0
LINE
  5
69D
330
1F
100
AcDbEntity
  8
TitleBlock&Notes
  6
Continuous
 62
     3
100
AcDbLine
 10
22.18469275699448
 20
-1.979272471297365
 30
0.0
 11
22.40929900699444
 21
-1.975351948784861
 31
0.0
  0
LINE
  5
69E
330
1F
100
AcDbEntity
  8
TitleBlock&Notes
  6
Continuous
 62
     3
100
AcDbLine
 10
22.18469275699448
 20
-1.962934980209858
 30
0.0
 11
22.40929900699444
 21
-1.959014457697367
 31
0.0
  0
LINE
  5
69F
330
1F
100
AcDbEntity
  8
TitleBlock&Notes
  6
Continuous
 62
     3
100
AcDbLine
 10
22.18469275699448
 20
-1.946597489122365
 30
0.0
 11
22.40929900699444
 21
-1.94267696660985
 31
0.0
  0
LINE
  5
6A0
330
1F
100
AcDbEntity
  8
TitleBlock&Notes
  6
Continuous
 62
     3
100
AcDbLine
 10
22.18469275699448
 20
-1.930259998034858
 30
0.0
 11
22.40929900699444
 21
-1.926339475522367
 31
0.0
  0
LINE
  5
6A1
330
1F
100
AcDbEntity
  8
TitleBlock&Notes
  6
Continuous
 62
     3
100
AcDbLine
 10
22.18469275699448
 20
-1.913922506947365
 30
0.0
 11
22.40929900699444
 21
-1.910001984434853
 31
0.0
  0
LINE
  5
6A2
330
1F
100
AcDbEntity
  8
TitleBlock&Notes
  6
Continuous
 62
     3
100
AcDbLine
 10
22.18469275699448
 20
-1.897585015859869
 30
0.0
 11
22.40929900699444
 21
-1.893664493347356
 31
0.0
  0
LINE
  5
6A3
330
1F
100
AcDbEntity
  8
TitleBlock&Notes
  6
Continuous
 62
     3
100
AcDbLine
 10
22.18469275699448
 20
-1.881247524772354
 30
0.0
 11
22.40929900699444
 21
-1.877327002259863
 31
0.0
  0
LINE
  5
6A4
330
1F
100
AcDbEntity
  8
TitleBlock&Notes
  6
Continuous
 62
     3
100
AcDbLine
 10
22.18469275699448
 20
-1.864910033684847
 30
0.0
 11
22.40929900699444
 21
-1.860989511172356
 31
0.0
  0
LINE
  5
6A5
330
1F
100
AcDbEntity
  8
TitleBlock&Notes
  6
Continuous
 62
     3
100
AcDbLine
 10
22.18469275699448
 20
-2.424008078684855
 30
0.0
 11
22.40929900699444
 21
-2.420087556172364
 31
0.0
  0
LINE
  5
6A6
330
1F
100
AcDbEntity
  8
TitleBlock&Notes
  6
Continuous
 62
     3
100
AcDbLine
 10
22.18469275699448
 20
-2.407670587597362
 30
0.0
 11
22.40929900699444
 21
-2.40375006508486
 31
0.0
  0
LINE
  5
6A7
330
1F
100
AcDbEntity
  8
TitleBlock&Notes
  6
Continuous
 62
     3
100
AcDbLine
 10
22.18469275699448
 20
-2.391333096509855
 30
0.0
 11
22.40929900699444
 21
-2.387412573997364
 31
0.0
  0
LINE
  5
6A8
330
1F
100
AcDbEntity
  8
TitleBlock&Notes
  6
Continuous
 62
     3
100
AcDbLine
 10
22.18469275699448
 20
-2.374995605422362
 30
0.0
 11
22.40929900699444
 21
-2.371075082909849
 31
0.0
  0
LINE
  5
6A9
330
1F
100
AcDbEntity
  8
TitleBlock&Notes
  6
Continuous
 62
     3
100
AcDbLine
 10
22.18469275699448
 20
-2.358658114334868
 30
0.0
 11
22.40929900699444
 21
-2.354737591822367
 31
0.0
  0
LINE
  5
6AA
330
1F
100
AcDbEntity
  8
TitleBlock&Notes
  6
Continuous
 62
     3
100
AcDbLine
 10
22.18469275699448
 20
-2.342320623247362
 30
0.0
 11
22.40929900699444
 21
-2.338400100734871
 31
0.0
  0
LINE
  5
6AB
330
1F
100
AcDbEntity
  8
TitleBlock&Notes
  6
Continuous
 62
     3
100
AcDbLine
 10
22.18469275699448
 20
-2.325983132159844
 30
0.0
 11
22.40929900699444
 21
-2.322062609647353
 31
0.0
  0
LINE
  5
6AC
330
1F
100
AcDbEntity
  8
TitleBlock&Notes
  6
Continuous
 62
     3
100
AcDbLine
 10
22.18469275699448
 20
-2.309645641072351
 30
0.0
 11
22.40929900699444
 21
-2.30572511855986
 31
0.0
  0
LINE
  5
6AD
330
1F
100
AcDbEntity
  8
TitleBlock&Notes
  6
Continuous
 62
     3
100
AcDbLine
 10
22.18469275699448
 20
-2.293308149984857
 30
0.0
 11
22.40929900699444
 21
-2.289387668309857
 31
0.0
  0
LINE
  5
6AE
330
1F
100
AcDbEntity
  8
TitleBlock&Notes
  6
Continuous
 62
     3
100
AcDbLine
 10
22.18469275699448
 20
-2.276970658897372
 30
0.0
 11
22.40929900699444
 21
-2.273050177222364
 31
0.0
  0
LINE
  5
6AF
330
1F
100
AcDbEntity
  8
TitleBlock&Notes
  6
Continuous
 62
     3
100
AcDbLine
 10
22.18469275699448
 20
-2.260633208647361
 30
0.0
 11
22.40929900699444
 21
-2.256712686134857
 31
0.0
  0
LINE
  5
6B0
330
1F
100
AcDbEntity
  8
TitleBlock&Notes
  6
Continuous
 62
     3
100
AcDbLine
 10
22.18469275699448
 20
-2.244295717559855
 30
0.0
 11
22.40929900699444
 21
-2.240375195047364
 31
0.0
  0
LINE
  5
6B1
330
1F
100
AcDbEntity
  8
TitleBlock&Notes
  6
Continuous
 62
     3
100
AcDbLine
 10
22.18469275699448
 20
-2.227958226472361
 30
0.0
 11
22.40929900699444
 21
-2.22403770395986
 31
0.0
  0
LINE
  5
6B2
330
1F
100
AcDbEntity
  8
TitleBlock&Notes
  6
Continuous
 62
     3
100
AcDbLine
 10
22.18469275699448
 20
-2.211620735384865
 30
0.0
 11
22.40929900699444
 21
-2.207700212872364
 31
0.0
  0
LINE
  5
6B3
330
1F
100
AcDbEntity
  8
TitleBlock&Notes
  6
Continuous
 62
     3
100
AcDbLine
 10
22.18469275699448
 20
-2.195283244297361
 30
0.0
 11
22.40929900699444
 21
-2.19136272178487
 31
0.0
  0
LINE
  5
6B4
330
1F
100
AcDbEntity
  8
TitleBlock&Notes
  6
Continuous
 62
     3
100
AcDbLine
 10
22.18469275699448
 20
-2.178945753209844
 30
0.0
 11
22.40929900699444
 21
-2.175025230697353
 31
0.0
  0
LINE
  5
6B5
330
1F
100
AcDbEntity
  8
TitleBlock&Notes
  6
Continuous
 62
     3
100
AcDbLine
 10
22.18469275699448
 20
-2.162608262122361
 30
0.0
 11
22.40929900699444
 21
-2.15868773960986
 31
0.0
  0
LINE
  5
6B6
330
1F
100
AcDbEntity
  8
TitleBlock&Notes
  6
Continuous
 62
     3
100
AcDbLine
 10
22.18469275699448
 20
-2.146270771034868
 30
0.0
 11
22.40929900699444
 21
-2.142350248522353
 31
0.0
  0
LINE
  5
6B7
330
1F
100
AcDbEntity
  8
TitleBlock&Notes
  6
Continuous
 62
     3
100
AcDbLine
 10
22.40929900699444
 20
-1.85192734322236
 30
0.0
 11
22.18469275699448
 21
-1.85192734322236
 31
0.0
  0
LINE
  5
6B8
330
1F
100
AcDbEntity
  8
TitleBlock&Notes
  6
Continuous
 62
     3
100
AcDbLine
 10
22.40929900699444
 20
-2.052899257634862
 30
0.0
 11
22.18469275699448
 21
-2.052899257634862
 31
0.0
  0
LINE
  5
6B9
330
1F
100
AcDbEntity
  8
TitleBlock&Notes
  6
Continuous
 62
     3
100
AcDbLine
 10
22.40929900699444
 20
-2.133288039734863
 30
0.0
 11
22.18469275699448
 21
-2.133288039734863
 31
0.0
  0
LINE
  5
6BA
330
1F
100
AcDbEntity
  8
TitleBlock&Notes
  6
Continuous
 62
     3
100
AcDbLine
 10
21.81715525699446
 20
-3.053257230397369
 30
0.0
 11
22.16427400699449
 21
-3.053257230397369
 31
0.0
  0
LINE
  5
6BB
330
1F
100
AcDbEntity
  8
TitleBlock&Notes
  6
Continuous
 62
     3
100
AcDbLine
 10
21.79673650699449
 20
-3.073675980397364
 30
0.0
 11
22.18469275699448
 21
-3.073675980397364
 31
0.0
  0
LINE
  5
6BC
330
1F
100
AcDbEntity
  8
TitleBlock&Notes
  6
Continuous
 62
     3
100
AcDbLine
 10
22.14385525699447
 20
-3.03283848039737
 30
0.0
 11
21.83757400699446
 21
-3.03283848039737
 31
0.0
  0
LINE
  5
6BD
330
1F
100
AcDbEntity
  8
TitleBlock&Notes
  6
Continuous
 62
     3
100
AcDbLine
 10
21.65218625430695
 20
-2.81026299759736
 30
0.0
 11
21.79673650699449
 21
-2.807739893497353
 31
0.0
  0
LINE
  5
6BE
330
1F
100
AcDbEntity
  8
TitleBlock&Notes
  6
Continuous
 62
     3
100
AcDbLine
 10
21.65792028851948
 20
-2.793825413797348
 30
0.0
 11
21.79673650699449
 21
-2.791402402409859
 31
0.0
  0
LINE
  5
6BF
330
1F
100
AcDbEntity
  8
TitleBlock&Notes
  6
Continuous
 62
     3
100
AcDbLine
 10
21.66365432273197
 20
-2.777387870834854
 30
0.0
 11
21.79673650699449
 21
-2.775064911322353
 31
0.0
  0
LINE
  5
6C0
330
1F
100
AcDbEntity
  8
TitleBlock&Notes
  6
Continuous
 62
     3
100
AcDbLine
 10
21.66938835694446
 20
-2.760950287034863
 30
0.0
 11
21.79673650699449
 21
-2.758727420234859
 31
0.0
  0
LINE
  5
6C1
330
1F
100
AcDbEntity
  8
TitleBlock&Notes
  6
Continuous
 62
     3
100
AcDbLine
 10
21.67512239115695
 20
-2.744512703234865
 30
0.0
 11
21.79673650699449
 21
-2.742389929147366
 31
0.0
  0
LINE
  5
6C2
330
1F
100
AcDbEntity
  8
TitleBlock&Notes
  6
Continuous
 62
     3
100
AcDbLine
 10
21.68085642536949
 20
-2.728075119434864
 30
0.0
 11
21.79673650699449
 21
-2.726052438059859
 31
0.0
  0
LINE
  5
6C3
330
1F
100
AcDbEntity
  8
TitleBlock&Notes
  6
Continuous
 62
     3
100
AcDbLine
 10
21.68659045958198
 20
-2.711637535634855
 30
0.0
 11
21.79673650699449
 21
-2.709714946972352
 31
0.0
  0
LINE
  5
6C4
330
1F
100
AcDbEntity
  8
TitleBlock&Notes
  6
Continuous
 62
     3
100
AcDbLine
 10
21.69232449379444
 20
-2.695199992672358
 30
0.0
 11
21.79673650699449
 21
-2.693377455884859
 31
0.0
  0
LINE
  5
6C5
330
1F
100
AcDbEntity
  8
TitleBlock&Notes
  6
Continuous
 62
     3
100
AcDbLine
 10
21.69805856884445
 20
-2.678762408872357
 30
0.0
 11
21.79673650699449
 21
-2.677039964797366
 31
0.0
  0
LINE
  5
6C6
330
1F
100
AcDbEntity
  8
TitleBlock&Notes
  6
Continuous
 62
     3
100
AcDbLine
 10
21.70379260305695
 20
-2.662324825072358
 30
0.0
 11
21.79673650699449
 21
-2.66070247370987
 31
0.0
  0
LINE
  5
6C7
330
1F
100
AcDbEntity
  8
TitleBlock&Notes
  6
Continuous
 62
     3
100
AcDbLine
 10
21.70952663726944
 20
-2.645887241272371
 30
0.0
 11
21.79673650699449
 21
-2.644364982622366
 31
0.0
  0
LINE
  5
6C8
330
1F
100
AcDbEntity
  8
TitleBlock&Notes
  6
Continuous
 62
     3
100
AcDbLine
 10
21.71526067148197
 20
-2.629449657472359
 30
0.0
 11
21.79673650699449
 21
-2.628027491534848
 31
0.0
  0
LINE
  5
6C9
330
1F
100
AcDbEntity
  8
TitleBlock&Notes
  6
Continuous
 62
     3
100
AcDbLine
 10
21.72099470569446
 20
-2.613012073672347
 30
0.0
 11
21.79673650699449
 21
-2.611690000447355
 31
0.0
  0
LINE
  5
6CA
330
1F
100
AcDbEntity
  8
TitleBlock&Notes
  6
Continuous
 62
     3
100
AcDbLine
 10
21.72672873990693
 20
-2.596574530709853
 30
0.0
 11
21.79673650699449
 21
-2.595352509359859
 31
0.0
  0
LINE
  5
6CB
330
1F
100
AcDbEntity
  8
TitleBlock&Notes
  6
Continuous
 62
     3
100
AcDbLine
 10
21.73246277411948
 20
-2.580136946909862
 30
0.0
 11
21.79673650699449
 21
-2.579015059109859
 31
0.0
  0
LINE
  5
6CC
330
1F
100
AcDbEntity
  8
TitleBlock&Notes
  6
Continuous
 62
     3
100
AcDbLine
 10
21.73819680833195
 20
-2.563699363109864
 30
0.0
 11
21.79673650699449
 21
-2.562677568022352
 31
0.0
  0
LINE
  5
6CD
330
1F
100
AcDbEntity
  8
TitleBlock&Notes
  6
Continuous
 62
     3
100
AcDbLine
 10
21.74393084254444
 20
-2.547261779309863
 30
0.0
 11
21.79673650699449
 21
-2.546340076934859
 31
0.0
  0
LINE
  5
6CE
330
1F
100
AcDbEntity
  8
TitleBlock&Notes
  6
Continuous
 62
     3
100
AcDbLine
 10
21.74966487675697
 20
-2.530824195509854
 30
0.0
 11
21.79673650699449
 21
-2.530002585847363
 31
0.0
  0
LINE
  5
6CF
330
1F
100
AcDbEntity
  8
TitleBlock&Notes
  6
Continuous
 62
     3
100
AcDbLine
 10
21.63498411083197
 20
-2.859575748997357
 30
0.0
 11
21.79673650699449
 21
-2.856752325922355
 31
0.0
  0
LINE
  5
6D0
330
1F
100
AcDbEntity
  8
TitleBlock&Notes
  6
Continuous
 62
     3
100
AcDbLine
 10
21.64071818588199
 20
-2.843138165197359
 30
0.0
 11
21.79673650699449
 21
-2.840414834834859
 31
0.0
  0
LINE
  5
6D1
330
1F
100
AcDbEntity
  8
TitleBlock&Notes
  6
Continuous
 62
     3
100
AcDbLine
 10
21.21050884478195
 20
-3.053257230397369
 30
0.0
 11
21.54579537836949
 21
-3.053257230397369
 31
0.0
  0
LINE
  5
6D2
330
1F
100
AcDbEntity
  8
TitleBlock&Notes
  6
Continuous
 62
     3
100
AcDbLine
 10
21.19600622340696
 20
-3.073675980397364
 30
0.0
 11
21.56029799974448
 21
-3.073675980397364
 31
0.0
  0
LINE
  5
6D3
330
1F
100
AcDbEntity
  8
TitleBlock&Notes
  6
Continuous
 62
     3
100
AcDbLine
 10
21.22501150699447
 20
-3.03283848039737
 30
0.0
 11
21.53129275699449
 21
-3.03283848039737
 31
0.0
  0
LINE
  5
6D4
330
1F
100
AcDbEntity
  8
TitleBlock&Notes
  6
Continuous
 62
     3
100
AcDbLine
 10
21.56044162523193
 20
-3.073264215884856
 30
0.0
 11
21.79673650699449
 21
-3.069139669222356
 31
0.0
  0
LINE
  5
6D5
330
1F
100
AcDbEntity
  8
TitleBlock&Notes
  6
Continuous
 62
     3
100
AcDbLine
 10
21.56617565944447
 20
-3.056826672922348
 30
0.0
 11
21.79673650699449
 21
-3.052802218972364
 31
0.0
  0
LINE
  5
6D6
330
1F
100
AcDbEntity
  8
TitleBlock&Notes
  6
Continuous
 62
     3
100
AcDbLine
 10
21.57190969365696
 20
-3.040389089122361
 30
0.0
 11
21.79673650699449
 21
-3.03646472788486
 31
0.0
  0
LINE
  5
6D7
330
1F
100
AcDbEntity
  8
TitleBlock&Notes
  6
Continuous
 62
     3
100
AcDbLine
 10
21.57764372786945
 20
-3.02395150532236
 30
0.0
 11
21.79673650699449
 21
-3.020127236797364
 31
0.0
  0
LINE
  5
6D8
330
1F
100
AcDbEntity
  8
TitleBlock&Notes
  6
Continuous
 62
     3
100
AcDbLine
 10
21.58337780291946
 20
-3.007513921522361
 30
0.0
 11
21.79673650699449
 21
-3.00378974570986
 31
0.0
  0
LINE
  5
6D9
330
1F
100
AcDbEntity
  8
TitleBlock&Notes
  6
Continuous
 62
     3
100
AcDbLine
 10
21.58911183713195
 20
-2.99107633772236
 30
0.0
 11
21.79673650699449
 21
-2.987452254622364
 31
0.0
  0
LINE
  5
6DA
330
1F
100
AcDbEntity
  8
TitleBlock&Notes
  6
Continuous
 62
     3
100
AcDbLine
 10
21.59484587134448
 20
-2.974638753922349
 30
0.0
 11
21.79673650699449
 21
-2.97111476353487
 31
0.0
  0
LINE
  5
6DB
330
1F
100
AcDbEntity
  8
TitleBlock&Notes
  6
Continuous
 62
     3
100
AcDbLine
 10
21.60057990555697
 20
-2.958201210959854
 30
0.0
 11
21.79673650699449
 21
-2.954777272447353
 31
0.0
  0
LINE
  5
6DC
330
1F
100
AcDbEntity
  8
TitleBlock&Notes
  6
Continuous
 62
     3
100
AcDbLine
 10
21.60631393976944
 20
-2.941763627159853
 30
0.0
 11
21.79673650699449
 21
-2.93843978135986
 31
0.0
  0
LINE
  5
6DD
330
1F
100
AcDbEntity
  8
TitleBlock&Notes
  6
Continuous
 62
     3
100
AcDbLine
 10
21.612047973982
 20
-2.925326043359866
 30
0.0
 11
21.79673650699449
 21
-2.922102290272356
 31
0.0
  0
LINE
  5
6DE
330
1F
100
AcDbEntity
  8
TitleBlock&Notes
  6
Continuous
 62
     3
100
AcDbLine
 10
21.61778200819446
 20
-2.908888459559864
 30
0.0
 11
21.79673650699449
 21
-2.90576479918486
 31
0.0
  0
LINE
  5
6DF
330
1F
100
AcDbEntity
  8
TitleBlock&Notes
  6
Continuous
 62
     3
100
AcDbLine
 10
21.62351604240695
 20
-2.892450875759855
 30
0.0
 11
21.79673650699449
 21
-2.889427308097366
 31
0.0
  0
LINE
  5
6E0
330
1F
100
AcDbEntity
  8
TitleBlock&Notes
  6
Continuous
 62
     3
100
AcDbLine
 10
21.62925007661949
 20
-2.876013332797358
 30
0.0
 11
21.79673650699449
 21
-2.873089817009859
 31
0.0
  0
LINE
  5
6E1
330
1F
100
AcDbEntity
  8
TitleBlock&Notes
  6
Continuous
 62
     3
100
AcDbLine
 10
21.64645222009446
 20
-2.826700581397361
 30
0.0
 11
21.79673650699449
 21
-2.824077343747366
 31
0.0
  0
ARC
  5
6E2
330
1F
100
AcDbEntity
  8
TitleBlock&Notes
  6
Continuous
 62
     3
100
AcDbCircle
 10
22.96060525699448
 20
-2.522369730397363
 30
0.0
 40
0.18376875
100
AcDbArc
 50
180.0000046800004
 51
269.9999931700005
  0
ARC
  5
6E3
330
1F
100
AcDbEntity
  8
TitleBlock&Notes
  6
Continuous
 62
     3
100
AcDbCircle
 10
22.96060525699448
 20
-2.522369730397363
 30
0.0
 40
0.16335
100
AcDbArc
 50
180.0000052300005
 51
269.9999947700005
  0
ARC
  5
6E4
330
1F
100
AcDbEntity
  8
TitleBlock&Notes
  6
Continuous
 62
     3
100
AcDbCircle
 10
22.96060525699448
 20
-2.522369730397363
 30
0.0
 40
0.2041875
100
AcDbArc
 50
180.0000046800004
 51
269.9999931700005
  0
LINE
  5
6E5
330
1F
100
AcDbEntity
  8
TitleBlock&Notes
  6
Continuous
 62
     3
100
AcDbLine
 10
22.18469275699448
 20
-2.817305546984864
 30
0.0
 11
22.49130238133197
 21
-2.81195367009735
 31
0.0
  0
LINE
  5
6E6
330
1F
100
AcDbEntity
  8
TitleBlock&Notes
  6
Continuous
 62
     3
100
AcDbLine
 10
22.18469275699448
 20
-2.800968055897347
 30
0.0
 11
22.48170148508195
 21
-2.795783776109863
 31
0.0
  0
LINE
  5
6E7
330
1F
100
AcDbEntity
  8
TitleBlock&Notes
  6
Continuous
 62
     3
100
AcDbLine
 10
22.18469275699448
 20
-2.784630605647368
 30
0.0
 11
22.47281847124449
 21
-2.779601345009849
 31
0.0
  0
LINE
  5
6E8
330
1F
100
AcDbEntity
  8
TitleBlock&Notes
  6
Continuous
 62
     3
100
AcDbLine
 10
22.18469275699448
 20
-2.768293114559872
 30
0.0
 11
22.46461625936943
 21
-2.763407030197354
 31
0.0
  0
LINE
  5
6E9
330
1F
100
AcDbEntity
  8
TitleBlock&Notes
  6
Continuous
 62
     3
100
AcDbLine
 10
22.18469275699448
 20
-2.751955623472357
 30
0.0
 11
22.45706303704444
 21
-2.747201362559851
 31
0.0
  0
LINE
  5
6EA
330
1F
100
AcDbEntity
  8
TitleBlock&Notes
  6
Continuous
 62
     3
100
AcDbLine
 10
22.18469275699448
 20
-2.735618132384851
 30
0.0
 11
22.45013119811944
 21
-2.730984872984866
 31
0.0
  0
LINE
  5
6EB
330
1F
100
AcDbEntity
  8
TitleBlock&Notes
  6
Continuous
 62
     3
100
AcDbLine
 10
22.18469275699448
 20
-2.719280641297357
 30
0.0
 11
22.44379697516944
 21
-2.714757969847344
 31
0.0
  0
LINE
  5
6EC
330
1F
100
AcDbEntity
  8
TitleBlock&Notes
  6
Continuous
 62
     3
100
AcDbLine
 10
22.18469275699448
 20
-2.702943150209861
 30
0.0
 11
22.43803966358194
 21
-2.698520939009855
 31
0.0
  0
LINE
  5
6ED
330
1F
100
AcDbEntity
  8
TitleBlock&Notes
  6
Continuous
 62
     3
100
AcDbLine
 10
22.18469275699448
 20
-2.686605659122357
 30
0.0
 11
22.43284149904448
 21
-2.682274188847348
 31
0.0
  0
LINE
  5
6EE
330
1F
100
AcDbEntity
  8
TitleBlock&Notes
  6
Continuous
 62
     3
100
AcDbLine
 10
22.18469275699448
 20
-2.670268168034864
 30
0.0
 11
22.42818696330692
 21
-2.666017964384863
 31
0.0
  0
LINE
  5
6EF
330
1F
100
AcDbEntity
  8
TitleBlock&Notes
  6
Continuous
 62
     3
100
AcDbLine
 10
22.18469275699448
 20
-2.653930676947357
 30
0.0
 11
22.42406290669447
 21
-2.649752469809858
 31
0.0
  0
LINE
  5
6F0
330
1F
100
AcDbEntity
  8
TitleBlock&Notes
  6
Continuous
 62
     3
100
AcDbLine
 10
22.18469275699448
 20
-2.637593185859864
 30
0.0
 11
22.42045805805696
 21
-2.63347790930986
 31
0.0
  0
LINE
  5
6F1
330
1F
100
AcDbEntity
  8
TitleBlock&Notes
  6
Continuous
 62
     3
100
AcDbLine
 10
22.18469275699448
 20
-2.621255694772368
 30
0.0
 11
22.41736286141944
 21
-2.617194446234852
 31
0.0
  0
LINE
  5
6F2
330
1F
100
AcDbEntity
  8
TitleBlock&Notes
  6
Continuous
 62
     3
100
AcDbLine
 10
22.18469275699448
 20
-2.604918203684853
 30
0.0
 11
22.41476947598195
 21
-2.600902203097353
 31
0.0
  0
LINE
  5
6F3
330
1F
100
AcDbEntity
  8
TitleBlock&Notes
  6
Continuous
 62
     3
100
AcDbLine
 10
22.18469275699448
 20
-2.588580712597357
 30
0.0
 11
22.41267161276947
 21
-2.584601343247356
 31
0.0
  0
LINE
  5
6F4
330
1F
100
AcDbEntity
  8
TitleBlock&Notes
  6
Continuous
 62
     3
100
AcDbLine
 10
22.18469275699448
 20
-2.572243221509853
 30
0.0
 11
22.41106437128198
 21
-2.568291907522352
 31
0.0
  0
LINE
  5
6F5
330
1F
100
AcDbEntity
  8
TitleBlock&Notes
  6
Continuous
 62
     3
100
AcDbLine
 10
22.18469275699448
 20
-2.55590573042236
 30
0.0
 11
22.40994415781945
 21
-2.551973977597351
 31
0.0
  0
LINE
  5
6F6
330
1F
100
AcDbEntity
  8
TitleBlock&Notes
  6
Continuous
 62
     3
100
AcDbLine
 10
22.18469275699448
 20
-2.539568280172357
 30
0.0
 11
22.40930884883199
 21
-2.535647553472359
 31
0.0
  0
LINE
  5
6F7
330
1F
100
AcDbEntity
  8
TitleBlock&Notes
  6
Continuous
 62
     3
100
AcDbLine
 10
22.40929900699444
 20
-2.535231950234852
 30
0.0
 11
22.18469275699448
 21
-2.535231950234852
 31
0.0
  0
LINE
  5
6F8
330
1F
100
AcDbEntity
  8
TitleBlock&Notes
  6
Continuous
 62
     3
100
AcDbLine
 10
22.91836625483196
 20
-2.680164196897353
 30
0.0
 11
23.22341151705697
 21
-2.674839599459852
 31
0.0
  0
LINE
  5
6F9
330
1F
100
AcDbEntity
  8
TitleBlock&Notes
  6
Continuous
 62
     3
100
AcDbLine
 10
22.96060517531947
 20
-2.706138480397362
 30
0.0
 11
23.16479275699447
 21
-2.706138480397362
 31
0.0
  0
LINE
  5
6FA
330
1F
100
AcDbEntity
  8
TitleBlock&Notes
  6
Continuous
 62
     3
100
AcDbLine
 10
23.16479275699447
 20
-2.685719730397366
 30
0.0
 11
22.96060521615693
 21
-2.685719730397366
 31
0.0
  0
LINE
  5
6FB
330
1F
100
AcDbEntity
  8
TitleBlock&Notes
  6
Continuous
 62
     3
100
AcDbLine
 10
22.96060517531947
 20
-2.72655723039736
 30
0.0
 11
23.16479275699447
 21
-2.72655723039736
 31
0.0
  0
LINE
  5
6FC
330
1F
100
AcDbEntity
  8
TitleBlock&Notes
  6
Continuous
 62
     3
100
AcDbLine
 10
22.18469275699448
 20
-3.062367872459854
 30
0.0
 11
22.80539641680698
 21
-3.051533479522355
 31
0.0
  0
LINE
  5
6FD
330
1F
100
AcDbEntity
  8
TitleBlock&Notes
  6
Continuous
 62
     3
100
AcDbLine
 10
22.18469275699448
 20
-3.046030381372358
 30
0.0
 11
22.75986297184448
 21
-3.03599076785986
 31
0.0
  0
LINE
  5
6FE
330
1F
100
AcDbEntity
  8
TitleBlock&Notes
  6
Continuous
 62
     3
100
AcDbLine
 10
22.18469275699448
 20
-3.029692890284854
 30
0.0
 11
22.72357619865693
 21
-3.020286666397366
 31
0.0
  0
LINE
  5
6FF
330
1F
100
AcDbEntity
  8
TitleBlock&Notes
  6
Continuous
 62
     3
100
AcDbLine
 10
22.18469275699448
 20
-3.013355440034862
 30
0.0
 11
22.69289429066945
 21
-3.004484718284855
 31
0.0
  0
LINE
  5
700
330
1F
100
AcDbEntity
  8
TitleBlock&Notes
  6
Continuous
 62
     3
100
AcDbLine
 10
22.18469275699448
 20
-2.997017948947369
 30
0.0
 11
22.66612298168193
 21
-2.988614530709869
 31
0.0
  0
LINE
  5
701
330
1F
100
AcDbEntity
  8
TitleBlock&Notes
  6
Continuous
 62
     3
100
AcDbLine
 10
22.18469275699448
 20
-2.980680457859862
 30
0.0
 11
22.64230785848194
 21
-2.972692724534856
 31
0.0
  0
LINE
  5
702
330
1F
100
AcDbEntity
  8
TitleBlock&Notes
  6
Continuous
 62
     3
100
AcDbLine
 10
22.18469275699448
 20
-2.964342966772347
 30
0.0
 11
22.62084750720696
 21
-2.956729835834861
 31
0.0
  0
LINE
  5
703
330
1F
100
AcDbEntity
  8
TitleBlock&Notes
  6
Continuous
 62
     3
100
AcDbLine
 10
22.18469275699448
 20
-2.948005475684851
 30
0.0
 11
22.60133343034449
 21
-2.940732970334859
 31
0.0
  0
LINE
  5
704
330
1F
100
AcDbEntity
  8
TitleBlock&Notes
  6
Continuous
 62
     3
100
AcDbLine
 10
22.18469275699448
 20
-2.931667984597358
 30
0.0
 11
22.58347323139445
 21
-2.92470723272235
 31
0.0
  0
LINE
  5
705
330
1F
100
AcDbEntity
  8
TitleBlock&Notes
  6
Continuous
 62
     3
100
AcDbLine
 10
22.18469275699448
 20
-2.915330493509864
 30
0.0
 11
22.56704887894444
 21
-2.908656420884857
 31
0.0
  0
LINE
  5
706
330
1F
100
AcDbEntity
  8
TitleBlock&Notes
  6
Continuous
 62
     3
100
AcDbLine
 10
22.18469275699448
 20
-2.898993002422358
 30
0.0
 11
22.55189289840697
 21
-2.89258351595986
 31
0.0
  0
LINE
  5
707
330
1F
100
AcDbEntity
  8
TitleBlock&Notes
  6
Continuous
 62
     3
100
AcDbLine
 10
22.18469275699448
 20
-2.882655511334851
 30
0.0
 11
22.53787322130694
 21
-2.876490723172355
 31
0.0
  0
LINE
  5
708
330
1F
100
AcDbEntity
  8
TitleBlock&Notes
  6
Continuous
 62
     3
100
AcDbLine
 10
22.18469275699448
 20
-2.866318020247358
 30
0.0
 11
22.52488387433198
 21
-2.860379961884847
 31
0.0
  0
LINE
  5
709
330
1F
100
AcDbEntity
  8
TitleBlock&Notes
  6
Continuous
 62
     3
100
AcDbLine
 10
22.18469275699448
 20
-2.849980529159864
 30
0.0
 11
22.51283815946945
 21
-2.844252743084863
 31
0.0
  0
LINE
  5
70A
330
1F
100
AcDbEntity
  8
TitleBlock&Notes
  6
Continuous
 62
     3
100
AcDbLine
 10
22.18469275699448
 20
-2.833643038072358
 30
0.0
 11
22.50166436606947
 21
-2.828110291897361
 31
0.0
  0
LINE
  5
70B
330
1F
100
AcDbEntity
  8
TitleBlock&Notes
  6
Continuous
 62
     3
100
AcDbLine
 10
22.96060517531947
 20
-3.053257230397369
 30
0.0
 11
23.16479275699447
 21
-3.053257230397369
 31
0.0
  0
LINE
  5
70C
330
1F
100
AcDbEntity
  8
TitleBlock&Notes
  6
Continuous
 62
     3
100
AcDbLine
 10
22.96060517531947
 20
-3.073675980397364
 30
0.0
 11
23.16479275699447
 21
-3.073675980397364
 31
0.0
  0
LINE
  5
70D
330
1F
100
AcDbEntity
  8
TitleBlock&Notes
  6
Continuous
 62
     3
100
AcDbLine
 10
22.96060517531947
 20
-3.03283848039737
 30
0.0
 11
23.16479275699447
 21
-3.03283848039737
 31
0.0
  0
ARC
  5
70E
330
1F
100
AcDbEntity
  8
TitleBlock&Notes
  6
Continuous
 62
     3
100
AcDbCircle
 10
22.96060525699448
 20
-2.522369730397363
 30
0.0
 40
0.5308875000000001
100
AcDbArc
 50
180.0000000000004
 51
269.9999934300003
  0
ARC
  5
70F
330
1F
100
AcDbEntity
  8
TitleBlock&Notes
  6
Continuous
 62
     3
100
AcDbCircle
 10
22.96060525699448
 20
-2.522369730397363
 30
0.0
 40
0.5513062500000001
100
AcDbArc
 50
180.0000000000004
 51
269.9999934300003
  0
ARC
  5
710
330
1F
100
AcDbEntity
  8
TitleBlock&Notes
  6
Continuous
 62
     3
100
AcDbCircle
 10
22.96060525699448
 20
-2.522369730397363
 30
0.0
 40
0.5104687500000001
100
AcDbArc
 50
180.0000000000004
 51
269.9999931700005
  0
LINE
  5
711
330
1F
100
AcDbEntity
  8
TitleBlock&Notes
  6
Continuous
 62
     3
100
AcDbLine
 10
23.6956802569945
 20
-2.522369730397363
 30
0.0
 11
23.6956802569945
 21
-1.215569730397363
 31
0.0
  0
LINE
  5
712
330
1F
100
AcDbEntity
  8
TitleBlock&Notes
  6
Continuous
 62
     3
100
AcDbLine
 10
24.24698650699447
 20
-2.706138480397362
 30
0.0
 11
24.24698650699447
 21
-1.215569730397363
 31
0.0
  0
LINE
  5
713
330
1F
100
AcDbEntity
  8
TitleBlock&Notes
  6
Continuous
 62
     3
100
AcDbLine
 10
24.26740525699444
 20
-2.685719730397366
 30
0.0
 11
24.26740525699444
 21
-1.195150980397357
 31
0.0
  0
LINE
  5
714
330
1F
100
AcDbEntity
  8
TitleBlock&Notes
  6
Continuous
 62
     3
100
AcDbLine
 10
23.71609900699447
 20
-2.522369730397363
 30
0.0
 11
23.71609900699447
 21
-1.195150980397357
 31
0.0
  0
LINE
  5
715
330
1F
100
AcDbEntity
  8
TitleBlock&Notes
  6
Continuous
 62
     3
100
AcDbLine
 10
24.22656775699447
 20
-1.235988480397361
 30
0.0
 11
24.22656775699447
 21
-2.72655723039736
 31
0.0
  0
LINE
  5
716
330
1F
100
AcDbEntity
  8
TitleBlock&Notes
  6
Continuous
 62
     3
100
AcDbLine
 10
23.67526150699446
 20
-1.235988480397361
 30
0.0
 11
23.67526150699446
 21
-2.522369730397363
 31
0.0
  0
LINE
  5
717
330
1F
100
AcDbEntity
  8
TitleBlock&Notes
  6
Continuous
 62
     3
100
AcDbLine
 10
23.34856150699447
 20
-2.522369771234856
 30
0.0
 11
23.34856150699447
 21
-1.215569730397363
 31
0.0
  0
LINE
  5
718
330
1F
100
AcDbEntity
  8
TitleBlock&Notes
  6
Continuous
 62
     3
100
AcDbLine
 10
23.32814275699447
 20
-1.195150980397357
 30
0.0
 11
23.32814275699447
 21
-2.522369730397363
 31
0.0
  0
LINE
  5
719
330
1F
100
AcDbEntity
  8
TitleBlock&Notes
  6
Continuous
 62
     3
100
AcDbLine
 10
23.36898025699445
 20
-1.235988480397361
 30
0.0
 11
23.36898025699445
 21
-2.522369771234856
 31
0.0
  0
LINE
  5
71A
330
1F
100
AcDbEntity
  8
TitleBlock&Notes
  6
Continuous
 62
     3
100
AcDbLine
 10
23.89986775699442
 20
-3.053257230397369
 30
0.0
 11
23.89986775699442
 21
-1.215569730397363
 31
0.0
  0
LINE
  5
71B
330
1F
100
AcDbEntity
  8
TitleBlock&Notes
  6
Continuous
 62
     3
100
AcDbLine
 10
23.87944900699445
 20
-1.195150980397357
 30
0.0
 11
23.87944900699445
 21
-3.073675980397364
 31
0.0
  0
LINE
  5
71C
330
1F
100
AcDbEntity
  8
TitleBlock&Notes
  6
Continuous
 62
     3
100
AcDbLine
 10
23.92028650699446
 20
-3.03283848039737
 30
0.0
 11
23.92028650699446
 21
-1.235988480397361
 31
0.0
  0
LINE
  5
71D
330
1F
100
AcDbEntity
  8
TitleBlock&Notes
  6
Continuous
 62
     3
100
AcDbLine
 10
25.23729588199448
 20
-1.562688480397357
 30
0.0
 11
25.23729588199448
 21
-3.053257230397369
 31
0.0
  0
LINE
  5
71E
330
1F
100
AcDbEntity
  8
TitleBlock&Notes
  6
Continuous
 62
     3
100
AcDbLine
 10
25.21687713199444
 20
-1.583107230397352
 30
0.0
 11
25.21687713199444
 21
-3.073675980397364
 31
0.0
  0
LINE
  5
71F
330
1F
100
AcDbEntity
  8
TitleBlock&Notes
  6
Continuous
 62
     3
100
AcDbLine
 10
25.25771463199448
 20
-1.542269730397361
 30
0.0
 11
25.25771463199448
 21
-3.03283848039737
 31
0.0
  0
LINE
  5
720
330
1F
100
AcDbEntity
  8
TitleBlock&Notes
  6
Continuous
 62
     3
100
AcDbLine
 10
24.26740525699444
 20
-1.752406029022356
 30
0.0
 11
25.21687713199444
 21
-1.752406029022356
 31
0.0
  0
LINE
  5
721
330
1F
100
AcDbEntity
  8
TitleBlock&Notes
  6
Continuous
 62
     3
100
AcDbLine
 10
24.26740525699444
 20
-1.731987279022358
 30
0.0
 11
25.21687713199444
 21
-1.731987279022358
 31
0.0
  0
LINE
  5
722
330
1F
100
AcDbEntity
  8
TitleBlock&Notes
  6
Continuous
 62
     3
100
AcDbLine
 10
24.26740525699444
 20
-1.711568529022351
 30
0.0
 11
25.21687713199444
 21
-1.711568529022351
 31
0.0
  0
LINE
  5
723
330
1F
100
AcDbEntity
  8
TitleBlock&Notes
  6
Continuous
 62
     3
100
AcDbLine
 10
24.26740525699444
 20
-2.040943507784859
 30
0.0
 11
25.21687713199444
 21
-2.024370425159857
 31
0.0
  0
LINE
  5
724
330
1F
100
AcDbEntity
  8
TitleBlock&Notes
  6
Continuous
 62
     3
100
AcDbLine
 10
24.26740525699444
 20
-2.024606016697362
 30
0.0
 11
25.21687713199444
 21
-2.008032934072353
 31
0.0
  0
LINE
  5
725
330
1F
100
AcDbEntity
  8
TitleBlock&Notes
  6
Continuous
 62
     3
100
AcDbLine
 10
24.26740525699444
 20
-2.008268525609858
 30
0.0
 11
25.21687713199444
 21
-1.991695442984857
 31
0.0
  0
LINE
  5
726
330
1F
100
AcDbEntity
  8
TitleBlock&Notes
  6
Continuous
 62
     3
100
AcDbLine
 10
24.26740525699444
 20
-1.991931034522352
 30
0.0
 11
25.21687713199444
 21
-1.975357951897364
 31
0.0
  0
LINE
  5
727
330
1F
100
AcDbEntity
  8
TitleBlock&Notes
  6
Continuous
 62
     3
100
AcDbLine
 10
24.26740525699444
 20
-1.975593543434858
 30
0.0
 11
25.21687713199444
 21
-1.95902046080987
 31
0.0
  0
LINE
  5
728
330
1F
100
AcDbEntity
  8
TitleBlock&Notes
  6
Continuous
 62
     3
100
AcDbLine
 10
24.26740525699444
 20
-1.959256052347365
 30
0.0
 11
25.21687713199444
 21
-1.942682969722364
 31
0.0
  0
LINE
  5
729
330
1F
100
AcDbEntity
  8
TitleBlock&Notes
  6
Continuous
 62
     3
100
AcDbLine
 10
24.26740525699444
 20
-1.942918561259869
 30
0.0
 11
25.21687713199444
 21
-1.926345478634846
 31
0.0
  0
LINE
  5
72A
330
1F
100
AcDbEntity
  8
TitleBlock&Notes
  6
Continuous
 62
     3
100
AcDbLine
 10
24.26740525699444
 20
-1.926581111009866
 30
0.0
 11
25.21687713199444
 21
-1.910007987547353
 31
0.0
  0
LINE
  5
72B
330
1F
100
AcDbEntity
  8
TitleBlock&Notes
  6
Continuous
 62
     3
100
AcDbLine
 10
24.26740525699444
 20
-1.910243619922352
 30
0.0
 11
25.21687713199444
 21
-1.89367049645986
 31
0.0
  0
LINE
  5
72C
330
1F
100
AcDbEntity
  8
TitleBlock&Notes
  6
Continuous
 62
     3
100
AcDbLine
 10
24.26740525699444
 20
-1.893906128834858
 30
0.0
 11
25.21687713199444
 21
-1.877333005372353
 31
0.0
  0
LINE
  5
72D
330
1F
100
AcDbEntity
  8
TitleBlock&Notes
  6
Continuous
 62
     3
100
AcDbLine
 10
24.26740525699444
 20
-1.877568637747362
 30
0.0
 11
25.21687713199444
 21
-1.860995514284859
 31
0.0
  0
LINE
  5
72E
330
1F
100
AcDbEntity
  8
TitleBlock&Notes
  6
Continuous
 62
     3
100
AcDbLine
 10
24.26740525699444
 20
-2.453004132997362
 30
0.0
 11
25.21687713199444
 21
-2.436431050372361
 31
0.0
  0
LINE
  5
72F
330
1F
100
AcDbEntity
  8
TitleBlock&Notes
  6
Continuous
 62
     3
100
AcDbLine
 10
24.26740525699444
 20
-2.436666641909855
 30
0.0
 11
25.21687713199444
 21
-2.420093559284867
 31
0.0
  0
LINE
  5
730
330
1F
100
AcDbEntity
  8
TitleBlock&Notes
  6
Continuous
 62
     3
100
AcDbLine
 10
24.26740525699444
 20
-2.420329150822362
 30
0.0
 11
25.21687713199444
 21
-2.403756068197361
 31
0.0
  0
LINE
  5
731
330
1F
100
AcDbEntity
  8
TitleBlock&Notes
  6
Continuous
 62
     3
100
AcDbLine
 10
24.26740525699444
 20
-2.403991659734868
 30
0.0
 11
25.21687713199444
 21
-2.387418577109857
 31
0.0
  0
LINE
  5
732
330
1F
100
AcDbEntity
  8
TitleBlock&Notes
  6
Continuous
 62
     3
100
AcDbLine
 10
24.26740525699444
 20
-2.387654209484866
 30
0.0
 11
25.21687713199444
 21
-2.371081086022361
 31
0.0
  0
LINE
  5
733
330
1F
100
AcDbEntity
  8
TitleBlock&Notes
  6
Continuous
 62
     3
100
AcDbLine
 10
24.26740525699444
 20
-2.371316718397359
 30
0.0
 11
25.21687713199444
 21
-2.354743594934867
 31
0.0
  0
LINE
  5
734
330
1F
100
AcDbEntity
  8
TitleBlock&Notes
  6
Continuous
 62
     3
100
AcDbLine
 10
24.26740525699444
 20
-2.354979227309866
 30
0.0
 11
25.21687713199444
 21
-2.338406103847352
 31
0.0
  0
LINE
  5
735
330
1F
100
AcDbEntity
  8
TitleBlock&Notes
  6
Continuous
 62
     3
100
AcDbLine
 10
24.26740525699444
 20
-2.338641736222372
 30
0.0
 11
25.21687713199444
 21
-2.322068612759856
 31
0.0
  0
LINE
  5
736
330
1F
100
AcDbEntity
  8
TitleBlock&Notes
  6
Continuous
 62
     3
100
AcDbLine
 10
24.26740525699444
 20
-2.322304245134855
 30
0.0
 11
25.21687713199444
 21
-2.305731162509854
 31
0.0
  0
LINE
  5
737
330
1F
100
AcDbEntity
  8
TitleBlock&Notes
  6
Continuous
 62
     3
100
AcDbLine
 10
24.26740525699444
 20
-2.305966754047359
 30
0.0
 11
25.21687713199444
 21
-2.28939367142236
 31
0.0
  0
LINE
  5
738
330
1F
100
AcDbEntity
  8
TitleBlock&Notes
  6
Continuous
 62
     3
100
AcDbLine
 10
24.26740525699444
 20
-2.289629262959855
 30
0.0
 11
25.21687713199444
 21
-2.273056180334867
 31
0.0
  0
LINE
  5
739
330
1F
100
AcDbEntity
  8
TitleBlock&Notes
  6
Continuous
 62
     3
100
AcDbLine
 10
24.26740525699444
 20
-2.273291771872361
 30
0.0
 11
25.21687713199444
 21
-2.25671868924736
 31
0.0
  0
LINE
  5
73A
330
1F
100
AcDbEntity
  8
TitleBlock&Notes
  6
Continuous
 62
     3
100
AcDbLine
 10
24.26740525699444
 20
-2.256954280784865
 30
0.0
 11
25.21687713199444
 21
-2.240381198159856
 31
0.0
  0
LINE
  5
73B
330
1F
100
AcDbEntity
  8
TitleBlock&Notes
  6
Continuous
 62
     3
100
AcDbLine
 10
24.26740525699444
 20
-2.240616789697361
 30
0.0
 11
25.21687713199444
 21
-2.22404370707236
 31
0.0
  0
LINE
  5
73C
330
1F
100
AcDbEntity
  8
TitleBlock&Notes
  6
Continuous
 62
     3
100
AcDbLine
 10
24.26740525699444
 20
-2.224279298609855
 30
0.0
 11
25.21687713199444
 21
-2.207706215984867
 31
0.0
  0
LINE
  5
73D
330
1F
100
AcDbEntity
  8
TitleBlock&Notes
  6
Continuous
 62
     3
100
AcDbLine
 10
24.26740525699444
 20
-2.207941807522361
 30
0.0
 11
25.21687713199444
 21
-2.191368724897349
 31
0.0
  0
LINE
  5
73E
330
1F
100
AcDbEntity
  8
TitleBlock&Notes
  6
Continuous
 62
     3
100
AcDbLine
 10
24.26740525699444
 20
-2.191604316434865
 30
0.0
 11
25.21687713199444
 21
-2.175031233809856
 31
0.0
  0
LINE
  5
73F
330
1F
100
AcDbEntity
  8
TitleBlock&Notes
  6
Continuous
 62
     3
100
AcDbLine
 10
24.26740525699444
 20
-2.175266825347351
 30
0.0
 11
25.21687713199444
 21
-2.158693742722349
 31
0.0
  0
LINE
  5
740
330
1F
100
AcDbEntity
  8
TitleBlock&Notes
  6
Continuous
 62
     3
100
AcDbLine
 10
24.26740525699444
 20
-2.158929375097359
 30
0.0
 11
25.21687713199444
 21
-2.142356251634856
 31
0.0
  0
LINE
  5
741
330
1F
100
AcDbEntity
  8
TitleBlock&Notes
  6
Continuous
 62
     3
100
AcDbLine
 10
24.26740525699444
 20
-1.691149779022366
 30
0.0
 11
25.21687713199444
 21
-1.691149779022366
 31
0.0
  0
LINE
  5
742
330
1F
100
AcDbEntity
  8
TitleBlock&Notes
  6
Continuous
 62
     3
100
AcDbLine
 10
24.26740525699444
 20
-1.771538561122367
 30
0.0
 11
25.21687713199444
 21
-1.771538561122367
 31
0.0
  0
LINE
  5
743
330
1F
100
AcDbEntity
  8
TitleBlock&Notes
  6
Continuous
 62
     3
100
AcDbLine
 10
24.26740525699444
 20
-1.85192734322236
 30
0.0
 11
25.21687713199444
 21
-1.85192734322236
 31
0.0
  0
LINE
  5
744
330
1F
100
AcDbEntity
  8
TitleBlock&Notes
  6
Continuous
 62
     3
100
AcDbLine
 10
24.26740525699444
 20
-2.052899257634862
 30
0.0
 11
25.21687713199444
 21
-2.052899257634862
 31
0.0
  0
LINE
  5
745
330
1F
100
AcDbEntity
  8
TitleBlock&Notes
  6
Continuous
 62
     3
100
AcDbLine
 10
24.26740525699444
 20
-2.133288039734863
 30
0.0
 11
25.21687713199444
 21
-2.133288039734863
 31
0.0
  0
LINE
  5
746
330
1F
100
AcDbEntity
  8
TitleBlock&Notes
  6
Continuous
 62
     3
100
AcDbLine
 10
24.26740525699444
 20
-2.454843168134861
 30
0.0
 11
25.21687713199444
 21
-2.454843168134861
 31
0.0
  0
LINE
  5
747
330
1F
100
AcDbEntity
  8
TitleBlock&Notes
  6
Continuous
 62
     3
100
AcDbLine
 10
24.26740525699444
 20
-1.861231146659858
 30
0.0
 11
24.80042043158199
 21
-1.85192734322236
 31
0.0
  0
LINE
  5
748
330
1F
100
AcDbEntity
  8
TitleBlock&Notes
  6
Continuous
 62
     3
100
AcDbLine
 10
24.26740525699444
 20
-2.142591884009855
 30
0.0
 11
24.80042043158199
 21
-2.133288039734863
 31
0.0
  0
LINE
  5
749
330
1F
100
AcDbEntity
  8
TitleBlock&Notes
  6
Continuous
 62
     3
100
AcDbLine
 10
24.26740525699444
 20
-1.429564682722363
 30
0.0
 11
24.75745525699446
 21
-1.429564682722363
 31
0.0
  0
LINE
  5
74A
330
1F
100
AcDbEntity
  8
TitleBlock&Notes
  6
Continuous
 62
     3
100
AcDbLine
 10
24.26740525699444
 20
-1.409145932722367
 30
0.0
 11
24.75745525699446
 21
-1.409145932722367
 31
0.0
  0
LINE
  5
74B
330
1F
100
AcDbEntity
  8
TitleBlock&Notes
  6
Continuous
 62
     3
100
AcDbLine
 10
24.26740525699444
 20
-1.388727182722347
 30
0.0
 11
24.75745525699446
 21
-1.388727182722347
 31
0.0
  0
LINE
  5
74C
330
1F
100
AcDbEntity
  8
TitleBlock&Notes
  6
Continuous
 62
     3
100
AcDbLine
 10
24.26740525699444
 20
-1.449983432722358
 30
0.0
 11
24.75745525699446
 21
-1.449983432722358
 31
0.0
  0
LINE
  5
74D
330
1F
100
AcDbEntity
  8
TitleBlock&Notes
  6
Continuous
 62
     3
100
AcDbLine
 10
23.89986775699442
 20
-1.215569730397363
 30
0.0
 11
24.24698650699447
 21
-1.215569730397363
 31
0.0
  0
LINE
  5
74E
330
1F
100
AcDbEntity
  8
TitleBlock&Notes
  6
Continuous
 62
     3
100
AcDbLine
 10
23.87944900699445
 20
-1.195150980397357
 30
0.0
 11
24.26740525699444
 21
-1.195150980397357
 31
0.0
  0
LINE
  5
74F
330
1F
100
AcDbEntity
  8
TitleBlock&Notes
  6
Continuous
 62
     3
100
AcDbLine
 10
23.92028650699446
 20
-1.235988480397361
 30
0.0
 11
24.22656775699447
 21
-1.235988480397361
 31
0.0
  0
LINE
  5
750
330
1F
100
AcDbEntity
  8
TitleBlock&Notes
  6
Continuous
 62
     3
100
AcDbLine
 10
23.34856150699447
 20
-1.215569730397363
 30
0.0
 11
23.6956802569945
 21
-1.215569730397363
 31
0.0
  0
LINE
  5
751
330
1F
100
AcDbEntity
  8
TitleBlock&Notes
  6
Continuous
 62
     3
100
AcDbLine
 10
23.71609900699447
 20
-1.195150980397357
 30
0.0
 11
23.32814275699447
 21
-1.195150980397357
 31
0.0
  0
LINE
  5
752
330
1F
100
AcDbEntity
  8
TitleBlock&Notes
  6
Continuous
 62
     3
100
AcDbLine
 10
23.67526150699446
 20
-1.235988480397361
 30
0.0
 11
23.36898025699445
 21
-1.235988480397361
 31
0.0
  0
LINE
  5
753
330
1F
100
AcDbEntity
  8
TitleBlock&Notes
  6
Continuous
 62
     3
100
AcDbLine
 10
23.87944900699445
 20
-1.731987279022358
 30
0.0
 11
23.71609900699447
 21
-1.731987279022358
 31
0.0
  0
LINE
  5
754
330
1F
100
AcDbEntity
  8
TitleBlock&Notes
  6
Continuous
 62
     3
100
AcDbLine
 10
23.87944900699445
 20
-1.711568529022351
 30
0.0
 11
23.71609900699447
 21
-1.711568529022351
 31
0.0
  0
LINE
  5
755
330
1F
100
AcDbEntity
  8
TitleBlock&Notes
  6
Continuous
 62
     3
100
AcDbLine
 10
23.87944900699445
 20
-1.429564682722363
 30
0.0
 11
23.71609900699447
 21
-1.429564682722363
 31
0.0
  0
LINE
  5
756
330
1F
100
AcDbEntity
  8
TitleBlock&Notes
  6
Continuous
 62
     3
100
AcDbLine
 10
23.87944900699445
 20
-1.409145932722367
 30
0.0
 11
23.71609900699447
 21
-1.409145932722367
 31
0.0
  0
LINE
  5
757
330
1F
100
AcDbEntity
  8
TitleBlock&Notes
  6
Continuous
 62
     3
100
AcDbLine
 10
23.87944900699445
 20
-1.388727182722347
 30
0.0
 11
23.71609900699447
 21
-1.388727182722347
 31
0.0
  0
LINE
  5
758
330
1F
100
AcDbEntity
  8
TitleBlock&Notes
  6
Continuous
 62
     3
100
AcDbLine
 10
23.87944900699445
 20
-1.449983432722358
 30
0.0
 11
23.71609900699447
 21
-1.449983432722358
 31
0.0
  0
LINE
  5
759
330
1F
100
AcDbEntity
  8
TitleBlock&Notes
  6
Continuous
 62
     3
100
AcDbLine
 10
23.87944900699445
 20
-1.691149779022366
 30
0.0
 11
23.71609900699447
 21
-1.691149779022366
 31
0.0
  0
LINE
  5
75A
330
1F
100
AcDbEntity
  8
TitleBlock&Notes
  6
Continuous
 62
     3
100
AcDbLine
 10
23.87944900699445
 20
-1.752406029022356
 30
0.0
 11
23.71609900699447
 21
-1.752406029022356
 31
0.0
  0
LINE
  5
75B
330
1F
100
AcDbEntity
  8
TitleBlock&Notes
  6
Continuous
 62
     3
100
AcDbLine
 10
23.87944900699445
 20
-1.771538561122367
 30
0.0
 11
23.71609900699447
 21
-1.771538561122367
 31
0.0
  0
LINE
  5
75C
330
1F
100
AcDbEntity
  8
TitleBlock&Notes
  6
Continuous
 62
     3
100
AcDbLine
 10
23.71609900699447
 20
-2.446289753759851
 30
0.0
 11
23.87944900699445
 21
-2.443438438672357
 31
0.0
  0
LINE
  5
75D
330
1F
100
AcDbEntity
  8
TitleBlock&Notes
  6
Continuous
 62
     3
100
AcDbLine
 10
23.87944900699445
 20
-2.454843168134861
 30
0.0
 11
23.71609900699447
 21
-2.454843168134861
 31
0.0
  0
LINE
  5
75E
330
1F
100
AcDbEntity
  8
TitleBlock&Notes
  6
Continuous
 62
     3
100
AcDbLine
 10
23.71609900699447
 20
-2.050566578797361
 30
0.0
 11
23.87944900699445
 21
-2.04771530454736
 31
0.0
  0
LINE
  5
75F
330
1F
100
AcDbEntity
  8
TitleBlock&Notes
  6
Continuous
 62
     3
100
AcDbLine
 10
23.71609900699447
 20
-2.034229087709867
 30
0.0
 11
23.87944900699445
 21
-2.031377813459854
 31
0.0
  0
LINE
  5
760
330
1F
100
AcDbEntity
  8
TitleBlock&Notes
  6
Continuous
 62
     3
100
AcDbLine
 10
23.71609900699447
 20
-2.017891637459854
 30
0.0
 11
23.87944900699445
 21
-2.01504032237236
 31
0.0
  0
LINE
  5
761
330
1F
100
AcDbEntity
  8
TitleBlock&Notes
  6
Continuous
 62
     3
100
AcDbLine
 10
23.71609900699447
 20
-2.001554146372358
 30
0.0
 11
23.87944900699445
 21
-1.998702831284867
 31
0.0
  0
LINE
  5
762
330
1F
100
AcDbEntity
  8
TitleBlock&Notes
  6
Continuous
 62
     3
100
AcDbLine
 10
23.71609900699447
 20
-1.985216655284854
 30
0.0
 11
23.87944900699445
 21
-1.98236534019736
 31
0.0
  0
LINE
  5
763
330
1F
100
AcDbEntity
  8
TitleBlock&Notes
  6
Continuous
 62
     3
100
AcDbLine
 10
23.71609900699447
 20
-1.968879164197358
 30
0.0
 11
23.87944900699445
 21
-1.966027889947347
 31
0.0
  0
LINE
  5
764
330
1F
100
AcDbEntity
  8
TitleBlock&Notes
  6
Continuous
 62
     3
100
AcDbLine
 10
23.71609900699447
 20
-1.952541673109864
 30
0.0
 11
23.87944900699445
 21
-1.949690398859853
 31
0.0
  0
LINE
  5
765
330
1F
100
AcDbEntity
  8
TitleBlock&Notes
  6
Continuous
 62
     3
100
AcDbLine
 10
23.71609900699447
 20
-1.936204182022358
 30
0.0
 11
23.87944900699445
 21
-1.933352907772357
 31
0.0
  0
LINE
  5
766
330
1F
100
AcDbEntity
  8
TitleBlock&Notes
  6
Continuous
 62
     3
100
AcDbLine
 10
23.71609900699447
 20
-1.919866690934854
 30
0.0
 11
23.87944900699445
 21
-1.917015416684853
 31
0.0
  0
LINE
  5
767
330
1F
100
AcDbEntity
  8
TitleBlock&Notes
  6
Continuous
 62
     3
100
AcDbLine
 10
23.71609900699447
 20
-1.90352919984736
 30
0.0
 11
23.87944900699445
 21
-1.90067792559736
 31
0.0
  0
LINE
  5
768
330
1F
100
AcDbEntity
  8
TitleBlock&Notes
  6
Continuous
 62
     3
100
AcDbLine
 10
23.71609900699447
 20
-1.887191708759864
 30
0.0
 11
23.87944900699445
 21
-1.884340434509853
 31
0.0
  0
LINE
  5
769
330
1F
100
AcDbEntity
  8
TitleBlock&Notes
  6
Continuous
 62
     3
100
AcDbLine
 10
23.71609900699447
 20
-1.870854217672371
 30
0.0
 11
23.87944900699445
 21
-1.86800294342236
 31
0.0
  0
LINE
  5
76A
330
1F
100
AcDbEntity
  8
TitleBlock&Notes
  6
Continuous
 62
     3
100
AcDbLine
 10
23.71609900699447
 20
-1.854516726584864
 30
0.0
 11
23.86444637126947
 21
-1.85192734322236
 31
0.0
  0
LINE
  5
76B
330
1F
100
AcDbEntity
  8
TitleBlock&Notes
  6
Continuous
 62
     3
100
AcDbLine
 10
23.71609900699447
 20
-2.429952262672357
 30
0.0
 11
23.87944900699445
 21
-2.427100988422357
 31
0.0
  0
LINE
  5
76C
330
1F
100
AcDbEntity
  8
TitleBlock&Notes
  6
Continuous
 62
     3
100
AcDbLine
 10
23.71609900699447
 20
-2.413614771584861
 30
0.0
 11
23.87944900699445
 21
-2.410763497334861
 31
0.0
  0
LINE
  5
76D
330
1F
100
AcDbEntity
  8
TitleBlock&Notes
  6
Continuous
 62
     3
100
AcDbLine
 10
23.71609900699447
 20
-2.397277280497357
 30
0.0
 11
23.87944900699445
 21
-2.394426006247368
 31
0.0
  0
LINE
  5
76E
330
1F
100
AcDbEntity
  8
TitleBlock&Notes
  6
Continuous
 62
     3
100
AcDbLine
 10
23.71609900699447
 20
-2.38093978940985
 30
0.0
 11
23.87944900699445
 21
-2.37808851515985
 31
0.0
  0
LINE
  5
76F
330
1F
100
AcDbEntity
  8
TitleBlock&Notes
  6
Continuous
 62
     3
100
AcDbLine
 10
23.71609900699447
 20
-2.364602298322357
 30
0.0
 11
23.87944900699445
 21
-2.361751024072357
 31
0.0
  0
LINE
  5
770
330
1F
100
AcDbEntity
  8
TitleBlock&Notes
  6
Continuous
 62
     3
100
AcDbLine
 10
23.71609900699447
 20
-2.348264807234864
 30
0.0
 11
23.87944900699445
 21
-2.34541353298485
 31
0.0
  0
LINE
  5
771
330
1F
100
AcDbEntity
  8
TitleBlock&Notes
  6
Continuous
 62
     3
100
AcDbLine
 10
23.71609900699447
 20
-2.331927316147368
 30
0.0
 11
23.87944900699445
 21
-2.329076041897357
 31
0.0
  0
LINE
  5
772
330
1F
100
AcDbEntity
  8
TitleBlock&Notes
  6
Continuous
 62
     3
100
AcDbLine
 10
23.71609900699447
 20
-2.315589825059864
 30
0.0
 11
23.87944900699445
 21
-2.312738550809863
 31
0.0
  0
LINE
  5
773
330
1F
100
AcDbEntity
  8
TitleBlock&Notes
  6
Continuous
 62
     3
100
AcDbLine
 10
23.71609900699447
 20
-2.299252333972346
 30
0.0
 11
23.87944900699445
 21
-2.296401059722357
 31
0.0
  0
LINE
  5
774
330
1F
100
AcDbEntity
  8
TitleBlock&Notes
  6
Continuous
 62
     3
100
AcDbLine
 10
23.71609900699447
 20
-2.282914842884864
 30
0.0
 11
23.87944900699445
 21
-2.280063568634863
 31
0.0
  0
LINE
  5
775
330
1F
100
AcDbEntity
  8
TitleBlock&Notes
  6
Continuous
 62
     3
100
AcDbLine
 10
23.71609900699447
 20
-2.266577351797367
 30
0.0
 11
23.87944900699445
 21
-2.263726077547357
 31
0.0
  0
LINE
  5
776
330
1F
100
AcDbEntity
  8
TitleBlock&Notes
  6
Continuous
 62
     3
100
AcDbLine
 10
23.71609900699447
 20
-2.250239901547354
 30
0.0
 11
23.87944900699445
 21
-2.247388586459863
 31
0.0
  0
LINE
  5
777
330
1F
100
AcDbEntity
  8
TitleBlock&Notes
  6
Continuous
 62
     3
100
AcDbLine
 10
23.71609900699447
 20
-2.23390241045985
 30
0.0
 11
23.87944900699445
 21
-2.23105109537237
 31
0.0
  0
LINE
  5
778
330
1F
100
AcDbEntity
  8
TitleBlock&Notes
  6
Continuous
 62
     3
100
AcDbLine
 10
23.71609900699447
 20
-2.217564919372357
 30
0.0
 11
23.87944900699445
 21
-2.214713604284863
 31
0.0
  0
LINE
  5
779
330
1F
100
AcDbEntity
  8
TitleBlock&Notes
  6
Continuous
 62
     3
100
AcDbLine
 10
23.71609900699447
 20
-2.201227428284861
 30
0.0
 11
23.87944900699445
 21
-2.198376113197346
 31
0.0
  0
LINE
  5
77A
330
1F
100
AcDbEntity
  8
TitleBlock&Notes
  6
Continuous
 62
     3
100
AcDbLine
 10
23.71609900699447
 20
-2.184889937197367
 30
0.0
 11
23.87944900699445
 21
-2.182038662947356
 31
0.0
  0
LINE
  5
77B
330
1F
100
AcDbEntity
  8
TitleBlock&Notes
  6
Continuous
 62
     3
100
AcDbLine
 10
23.71609900699447
 20
-2.168552446109861
 30
0.0
 11
23.87944900699445
 21
-2.16570117185986
 31
0.0
  0
LINE
  5
77C
330
1F
100
AcDbEntity
  8
TitleBlock&Notes
  6
Continuous
 62
     3
100
AcDbLine
 10
23.71609900699447
 20
-2.152214955022357
 30
0.0
 11
23.87944900699445
 21
-2.149363680772356
 31
0.0
  0
LINE
  5
77D
330
1F
100
AcDbEntity
  8
TitleBlock&Notes
  6
Continuous
 62
     3
100
AcDbLine
 10
23.71609900699447
 20
-2.13587746393486
 30
0.0
 11
23.86444637126947
 21
-2.133288039734863
 31
0.0
  0
LINE
  5
77E
330
1F
100
AcDbEntity
  8
TitleBlock&Notes
  6
Continuous
 62
     3
100
AcDbLine
 10
23.87944900699445
 20
-1.85192734322236
 30
0.0
 11
23.71609900699447
 21
-1.85192734322236
 31
0.0
  0
LINE
  5
77F
330
1F
100
AcDbEntity
  8
TitleBlock&Notes
  6
Continuous
 62
     3
100
AcDbLine
 10
23.87944900699445
 20
-2.052899257634862
 30
0.0
 11
23.71609900699447
 21
-2.052899257634862
 31
0.0
  0
LINE
  5
780
330
1F
100
AcDbEntity
  8
TitleBlock&Notes
  6
Continuous
 62
     3
100
AcDbLine
 10
23.87944900699445
 20
-2.133288039734863
 30
0.0
 11
23.71609900699447
 21
-2.133288039734863
 31
0.0
  0
LINE
  5
781
330
1F
100
AcDbEntity
  8
TitleBlock&Notes
  6
Continuous
 62
     3
100
AcDbLine
 10
24.77787400699444
 20
-1.562688480397357
 30
0.0
 11
25.23729588199448
 21
-1.562688480397357
 31
0.0
  0
LINE
  5
782
330
1F
100
AcDbEntity
  8
TitleBlock&Notes
  6
Continuous
 62
     3
100
AcDbLine
 10
24.75745525699446
 20
-1.583107230397352
 30
0.0
 11
25.21687713199444
 21
-1.583107230397352
 31
0.0
  0
LINE
  5
783
330
1F
100
AcDbEntity
  8
TitleBlock&Notes
  6
Continuous
 62
     3
100
AcDbLine
 10
24.77787400699444
 20
-1.215569730397363
 30
0.0
 11
24.77787400699444
 21
-1.562688480397357
 31
0.0
  0
LINE
  5
784
330
1F
100
AcDbEntity
  8
TitleBlock&Notes
  6
Continuous
 62
     3
100
AcDbLine
 10
24.75745525699446
 20
-1.195150980397357
 30
0.0
 11
24.75745525699446
 21
-1.583107230397352
 31
0.0
  0
LINE
  5
785
330
1F
100
AcDbEntity
  8
TitleBlock&Notes
  6
Continuous
 62
     3
100
AcDbLine
 10
24.79829275699448
 20
-1.542269730397361
 30
0.0
 11
24.79829275699448
 21
-1.235988480397361
 31
0.0
  0
LINE
  5
786
330
1F
100
AcDbEntity
  8
TitleBlock&Notes
  6
Continuous
 62
     3
100
AcDbLine
 10
24.79829275699448
 20
-1.542269730397361
 30
0.0
 11
25.25771463199448
 21
-1.542269730397361
 31
0.0
  0
LINE
  5
787
330
1F
100
AcDbEntity
  8
TitleBlock&Notes
  6
Continuous
 62
     3
100
AcDbLine
 10
25.09802158928197
 20
-2.454843168134861
 30
0.0
 11
25.21687713199444
 21
-2.452768541459857
 31
0.0
  0
LINE
  5
788
330
1F
100
AcDbEntity
  8
TitleBlock&Notes
  6
Continuous
 62
     3
100
AcDbLine
 10
24.51843410456945
 20
-2.052899257634862
 30
0.0
 11
25.21687713199444
 21
-2.040707916247364
 31
0.0
  0
LINE
  5
789
330
1F
100
AcDbEntity
  8
TitleBlock&Notes
  6
Continuous
 62
     3
100
AcDbLine
 10
24.26740525699444
 20
-2.682926731259864
 30
0.0
 11
25.21687713199444
 21
-2.666353648634863
 31
0.0
  0
LINE
  5
78A
330
1F
100
AcDbEntity
  8
TitleBlock&Notes
  6
Continuous
 62
     3
100
AcDbLine
 10
24.26740525699444
 20
-2.666589281009851
 30
0.0
 11
25.21687713199444
 21
-2.650016157547369
 31
0.0
  0
LINE
  5
78B
330
1F
100
AcDbEntity
  8
TitleBlock&Notes
  6
Continuous
 62
     3
100
AcDbLine
 10
24.26740525699444
 20
-2.650251789922354
 30
0.0
 11
25.21687713199444
 21
-2.633678666459852
 31
0.0
  0
LINE
  5
78C
330
1F
100
AcDbEntity
  8
TitleBlock&Notes
  6
Continuous
 62
     3
100
AcDbLine
 10
24.26740525699444
 20
-2.63391429883485
 30
0.0
 11
25.21687713199444
 21
-2.617341175372358
 31
0.0
  0
LINE
  5
78D
330
1F
100
AcDbEntity
  8
TitleBlock&Notes
  6
Continuous
 62
     3
100
AcDbLine
 10
24.26740525699444
 20
-2.617576807747354
 30
0.0
 11
25.21687713199444
 21
-2.601003684284862
 31
0.0
  0
LINE
  5
78E
330
1F
100
AcDbEntity
  8
TitleBlock&Notes
  6
Continuous
 62
     3
100
AcDbLine
 10
24.26740525699444
 20
-2.601239316659861
 30
0.0
 11
25.21687713199444
 21
-2.584666234034862
 31
0.0
  0
LINE
  5
78F
330
1F
100
AcDbEntity
  8
TitleBlock&Notes
  6
Continuous
 62
     3
100
AcDbLine
 10
24.26740525699444
 20
-2.584901825572357
 30
0.0
 11
25.21687713199444
 21
-2.568328742947356
 31
0.0
  0
LINE
  5
790
330
1F
100
AcDbEntity
  8
TitleBlock&Notes
  6
Continuous
 62
     3
100
AcDbLine
 10
24.26740525699444
 20
-2.568564334484861
 30
0.0
 11
25.21687713199444
 21
-2.551991251859862
 31
0.0
  0
LINE
  5
791
330
1F
100
AcDbEntity
  8
TitleBlock&Notes
  6
Continuous
 62
     3
100
AcDbLine
 10
24.26740525699444
 20
-2.552226843397357
 30
0.0
 11
25.21687713199444
 21
-2.535653760772366
 31
0.0
  0
LINE
  5
792
330
1F
100
AcDbEntity
  8
TitleBlock&Notes
  6
Continuous
 62
     3
100
AcDbLine
 10
24.26740525699444
 20
-2.535231950234852
 30
0.0
 11
25.21687713199444
 21
-2.535231950234852
 31
0.0
  0
LINE
  5
793
330
1F
100
AcDbEntity
  8
TitleBlock&Notes
  6
Continuous
 62
     3
100
AcDbLine
 10
25.04331775699443
 20
-2.685719730397366
 30
0.0
 11
24.26740525699444
 21
-2.685719730397366
 31
0.0
  0
LINE
  5
794
330
1F
100
AcDbEntity
  8
TitleBlock&Notes
  6
Continuous
 62
     3
100
AcDbLine
 10
25.02289900699446
 20
-2.706138480397362
 30
0.0
 11
24.24698650699447
 21
-2.706138480397362
 31
0.0
  0
LINE
  5
795
330
1F
100
AcDbEntity
  8
TitleBlock&Notes
  6
Continuous
 62
     3
100
AcDbLine
 10
24.22656775699447
 20
-2.72655723039736
 30
0.0
 11
25.00248025699447
 21
-2.72655723039736
 31
0.0
  0
LINE
  5
796
330
1F
100
AcDbEntity
  8
TitleBlock&Notes
  6
Continuous
 62
     3
100
AcDbLine
 10
23.87944900699445
 20
-3.073675980397364
 30
0.0
 11
25.04331775699443
 21
-3.073675980397364
 31
0.0
  0
LINE
  5
797
330
1F
100
AcDbEntity
  8
TitleBlock&Notes
  6
Continuous
 62
     3
100
AcDbLine
 10
25.02289900699446
 20
-3.053257230397369
 30
0.0
 11
23.89986775699442
 21
-3.053257230397369
 31
0.0
  0
LINE
  5
798
330
1F
100
AcDbEntity
  8
TitleBlock&Notes
  6
Continuous
 62
     3
100
AcDbLine
 10
23.92028650699446
 20
-3.03283848039737
 30
0.0
 11
25.00248025699447
 21
-3.03283848039737
 31
0.0
  0
LINE
  5
799
330
1F
100
AcDbEntity
  8
TitleBlock&Notes
  6
Continuous
 62
     3
100
AcDbLine
 10
24.26740525699444
 20
-2.535889352309861
 30
0.0
 11
24.30506804974445
 21
-2.535231950234852
 31
0.0
  0
LINE
  5
79A
330
1F
100
AcDbEntity
  8
TitleBlock&Notes
  6
Continuous
 62
     3
100
AcDbLine
 10
23.64577581105695
 20
-2.791802242372359
 30
0.0
 11
23.87944900699445
 21
-2.787723474547363
 31
0.0
  0
LINE
  5
79B
330
1F
100
AcDbEntity
  8
TitleBlock&Notes
  6
Continuous
 62
     3
100
AcDbLine
 10
23.65464971813199
 20
-2.775309895484856
 30
0.0
 11
23.87944900699445
 21
-2.771385983459859
 31
0.0
  0
LINE
  5
79C
330
1F
100
AcDbEntity
  8
TitleBlock&Notes
  6
Continuous
 62
     3
100
AcDbLine
 10
23.66281399196947
 20
-2.758829881522362
 30
0.0
 11
23.87944900699445
 21
-2.755048492372353
 31
0.0
  0
LINE
  5
79D
330
1F
100
AcDbEntity
  8
TitleBlock&Notes
  6
Continuous
 62
     3
100
AcDbLine
 10
23.67030448789444
 20
-2.742361628759863
 30
0.0
 11
23.87944900699445
 21
-2.738711001284859
 31
0.0
  0
LINE
  5
79E
330
1F
100
AcDbEntity
  8
TitleBlock&Notes
  6
Continuous
 62
     3
100
AcDbLine
 10
23.67715211989449
 20
-2.725904647147364
 30
0.0
 11
23.87944900699445
 21
-2.722373510197366
 31
0.0
  0
LINE
  5
79F
330
1F
100
AcDbEntity
  8
TitleBlock&Notes
  6
Continuous
 62
     3
100
AcDbLine
 10
23.68338355485698
 20
-2.70945836495986
 30
0.0
 11
23.87944900699445
 21
-2.706036059947363
 31
0.0
  0
LINE
  5
7A0
330
1F
100
AcDbEntity
  8
TitleBlock&Notes
  6
Continuous
 62
     3
100
AcDbLine
 10
23.68902190680697
 20
-2.693022455497365
 30
0.0
 11
23.87944900699445
 21
-2.689698568859846
 31
0.0
  0
LINE
  5
7A1
330
1F
100
AcDbEntity
  8
TitleBlock&Notes
  6
Continuous
 62
     3
100
AcDbLine
 10
23.69408722695696
 20
-2.676596551222353
 30
0.0
 11
23.87944900699445
 21
-2.673361077772352
 31
0.0
  0
LINE
  5
7A2
330
1F
100
AcDbEntity
  8
TitleBlock&Notes
  6
Continuous
 62
     3
100
AcDbLine
 10
23.69859683040697
 20
-2.660180366272356
 30
0.0
 11
23.87944900699445
 21
-2.657023586684859
 31
0.0
  0
LINE
  5
7A3
330
1F
100
AcDbEntity
  8
TitleBlock&Notes
  6
Continuous
 62
     3
100
AcDbLine
 10
23.70256562284448
 20
-2.643773614784869
 30
0.0
 11
23.87944900699445
 21
-2.640686095597363
 31
0.0
  0
LINE
  5
7A4
330
1F
100
AcDbEntity
  8
TitleBlock&Notes
  6
Continuous
 62
     3
100
AcDbLine
 10
23.70600642724446
 20
-2.627376051734859
 30
0.0
 11
23.87944900699445
 21
-2.624348604509859
 31
0.0
  0
LINE
  5
7A5
330
1F
100
AcDbEntity
  8
TitleBlock&Notes
  6
Continuous
 62
     3
100
AcDbLine
 10
23.70893010638195
 20
-2.610987513772351
 30
0.0
 11
23.87944900699445
 21
-2.608011113422352
 31
0.0
  0
LINE
  5
7A6
330
1F
100
AcDbEntity
  8
TitleBlock&Notes
  6
Continuous
 62
     3
100
AcDbLine
 10
23.71134580785696
 20
-2.594607878384856
 30
0.0
 11
23.87944900699445
 21
-2.591673622334859
 31
0.0
  0
LINE
  5
7A7
330
1F
100
AcDbEntity
  8
TitleBlock&Notes
  6
Continuous
 62
     3
100
AcDbLine
 10
23.713261004932
 20
-2.578236941384851
 30
0.0
 11
23.87944900699445
 21
-2.575336131247363
 31
0.0
  0
LINE
  5
7A8
330
1F
100
AcDbEntity
  8
TitleBlock&Notes
  6
Continuous
 62
     3
100
AcDbLine
 10
23.71468178239445
 20
-2.561874661934862
 30
0.0
 11
23.87944900699445
 21
-2.558998640159859
 31
0.0
  0
LINE
  5
7A9
330
1F
100
AcDbEntity
  8
TitleBlock&Notes
  6
Continuous
 62
     3
100
AcDbLine
 10
23.71561267320699
 20
-2.545520917522365
 30
0.0
 11
23.87944900699445
 21
-2.542661149072365
 31
0.0
  0
LINE
  5
7AA
330
1F
100
AcDbEntity
  8
TitleBlock&Notes
  6
Continuous
 62
     3
100
AcDbLine
 10
23.87944900699445
 20
-2.535231950234852
 30
0.0
 11
23.71594892918195
 21
-2.535231950234852
 31
0.0
  0
LINE
  5
7AB
330
1F
100
AcDbEntity
  8
TitleBlock&Notes
  6
Continuous
 62
     3
100
AcDbLine
 10
23.63615037146947
 20
-2.808307779772352
 30
0.0
 11
23.87944900699445
 21
-2.804060965634859
 31
0.0
  0
LINE
  5
7AC
330
1F
100
AcDbEntity
  8
TitleBlock&Notes
  6
Continuous
 62
     3
100
AcDbLine
 10
23.28933839276945
 20
-3.05942369289736
 30
0.0
 11
23.87944900699445
 21
-3.04912329110986
 31
0.0
  0
LINE
  5
7AD
330
1F
100
AcDbEntity
  8
TitleBlock&Notes
  6
Continuous
 62
     3
100
AcDbLine
 10
23.34884026376948
 20
-3.042047622509852
 30
0.0
 11
23.87944900699445
 21
-3.032785800022364
 31
0.0
  0
LINE
  5
7AE
330
1F
100
AcDbEntity
  8
TitleBlock&Notes
  6
Continuous
 62
     3
100
AcDbLine
 10
23.39136210645694
 20
-3.024967909859865
 30
0.0
 11
23.87944900699445
 21
-3.016448308934871
 31
0.0
  0
LINE
  5
7AF
330
1F
100
AcDbEntity
  8
TitleBlock&Notes
  6
Continuous
 62
     3
100
AcDbLine
 10
23.42569819478196
 20
-3.008031087622351
 30
0.0
 11
23.87944900699445
 21
-3.000110817847353
 31
0.0
  0
LINE
  5
7B0
330
1F
100
AcDbEntity
  8
TitleBlock&Notes
  6
Continuous
 62
     3
100
AcDbLine
 10
23.45488169321948
 20
-2.991184189559858
 30
0.0
 11
23.87944900699445
 21
-2.983773326759849
 31
0.0
  0
LINE
  5
7B1
330
1F
100
AcDbEntity
  8
TitleBlock&Notes
  6
Continuous
 62
     3
100
AcDbLine
 10
23.48039696321948
 20
-2.974401324697359
 30
0.0
 11
23.87944900699445
 21
-2.967435835672353
 31
0.0
  0
LINE
  5
7B2
330
1F
100
AcDbEntity
  8
TitleBlock&Notes
  6
Continuous
 62
     3
100
AcDbLine
 10
23.50310392001949
 20
-2.957667505672357
 30
0.0
 11
23.87944900699445
 21
-2.95109834458486
 31
0.0
  0
LINE
  5
7B3
330
1F
100
AcDbEntity
  8
TitleBlock&Notes
  6
Continuous
 62
     3
100
AcDbLine
 10
23.52355431908194
 20
-2.940973053997361
 30
0.0
 11
23.87944900699445
 21
-2.934760894334857
 31
0.0
  0
LINE
  5
7B4
330
1F
100
AcDbEntity
  8
TitleBlock&Notes
  6
Continuous
 62
     3
100
AcDbLine
 10
23.54212749994442
 20
-2.924311353997359
 30
0.0
 11
23.87944900699445
 21
-2.918423403247364
 31
0.0
  0
LINE
  5
7B5
330
1F
100
AcDbEntity
  8
TitleBlock&Notes
  6
Continuous
 62
     3
100
AcDbLine
 10
23.55909768641942
 20
-2.907677668522358
 30
0.0
 11
23.87944900699445
 21
-2.902085912159857
 31
0.0
  0
LINE
  5
7B6
330
1F
100
AcDbEntity
  8
TitleBlock&Notes
  6
Continuous
 62
     3
100
AcDbLine
 10
23.57467069950696
 20
-2.891068322197357
 30
0.0
 11
23.87944900699445
 21
-2.885748421072364
 31
0.0
  0
LINE
  5
7B7
330
1F
100
AcDbEntity
  8
TitleBlock&Notes
  6
Continuous
 62
     3
100
AcDbLine
 10
23.58900556043193
 20
-2.874480619747368
 30
0.0
 11
23.87944900699445
 21
-2.86941092998487
 31
0.0
  0
LINE
  5
7B8
330
1F
100
AcDbEntity
  8
TitleBlock&Notes
  6
Continuous
 62
     3
100
AcDbLine
 10
23.60222817120699
 20
-2.857912355947362
 30
0.0
 11
23.87944900699445
 21
-2.853073438897363
 31
0.0
  0
LINE
  5
7B9
330
1F
100
AcDbEntity
  8
TitleBlock&Notes
  6
Continuous
 62
     3
100
AcDbLine
 10
23.61444005385698
 20
-2.841361693109859
 30
0.0
 11
23.87944900699445
 21
-2.836735947809849
 31
0.0
  0
LINE
  5
7BA
330
1F
100
AcDbEntity
  8
TitleBlock&Notes
  6
Continuous
 62
     3
100
AcDbLine
 10
23.62572447604448
 20
-2.824827242759855
 30
0.0
 11
23.87944900699445
 21
-2.820398456722353
 31
0.0
  0
LINE
  5
7BB
330
1F
100
AcDbEntity
  8
TitleBlock&Notes
  6
Continuous
 62
     3
100
AcDbLine
 10
25.04331775699443
 20
-2.816420557522362
 30
0.0
 11
25.21687713199444
 21
-2.813391068422356
 31
0.0
  0
LINE
  5
7BC
330
1F
100
AcDbEntity
  8
TitleBlock&Notes
  6
Continuous
 62
     3
100
AcDbLine
 10
25.04331775699443
 20
-2.800083066434869
 30
0.0
 11
25.21687713199444
 21
-2.79705357733485
 31
0.0
  0
LINE
  5
7BD
330
1F
100
AcDbEntity
  8
TitleBlock&Notes
  6
Continuous
 62
     3
100
AcDbLine
 10
25.04331775699443
 20
-2.783745575347362
 30
0.0
 11
25.21687713199444
 21
-2.780716086247356
 31
0.0
  0
LINE
  5
7BE
330
1F
100
AcDbEntity
  8
TitleBlock&Notes
  6
Continuous
 62
     3
100
AcDbLine
 10
25.04331775699443
 20
-2.767408084259847
 30
0.0
 11
25.21687713199444
 21
-2.764378595159863
 31
0.0
  0
LINE
  5
7BF
330
1F
100
AcDbEntity
  8
TitleBlock&Notes
  6
Continuous
 62
     3
100
AcDbLine
 10
25.04331775699443
 20
-2.751070593172354
 30
0.0
 11
25.21687713199444
 21
-2.748041104072356
 31
0.0
  0
LINE
  5
7C0
330
1F
100
AcDbEntity
  8
TitleBlock&Notes
  6
Continuous
 62
     3
100
AcDbLine
 10
25.04331775699443
 20
-2.734733102084858
 30
0.0
 11
25.21687713199444
 21
-2.731703612984863
 31
0.0
  0
LINE
  5
7C1
330
1F
100
AcDbEntity
  8
TitleBlock&Notes
  6
Continuous
 62
     3
100
AcDbLine
 10
25.04331775699443
 20
-2.718395610997364
 30
0.0
 11
25.21687713199444
 21
-2.715366121897356
 31
0.0
  0
LINE
  5
7C2
330
1F
100
AcDbEntity
  8
TitleBlock&Notes
  6
Continuous
 62
     3
100
AcDbLine
 10
25.04331775699443
 20
-2.702058119909858
 30
0.0
 11
25.21687713199444
 21
-2.699028630809863
 31
0.0
  0
LINE
  5
7C3
330
1F
100
AcDbEntity
  8
TitleBlock&Notes
  6
Continuous
 62
     3
100
AcDbLine
 10
25.04331775699443
 20
-2.685720628822354
 30
0.0
 11
25.21687713199444
 21
-2.682691139722369
 31
0.0
  0
LINE
  5
7C4
330
1F
100
AcDbEntity
  8
TitleBlock&Notes
  6
Continuous
 62
     3
100
AcDbLine
 10
25.04331775699443
 20
-3.061482882997352
 30
0.0
 11
25.21687713199444
 21
-3.058453393897357
 31
0.0
  0
LINE
  5
7C5
330
1F
100
AcDbEntity
  8
TitleBlock&Notes
  6
Continuous
 62
     3
100
AcDbLine
 10
25.04331775699443
 20
-3.045145391909859
 30
0.0
 11
25.21687713199444
 21
-3.042115902809861
 31
0.0
  0
LINE
  5
7C6
330
1F
100
AcDbEntity
  8
TitleBlock&Notes
  6
Continuous
 62
     3
100
AcDbLine
 10
25.04331775699443
 20
-3.028807900822362
 30
0.0
 11
25.21687713199444
 21
-3.025778411722357
 31
0.0
  0
LINE
  5
7C7
330
1F
100
AcDbEntity
  8
TitleBlock&Notes
  6
Continuous
 62
     3
100
AcDbLine
 10
25.04331775699443
 20
-3.012470409734858
 30
0.0
 11
25.21687713199444
 21
-3.009440920634864
 31
0.0
  0
LINE
  5
7C8
330
1F
100
AcDbEntity
  8
TitleBlock&Notes
  6
Continuous
 62
     3
100
AcDbLine
 10
25.04331775699443
 20
-2.996132918647365
 30
0.0
 11
25.21687713199444
 21
-2.993103429547367
 31
0.0
  0
LINE
  5
7C9
330
1F
100
AcDbEntity
  8
TitleBlock&Notes
  6
Continuous
 62
     3
100
AcDbLine
 10
25.04331775699443
 20
-2.979795427559858
 30
0.0
 11
25.21687713199444
 21
-2.976765938459853
 31
0.0
  0
LINE
  5
7CA
330
1F
100
AcDbEntity
  8
TitleBlock&Notes
  6
Continuous
 62
     3
100
AcDbLine
 10
25.04331775699443
 20
-2.963457936472365
 30
0.0
 11
25.21687713199444
 21
-2.960428447372357
 31
0.0
  0
LINE
  5
7CB
330
1F
100
AcDbEntity
  8
TitleBlock&Notes
  6
Continuous
 62
     3
100
AcDbLine
 10
25.04331775699443
 20
-2.947120445384869
 30
0.0
 11
25.21687713199444
 21
-2.944090956284853
 31
0.0
  0
LINE
  5
7CC
330
1F
100
AcDbEntity
  8
TitleBlock&Notes
  6
Continuous
 62
     3
100
AcDbLine
 10
25.04331775699443
 20
-2.930782954297354
 30
0.0
 11
25.21687713199444
 21
-2.927753465197357
 31
0.0
  0
LINE
  5
7CD
330
1F
100
AcDbEntity
  8
TitleBlock&Notes
  6
Continuous
 62
     3
100
AcDbLine
 10
25.04331775699443
 20
-2.914445463209847
 30
0.0
 11
25.21687713199444
 21
-2.911415974109863
 31
0.0
  0
LINE
  5
7CE
330
1F
100
AcDbEntity
  8
TitleBlock&Notes
  6
Continuous
 62
     3
100
AcDbLine
 10
25.04331775699443
 20
-2.898107972122354
 30
0.0
 11
25.21687713199444
 21
-2.895078483022359
 31
0.0
  0
LINE
  5
7CF
330
1F
100
AcDbEntity
  8
TitleBlock&Notes
  6
Continuous
 62
     3
100
AcDbLine
 10
25.04331775699443
 20
-2.881770481034858
 30
0.0
 11
25.21687713199444
 21
-2.878740991934863
 31
0.0
  0
LINE
  5
7D0
330
1F
100
AcDbEntity
  8
TitleBlock&Notes
  6
Continuous
 62
     3
100
AcDbLine
 10
25.04331775699443
 20
-2.865432989947365
 30
0.0
 11
25.21687713199444
 21
-2.862403500847359
 31
0.0
  0
LINE
  5
7D1
330
1F
100
AcDbEntity
  8
TitleBlock&Notes
  6
Continuous
 62
     3
100
AcDbLine
 10
25.04331775699443
 20
-2.849095498859858
 30
0.0
 11
25.21687713199444
 21
-2.846066009759863
 31
0.0
  0
LINE
  5
7D2
330
1F
100
AcDbEntity
  8
TitleBlock&Notes
  6
Continuous
 62
     3
100
AcDbLine
 10
25.04331775699443
 20
-2.832758048609858
 30
0.0
 11
25.21687713199444
 21
-2.82972855950985
 31
0.0
  0
LINE
  5
7D3
330
1F
100
AcDbEntity
  8
TitleBlock&Notes
  6
Continuous
 62
     3
100
AcDbLine
 10
25.02289900699446
 20
-2.706138480397362
 30
0.0
 11
25.02289900699446
 21
-3.053257230397369
 31
0.0
  0
LINE
  5
7D4
330
1F
100
AcDbEntity
  8
TitleBlock&Notes
  6
Continuous
 62
     3
100
AcDbLine
 10
25.00248025699447
 20
-3.03283848039737
 30
0.0
 11
25.00248025699447
 21
-2.72655723039736
 31
0.0
  0
LINE
  5
7D5
330
1F
100
AcDbEntity
  8
TitleBlock&Notes
  6
Continuous
 62
     3
100
AcDbLine
 10
25.04331775699443
 20
-3.073675980397364
 30
0.0
 11
25.04331775699443
 21
-2.685719730397366
 31
0.0
  0
LINE
  5
7D6
330
1F
100
AcDbEntity
  8
TitleBlock&Notes
  6
Continuous
 62
     3
100
AcDbLine
 10
31.37497917480696
 20
0.0372089952901442
 30
0.0
 11
31.37497917480696
 21
-4.557009754709863
 31
0.0
  0
LINE
  5
7DE
330
1F
100
AcDbEntity
  8
TitleBlock&Notes
  6
Continuous
 62
     3
100
AcDbLine
 10
29.76004900699444
 20
-1.731987279022358
 30
0.0
 11
29.42737599173197
 21
-1.731987279022358
 31
0.0
  0
LINE
  5
7DF
330
1F
100
AcDbEntity
  8
TitleBlock&Notes
  6
Continuous
 62
     3
100
AcDbLine
 10
29.76004900699444
 20
-1.711568529022351
 30
0.0
 11
29.43617720805699
 21
-1.711568529022351
 31
0.0
  0
LINE
  5
7E0
330
1F
100
AcDbEntity
  8
TitleBlock&Notes
  6
Continuous
 62
     3
100
AcDbLine
 10
29.76004900699444
 20
-1.691149779022366
 30
0.0
 11
29.44497838354447
 21
-1.691149779022366
 31
0.0
  0
LINE
  5
7E1
330
1F
100
AcDbEntity
  8
TitleBlock&Notes
  6
Continuous
 62
     3
100
AcDbLine
 10
29.76004900699444
 20
-1.429564682722363
 30
0.0
 11
29.55773055769443
 21
-1.429564682722363
 31
0.0
  0
LINE
  5
7E2
330
1F
100
AcDbEntity
  8
TitleBlock&Notes
  6
Continuous
 62
     3
100
AcDbLine
 10
29.76004900699444
 20
-1.409145932722367
 30
0.0
 11
29.56653177401945
 21
-1.409145932722367
 31
0.0
  0
LINE
  5
7E3
330
1F
100
AcDbEntity
  8
TitleBlock&Notes
  6
Continuous
 62
     3
100
AcDbLine
 10
29.76004900699444
 20
-1.388727182722347
 30
0.0
 11
29.57533294950697
 21
-1.388727182722347
 31
0.0
  0
LINE
  5
7E4
330
1F
100
AcDbEntity
  8
TitleBlock&Notes
  6
Continuous
 62
     3
100
AcDbLine
 10
29.54892938220695
 20
-1.449983432722358
 30
0.0
 11
29.76004900699444
 21
-1.449983432722358
 31
0.0
  0
LINE
  5
7E5
330
1F
100
AcDbEntity
  8
TitleBlock&Notes
  6
Continuous
 62
     3
100
AcDbLine
 10
29.28973981365696
 20
-2.051303246459855
 30
0.0
 11
29.76004900699444
 21
-2.043093969697361
 31
0.0
  0
LINE
  5
7E6
330
1F
100
AcDbEntity
  8
TitleBlock&Notes
  6
Continuous
 62
     3
100
AcDbLine
 10
29.12706775699444
 20
-2.449865852797356
 30
0.0
 11
29.76004900699444
 21
-2.438817144659864
 31
0.0
  0
LINE
  5
7E7
330
1F
100
AcDbEntity
  8
TitleBlock&Notes
  6
Continuous
 62
     3
100
AcDbLine
 10
29.12706775699444
 20
-2.43352836170986
 30
0.0
 11
29.76004900699444
 21
-2.422479653572368
 31
0.0
  0
LINE
  5
7E8
330
1F
100
AcDbEntity
  8
TitleBlock&Notes
  6
Continuous
 62
     3
100
AcDbLine
 10
29.13206724709443
 20
-2.417103600884855
 30
0.0
 11
29.76004900699444
 21
-2.406142162484854
 31
0.0
  0
LINE
  5
7E9
330
1F
100
AcDbEntity
  8
TitleBlock&Notes
  6
Continuous
 62
     3
100
AcDbLine
 10
29.13916264020697
 20
-2.400642290497349
 30
0.0
 11
29.76004900699444
 21
-2.389804671397357
 31
0.0
  0
LINE
  5
7EA
330
1F
100
AcDbEntity
  8
TitleBlock&Notes
  6
Continuous
 62
     3
100
AcDbLine
 10
29.14625803331943
 20
-2.384180939272352
 30
0.0
 11
29.76004900699444
 21
-2.373467180309853
 31
0.0
  0
LINE
  5
7EB
330
1F
100
AcDbEntity
  8
TitleBlock&Notes
  6
Continuous
 62
     3
100
AcDbLine
 10
29.15335346726945
 20
-2.367719588047352
 30
0.0
 11
29.76004900699444
 21
-2.357129689222357
 31
0.0
  0
LINE
  5
7EC
330
1F
100
AcDbEntity
  8
TitleBlock&Notes
  6
Continuous
 62
     3
100
AcDbLine
 10
29.160448860382
 20
-2.351258277659856
 30
0.0
 11
29.76004900699444
 21
-2.340792198134864
 31
0.0
  0
LINE
  5
7ED
330
1F
100
AcDbEntity
  8
TitleBlock&Notes
  6
Continuous
 62
     3
100
AcDbLine
 10
29.16754425349447
 20
-2.334796926434856
 30
0.0
 11
29.76004900699444
 21
-2.32445470704736
 31
0.0
  0
LINE
  5
7EE
330
1F
100
AcDbEntity
  8
TitleBlock&Notes
  6
Continuous
 62
     3
100
AcDbLine
 10
29.17463968744447
 20
-2.318335575209859
 30
0.0
 11
29.76004900699444
 21
-2.308117215959864
 31
0.0
  0
LINE
  5
7EF
330
1F
100
AcDbEntity
  8
TitleBlock&Notes
  6
Continuous
 62
     3
100
AcDbLine
 10
29.18173508055697
 20
-2.301874264822363
 30
0.0
 11
29.76004900699444
 21
-2.29177972487236
 31
0.0
  0
LINE
  5
7F0
330
1F
100
AcDbEntity
  8
TitleBlock&Notes
  6
Continuous
 62
     3
100
AcDbLine
 10
29.18883047366943
 20
-2.285412913597363
 30
0.0
 11
29.76004900699444
 21
-2.275442233784864
 31
0.0
  0
LINE
  5
7F1
330
1F
100
AcDbEntity
  8
TitleBlock&Notes
  6
Continuous
 62
     3
100
AcDbLine
 10
29.19592586678197
 20
-2.268951562372366
 30
0.0
 11
29.76004900699444
 21
-2.25910474269737
 31
0.0
  0
LINE
  5
7F2
330
1F
100
AcDbEntity
  8
TitleBlock&Notes
  6
Continuous
 62
     3
100
AcDbLine
 10
29.20302130073194
 20
-2.252490211147367
 30
0.0
 11
29.76004900699444
 21
-2.242767292447357
 31
0.0
  0
LINE
  5
7F3
330
1F
100
AcDbEntity
  8
TitleBlock&Notes
  6
Continuous
 62
     3
100
AcDbLine
 10
29.21011669384447
 20
-2.236028900759871
 30
0.0
 11
29.76004900699444
 21
-2.226429801359853
 31
0.0
  0
LINE
  5
7F4
330
1F
100
AcDbEntity
  8
TitleBlock&Notes
  6
Continuous
 62
     3
100
AcDbLine
 10
29.21721208695695
 20
-2.21956754953485
 30
0.0
 11
29.76004900699444
 21
-2.210092310272357
 31
0.0
  0
LINE
  5
7F5
330
1F
100
AcDbEntity
  8
TitleBlock&Notes
  6
Continuous
 62
     3
100
AcDbLine
 10
29.22430752090696
 20
-2.203106198309852
 30
0.0
 11
29.76004900699444
 21
-2.193754819184864
 31
0.0
  0
LINE
  5
7F6
330
1F
100
AcDbEntity
  8
TitleBlock&Notes
  6
Continuous
 62
     3
100
AcDbLine
 10
29.23140291401949
 20
-2.186644887922357
 30
0.0
 11
29.76004900699444
 21
-2.177417328097357
 31
0.0
  0
LINE
  5
7F7
330
1F
100
AcDbEntity
  8
TitleBlock&Notes
  6
Continuous
 62
     3
100
AcDbLine
 10
29.23849830713198
 20
-2.170183536697357
 30
0.0
 11
29.76004900699444
 21
-2.161079837009864
 31
0.0
  0
LINE
  5
7F8
330
1F
100
AcDbEntity
  8
TitleBlock&Notes
  6
Continuous
 62
     3
100
AcDbLine
 10
29.24559370024445
 20
-2.15372218547236
 30
0.0
 11
29.76004900699444
 21
-2.14474234592236
 31
0.0
  0
LINE
  5
7F9
330
1F
100
AcDbEntity
  8
TitleBlock&Notes
  6
Continuous
 62
     3
100
AcDbLine
 10
29.12706775699444
 20
-2.810488379759866
 30
0.0
 11
29.76004900699444
 21
-2.79943963078486
 31
0.0
  0
LINE
  5
7FA
330
1F
100
AcDbEntity
  8
TitleBlock&Notes
  6
Continuous
 62
     3
100
AcDbLine
 10
29.12706775699444
 20
-2.794150888672351
 30
0.0
 11
29.76004900699444
 21
-2.783102139697356
 31
0.0
  0
LINE
  5
7FB
330
1F
100
AcDbEntity
  8
TitleBlock&Notes
  6
Continuous
 62
     3
100
AcDbLine
 10
29.12706775699444
 20
-2.777813397584866
 30
0.0
 11
29.76004900699444
 21
-2.766764648609862
 31
0.0
  0
LINE
  5
7FC
330
1F
100
AcDbEntity
  8
TitleBlock&Notes
  6
Continuous
 62
     3
100
AcDbLine
 10
29.12706775699444
 20
-2.761475906497373
 30
0.0
 11
29.76004900699444
 21
-2.75042719835987
 31
0.0
  0
LINE
  5
7FD
330
1F
100
AcDbEntity
  8
TitleBlock&Notes
  6
Continuous
 62
     3
100
AcDbLine
 10
29.12706775699444
 20
-2.745138415409855
 30
0.0
 11
29.76004900699444
 21
-2.734089707272353
 31
0.0
  0
LINE
  5
7FE
330
1F
100
AcDbEntity
  8
TitleBlock&Notes
  6
Continuous
 62
     3
100
AcDbLine
 10
29.12706775699444
 20
-2.728800924322351
 30
0.0
 11
29.76004900699444
 21
-2.717752216184849
 31
0.0
  0
LINE
  5
7FF
330
1F
100
AcDbEntity
  8
TitleBlock&Notes
  6
Continuous
 62
     3
100
AcDbLine
 10
29.12706775699444
 20
-2.712463433234855
 30
0.0
 11
29.76004900699444
 21
-2.701414725097353
 31
0.0
  0
LINE
  5
800
330
1F
100
AcDbEntity
  8
TitleBlock&Notes
  6
Continuous
 62
     3
100
AcDbLine
 10
29.12706775699444
 20
-2.696125942147362
 30
0.0
 11
29.76004900699444
 21
-2.68507723400986
 31
0.0
  0
LINE
  5
801
330
1F
100
AcDbEntity
  8
TitleBlock&Notes
  6
Continuous
 62
     3
100
AcDbLine
 10
29.12706775699444
 20
-2.679788451059858
 30
0.0
 11
29.76004900699444
 21
-2.668739742922366
 31
0.0
  0
LINE
  5
802
330
1F
100
AcDbEntity
  8
TitleBlock&Notes
  6
Continuous
 62
     3
100
AcDbLine
 10
29.12706775699444
 20
-2.663450959972362
 30
0.0
 11
29.76004900699444
 21
-2.65240225183486
 31
0.0
  0
LINE
  5
803
330
1F
100
AcDbEntity
  8
TitleBlock&Notes
  6
Continuous
 62
     3
100
AcDbLine
 10
29.12706775699444
 20
-2.647113509722359
 30
0.0
 11
29.76004900699444
 21
-2.636064760747355
 31
0.0
  0
LINE
  5
804
330
1F
100
AcDbEntity
  8
TitleBlock&Notes
  6
Continuous
 62
     3
100
AcDbLine
 10
29.12706775699444
 20
-2.630776018634866
 30
0.0
 11
29.76004900699444
 21
-2.619727269659859
 31
0.0
  0
LINE
  5
805
330
1F
100
AcDbEntity
  8
TitleBlock&Notes
  6
Continuous
 62
     3
100
AcDbLine
 10
29.12706775699444
 20
-2.614438527547372
 30
0.0
 11
29.76004900699444
 21
-2.603389778572366
 31
0.0
  0
LINE
  5
806
330
1F
100
AcDbEntity
  8
TitleBlock&Notes
  6
Continuous
 62
     3
100
AcDbLine
 10
29.12706775699444
 20
-2.598101036459855
 30
0.0
 11
29.76004900699444
 21
-2.587052287484859
 31
0.0
  0
LINE
  5
807
330
1F
100
AcDbEntity
  8
TitleBlock&Notes
  6
Continuous
 62
     3
100
AcDbLine
 10
29.12706775699444
 20
-2.581763545372351
 30
0.0
 11
29.76004900699444
 21
-2.570714796397366
 31
0.0
  0
LINE
  5
808
330
1F
100
AcDbEntity
  8
TitleBlock&Notes
  6
Continuous
 62
     3
100
AcDbLine
 10
29.12706775699444
 20
-2.565426054284855
 30
0.0
 11
29.76004900699444
 21
-2.554377305309849
 31
0.0
  0
LINE
  5
809
330
1F
100
AcDbEntity
  8
TitleBlock&Notes
  6
Continuous
 62
     3
100
AcDbLine
 10
29.12706775699444
 20
-2.549088563197361
 30
0.0
 11
29.76004900699444
 21
-2.538039814222355
 31
0.0
  0
LINE
  5
80A
330
1F
100
AcDbEntity
  8
TitleBlock&Notes
  6
Continuous
 62
     3
100
AcDbLine
 10
29.28905186513198
 20
-2.052899257634862
 30
0.0
 11
29.76004900699444
 21
-2.052899257634862
 31
0.0
  0
LINE
  5
80B
330
1F
100
AcDbEntity
  8
TitleBlock&Notes
  6
Continuous
 62
     3
100
AcDbLine
 10
29.25440153224443
 20
-2.133288039734863
 30
0.0
 11
29.76004900699444
 21
-2.133288039734863
 31
0.0
  0
LINE
  5
80C
330
1F
100
AcDbEntity
  8
TitleBlock&Notes
  6
Continuous
 62
     3
100
AcDbLine
 10
29.12706775699444
 20
-2.454843168134861
 30
0.0
 11
29.76004900699444
 21
-2.454843168134861
 31
0.0
  0
LINE
  5
80D
330
1F
100
AcDbEntity
  8
TitleBlock&Notes
  6
Continuous
 62
     3
100
AcDbLine
 10
29.12706775699444
 20
-2.535231950234852
 30
0.0
 11
29.76004900699444
 21
-2.535231950234852
 31
0.0
  0
LINE
  5
80E
330
1F
100
AcDbEntity
  8
TitleBlock&Notes
  6
Continuous
 62
     3
100
AcDbLine
 10
29.76004900699444
 20
-1.75111981112235
 30
0.0
 11
29.41912922614446
 21
-1.75111981112235
 31
0.0
  0
LINE
  5
80F
330
1F
100
AcDbEntity
  8
TitleBlock&Notes
  6
Continuous
 62
     3
100
AcDbLine
 10
29.29683520676943
 20
-2.03484193607236
 30
0.0
 11
29.76004900699444
 21
-2.026756478609867
 31
0.0
  0
LINE
  5
810
330
1F
100
AcDbEntity
  8
TitleBlock&Notes
  6
Continuous
 62
     3
100
AcDbLine
 10
29.30393059988197
 20
-2.01838058484736
 30
0.0
 11
29.76004900699444
 21
-2.010419028359865
 31
0.0
  0
LINE
  5
811
330
1F
100
AcDbEntity
  8
TitleBlock&Notes
  6
Continuous
 62
     3
100
AcDbLine
 10
29.31102603383198
 20
-2.001919233622352
 30
0.0
 11
29.76004900699444
 21
-1.99408153727235
 31
0.0
  0
LINE
  5
812
330
1F
100
AcDbEntity
  8
TitleBlock&Notes
  6
Continuous
 62
     3
100
AcDbLine
 10
29.31812142694445
 20
-1.985457923234856
 30
0.0
 11
29.76004900699444
 21
-1.977744046184854
 31
0.0
  0
LINE
  5
813
330
1F
100
AcDbEntity
  8
TitleBlock&Notes
  6
Continuous
 62
     3
100
AcDbLine
 10
29.32521682005701
 20
-1.968996572009857
 30
0.0
 11
29.76004900699444
 21
-1.961406555097361
 31
0.0
  0
LINE
  5
814
330
1F
100
AcDbEntity
  8
TitleBlock&Notes
  6
Continuous
 62
     3
100
AcDbLine
 10
29.33231225400696
 20
-1.952535220784859
 30
0.0
 11
29.76004900699444
 21
-1.945069064009857
 31
0.0
  0
LINE
  5
815
330
1F
100
AcDbEntity
  8
TitleBlock&Notes
  6
Continuous
 62
     3
100
AcDbLine
 10
29.33940764711949
 20
-1.936073910397364
 30
0.0
 11
29.76004900699444
 21
-1.928731572922361
 31
0.0
  0
LINE
  5
816
330
1F
100
AcDbEntity
  8
TitleBlock&Notes
  6
Continuous
 62
     3
100
AcDbLine
 10
29.34650304023196
 20
-1.919612559172364
 30
0.0
 11
29.76004900699444
 21
-1.912394081834857
 31
0.0
  0
LINE
  5
817
330
1F
100
AcDbEntity
  8
TitleBlock&Notes
  6
Continuous
 62
     3
100
AcDbLine
 10
29.35359843334445
 20
-1.903151207947364
 30
0.0
 11
29.76004900699444
 21
-1.89605659074736
 31
0.0
  0
LINE
  5
818
330
1F
100
AcDbEntity
  8
TitleBlock&Notes
  6
Continuous
 62
     3
100
AcDbLine
 10
29.36069386729445
 20
-1.886689856722367
 30
0.0
 11
29.76004900699444
 21
-1.879719099659867
 31
0.0
  0
LINE
  5
819
330
1F
100
AcDbEntity
  8
TitleBlock&Notes
  6
Continuous
 62
     3
100
AcDbLine
 10
29.36778926040694
 20
-1.870228546334871
 30
0.0
 11
29.76004900699444
 21
-1.86338160857236
 31
0.0
  0
LINE
  5
81A
330
1F
100
AcDbEntity
  8
TitleBlock&Notes
  6
Continuous
 62
     3
100
AcDbLine
 10
29.41032805065698
 20
-1.771538561122367
 30
0.0
 11
29.76004900699444
 21
-1.771538561122367
 31
0.0
  0
LINE
  5
81B
330
1F
100
AcDbEntity
  8
TitleBlock&Notes
  6
Continuous
 62
     3
100
AcDbLine
 10
29.37567771776945
 20
-1.85192734322236
 30
0.0
 11
29.76004900699444
 21
-1.85192734322236
 31
0.0
  0
LINE
  5
81C
330
1F
100
AcDbEntity
  8
TitleBlock&Notes
  6
Continuous
 62
     3
100
AcDbLine
 10
29.12706775699444
 20
-3.07188819632236
 30
0.0
 11
29.76004900699444
 21
-3.060839447347367
 31
0.0
  0
LINE
  5
81D
330
1F
100
AcDbEntity
  8
TitleBlock&Notes
  6
Continuous
 62
     3
100
AcDbLine
 10
29.12706775699444
 20
-3.055550705234856
 30
0.0
 11
29.76004900699444
 21
-3.044501956259871
 31
0.0
  0
LINE
  5
81E
330
1F
100
AcDbEntity
  8
TitleBlock&Notes
  6
Continuous
 62
     3
100
AcDbLine
 10
29.12706775699444
 20
-3.039213214147363
 30
0.0
 11
29.76004900699444
 21
-3.028164465172356
 31
0.0
  0
LINE
  5
81F
330
1F
100
AcDbEntity
  8
TitleBlock&Notes
  6
Continuous
 62
     3
100
AcDbLine
 10
29.12706775699444
 20
-3.022875723059856
 30
0.0
 11
29.76004900699444
 21
-3.01182697408485
 31
0.0
  0
LINE
  5
820
330
1F
100
AcDbEntity
  8
TitleBlock&Notes
  6
Continuous
 62
     3
100
AcDbLine
 10
29.12706775699444
 20
-3.006538231972363
 30
0.0
 11
29.76004900699444
 21
-2.99548952383486
 31
0.0
  0
LINE
  5
821
330
1F
100
AcDbEntity
  8
TitleBlock&Notes
  6
Continuous
 62
     3
100
AcDbLine
 10
29.12706775699444
 20
-2.990200740884866
 30
0.0
 11
29.76004900699444
 21
-2.979152032747364
 31
0.0
  0
LINE
  5
822
330
1F
100
AcDbEntity
  8
TitleBlock&Notes
  6
Continuous
 62
     3
100
AcDbLine
 10
29.12706775699444
 20
-2.973863249797362
 30
0.0
 11
29.76004900699444
 21
-2.96281454165986
 31
0.0
  0
LINE
  5
823
330
1F
100
AcDbEntity
  8
TitleBlock&Notes
  6
Continuous
 62
     3
100
AcDbLine
 10
29.12706775699444
 20
-2.957525758709866
 30
0.0
 11
29.76004900699444
 21
-2.946477050572364
 31
0.0
  0
LINE
  5
824
330
1F
100
AcDbEntity
  8
TitleBlock&Notes
  6
Continuous
 62
     3
100
AcDbLine
 10
29.12706775699444
 20
-2.941188267622352
 30
0.0
 11
29.76004900699444
 21
-2.93013955948486
 31
0.0
  0
LINE
  5
825
330
1F
100
AcDbEntity
  8
TitleBlock&Notes
  6
Continuous
 62
     3
100
AcDbLine
 10
29.12706775699444
 20
-2.924850776534858
 30
0.0
 11
29.76004900699444
 21
-2.913802068397364
 31
0.0
  0
LINE
  5
826
330
1F
100
AcDbEntity
  8
TitleBlock&Notes
  6
Continuous
 62
     3
100
AcDbLine
 10
29.12706775699444
 20
-2.908513285447362
 30
0.0
 11
29.76004900699444
 21
-2.897464577309871
 31
0.0
  0
LINE
  5
827
330
1F
100
AcDbEntity
  8
TitleBlock&Notes
  6
Continuous
 62
     3
100
AcDbLine
 10
29.12706775699444
 20
-2.89217583519736
 30
0.0
 11
29.76004900699444
 21
-2.881127086222356
 31
0.0
  0
LINE
  5
828
330
1F
100
AcDbEntity
  8
TitleBlock&Notes
  6
Continuous
 62
     3
100
AcDbLine
 10
29.12706775699444
 20
-2.875838344109856
 30
0.0
 11
29.76004900699444
 21
-2.864789595134849
 31
0.0
  0
LINE
  5
829
330
1F
100
AcDbEntity
  8
TitleBlock&Notes
  6
Continuous
 62
     3
100
AcDbLine
 10
29.12706775699444
 20
-2.859500853022362
 30
0.0
 11
29.76004900699444
 21
-2.848452104047356
 31
0.0
  0
LINE
  5
82A
330
1F
100
AcDbEntity
  8
TitleBlock&Notes
  6
Continuous
 62
     3
100
AcDbLine
 10
29.12706775699444
 20
-2.843163361934866
 30
0.0
 11
29.76004900699444
 21
-2.83211461295986
 31
0.0
  0
LINE
  5
82B
330
1F
100
AcDbEntity
  8
TitleBlock&Notes
  6
Continuous
 62
     3
100
AcDbLine
 10
29.72894128639446
 20
-3.339119730397348
 30
0.0
 11
31.37497917480696
 21
-3.310388058059869
 31
0.0
  0
LINE
  5
82C
330
1F
100
AcDbEntity
  8
TitleBlock&Notes
  6
Continuous
 62
     3
100
AcDbLine
 10
28.79296722608195
 20
-3.339119730397348
 30
0.0
 11
31.37497917480696
 21
-3.294050566972362
 31
0.0
  0
LINE
  5
82D
330
1F
100
AcDbEntity
  8
TitleBlock&Notes
  6
Continuous
 62
     3
100
AcDbLine
 10
27.85699312493196
 20
-3.339119730397348
 30
0.0
 11
31.37497917480696
 21
-3.277713075884848
 31
0.0
  0
LINE
  5
82E
330
1F
100
AcDbEntity
  8
TitleBlock&Notes
  6
Continuous
 62
     3
100
AcDbLine
 10
26.92101906461945
 20
-3.339119730397348
 30
0.0
 11
31.37497917480696
 21
-3.261375584797352
 31
0.0
  0
LINE
  5
82F
330
1F
100
AcDbEntity
  8
TitleBlock&Notes
  6
Continuous
 62
     3
100
AcDbLine
 10
25.98504500430699
 20
-3.339119730397348
 30
0.0
 11
31.37497917480696
 21
-3.245038093709869
 31
0.0
  0
TEXT
  5
830
330
1F
100
AcDbEntity
  8
TitleBlock&Notes
  6
Continuous
 62
     3
100
AcDbText
 10
27.81760596874445
 20
-4.025127698234847
 30
0.0
 40
0.2858625
  1
 HYDRAULICS
 41
0.8
 51
11.0
100
AcDbText
  0
LINE
  5
831
330
1F
100
AcDbEntity
  8
TitleBlock&Notes
  6
Continuous
 62
     3
100
AcDbLine
 10
29.12706775699444
 20
-2.826825870847362
 30
0.0
 11
29.76004900699444
 21
-2.815777121872356
 31
0.0
  0
TEXT
  5
832
330
1F
100
AcDbEntity
  8
TitleBlock&Notes
  6
Continuous
 62
     3
100
AcDbText
 10
25.94502988988199
 20
-4.025127698234847
 30
0.0
 40
0.2858625
  1
 POWER
 41
0.8
 51
11.0
100
AcDbText
  0
TEXT
  5
833
330
1F
100
AcDbEntity
  8
TitleBlock&Notes
  6
Continuous
 62
     3
100
AcDbText
 10
27.17576902519447
 20
-4.025127698234847
 30
0.0
 40
0.2858625
  1
 of
 41
0.8
 51
11.0
100
AcDbText
  0
LINE
  5
834
330
1F
100
AcDbEntity
  8
TitleBlock&Notes
  6
Continuous
 62
     3
100
AcDbLine
 10
27.47060777104449
 20
-2.676027113122358
 30
0.0
 11
27.65157772298195
 21
-2.672868250822364
 31
0.0
  0
ARC
  5
835
330
1F
100
AcDbEntity
  8
TitleBlock&Notes
  6
Continuous
 62
     3
100
AcDbCircle
 10
27.55482400699448
 20
-1.955914115534846
 30
0.0
 40
0.7403483872125002
100
AcDbArc
 50
5.15538982000007
 51
173.2499419800004
  0
ARC
  5
836
330
1F
100
AcDbEntity
  8
TitleBlock&Notes
  6
Continuous
 62
     3
100
AcDbCircle
 10
27.55482400699448
 20
-1.955914115534846
 30
0.0
 40
0.4136443443000001
100
AcDbArc
 50
12.13355042000009
 51
170.8448616600005
  0
ARC
  5
837
330
1F
100
AcDbEntity
  8
TitleBlock&Notes
  6
Continuous
 62
     3
100
AcDbCircle
 10
27.55482400699448
 20
-1.955914115534846
 30
0.0
 40
0.7607671372125
100
AcDbArc
 50
3.474582379999952
 51
173.2499419800004
  0
ARC
  5
838
330
1F
100
AcDbEntity
  8
TitleBlock&Notes
  6
Continuous
 62
     3
100
AcDbCircle
 10
27.55482400699448
 20
-1.955914115534846
 30
0.0
 40
0.7199255943000001
100
AcDbArc
 50
6.936458519999994
 51
173.0635414800004
  0
ARC
  5
839
330
1F
100
AcDbEntity
  8
TitleBlock&Notes
  6
Continuous
 62
     3
100
AcDbCircle
 10
27.55482400699448
 20
-2.315310864097363
 30
0.0
 40
0.4112464071375001
100
AcDbArc
 50
186.7746279100004
 51
351.0289824700008
  0
ARC
  5
83A
330
1F
100
AcDbEntity
  8
TitleBlock&Notes
  6
Continuous
 62
     3
100
AcDbCircle
 10
27.55482400699448
 20
-1.955914115534846
 30
0.0
 40
0.3946824721125
100
AcDbArc
 50
9.703799320000049
 51
166.2342647900004
  0
ARC
  5
83B
330
1F
100
AcDbEntity
  8
TitleBlock&Notes
  6
Continuous
 62
     3
100
AcDbCircle
 10
27.55482400699448
 20
-1.955914115534846
 30
0.0
 40
0.3742637221125
100
AcDbArc
 50
7.076443859999911
 51
166.2342647900004
  0
LINE
  5
83C
330
1F
100
AcDbEntity
  8
TitleBlock&Notes
  6
Continuous
 62
     3
100
AcDbLine
 10
27.32635632634447
 20
-2.052899257634862
 30
0.0
 11
28.56778716836945
 21
-2.031230022547359
 31
0.0
  0
LINE
  5
83D
330
1F
100
AcDbEntity
  8
TitleBlock&Notes
  6
Continuous
 62
     3
100
AcDbLine
 10
27.18991015301944
 20
-2.038943450384857
 30
0.0
 11
28.56079774856945
 21
-2.015014513072356
 31
0.0
  0
LINE
  5
83E
330
1F
100
AcDbEntity
  8
TitleBlock&Notes
  6
Continuous
 62
     3
100
AcDbLine
 10
27.19004311991946
 20
-2.022603672397361
 30
0.0
 11
28.55380828793198
 21
-1.998799044434858
 31
0.0
  0
LINE
  5
83F
330
1F
100
AcDbEntity
  8
TitleBlock&Notes
  6
Continuous
 62
     3
100
AcDbLine
 10
27.19017604598198
 20
-2.006263853572371
 30
0.0
 11
28.54681886813196
 21
-1.982583534959866
 31
0.0
  0
LINE
  5
840
330
1F
100
AcDbEntity
  8
TitleBlock&Notes
  6
Continuous
 62
     3
100
AcDbLine
 10
27.19030901288194
 20
-1.989924034747347
 30
0.0
 11
28.53982940749449
 21
-1.966368066322357
 31
0.0
  0
LINE
  5
841
330
1F
100
AcDbEntity
  8
TitleBlock&Notes
  6
Continuous
 62
     3
100
AcDbLine
 10
27.19044193894445
 20
-1.973584215922357
 30
0.0
 11
28.53283998769443
 21
-1.950152597684859
 31
0.0
  0
LINE
  5
842
330
1F
100
AcDbEntity
  8
TitleBlock&Notes
  6
Continuous
 62
     3
100
AcDbLine
 10
27.19057490584448
 20
-1.95724439709736
 30
0.0
 11
28.52585056789448
 21
-1.933937088209853
 31
0.0
  0
LINE
  5
843
330
1F
100
AcDbEntity
  8
TitleBlock&Notes
  6
Continuous
 62
     3
100
AcDbLine
 10
27.19070783190699
 20
-1.940904619109861
 30
0.0
 11
28.51886110725696
 21
-1.917721619572366
 31
0.0
  0
LINE
  5
844
330
1F
100
AcDbEntity
  8
TitleBlock&Notes
  6
Continuous
 62
     3
100
AcDbLine
 10
27.18748763168198
 20
-2.33668394563485
 30
0.0
 11
28.68815770065699
 21
-2.310489670522359
 31
0.0
  0
LINE
  5
845
330
1F
100
AcDbEntity
  8
TitleBlock&Notes
  6
Continuous
 62
     3
100
AcDbLine
 10
27.18762059858194
 20
-2.320344167647354
 30
0.0
 11
28.68116828085693
 21
-2.29427420188485
 31
0.0
  0
LINE
  5
846
330
1F
100
AcDbEntity
  8
TitleBlock&Notes
  6
Continuous
 62
     3
100
AcDbLine
 10
27.18775352464445
 20
-2.304004348822364
 30
0.0
 11
28.67417882021946
 21
-2.278058692409858
 31
0.0
  0
LINE
  5
847
330
1F
100
AcDbEntity
  8
TitleBlock&Notes
  6
Continuous
 62
     3
100
AcDbLine
 10
27.18788649154448
 20
-2.287664529997364
 30
0.0
 11
28.66718940041946
 21
-2.261843223772357
 31
0.0
  0
LINE
  5
848
330
1F
100
AcDbEntity
  8
TitleBlock&Notes
  6
Continuous
 62
     3
100
AcDbLine
 10
27.18801941760699
 20
-2.271324711172364
 30
0.0
 11
28.66019998061944
 21
-2.245627714297357
 31
0.0
  0
LINE
  5
849
330
1F
100
AcDbEntity
  8
TitleBlock&Notes
  6
Continuous
 62
     3
100
AcDbLine
 10
27.18815238450695
 20
-2.254984933184855
 30
0.0
 11
28.65321051998197
 21
-2.229412245659867
 31
0.0
  0
LINE
  5
84A
330
1F
100
AcDbEntity
  8
TitleBlock&Notes
  6
Continuous
 62
     3
100
AcDbLine
 10
27.18828531056946
 20
-2.238645114359854
 30
0.0
 11
28.64622110018197
 21
-2.213196736184865
 31
0.0
  0
LINE
  5
84B
330
1F
100
AcDbEntity
  8
TitleBlock&Notes
  6
Continuous
 62
     3
100
AcDbLine
 10
27.18841827746949
 20
-2.222305295534854
 30
0.0
 11
28.63923168038196
 21
-2.196981267547355
 31
0.0
  0
LINE
  5
84C
330
1F
100
AcDbEntity
  8
TitleBlock&Notes
  6
Continuous
 62
     3
100
AcDbLine
 10
27.18855120353194
 20
-2.205965476709854
 30
0.0
 11
28.63224221974448
 21
-2.180765758072353
 31
0.0
  0
LINE
  5
84D
330
1F
100
AcDbEntity
  8
TitleBlock&Notes
  6
Continuous
 62
     3
100
AcDbLine
 10
27.18868417043196
 20
-2.189625698722369
 30
0.0
 11
28.62525279994443
 21
-2.164550289434865
 31
0.0
  0
LINE
  5
84E
330
1F
100
AcDbEntity
  8
TitleBlock&Notes
  6
Continuous
 62
     3
100
AcDbLine
 10
27.18881709649448
 20
-2.173285879897347
 30
0.0
 11
28.6182633801445
 21
-2.148334779959863
 31
0.0
  0
LINE
  5
84F
330
1F
100
AcDbEntity
  8
TitleBlock&Notes
  6
Continuous
 62
     3
100
AcDbLine
 10
27.18895006339444
 20
-2.156946061072368
 30
0.0
 11
28.54431675450695
 21
-2.133288039734863
 31
0.0
  0
LINE
  5
850
330
1F
100
AcDbEntity
  8
TitleBlock&Notes
  6
Continuous
 62
     3
100
AcDbLine
 10
27.18979662476945
 20
-2.052899257634862
 30
0.0
 11
28.57712735801949
 21
-2.052899257634862
 31
0.0
  0
LINE
  5
851
330
1F
100
AcDbEntity
  8
TitleBlock&Notes
  6
Continuous
 62
     3
100
AcDbLine
 10
27.189142530532
 20
-2.133288039734863
 30
0.0
 11
28.61177769090696
 21
-2.133288039734863
 31
0.0
  0
ARC
  5
852
330
1F
100
AcDbEntity
  8
TitleBlock&Notes
  6
Continuous
 62
     3
100
AcDbCircle
 10
27.55482400699448
 20
-2.315310864097363
 30
0.0
 40
0.390835538775
100
AcDbArc
 50
187.1485089300005
 51
353.5789239900008
  0
LINE
  5
853
330
1F
100
AcDbEntity
  8
TitleBlock&Notes
  6
Continuous
 62
     3
100
AcDbLine
 10
27.20407941788201
 20
-2.434419272609857
 30
0.0
 11
27.90951174259446
 21
-2.422105908772353
 31
0.0
  0
ARC
  5
854
330
1F
100
AcDbEntity
  8
TitleBlock&Notes
  6
Continuous
 62
     3
100
AcDbCircle
 10
27.55482400699448
 20
-2.315310864097363
 30
0.0
 40
0.370416788775
100
AcDbArc
 50
187.1485089300005
 51
356.3951218200007
  0
LINE
  5
855
330
1F
100
AcDbEntity
  8
TitleBlock&Notes
  6
Continuous
 62
     3
100
AcDbLine
 10
27.21001817048194
 20
-2.450653118122358
 30
0.0
 11
27.90414316316946
 21
-2.438537121922365
 31
0.0
  0
LINE
  5
856
330
1F
100
AcDbEntity
  8
TitleBlock&Notes
  6
Continuous
 62
     3
100
AcDbLine
 10
27.42062209931947
 20
-2.660562115222365
 30
0.0
 11
27.70099322153196
 21
-2.655668230897358
 31
0.0
  0
LINE
  5
857
330
1F
100
AcDbEntity
  8
TitleBlock&Notes
  6
Continuous
 62
     3
100
AcDbLine
 10
27.38564273869445
 20
-2.644835185597372
 30
0.0
 11
27.73540240898198
 21
-2.638730142697363
 31
0.0
  0
LINE
  5
858
330
1F
100
AcDbEntity
  8
TitleBlock&Notes
  6
Continuous
 62
     3
100
AcDbLine
 10
27.35780128301942
 20
-2.628983701597352
 30
0.0
 11
27.76267369148194
 21
-2.621916608872349
 31
0.0
  0
LINE
  5
859
330
1F
100
AcDbEntity
  8
TitleBlock&Notes
  6
Continuous
 62
     3
100
AcDbLine
 10
27.33446542871945
 20
-2.61305352373486
 30
0.0
 11
27.78543937260693
 21
-2.605181728072349
 31
0.0
  0
LINE
  5
85A
330
1F
100
AcDbEntity
  8
TitleBlock&Notes
  6
Continuous
 62
     3
100
AcDbLine
 10
27.31436174003195
 20
-2.597066949284851
 30
0.0
 11
27.8049728881195
 21
-2.588503284697359
 31
0.0
  0
LINE
  5
85B
330
1F
100
AcDbEntity
  8
TitleBlock&Notes
  6
Continuous
 62
     3
100
AcDbLine
 10
27.29675746969447
 20
-2.58103676038487
 30
0.0
 11
27.82200702611944
 21
-2.571868496609866
 31
0.0
  0
LINE
  5
85C
330
1F
100
AcDbEntity
  8
TitleBlock&Notes
  6
Continuous
 62
     3
100
AcDbLine
 10
27.28118486498198
 20
-2.564971083697357
 30
0.0
 11
27.83700941681946
 21
-2.555269114634855
 31
0.0
  0
LINE
  5
85D
330
1F
100
AcDbEntity
  8
TitleBlock&Notes
  6
Continuous
 62
     3
100
AcDbLine
 10
27.26732420910694
 20
-2.548875513959864
 30
0.0
 11
27.85029994035697
 21
-2.538699666547359
 31
0.0
  0
LINE
  5
85E
330
1F
100
AcDbEntity
  8
TitleBlock&Notes
  6
Continuous
 62
     3
100
AcDbLine
 10
27.211692344632
 20
-2.454843168134861
 30
0.0
 11
27.89795562851947
 21
-2.454843168134861
 31
0.0
  0
LINE
  5
85F
330
1F
100
AcDbEntity
  8
TitleBlock&Notes
  6
Continuous
 62
     3
100
AcDbLine
 10
27.25675807770699
 20
-2.535231950234852
 30
0.0
 11
27.85288993628197
 21
-2.535231950234852
 31
0.0
  0
LINE
  5
860
330
1F
100
AcDbEntity
  8
TitleBlock&Notes
  6
Continuous
 62
     3
100
AcDbLine
 10
27.24072560190698
 20
-1.752406029022356
 30
0.0
 11
27.86892237124449
 21
-1.752406029022356
 31
0.0
  0
LINE
  5
861
330
1F
100
AcDbEntity
  8
TitleBlock&Notes
  6
Continuous
 62
     3
100
AcDbLine
 10
27.25494048225695
 20
-1.731987279022358
 30
0.0
 11
27.85470749089445
 21
-1.731987279022358
 31
0.0
  0
LINE
  5
862
330
1F
100
AcDbEntity
  8
TitleBlock&Notes
  6
Continuous
 62
     3
100
AcDbLine
 10
27.19084079880695
 20
-1.924564800284861
 30
0.0
 11
28.03630050056945
 21
-1.909807230397361
 31
0.0
  0
LINE
  5
863
330
1F
100
AcDbEntity
  8
TitleBlock&Notes
  6
Continuous
 62
     3
100
AcDbLine
 10
27.19097372486946
 20
-1.90822498145985
 30
0.0
 11
27.92416754543195
 21
-1.89542703984736
 31
0.0
  0
LINE
  5
864
330
1F
100
AcDbEntity
  8
TitleBlock&Notes
  6
Continuous
 62
     3
100
AcDbLine
 10
27.19110669176943
 20
-1.891885162634872
 30
0.0
 11
27.92112915375694
 21
-1.879142596672359
 31
0.0
  0
LINE
  5
865
330
1F
100
AcDbEntity
  8
TitleBlock&Notes
  6
Continuous
 62
     3
100
AcDbLine
 10
27.19123961783198
 20
-1.875545384647365
 30
0.0
 11
27.91733796360694
 21
-1.862871262334864
 31
0.0
  0
LINE
  5
866
330
1F
100
AcDbEntity
  8
TitleBlock&Notes
  6
Continuous
 62
     3
100
AcDbLine
 10
27.19897513875698
 20
-2.41817088894736
 30
0.0
 11
27.91404580770696
 21
-2.405689274609862
 31
0.0
  0
LINE
  5
867
330
1F
100
AcDbEntity
  8
TitleBlock&Notes
  6
Continuous
 62
     3
100
AcDbLine
 10
27.19467205054445
 20
-2.401908498022368
 30
0.0
 11
27.91777876358198
 21
-2.389286647709862
 31
0.0
  0
LINE
  5
868
330
1F
100
AcDbEntity
  8
TitleBlock&Notes
  6
Continuous
 62
     3
100
AcDbLine
 10
27.19114356803194
 20
-2.385632630722364
 30
0.0
 11
27.92073703208195
 21
-2.37289749718486
 31
0.0
  0
LINE
  5
869
330
1F
100
AcDbEntity
  8
TitleBlock&Notes
  6
Continuous
 62
     3
100
AcDbLine
 10
27.18836927246944
 20
-2.369343532072349
 30
0.0
 11
27.92294119530697
 21
-2.356521537172358
 31
0.0
  0
LINE
  5
86A
330
1F
100
AcDbEntity
  8
TitleBlock&Notes
  6
Continuous
 62
     3
100
AcDbLine
 10
27.18735470561947
 20
-2.353023764459861
 30
0.0
 11
27.92440644480693
 21
-2.340158481809869
 31
0.0
  0
LINE
  5
86B
330
1F
100
AcDbEntity
  8
TitleBlock&Notes
  6
Continuous
 62
     3
100
AcDbLine
 10
27.91435159890696
 20
-1.85192734322236
 30
0.0
 11
27.19529637424445
 21
-1.85192734322236
 31
0.0
  0
LINE
  5
86C
330
1F
100
AcDbEntity
  8
TitleBlock&Notes
  6
Continuous
 62
     3
100
AcDbLine
 10
27.22912628175696
 20
-1.771538561122367
 30
0.0
 11
27.88052169139447
 21
-1.771538561122367
 31
0.0
  0
LINE
  5
86D
330
1F
100
AcDbEntity
  8
TitleBlock&Notes
  6
Continuous
 62
     3
100
AcDbLine
 10
27.19327957346942
 20
-1.859172283259848
 30
0.0
 11
27.60834265335694
 21
-1.85192734322236
 31
0.0
  0
LINE
  5
86E
330
1F
100
AcDbEntity
  8
TitleBlock&Notes
  6
Continuous
 62
     3
100
AcDbLine
 10
27.18908298945695
 20
-2.140606242247358
 30
0.0
 11
27.60834265335694
 21
-2.133288039734863
 31
0.0
  0
LINE
  5
86F
330
1F
100
AcDbEntity
  8
TitleBlock&Notes
  6
Continuous
 62
     3
100
AcDbLine
 10
27.27133044953199
 20
-1.711568529022351
 30
0.0
 11
27.83831752361948
 21
-1.711568529022351
 31
0.0
  0
LINE
  5
870
330
1F
100
AcDbEntity
  8
TitleBlock&Notes
  6
Continuous
 62
     3
100
AcDbLine
 10
27.29029950911945
 20
-1.691149779022366
 30
0.0
 11
27.81934846403195
 21
-1.691149779022366
 31
0.0
  0
ARC
  5
871
330
1F
100
AcDbEntity
  8
TitleBlock&Notes
  6
Continuous
 62
     3
100
AcDbCircle
 10
27.55482400699448
 20
-2.315310864097363
 30
0.0
 40
0.7379464071374999
100
AcDbArc
 50
184.9874829000004
 51
356.6043585300008
  0
ARC
  5
872
330
1F
100
AcDbEntity
  8
TitleBlock&Notes
  6
Continuous
 62
     3
100
AcDbCircle
 10
27.55482400699448
 20
-2.315310864097363
 30
0.0
 40
0.7583651571375001
100
AcDbArc
 50
184.9874829000004
 51
358.2401137300008
  0
ARC
  5
873
330
1F
100
AcDbEntity
  8
TitleBlock&Notes
  6
Continuous
 62
     3
100
AcDbCircle
 10
27.55482400699448
 20
-2.315310864097363
 30
0.0
 40
0.7175276571375001
100
AcDbArc
 50
185.1275404200005
 51
354.872459580001
  0
LINE
  5
874
330
1F
100
AcDbEntity
  8
TitleBlock&Notes
  6
Continuous
 62
     3
100
AcDbLine
 10
25.58441463199446
 20
-1.562688480397357
 30
0.0
 11
25.58441463199446
 21
-3.053257230397369
 31
0.0
  0
LINE
  5
875
330
1F
100
AcDbEntity
  8
TitleBlock&Notes
  6
Continuous
 62
     3
100
AcDbLine
 10
26.20718650699447
 20
-1.215569730397363
 30
0.0
 11
26.20718650699447
 21
-3.053257230397369
 31
0.0
  0
LINE
  5
876
330
1F
100
AcDbEntity
  8
TitleBlock&Notes
  6
Continuous
 62
     3
100
AcDbLine
 10
26.55430525699446
 20
-1.215569730397363
 30
0.0
 11
26.55430525699446
 21
-3.053257230397369
 31
0.0
  0
LINE
  5
877
330
1F
100
AcDbEntity
  8
TitleBlock&Notes
  6
Continuous
 62
     3
100
AcDbLine
 10
26.57472400699443
 20
-3.073675980397364
 30
0.0
 11
26.57472400699443
 21
-1.195150980397357
 31
0.0
  0
LINE
  5
878
330
1F
100
AcDbEntity
  8
TitleBlock&Notes
  6
Continuous
 62
     3
100
AcDbLine
 10
26.18676775699443
 20
-1.195150980397357
 30
0.0
 11
26.18676775699443
 21
-3.073675980397364
 31
0.0
  0
LINE
  5
879
330
1F
100
AcDbEntity
  8
TitleBlock&Notes
  6
Continuous
 62
     3
100
AcDbLine
 10
25.60483338199444
 20
-3.073675980397364
 30
0.0
 11
25.60483338199444
 21
-1.583107230397352
 31
0.0
  0
LINE
  5
87A
330
1F
100
AcDbEntity
  8
TitleBlock&Notes
  6
Continuous
 62
     3
100
AcDbLine
 10
26.53388650699445
 20
-1.235988480397361
 30
0.0
 11
26.53388650699445
 21
-3.03283848039737
 31
0.0
  0
LINE
  5
87B
330
1F
100
AcDbEntity
  8
TitleBlock&Notes
  6
Continuous
 62
     3
100
AcDbLine
 10
26.22760525699445
 20
-1.235988480397361
 30
0.0
 11
26.22760525699445
 21
-3.03283848039737
 31
0.0
  0
LINE
  5
87C
330
1F
100
AcDbEntity
  8
TitleBlock&Notes
  6
Continuous
 62
     3
100
AcDbLine
 10
25.56399588199449
 20
-1.542269730397361
 30
0.0
 11
25.56399588199449
 21
-3.03283848039737
 31
0.0
  0
LINE
  5
87D
330
1F
100
AcDbEntity
  8
TitleBlock&Notes
  6
Continuous
 62
     3
100
AcDbLine
 10
26.20718650699447
 20
-1.215569730397363
 30
0.0
 11
26.55430525699446
 21
-1.215569730397363
 31
0.0
  0
LINE
  5
87E
330
1F
100
AcDbEntity
  8
TitleBlock&Notes
  6
Continuous
 62
     3
100
AcDbLine
 10
26.18676775699443
 20
-1.195150980397357
 30
0.0
 11
26.57472400699443
 21
-1.195150980397357
 31
0.0
  0
LINE
  5
87F
330
1F
100
AcDbEntity
  8
TitleBlock&Notes
  6
Continuous
 62
     3
100
AcDbLine
 10
26.22760525699445
 20
-1.235988480397361
 30
0.0
 11
26.53388650699445
 21
-1.235988480397361
 31
0.0
  0
LINE
  5
880
330
1F
100
AcDbEntity
  8
TitleBlock&Notes
  6
Continuous
 62
     3
100
AcDbLine
 10
26.06425525699443
 20
-1.409145932722367
 30
0.0
 11
26.18676775699443
 21
-1.409145932722367
 31
0.0
  0
LINE
  5
881
330
1F
100
AcDbEntity
  8
TitleBlock&Notes
  6
Continuous
 62
     3
100
AcDbLine
 10
26.06425525699443
 20
-1.429564682722363
 30
0.0
 11
26.18676775699443
 21
-1.429564682722363
 31
0.0
  0
LINE
  5
882
330
1F
100
AcDbEntity
  8
TitleBlock&Notes
  6
Continuous
 62
     3
100
AcDbLine
 10
26.06425525699443
 20
-1.388727182722347
 30
0.0
 11
26.18676775699443
 21
-1.388727182722347
 31
0.0
  0
LINE
  5
883
330
1F
100
AcDbEntity
  8
TitleBlock&Notes
  6
Continuous
 62
     3
100
AcDbLine
 10
26.06425525699443
 20
-1.449983432722358
 30
0.0
 11
26.18676775699443
 21
-1.449983432722358
 31
0.0
  0
LINE
  5
884
330
1F
100
AcDbEntity
  8
TitleBlock&Notes
  6
Continuous
 62
     3
100
AcDbLine
 10
26.04383650699446
 20
-1.562688480397357
 30
0.0
 11
26.04383650699446
 21
-1.215569730397363
 31
0.0
  0
LINE
  5
885
330
1F
100
AcDbEntity
  8
TitleBlock&Notes
  6
Continuous
 62
     3
100
AcDbLine
 10
26.06425525699443
 20
-1.583107230397352
 30
0.0
 11
26.06425525699443
 21
-1.195150980397357
 31
0.0
  0
LINE
  5
886
330
1F
100
AcDbEntity
  8
TitleBlock&Notes
  6
Continuous
 62
     3
100
AcDbLine
 10
26.02341775699446
 20
-1.235988480397361
 30
0.0
 11
26.02341775699446
 21
-1.542269730397361
 31
0.0
  0
LINE
  5
887
330
1F
100
AcDbEntity
  8
TitleBlock&Notes
  6
Continuous
 62
     3
100
AcDbLine
 10
25.60483338199444
 20
-1.752406029022356
 30
0.0
 11
26.18676775699443
 21
-1.752406029022356
 31
0.0
  0
LINE
  5
888
330
1F
100
AcDbEntity
  8
TitleBlock&Notes
  6
Continuous
 62
     3
100
AcDbLine
 10
25.60483338199444
 20
-1.731987279022358
 30
0.0
 11
26.18676775699443
 21
-1.731987279022358
 31
0.0
  0
LINE
  5
889
330
1F
100
AcDbEntity
  8
TitleBlock&Notes
  6
Continuous
 62
     3
100
AcDbLine
 10
25.60483338199444
 20
-1.771538561122367
 30
0.0
 11
26.18676775699443
 21
-1.771538561122367
 31
0.0
  0
LINE
  5
88A
330
1F
100
AcDbEntity
  8
TitleBlock&Notes
  6
Continuous
 62
     3
100
AcDbLine
 10
25.60483338199444
 20
-1.711568529022351
 30
0.0
 11
26.18676775699443
 21
-1.711568529022351
 31
0.0
  0
LINE
  5
88B
330
1F
100
AcDbEntity
  8
TitleBlock&Notes
  6
Continuous
 62
     3
100
AcDbLine
 10
25.60483338199444
 20
-1.691149779022366
 30
0.0
 11
26.18676775699443
 21
-1.691149779022366
 31
0.0
  0
LINE
  5
88C
330
1F
100
AcDbEntity
  8
TitleBlock&Notes
  6
Continuous
 62
     3
100
AcDbLine
 10
26.02341775699446
 20
-1.542269730397361
 30
0.0
 11
25.56399588199449
 21
-1.542269730397361
 31
0.0
  0
LINE
  5
88D
330
1F
100
AcDbEntity
  8
TitleBlock&Notes
  6
Continuous
 62
     3
100
AcDbLine
 10
25.58441463199446
 20
-1.562688480397357
 30
0.0
 11
26.04383650699446
 21
-1.562688480397357
 31
0.0
  0
LINE
  5
88E
330
1F
100
AcDbEntity
  8
TitleBlock&Notes
  6
Continuous
 62
     3
100
AcDbLine
 10
25.60483338199444
 20
-1.583107230397352
 30
0.0
 11
26.06425525699443
 21
-1.583107230397352
 31
0.0
  0
LINE
  5
88F
330
1F
100
AcDbEntity
  8
TitleBlock&Notes
  6
Continuous
 62
     3
100
AcDbLine
 10
26.03399564959443
 20
-2.454843168134861
 30
0.0
 11
26.18676775699443
 21
-2.452176520222349
 31
0.0
  0
LINE
  5
890
330
1F
100
AcDbEntity
  8
TitleBlock&Notes
  6
Continuous
 62
     3
100
AcDbLine
 10
25.60483338199444
 20
-1.854223717522358
 30
0.0
 11
25.73639449189445
 21
-1.85192734322236
 31
0.0
  0
LINE
  5
891
330
1F
100
AcDbEntity
  8
TitleBlock&Notes
  6
Continuous
 62
     3
100
AcDbLine
 10
25.60483338199444
 20
-2.135584454872354
 30
0.0
 11
25.73639449189445
 21
-2.133288039734863
 31
0.0
  0
LINE
  5
892
330
1F
100
AcDbEntity
  8
TitleBlock&Notes
  6
Continuous
 62
     3
100
AcDbLine
 10
25.60483338199444
 20
-2.050273610572356
 30
0.0
 11
26.18676775699443
 21
-2.040115895009867
 31
0.0
  0
LINE
  5
893
330
1F
100
AcDbEntity
  8
TitleBlock&Notes
  6
Continuous
 62
     3
100
AcDbLine
 10
25.60483338199444
 20
-2.033936119484849
 30
0.0
 11
26.18676775699443
 21
-2.023778403922349
 31
0.0
  0
LINE
  5
894
330
1F
100
AcDbEntity
  8
TitleBlock&Notes
  6
Continuous
 62
     3
100
AcDbLine
 10
25.60483338199444
 20
-2.017598628397355
 30
0.0
 11
26.18676775699443
 21
-2.007440912834856
 31
0.0
  0
LINE
  5
895
330
1F
100
AcDbEntity
  8
TitleBlock&Notes
  6
Continuous
 62
     3
100
AcDbLine
 10
25.60483338199444
 20
-2.001261137309862
 30
0.0
 11
26.18676775699443
 21
-1.991103421747352
 31
0.0
  0
LINE
  5
896
330
1F
100
AcDbEntity
  8
TitleBlock&Notes
  6
Continuous
 62
     3
100
AcDbLine
 10
25.60483338199444
 20
-1.984923646222355
 30
0.0
 11
26.18676775699443
 21
-1.974765930659856
 31
0.0
  0
LINE
  5
897
330
1F
100
AcDbEntity
  8
TitleBlock&Notes
  6
Continuous
 62
     3
100
AcDbLine
 10
25.60483338199444
 20
-1.968586155134862
 30
0.0
 11
26.18676775699443
 21
-1.958428439572363
 31
0.0
  0
LINE
  5
898
330
1F
100
AcDbEntity
  8
TitleBlock&Notes
  6
Continuous
 62
     3
100
AcDbLine
 10
25.60483338199444
 20
-1.952248664047355
 30
0.0
 11
26.18676775699443
 21
-1.942090948484856
 31
0.0
  0
LINE
  5
899
330
1F
100
AcDbEntity
  8
TitleBlock&Notes
  6
Continuous
 62
     3
100
AcDbLine
 10
25.60483338199444
 20
-1.935911172959862
 30
0.0
 11
26.18676775699443
 21
-1.925753457397362
 31
0.0
  0
LINE
  5
89A
330
1F
100
AcDbEntity
  8
TitleBlock&Notes
  6
Continuous
 62
     3
100
AcDbLine
 10
25.60483338199444
 20
-1.919573681872368
 30
0.0
 11
26.18676775699443
 21
-1.909415966309856
 31
0.0
  0
LINE
  5
89B
330
1F
100
AcDbEntity
  8
TitleBlock&Notes
  6
Continuous
 62
     3
100
AcDbLine
 10
25.60483338199444
 20
-1.903236190784851
 30
0.0
 11
26.18676775699443
 21
-1.893078475222362
 31
0.0
  0
LINE
  5
89C
330
1F
100
AcDbEntity
  8
TitleBlock&Notes
  6
Continuous
 62
     3
100
AcDbLine
 10
25.60483338199444
 20
-1.886898699697358
 30
0.0
 11
26.18676775699443
 21
-1.876741024972349
 31
0.0
  0
LINE
  5
89D
330
1F
100
AcDbEntity
  8
TitleBlock&Notes
  6
Continuous
 62
     3
100
AcDbLine
 10
25.60483338199444
 20
-1.870561208609851
 30
0.0
 11
26.18676775699443
 21
-1.860403533884856
 31
0.0
  0
LINE
  5
89E
330
1F
100
AcDbEntity
  8
TitleBlock&Notes
  6
Continuous
 62
     3
100
AcDbLine
 10
25.60483338199444
 20
-2.445996744697355
 30
0.0
 11
26.18676775699443
 21
-2.435839029134855
 31
0.0
  0
LINE
  5
89F
330
1F
100
AcDbEntity
  8
TitleBlock&Notes
  6
Continuous
 62
     3
100
AcDbLine
 10
25.60483338199444
 20
-2.429659253609859
 30
0.0
 11
26.18676775699443
 21
-2.419501538047359
 31
0.0
  0
LINE
  5
8A0
330
1F
100
AcDbEntity
  8
TitleBlock&Notes
  6
Continuous
 62
     3
100
AcDbLine
 10
25.60483338199444
 20
-2.413321762522355
 30
0.0
 11
26.18676775699443
 21
-2.403164046959855
 31
0.0
  0
LINE
  5
8A1
330
1F
100
AcDbEntity
  8
TitleBlock&Notes
  6
Continuous
 62
     3
100
AcDbLine
 10
25.60483338199444
 20
-2.396984271434859
 30
0.0
 11
26.18676775699443
 21
-2.386826555872359
 31
0.0
  0
LINE
  5
8A2
330
1F
100
AcDbEntity
  8
TitleBlock&Notes
  6
Continuous
 62
     3
100
AcDbLine
 10
25.60483338199444
 20
-2.380646780347365
 30
0.0
 11
26.18676775699443
 21
-2.370489064784855
 31
0.0
  0
LINE
  5
8A3
330
1F
100
AcDbEntity
  8
TitleBlock&Notes
  6
Continuous
 62
     3
100
AcDbLine
 10
25.60483338199444
 20
-2.364309289259859
 30
0.0
 11
26.18676775699443
 21
-2.354151573697359
 31
0.0
  0
LINE
  5
8A4
330
1F
100
AcDbEntity
  8
TitleBlock&Notes
  6
Continuous
 62
     3
100
AcDbLine
 10
25.60483338199444
 20
-2.347971798172365
 30
0.0
 11
26.18676775699443
 21
-2.337814123447359
 31
0.0
  0
LINE
  5
8A5
330
1F
100
AcDbEntity
  8
TitleBlock&Notes
  6
Continuous
 62
     3
100
AcDbLine
 10
25.60483338199444
 20
-2.331634307084848
 30
0.0
 11
26.18676775699443
 21
-2.321476632359863
 31
0.0
  0
LINE
  5
8A6
330
1F
100
AcDbEntity
  8
TitleBlock&Notes
  6
Continuous
 62
     3
100
AcDbLine
 10
25.60483338199444
 20
-2.315296815997365
 30
0.0
 11
26.18676775699443
 21
-2.305139141272348
 31
0.0
  0
LINE
  5
8A7
330
1F
100
AcDbEntity
  8
TitleBlock&Notes
  6
Continuous
 62
     3
100
AcDbLine
 10
25.60483338199444
 20
-2.298959324909872
 30
0.0
 11
26.18676775699443
 21
-2.288801650184863
 31
0.0
  0
LINE
  5
8A8
330
1F
100
AcDbEntity
  8
TitleBlock&Notes
  6
Continuous
 62
     3
100
AcDbLine
 10
25.60483338199444
 20
-2.282621874659858
 30
0.0
 11
26.18676775699443
 21
-2.27246415909737
 31
0.0
  0
LINE
  5
8A9
330
1F
100
AcDbEntity
  8
TitleBlock&Notes
  6
Continuous
 62
     3
100
AcDbLine
 10
25.60483338199444
 20
-2.266284383572352
 30
0.0
 11
26.18676775699443
 21
-2.256126668009852
 31
0.0
  0
LINE
  5
8AA
330
1F
100
AcDbEntity
  8
TitleBlock&Notes
  6
Continuous
 62
     3
100
AcDbLine
 10
25.60483338199444
 20
-2.249946892484858
 30
0.0
 11
26.18676775699443
 21
-2.239789176922359
 31
0.0
  0
LINE
  5
8AB
330
1F
100
AcDbEntity
  8
TitleBlock&Notes
  6
Continuous
 62
     3
100
AcDbLine
 10
25.60483338199444
 20
-2.233609401397365
 30
0.0
 11
26.18676775699443
 21
-2.223451685834852
 31
0.0
  0
LINE
  5
8AC
330
1F
100
AcDbEntity
  8
TitleBlock&Notes
  6
Continuous
 62
     3
100
AcDbLine
 10
25.60483338199444
 20
-2.217271910309858
 30
0.0
 11
26.18676775699443
 21
-2.207114194747359
 31
0.0
  0
LINE
  5
8AD
330
1F
100
AcDbEntity
  8
TitleBlock&Notes
  6
Continuous
 62
     3
100
AcDbLine
 10
25.60483338199444
 20
-2.200934419222365
 30
0.0
 11
26.18676775699443
 21
-2.190776703659865
 31
0.0
  0
LINE
  5
8AE
330
1F
100
AcDbEntity
  8
TitleBlock&Notes
  6
Continuous
 62
     3
100
AcDbLine
 10
25.60483338199444
 20
-2.184596928134858
 30
0.0
 11
26.18676775699443
 21
-2.174439212572359
 31
0.0
  0
LINE
  5
8AF
330
1F
100
AcDbEntity
  8
TitleBlock&Notes
  6
Continuous
 62
     3
100
AcDbLine
 10
25.60483338199444
 20
-2.168259437047365
 30
0.0
 11
26.18676775699443
 21
-2.158101721484865
 31
0.0
  0
LINE
  5
8B0
330
1F
100
AcDbEntity
  8
TitleBlock&Notes
  6
Continuous
 62
     3
100
AcDbLine
 10
25.60483338199444
 20
-2.151921945959871
 30
0.0
 11
26.18676775699443
 21
-2.141764230397359
 31
0.0
  0
LINE
  5
8B1
330
1F
100
AcDbEntity
  8
TitleBlock&Notes
  6
Continuous
 62
     3
100
AcDbLine
 10
25.60483338199444
 20
-2.454843168134861
 30
0.0
 11
26.18676775699443
 21
-2.454843168134861
 31
0.0
  0
LINE
  5
8B2
330
1F
100
AcDbEntity
  8
TitleBlock&Notes
  6
Continuous
 62
     3
100
AcDbLine
 10
25.60483338199444
 20
-2.133288039734863
 30
0.0
 11
26.18676775699443
 21
-2.133288039734863
 31
0.0
  0
LINE
  5
8B3
330
1F
100
AcDbEntity
  8
TitleBlock&Notes
  6
Continuous
 62
     3
100
AcDbLine
 10
25.60483338199444
 20
-2.052899257634862
 30
0.0
 11
26.18676775699443
 21
-2.052899257634862
 31
0.0
  0
LINE
  5
8B4
330
1F
100
AcDbEntity
  8
TitleBlock&Notes
  6
Continuous
 62
     3
100
AcDbLine
 10
25.60483338199444
 20
-1.85192734322236
 30
0.0
 11
26.18676775699443
 21
-1.85192734322236
 31
0.0
  0
LINE
  5
8B5
330
1F
100
AcDbEntity
  8
TitleBlock&Notes
  6
Continuous
 62
     3
100
AcDbLine
 10
26.57472400699443
 20
-1.731987279022358
 30
0.0
 11
26.82775907843199
 21
-1.731987279022358
 31
0.0
  0
LINE
  5
8B6
330
1F
100
AcDbEntity
  8
TitleBlock&Notes
  6
Continuous
 62
     3
100
AcDbLine
 10
26.57472400699443
 20
-1.711568529022351
 30
0.0
 11
26.83436450321949
 21
-1.711568529022351
 31
0.0
  0
LINE
  5
8B7
330
1F
100
AcDbEntity
  8
TitleBlock&Notes
  6
Continuous
 62
     3
100
AcDbLine
 10
26.57472400699443
 20
-1.429564682722363
 30
0.0
 11
27.00553088239447
 21
-1.429564682722363
 31
0.0
  0
LINE
  5
8B8
330
1F
100
AcDbEntity
  8
TitleBlock&Notes
  6
Continuous
 62
     3
100
AcDbLine
 10
26.57472400699443
 20
-1.409145932722367
 30
0.0
 11
27.02585215328197
 21
-1.409145932722367
 31
0.0
  0
LINE
  5
8B9
330
1F
100
AcDbEntity
  8
TitleBlock&Notes
  6
Continuous
 62
     3
100
AcDbLine
 10
26.57472400699443
 20
-1.388727182722347
 30
0.0
 11
27.04780761840694
 21
-1.388727182722347
 31
0.0
  0
LINE
  5
8BA
330
1F
100
AcDbEntity
  8
TitleBlock&Notes
  6
Continuous
 62
     3
100
AcDbLine
 10
26.57472400699443
 20
-1.691149779022366
 30
0.0
 11
26.84161540553194
 21
-1.691149779022366
 31
0.0
  0
LINE
  5
8BB
330
1F
100
AcDbEntity
  8
TitleBlock&Notes
  6
Continuous
 62
     3
100
AcDbLine
 10
26.57472400699443
 20
-1.449983432722358
 30
0.0
 11
26.98666840868199
 21
-1.449983432722358
 31
0.0
  0
LINE
  5
8BC
330
1F
100
AcDbEntity
  8
TitleBlock&Notes
  6
Continuous
 62
     3
100
AcDbLine
 10
26.57472400699443
 20
-1.752406029022356
 30
0.0
 11
26.82178165271944
 21
-1.752406029022356
 31
0.0
  0
LINE
  5
8BD
330
1F
100
AcDbEntity
  8
TitleBlock&Notes
  6
Continuous
 62
     3
100
AcDbLine
 10
26.57472400699443
 20
-1.771538561122367
 30
0.0
 11
26.81673707801948
 21
-1.771538561122367
 31
0.0
  0
LINE
  5
8BE
330
1F
100
AcDbEntity
  8
TitleBlock&Notes
  6
Continuous
 62
     3
100
AcDbLine
 10
26.81974900699445
 20
-2.381241701047359
 30
0.0
 11
26.81974900699445
 21
-1.866494732872353
 31
0.0
  0
LINE
  5
8BF
330
1F
100
AcDbEntity
  8
TitleBlock&Notes
  6
Continuous
 62
     3
100
AcDbLine
 10
27.14644900699449
 20
-2.36382324133486
 30
0.0
 11
27.14644900699449
 21
-1.890099869647366
 31
0.0
  0
LINE
  5
8C0
330
1F
100
AcDbEntity
  8
TitleBlock&Notes
  6
Continuous
 62
     3
100
AcDbLine
 10
26.79933025699446
 20
-2.381241701047359
 30
0.0
 11
26.79933025699446
 21
-1.866494732872353
 31
0.0
  0
LINE
  5
8C1
330
1F
100
AcDbEntity
  8
TitleBlock&Notes
  6
Continuous
 62
     3
100
AcDbLine
 10
26.84016775699447
 20
-2.379438480397356
 30
0.0
 11
26.84016775699447
 21
-1.868969730397356
 31
0.0
  0
LINE
  5
8C2
330
1F
100
AcDbEntity
  8
TitleBlock&Notes
  6
Continuous
 62
     3
100
AcDbLine
 10
27.170892251782
 20
-1.86669091622235
 30
0.0
 11
27.16686841039447
 21
-2.361239983597355
 31
0.0
  0
LINE
  5
8C3
330
1F
100
AcDbEntity
  8
TitleBlock&Notes
  6
Continuous
 62
     3
100
AcDbLine
 10
27.19131030754446
 20
-1.866857043172357
 30
0.0
 11
27.18728650699445
 21
-2.361406110547362
 31
0.0
  0
LINE
  5
8C4
330
1F
100
AcDbEntity
  8
TitleBlock&Notes
  6
Continuous
 62
     3
100
AcDbLine
 10
26.57472400699443
 20
-1.85363169628486
 30
0.0
 11
26.67236859304449
 21
-1.85192734322236
 31
0.0
  0
LINE
  5
8C5
330
1F
100
AcDbEntity
  8
TitleBlock&Notes
  6
Continuous
 62
     3
100
AcDbLine
 10
26.57472400699443
 20
-2.134992433634868
 30
0.0
 11
26.67236859304449
 21
-2.133288039734863
 31
0.0
  0
LINE
  5
8C6
330
1F
100
AcDbEntity
  8
TitleBlock&Notes
  6
Continuous
 62
     3
100
AcDbLine
 10
26.57472400699443
 20
-2.445404723459868
 30
0.0
 11
26.8070059918195
 21
-2.441350213109859
 31
0.0
  0
LINE
  5
8C7
330
1F
100
AcDbEntity
  8
TitleBlock&Notes
  6
Continuous
 62
     3
100
AcDbLine
 10
26.57472400699443
 20
-2.454843168134861
 30
0.0
 11
26.80940572583192
 21
-2.454843168134861
 31
0.0
  0
LINE
  5
8C8
330
1F
100
AcDbEntity
  8
TitleBlock&Notes
  6
Continuous
 62
     3
100
AcDbLine
 10
26.57472400699443
 20
-2.049681589334858
 30
0.0
 11
26.79933025699446
 21
-2.045761066822367
 31
0.0
  0
LINE
  5
8C9
330
1F
100
AcDbEntity
  8
TitleBlock&Notes
  6
Continuous
 62
     3
100
AcDbLine
 10
26.57472400699443
 20
-2.033344098247365
 30
0.0
 11
26.79933025699446
 21
-2.029423575734853
 31
0.0
  0
LINE
  5
8CA
330
1F
100
AcDbEntity
  8
TitleBlock&Notes
  6
Continuous
 62
     3
100
AcDbLine
 10
26.57472400699443
 20
-2.017006607159848
 30
0.0
 11
26.79933025699446
 21
-2.013086084647357
 31
0.0
  0
LINE
  5
8CB
330
1F
100
AcDbEntity
  8
TitleBlock&Notes
  6
Continuous
 62
     3
100
AcDbLine
 10
26.57472400699443
 20
-2.000669116072365
 30
0.0
 11
26.79933025699446
 21
-1.996748593559853
 31
0.0
  0
LINE
  5
8CC
330
1F
100
AcDbEntity
  8
TitleBlock&Notes
  6
Continuous
 62
     3
100
AcDbLine
 10
26.57472400699443
 20
-1.984331624984871
 30
0.0
 11
26.79933025699446
 21
-1.980411102472359
 31
0.0
  0
LINE
  5
8CD
330
1F
100
AcDbEntity
  8
TitleBlock&Notes
  6
Continuous
 62
     3
100
AcDbLine
 10
26.57472400699443
 20
-1.967994133897354
 30
0.0
 11
26.79933025699446
 21
-1.964073611384863
 31
0.0
  0
LINE
  5
8CE
330
1F
100
AcDbEntity
  8
TitleBlock&Notes
  6
Continuous
 62
     3
100
AcDbLine
 10
26.57472400699443
 20
-1.951656642809861
 30
0.0
 11
26.79933025699446
 21
-1.947736120297359
 31
0.0
  0
LINE
  5
8CF
330
1F
100
AcDbEntity
  8
TitleBlock&Notes
  6
Continuous
 62
     3
100
AcDbLine
 10
26.57472400699443
 20
-1.935319151722354
 30
0.0
 11
26.79933025699446
 21
-1.931398629209863
 31
0.0
  0
LINE
  5
8D0
330
1F
100
AcDbEntity
  8
TitleBlock&Notes
  6
Continuous
 62
     3
100
AcDbLine
 10
26.57472400699443
 20
-1.918981660634861
 30
0.0
 11
26.79933025699446
 21
-1.915061138122359
 31
0.0
  0
LINE
  5
8D1
330
1F
100
AcDbEntity
  8
TitleBlock&Notes
  6
Continuous
 62
     3
100
AcDbLine
 10
26.57472400699443
 20
-1.902644169547365
 30
0.0
 11
26.79933025699446
 21
-1.898723647034863
 31
0.0
  0
LINE
  5
8D2
330
1F
100
AcDbEntity
  8
TitleBlock&Notes
  6
Continuous
 62
     3
100
AcDbLine
 10
26.57472400699443
 20
-1.88630667845986
 30
0.0
 11
26.79933025699446
 21
-1.88238615594737
 31
0.0
  0
LINE
  5
8D3
330
1F
100
AcDbEntity
  8
TitleBlock&Notes
  6
Continuous
 62
     3
100
AcDbLine
 10
26.57472400699443
 20
-1.869969187372356
 30
0.0
 11
26.79938326406949
 21
-1.866047766434856
 31
0.0
  0
LINE
  5
8D4
330
1F
100
AcDbEntity
  8
TitleBlock&Notes
  6
Continuous
 62
     3
100
AcDbLine
 10
26.57472400699443
 20
-2.429067232372351
 30
0.0
 11
26.80444184603197
 21
-2.425057479922354
 31
0.0
  0
LINE
  5
8D5
330
1F
100
AcDbEntity
  8
TitleBlock&Notes
  6
Continuous
 62
     3
100
AcDbLine
 10
26.57472400699443
 20
-2.412729741284868
 30
0.0
 11
26.80223829536947
 21
-2.408758457759864
 31
0.0
  0
LINE
  5
8D6
330
1F
100
AcDbEntity
  8
TitleBlock&Notes
  6
Continuous
 62
     3
100
AcDbLine
 10
26.57472400699443
 20
-2.396392250197351
 30
0.0
 11
26.80039260371945
 21
-2.392453187459854
 31
0.0
  0
LINE
  5
8D7
330
1F
100
AcDbEntity
  8
TitleBlock&Notes
  6
Continuous
 62
     3
100
AcDbLine
 10
26.57472400699443
 20
-2.380054759109857
 30
0.0
 11
26.79933025699446
 21
-2.376134236597356
 31
0.0
  0
LINE
  5
8D8
330
1F
100
AcDbEntity
  8
TitleBlock&Notes
  6
Continuous
 62
     3
100
AcDbLine
 10
26.57472400699443
 20
-2.363717268022364
 30
0.0
 11
26.79933025699446
 21
-2.359796745509862
 31
0.0
  0
LINE
  5
8D9
330
1F
100
AcDbEntity
  8
TitleBlock&Notes
  6
Continuous
 62
     3
100
AcDbLine
 10
26.57472400699443
 20
-2.347379776934857
 30
0.0
 11
26.79933025699446
 21
-2.34345929525986
 31
0.0
  0
LINE
  5
8DA
330
1F
100
AcDbEntity
  8
TitleBlock&Notes
  6
Continuous
 62
     3
100
AcDbLine
 10
26.57472400699443
 20
-2.331042285847353
 30
0.0
 11
26.79933025699446
 21
-2.327121804172364
 31
0.0
  0
LINE
  5
8DB
330
1F
100
AcDbEntity
  8
TitleBlock&Notes
  6
Continuous
 62
     3
100
AcDbLine
 10
26.57472400699443
 20
-2.314704835597361
 30
0.0
 11
26.79933025699446
 21
-2.310784313084849
 31
0.0
  0
LINE
  5
8DC
330
1F
100
AcDbEntity
  8
TitleBlock&Notes
  6
Continuous
 62
     3
100
AcDbLine
 10
26.57472400699443
 20
-2.298367344509868
 30
0.0
 11
26.79933025699446
 21
-2.294446821997356
 31
0.0
  0
LINE
  5
8DD
330
1F
100
AcDbEntity
  8
TitleBlock&Notes
  6
Continuous
 62
     3
100
AcDbLine
 10
26.57472400699443
 20
-2.282029853422361
 30
0.0
 11
26.79933025699446
 21
-2.27810933090986
 31
0.0
  0
LINE
  5
8DE
330
1F
100
AcDbEntity
  8
TitleBlock&Notes
  6
Continuous
 62
     3
100
AcDbLine
 10
26.57472400699443
 20
-2.265692362334868
 30
0.0
 11
26.79933025699446
 21
-2.261771839822356
 31
0.0
  0
LINE
  5
8DF
330
1F
100
AcDbEntity
  8
TitleBlock&Notes
  6
Continuous
 62
     3
100
AcDbLine
 10
26.57472400699443
 20
-2.249354871247351
 30
0.0
 11
26.79933025699446
 21
-2.24543434873486
 31
0.0
  0
LINE
  5
8E0
330
1F
100
AcDbEntity
  8
TitleBlock&Notes
  6
Continuous
 62
     3
100
AcDbLine
 10
26.57472400699443
 20
-2.233017380159857
 30
0.0
 11
26.79933025699446
 21
-2.229096857647355
 31
0.0
  0
LINE
  5
8E1
330
1F
100
AcDbEntity
  8
TitleBlock&Notes
  6
Continuous
 62
     3
100
AcDbLine
 10
26.57472400699443
 20
-2.216679889072361
 30
0.0
 11
26.79933025699446
 21
-2.212759366559859
 31
0.0
  0
LINE
  5
8E2
330
1F
100
AcDbEntity
  8
TitleBlock&Notes
  6
Continuous
 62
     3
100
AcDbLine
 10
26.57472400699443
 20
-2.200342397984857
 30
0.0
 11
26.79933025699446
 21
-2.196421875472366
 31
0.0
  0
LINE
  5
8E3
330
1F
100
AcDbEntity
  8
TitleBlock&Notes
  6
Continuous
 62
     3
100
AcDbLine
 10
26.57472400699443
 20
-2.184004906897353
 30
0.0
 11
26.79933025699446
 21
-2.180084384384862
 31
0.0
  0
LINE
  5
8E4
330
1F
100
AcDbEntity
  8
TitleBlock&Notes
  6
Continuous
 62
     3
100
AcDbLine
 10
26.57472400699443
 20
-2.167667415809857
 30
0.0
 11
26.79933025699446
 21
-2.163746893297366
 31
0.0
  0
LINE
  5
8E5
330
1F
100
AcDbEntity
  8
TitleBlock&Notes
  6
Continuous
 62
     3
100
AcDbLine
 10
26.57472400699443
 20
-2.151329924722364
 30
0.0
 11
26.79933025699446
 21
-2.147409402209862
 31
0.0
  0
LINE
  5
8E6
330
1F
100
AcDbEntity
  8
TitleBlock&Notes
  6
Continuous
 62
     3
100
AcDbLine
 10
26.57472400699443
 20
-2.133288039734863
 30
0.0
 11
26.79933025699446
 21
-2.133288039734863
 31
0.0
  0
LINE
  5
8E7
330
1F
100
AcDbEntity
  8
TitleBlock&Notes
  6
Continuous
 62
     3
100
AcDbLine
 10
26.57472400699443
 20
-2.052899257634862
 30
0.0
 11
26.79933025699446
 21
-2.052899257634862
 31
0.0
  0
LINE
  5
8E8
330
1F
100
AcDbEntity
  8
TitleBlock&Notes
  6
Continuous
 62
     3
100
AcDbLine
 10
26.57472400699443
 20
-1.85192734322236
 30
0.0
 11
26.80119718414445
 21
-1.85192734322236
 31
0.0
  0
LINE
  5
8E9
330
1F
100
AcDbEntity
  8
TitleBlock&Notes
  6
Continuous
 62
     3
100
AcDbLine
 10
26.55430525699446
 20
-3.053257230397369
 30
0.0
 11
26.20718650699447
 21
-3.053257230397369
 31
0.0
  0
LINE
  5
8EA
330
1F
100
AcDbEntity
  8
TitleBlock&Notes
  6
Continuous
 62
     3
100
AcDbLine
 10
26.18676775699443
 20
-3.073675980397364
 30
0.0
 11
26.57472400699443
 21
-3.073675980397364
 31
0.0
  0
LINE
  5
8EB
330
1F
100
AcDbEntity
  8
TitleBlock&Notes
  6
Continuous
 62
     3
100
AcDbLine
 10
26.22760525699445
 20
-3.03283848039737
 30
0.0
 11
26.53388650699445
 21
-3.03283848039737
 31
0.0
  0
LINE
  5
8EC
330
1F
100
AcDbEntity
  8
TitleBlock&Notes
  6
Continuous
 62
     3
100
AcDbLine
 10
25.60483338199444
 20
-2.822956721909857
 30
0.0
 11
26.18676775699443
 21
-2.812799047184859
 31
0.0
  0
LINE
  5
8ED
330
1F
100
AcDbEntity
  8
TitleBlock&Notes
  6
Continuous
 62
     3
100
AcDbLine
 10
25.60483338199444
 20
-2.806619230822361
 30
0.0
 11
26.18676775699443
 21
-2.796461556097366
 31
0.0
  0
LINE
  5
8EE
330
1F
100
AcDbEntity
  8
TitleBlock&Notes
  6
Continuous
 62
     3
100
AcDbLine
 10
25.60483338199444
 20
-2.790281780572372
 30
0.0
 11
26.18676775699443
 21
-2.780124065009859
 31
0.0
  0
LINE
  5
8EF
330
1F
100
AcDbEntity
  8
TitleBlock&Notes
  6
Continuous
 62
     3
100
AcDbLine
 10
25.60483338199444
 20
-2.773944289484854
 30
0.0
 11
26.18676775699443
 21
-2.763786573922366
 31
0.0
  0
LINE
  5
8F0
330
1F
100
AcDbEntity
  8
TitleBlock&Notes
  6
Continuous
 62
     3
100
AcDbLine
 10
25.60483338199444
 20
-2.757606798397361
 30
0.0
 11
26.18676775699443
 21
-2.747449082834872
 31
0.0
  0
LINE
  5
8F1
330
1F
100
AcDbEntity
  8
TitleBlock&Notes
  6
Continuous
 62
     3
100
AcDbLine
 10
25.60483338199444
 20
-2.741269307309854
 30
0.0
 11
26.18676775699443
 21
-2.731111591747355
 31
0.0
  0
LINE
  5
8F2
330
1F
100
AcDbEntity
  8
TitleBlock&Notes
  6
Continuous
 62
     3
100
AcDbLine
 10
25.60483338199444
 20
-2.724931816222361
 30
0.0
 11
26.18676775699443
 21
-2.714774100659851
 31
0.0
  0
LINE
  5
8F3
330
1F
100
AcDbEntity
  8
TitleBlock&Notes
  6
Continuous
 62
     3
100
AcDbLine
 10
25.60483338199444
 20
-2.708594325134865
 30
0.0
 11
26.18676775699443
 21
-2.698436609572355
 31
0.0
  0
LINE
  5
8F4
330
1F
100
AcDbEntity
  8
TitleBlock&Notes
  6
Continuous
 62
     3
100
AcDbLine
 10
25.60483338199444
 20
-2.692256834047361
 30
0.0
 11
26.18676775699443
 21
-2.682099118484861
 31
0.0
  0
LINE
  5
8F5
330
1F
100
AcDbEntity
  8
TitleBlock&Notes
  6
Continuous
 62
     3
100
AcDbLine
 10
25.60483338199444
 20
-2.675919342959854
 30
0.0
 11
26.18676775699443
 21
-2.665761627397355
 31
0.0
  0
LINE
  5
8F6
330
1F
100
AcDbEntity
  8
TitleBlock&Notes
  6
Continuous
 62
     3
100
AcDbLine
 10
25.60483338199444
 20
-2.659581851872361
 30
0.0
 11
26.18676775699443
 21
-2.649424136309861
 31
0.0
  0
LINE
  5
8F7
330
1F
100
AcDbEntity
  8
TitleBlock&Notes
  6
Continuous
 62
     3
100
AcDbLine
 10
25.60483338199444
 20
-2.643244360784867
 30
0.0
 11
26.18676775699443
 21
-2.633086645222357
 31
0.0
  0
LINE
  5
8F8
330
1F
100
AcDbEntity
  8
TitleBlock&Notes
  6
Continuous
 62
     3
100
AcDbLine
 10
25.60483338199444
 20
-2.62690686969735
 30
0.0
 11
26.18676775699443
 21
-2.616749194972365
 31
0.0
  0
LINE
  5
8F9
330
1F
100
AcDbEntity
  8
TitleBlock&Notes
  6
Continuous
 62
     3
100
AcDbLine
 10
25.60483338199444
 20
-2.610569378609857
 30
0.0
 11
26.18676775699443
 21
-2.600411703884869
 31
0.0
  0
LINE
  5
8FA
330
1F
100
AcDbEntity
  8
TitleBlock&Notes
  6
Continuous
 62
     3
100
AcDbLine
 10
25.60483338199444
 20
-2.59423188752235
 30
0.0
 11
26.18676775699443
 21
-2.584074212797355
 31
0.0
  0
LINE
  5
8FB
330
1F
100
AcDbEntity
  8
TitleBlock&Notes
  6
Continuous
 62
     3
100
AcDbLine
 10
25.60483338199444
 20
-2.577894396434857
 30
0.0
 11
26.18676775699443
 21
-2.567736721709848
 31
0.0
  0
LINE
  5
8FC
330
1F
100
AcDbEntity
  8
TitleBlock&Notes
  6
Continuous
 62
     3
100
AcDbLine
 10
25.60483338199444
 20
-2.561556946184865
 30
0.0
 11
26.18676775699443
 21
-2.551399230622354
 31
0.0
  0
LINE
  5
8FD
330
1F
100
AcDbEntity
  8
TitleBlock&Notes
  6
Continuous
 62
     3
100
AcDbLine
 10
25.60483338199444
 20
-2.545219455097361
 30
0.0
 11
26.17701617036943
 21
-2.535231950234852
 31
0.0
  0
LINE
  5
8FE
330
1F
100
AcDbEntity
  8
TitleBlock&Notes
  6
Continuous
 62
     3
100
AcDbLine
 10
25.60483338199444
 20
-2.535231950234852
 30
0.0
 11
26.18676775699443
 21
-2.535231950234852
 31
0.0
  0
LINE
  5
8FF
330
1F
100
AcDbEntity
  8
TitleBlock&Notes
  6
Continuous
 62
     3
100
AcDbLine
 10
25.60483338199444
 20
-3.068019047384858
 30
0.0
 11
26.18676775699443
 21
-3.05786137265986
 31
0.0
  0
LINE
  5
900
330
1F
100
AcDbEntity
  8
TitleBlock&Notes
  6
Continuous
 62
     3
100
AcDbLine
 10
25.60483338199444
 20
-3.051681556297362
 30
0.0
 11
26.18676775699443
 21
-3.041523881572356
 31
0.0
  0
LINE
  5
901
330
1F
100
AcDbEntity
  8
TitleBlock&Notes
  6
Continuous
 62
     3
100
AcDbLine
 10
25.60483338199444
 20
-3.035344106047359
 30
0.0
 11
26.18676775699443
 21
-3.02518639048486
 31
0.0
  0
LINE
  5
902
330
1F
100
AcDbEntity
  8
TitleBlock&Notes
  6
Continuous
 62
     3
100
AcDbLine
 10
25.60483338199444
 20
-3.019006614959866
 30
0.0
 11
26.18676775699443
 21
-3.008848899397356
 31
0.0
  0
LINE
  5
903
330
1F
100
AcDbEntity
  8
TitleBlock&Notes
  6
Continuous
 62
     3
100
AcDbLine
 10
25.60483338199444
 20
-3.002669123872362
 30
0.0
 11
26.18676775699443
 21
-2.992511408309862
 31
0.0
  0
LINE
  5
904
330
1F
100
AcDbEntity
  8
TitleBlock&Notes
  6
Continuous
 62
     3
100
AcDbLine
 10
25.60483338199444
 20
-2.986331632784866
 30
0.0
 11
26.18676775699443
 21
-2.976173917222366
 31
0.0
  0
LINE
  5
905
330
1F
100
AcDbEntity
  8
TitleBlock&Notes
  6
Continuous
 62
     3
100
AcDbLine
 10
25.60483338199444
 20
-2.969994141697348
 30
0.0
 11
26.18676775699443
 21
-2.959836426134862
 31
0.0
  0
LINE
  5
906
330
1F
100
AcDbEntity
  8
TitleBlock&Notes
  6
Continuous
 62
     3
100
AcDbLine
 10
25.60483338199444
 20
-2.953656650609855
 30
0.0
 11
26.18676775699443
 21
-2.943498935047366
 31
0.0
  0
LINE
  5
907
330
1F
100
AcDbEntity
  8
TitleBlock&Notes
  6
Continuous
 62
     3
100
AcDbLine
 10
25.60483338199444
 20
-2.937319159522372
 30
0.0
 11
26.18676775699443
 21
-2.927161443959851
 31
0.0
  0
LINE
  5
908
330
1F
100
AcDbEntity
  8
TitleBlock&Notes
  6
Continuous
 62
     3
100
AcDbLine
 10
25.60483338199444
 20
-2.920981668434855
 30
0.0
 11
26.18676775699443
 21
-2.910823952872366
 31
0.0
  0
LINE
  5
909
330
1F
100
AcDbEntity
  8
TitleBlock&Notes
  6
Continuous
 62
     3
100
AcDbLine
 10
25.60483338199444
 20
-2.904644177347361
 30
0.0
 11
26.18676775699443
 21
-2.894486461784873
 31
0.0
  0
LINE
  5
90A
330
1F
100
AcDbEntity
  8
TitleBlock&Notes
  6
Continuous
 62
     3
100
AcDbLine
 10
25.60483338199444
 20
-2.888306686259855
 30
0.0
 11
26.18676775699443
 21
-2.878148970697355
 31
0.0
  0
LINE
  5
90B
330
1F
100
AcDbEntity
  8
TitleBlock&Notes
  6
Continuous
 62
     3
100
AcDbLine
 10
25.60483338199444
 20
-2.871969195172361
 30
0.0
 11
26.18676775699443
 21
-2.861811520447355
 31
0.0
  0
LINE
  5
90C
330
1F
100
AcDbEntity
  8
TitleBlock&Notes
  6
Continuous
 62
     3
100
AcDbLine
 10
25.60483338199444
 20
-2.855631704084868
 30
0.0
 11
26.18676775699443
 21
-2.845474029359859
 31
0.0
  0
LINE
  5
90D
330
1F
100
AcDbEntity
  8
TitleBlock&Notes
  6
Continuous
 62
     3
100
AcDbLine
 10
25.60483338199444
 20
-2.839294212997361
 30
0.0
 11
26.18676775699443
 21
-2.829136538272366
 31
0.0
  0
LINE
  5
90E
330
1F
100
AcDbEntity
  8
TitleBlock&Notes
  6
Continuous
 62
     3
100
AcDbLine
 10
26.57472400699443
 20
-2.822364741509853
 30
0.0
 11
26.98454575710698
 21
-2.815211277472359
 31
0.0
  0
LINE
  5
90F
330
1F
100
AcDbEntity
  8
TitleBlock&Notes
  6
Continuous
 62
     3
100
AcDbLine
 10
26.57472400699443
 20
-2.806027250422357
 30
0.0
 11
26.97082660316945
 21
-2.79911325748485
 31
0.0
  0
LINE
  5
910
330
1F
100
AcDbEntity
  8
TitleBlock&Notes
  6
Continuous
 62
     3
100
AcDbLine
 10
26.57472400699443
 20
-2.789689759334864
 30
0.0
 11
26.95784628128195
 21
-2.783002332847363
 31
0.0
  0
LINE
  5
911
330
1F
100
AcDbEntity
  8
TitleBlock&Notes
  6
Continuous
 62
     3
100
AcDbLine
 10
26.57472400699443
 20
-2.773352268247368
 30
0.0
 11
26.94555917595696
 21
-2.766879320309854
 31
0.0
  0
LINE
  5
912
330
1F
100
AcDbEntity
  8
TitleBlock&Notes
  6
Continuous
 62
     3
100
AcDbLine
 10
26.57472400699443
 20
-2.757014777159864
 30
0.0
 11
26.93392555230699
 21
-2.750744873272363
 31
0.0
  0
LINE
  5
913
330
1F
100
AcDbEntity
  8
TitleBlock&Notes
  6
Continuous
 62
     3
100
AcDbLine
 10
26.57472400699443
 20
-2.740677286072346
 30
0.0
 11
26.92291057594449
 21
-2.734599645134863
 31
0.0
  0
LINE
  5
914
330
1F
100
AcDbEntity
  8
TitleBlock&Notes
  6
Continuous
 62
     3
100
AcDbLine
 10
26.57472400699443
 20
-2.724339794984853
 30
0.0
 11
26.91248357790695
 21
-2.718444166784848
 31
0.0
  0
LINE
  5
915
330
1F
100
AcDbEntity
  8
TitleBlock&Notes
  6
Continuous
 62
     3
100
AcDbLine
 10
26.57472400699443
 20
-2.70800230389736
 30
0.0
 11
26.90261740125698
 21
-2.702278887434857
 31
0.0
  0
LINE
  5
916
330
1F
100
AcDbEntity
  8
TitleBlock&Notes
  6
Continuous
 62
     3
100
AcDbLine
 10
26.57472400699443
 20
-2.691664812809853
 30
0.0
 11
26.89328795186944
 21
-2.686104256297362
 31
0.0
  0
LINE
  5
917
330
1F
100
AcDbEntity
  8
TitleBlock&Notes
  6
Continuous
 62
     3
100
AcDbLine
 10
26.57472400699443
 20
-2.67532732172236
 30
0.0
 11
26.88447362670698
 21
-2.669920640909861
 31
0.0
  0
LINE
  5
918
330
1F
100
AcDbEntity
  8
TitleBlock&Notes
  6
Continuous
 62
     3
100
AcDbLine
 10
26.57472400699443
 20
-2.658989830634853
 30
0.0
 11
26.87615523214446
 21
-2.653728327134854
 31
0.0
  0
LINE
  5
919
330
1F
100
AcDbEntity
  8
TitleBlock&Notes
  6
Continuous
 62
     3
100
AcDbLine
 10
26.57472400699443
 20
-2.64265233954736
 30
0.0
 11
26.86831545308195
 21
-2.637527682509861
 31
0.0
  0
LINE
  5
91A
330
1F
100
AcDbEntity
  8
TitleBlock&Notes
  6
Continuous
 62
     3
100
AcDbLine
 10
26.57472400699443
 20
-2.626314848459866
 30
0.0
 11
26.86093877126948
 21
-2.621318952059858
 31
0.0
  0
LINE
  5
91B
330
1F
100
AcDbEntity
  8
TitleBlock&Notes
  6
Continuous
 62
     3
100
AcDbLine
 10
26.57472400699443
 20
-2.609977357372359
 30
0.0
 11
26.85401122028195
 21
-2.605102380809857
 31
0.0
  0
LINE
  5
91C
330
1F
100
AcDbEntity
  8
TitleBlock&Notes
  6
Continuous
 62
     3
100
AcDbLine
 10
26.57472400699443
 20
-2.593639907122346
 30
0.0
 11
26.84752026300694
 21
-2.588878213784853
 31
0.0
  0
LINE
  5
91D
330
1F
100
AcDbEntity
  8
TitleBlock&Notes
  6
Continuous
 62
     3
100
AcDbLine
 10
26.57472400699443
 20
-2.577302416034863
 30
0.0
 11
26.84145450578197
 21
-2.57264661433486
 31
0.0
  0
LINE
  5
91E
330
1F
100
AcDbEntity
  8
TitleBlock&Notes
  6
Continuous
 62
     3
100
AcDbLine
 10
26.57472400699443
 20
-2.56096492494737
 30
0.0
 11
26.83580386174444
 21
-2.55640774580986
 31
0.0
  0
LINE
  5
91F
330
1F
100
AcDbEntity
  8
TitleBlock&Notes
  6
Continuous
 62
     3
100
AcDbLine
 10
26.57472400699443
 20
-2.544627433859853
 30
0.0
 11
26.83055901994446
 21
-2.540161812397357
 31
0.0
  0
LINE
  5
920
330
1F
100
AcDbEntity
  8
TitleBlock&Notes
  6
Continuous
 62
     3
100
AcDbLine
 10
26.57472400699443
 20
-2.535231950234852
 30
0.0
 11
26.82904688899446
 21
-2.535231950234852
 31
0.0
  0
LINE
  5
921
330
1F
100
AcDbEntity
  8
TitleBlock&Notes
  6
Continuous
 62
     3
100
AcDbLine
 10
26.57472400699443
 20
-3.067427066984851
 30
0.0
 11
27.38047573316947
 21
-3.053362591147357
 31
0.0
  0
LINE
  5
922
330
1F
100
AcDbEntity
  8
TitleBlock&Notes
  6
Continuous
 62
     3
100
AcDbLine
 10
26.57472400699443
 20
-3.051089575897369
 30
0.0
 11
27.32494122529443
 21
-3.037994459797354
 31
0.0
  0
LINE
  5
923
330
1F
100
AcDbEntity
  8
TitleBlock&Notes
  6
Continuous
 62
     3
100
AcDbLine
 10
26.57472400699443
 20
-3.034752084809854
 30
0.0
 11
27.28077444810696
 21
-3.022427899034854
 31
0.0
  0
LINE
  5
924
330
1F
100
AcDbEntity
  8
TitleBlock&Notes
  6
Continuous
 62
     3
100
AcDbLine
 10
26.57472400699443
 20
-3.018414593722358
 30
0.0
 11
27.24331555699449
 21
-3.006744257159862
 31
0.0
  0
LINE
  5
925
330
1F
100
AcDbEntity
  8
TitleBlock&Notes
  6
Continuous
 62
     3
100
AcDbLine
 10
26.57472400699443
 20
-3.002077102634864
 30
0.0
 11
27.21045725528193
 21
-2.990980328759863
 31
0.0
  0
LINE
  5
926
330
1F
100
AcDbEntity
  8
TitleBlock&Notes
  6
Continuous
 62
     3
100
AcDbLine
 10
26.57472400699443
 20
-2.985739611547358
 30
0.0
 11
27.18103069204444
 21
-2.975156491747366
 31
0.0
  0
LINE
  5
927
330
1F
100
AcDbEntity
  8
TitleBlock&Notes
  6
Continuous
 62
     3
100
AcDbLine
 10
26.57472400699443
 20
-2.969402120459854
 30
0.0
 11
27.15430634618193
 21
-2.959285487422357
 31
0.0
  0
LINE
  5
928
330
1F
100
AcDbEntity
  8
TitleBlock&Notes
  6
Continuous
 62
     3
100
AcDbLine
 10
26.57472400699443
 20
-2.953064629372358
 30
0.0
 11
27.12979220749448
 21
-2.943375891659853
 31
0.0
  0
LINE
  5
929
330
1F
100
AcDbEntity
  8
TitleBlock&Notes
  6
Continuous
 62
     3
100
AcDbLine
 10
26.57472400699443
 20
-2.936727138284864
 30
0.0
 11
27.10713756353192
 21
-2.927433830084856
 31
0.0
  0
LINE
  5
92A
330
1F
100
AcDbEntity
  8
TitleBlock&Notes
  6
Continuous
 62
     3
100
AcDbLine
 10
26.57472400699443
 20
-2.92038964719736
 30
0.0
 11
27.08608178936946
 21
-2.91146387649736
 31
0.0
  0
LINE
  5
92B
330
1F
100
AcDbEntity
  8
TitleBlock&Notes
  6
Continuous
 62
     3
100
AcDbLine
 10
26.57472400699443
 20
-2.904052156109864
 30
0.0
 11
27.06642494460698
 21
-2.895469502084853
 31
0.0
  0
LINE
  5
92C
330
1F
100
AcDbEntity
  8
TitleBlock&Notes
  6
Continuous
 62
     3
100
AcDbLine
 10
26.57472400699443
 20
-2.887714665022349
 30
0.0
 11
27.04800960068195
 21
-2.879453442959865
 31
0.0
  0
LINE
  5
92D
330
1F
100
AcDbEntity
  8
TitleBlock&Notes
  6
Continuous
 62
     3
100
AcDbLine
 10
26.57472400699443
 20
-2.871377173934853
 30
0.0
 11
27.03070920218196
 21
-2.863417945184854
 31
0.0
  0
LINE
  5
92E
330
1F
100
AcDbEntity
  8
TitleBlock&Notes
  6
Continuous
 62
     3
100
AcDbLine
 10
26.57472400699443
 20
-2.85503968284736
 30
0.0
 11
27.01442014436944
 21
-2.847364764772351
 31
0.0
  0
LINE
  5
92F
330
1F
100
AcDbEntity
  8
TitleBlock&Notes
  6
Continuous
 62
     3
100
AcDbLine
 10
26.57472400699443
 20
-2.838702191759853
 30
0.0
 11
26.99905642346946
 21
-2.831295453547366
 31
0.0
  0
LINE
  5
930
330
1F
100
AcDbEntity
  8
TitleBlock&Notes
  6
Continuous
 62
     3
100
AcDbLine
 10
28.75953025699448
 20
-3.053257230397369
 30
0.0
 11
28.75953025699448
 21
-2.424489226109856
 31
0.0
  0
LINE
  5
931
330
1F
100
AcDbEntity
  8
TitleBlock&Notes
  6
Continuous
 62
     3
100
AcDbLine
 10
29.10664900699445
 20
-2.424489226109856
 30
0.0
 11
29.10664900699445
 21
-3.053257230397369
 31
0.0
  0
LINE
  5
932
330
1F
100
AcDbEntity
  8
TitleBlock&Notes
  6
Continuous
 62
     3
100
AcDbLine
 10
29.12706775699444
 20
-3.073675980397364
 30
0.0
 11
29.12706775699444
 21
-2.428702471822354
 31
0.0
  0
LINE
  5
933
330
1F
100
AcDbEntity
  8
TitleBlock&Notes
  6
Continuous
 62
     3
100
AcDbLine
 10
28.73911150699444
 20
-2.428702471822354
 30
0.0
 11
28.73911150699444
 21
-3.073675980397364
 31
0.0
  0
LINE
  5
934
330
1F
100
AcDbEntity
  8
TitleBlock&Notes
  6
Continuous
 62
     3
100
AcDbLine
 10
29.08623025699447
 20
-3.03283848039737
 30
0.0
 11
29.08623025699447
 21
-2.420275980397358
 31
0.0
  0
LINE
  5
935
330
1F
100
AcDbEntity
  8
TitleBlock&Notes
  6
Continuous
 62
     3
100
AcDbLine
 10
28.77994900699445
 20
-3.03283848039737
 30
0.0
 11
28.77994900699445
 21
-2.420275980397358
 31
0.0
  0
LINE
  5
936
330
1F
100
AcDbEntity
  8
TitleBlock&Notes
  6
Continuous
 62
     3
100
AcDbLine
 10
28.30422729308193
 20
-2.431553623559866
 30
0.0
 11
28.73708376176943
 21
-2.423998073497353
 31
0.0
  0
LINE
  5
937
330
1F
100
AcDbEntity
  8
TitleBlock&Notes
  6
Continuous
 62
     3
100
AcDbLine
 10
28.30150167581944
 20
-2.447938690334851
 30
0.0
 11
28.73911150699444
 21
-2.440300158472351
 31
0.0
  0
LINE
  5
938
330
1F
100
AcDbEntity
  8
TitleBlock&Notes
  6
Continuous
 62
     3
100
AcDbLine
 10
28.30024228815696
 20
-2.454843168134861
 30
0.0
 11
28.73911150699444
 21
-2.454843168134861
 31
0.0
  0
LINE
  5
939
330
1F
100
AcDbEntity
  8
TitleBlock&Notes
  6
Continuous
 62
     3
100
AcDbLine
 10
28.30658516865696
 20
-2.415174968272362
 30
0.0
 11
28.73009430113197
 21
-2.407782604859865
 31
0.0
  0
LINE
  5
93A
330
1F
100
AcDbEntity
  8
TitleBlock&Notes
  6
Continuous
 62
     3
100
AcDbLine
 10
28.30857910043195
 20
-2.398802683634867
 30
0.0
 11
28.72310488133196
 21
-2.391567095384862
 31
0.0
  0
LINE
  5
93B
330
1F
100
AcDbEntity
  8
TitleBlock&Notes
  6
Continuous
 62
     3
100
AcDbLine
 10
28.31021251875695
 20
-2.382436687972356
 30
0.0
 11
28.71611542069448
 21
-2.375351626747361
 31
0.0
  0
LINE
  5
93C
330
1F
100
AcDbEntity
  8
TitleBlock&Notes
  6
Continuous
 62
     3
100
AcDbLine
 10
28.31148803723197
 20
-2.366076940447356
 30
0.0
 11
28.70912600089447
 21
-2.359136117272372
 31
0.0
  0
LINE
  5
93D
330
1F
100
AcDbEntity
  8
TitleBlock&Notes
  6
Continuous
 62
     3
100
AcDbLine
 10
28.31240794275696
 20
-2.349723400222364
 30
0.0
 11
28.70213658109448
 21
-2.34292064863486
 31
0.0
  0
LINE
  5
93E
330
1F
100
AcDbEntity
  8
TitleBlock&Notes
  6
Continuous
 62
     3
100
AcDbLine
 10
28.01363503466946
 20
-2.338600980397361
 30
0.0
 11
28.69514712045694
 21
-2.326705139159858
 31
0.0
  0
LINE
  5
93F
330
1F
100
AcDbEntity
  8
TitleBlock&Notes
  6
Continuous
 62
     3
100
AcDbLine
 10
28.23844424704445
 20
-1.215569730397363
 30
0.0
 11
28.75953025699448
 21
-2.424489226109856
 31
0.0
  0
LINE
  5
940
330
1F
100
AcDbEntity
  8
TitleBlock&Notes
  6
Continuous
 62
     3
100
AcDbLine
 10
28.20740827793192
 20
-1.195150980397357
 30
0.0
 11
28.73911150699444
 21
-2.428702471822354
 31
0.0
  0
LINE
  5
941
330
1F
100
AcDbEntity
  8
TitleBlock&Notes
  6
Continuous
 62
     3
100
AcDbLine
 10
28.77994900699445
 20
-2.420275980397358
 30
0.0
 11
28.26948025699446
 21
-1.235988480397361
 31
0.0
  0
LINE
  5
942
330
1F
100
AcDbEntity
  8
TitleBlock&Notes
  6
Continuous
 62
     3
100
AcDbLine
 10
28.93308963199449
 20
-1.95020658485985
 30
0.0
 11
28.61643582034446
 21
-1.215569730397363
 31
0.0
  0
LINE
  5
943
330
1F
100
AcDbEntity
  8
TitleBlock&Notes
  6
Continuous
 62
     3
100
AcDbLine
 10
28.93308963199449
 20
-1.898621839147348
 30
0.0
 11
28.62986943848196
 21
-1.195150980397357
 31
0.0
  0
LINE
  5
944
330
1F
100
AcDbEntity
  8
TitleBlock&Notes
  6
Continuous
 62
     3
100
AcDbLine
 10
28.93308963199449
 20
-2.001791289734859
 30
0.0
 11
28.60300220220693
 21
-1.235988480397361
 31
0.0
  0
LINE
  5
945
330
1F
100
AcDbEntity
  8
TitleBlock&Notes
  6
Continuous
 62
     3
100
AcDbLine
 10
28.28188889471949
 20
-1.731987279022358
 30
0.0
 11
28.43880323141947
 21
-1.731987279022358
 31
0.0
  0
LINE
  5
946
330
1F
100
AcDbEntity
  8
TitleBlock&Notes
  6
Continuous
 62
     3
100
AcDbLine
 10
28.20740827793192
 20
-1.195150980397357
 30
0.0
 11
28.62986943848196
 21
-1.195150980397357
 31
0.0
  0
LINE
  5
947
330
1F
100
AcDbEntity
  8
TitleBlock&Notes
  6
Continuous
 62
     3
100
AcDbLine
 10
28.43000201509446
 20
-1.711568529022351
 30
0.0
 11
28.27528346993198
 21
-1.711568529022351
 31
0.0
  0
LINE
  5
948
330
1F
100
AcDbEntity
  8
TitleBlock&Notes
  6
Continuous
 62
     3
100
AcDbLine
 10
28.61643582034446
 20
-1.215569730397363
 30
0.0
 11
28.23844424704445
 21
-1.215569730397363
 31
0.0
  0
LINE
  5
949
330
1F
100
AcDbEntity
  8
TitleBlock&Notes
  6
Continuous
 62
     3
100
AcDbLine
 10
28.42120083960692
 20
-1.691149779022366
 30
0.0
 11
28.26803256761946
 21
-1.691149779022366
 31
0.0
  0
LINE
  5
94A
330
1F
100
AcDbEntity
  8
TitleBlock&Notes
  6
Continuous
 62
     3
100
AcDbLine
 10
28.26948025699446
 20
-1.235988480397361
 30
0.0
 11
28.60300220220693
 21
-1.235988480397361
 31
0.0
  0
LINE
  5
94B
330
1F
100
AcDbEntity
  8
TitleBlock&Notes
  6
Continuous
 62
     3
100
AcDbLine
 10
28.30844866545697
 20
-1.429564682722363
 30
0.0
 11
28.10411709075696
 21
-1.429564682722363
 31
0.0
  0
LINE
  5
94C
330
1F
100
AcDbEntity
  8
TitleBlock&Notes
  6
Continuous
 62
     3
100
AcDbLine
 10
28.29964744913194
 20
-1.409145932722367
 30
0.0
 11
28.08379581986944
 21
-1.409145932722367
 31
0.0
  0
LINE
  5
94D
330
1F
100
AcDbEntity
  8
TitleBlock&Notes
  6
Continuous
 62
     3
100
AcDbLine
 10
28.06184039558198
 20
-1.388727182722347
 30
0.0
 11
28.29084627364446
 21
-1.388727182722347
 31
0.0
  0
LINE
  5
94E
330
1F
100
AcDbEntity
  8
TitleBlock&Notes
  6
Continuous
 62
     3
100
AcDbLine
 10
28.31724984094443
 20
-1.449983432722358
 30
0.0
 11
28.12297960530694
 21
-1.449983432722358
 31
0.0
  0
LINE
  5
94F
330
1F
100
AcDbEntity
  8
TitleBlock&Notes
  6
Continuous
 62
     3
100
AcDbLine
 10
28.44760440690695
 20
-1.752406029022356
 30
0.0
 11
28.28786632043195
 21
-1.752406029022356
 31
0.0
  0
LINE
  5
950
330
1F
100
AcDbEntity
  8
TitleBlock&Notes
  6
Continuous
 62
     3
100
AcDbLine
 10
28.45585117249445
 20
-1.771538561122367
 30
0.0
 11
28.29291089513199
 21
-1.771538561122367
 31
0.0
  0
LINE
  5
951
330
1F
100
AcDbEntity
  8
TitleBlock&Notes
  6
Continuous
 62
     3
100
AcDbLine
 10
28.26233042749446
 20
-2.052899257634862
 30
0.0
 11
28.57477658816946
 21
-2.047445491184871
 31
0.0
  0
LINE
  5
952
330
1F
100
AcDbEntity
  8
TitleBlock&Notes
  6
Continuous
 62
     3
100
AcDbLine
 10
28.31388295241948
 20
-1.904962024372361
 30
0.0
 11
28.51187168745694
 21
-1.901506110097363
 31
0.0
  0
LINE
  5
953
330
1F
100
AcDbEntity
  8
TitleBlock&Notes
  6
Continuous
 62
     3
100
AcDbLine
 10
28.31261139518196
 20
-1.888646748884859
 30
0.0
 11
28.50488226765696
 21
-1.885290641459865
 31
0.0
  0
LINE
  5
954
330
1F
100
AcDbEntity
  8
TitleBlock&Notes
  6
Continuous
 62
     3
100
AcDbLine
 10
28.31098638938197
 20
-1.872337599022367
 30
0.0
 11
28.49789280701947
 21
-1.869075131984873
 31
0.0
  0
LINE
  5
955
330
1F
100
AcDbEntity
  8
TitleBlock&Notes
  6
Continuous
 62
     3
100
AcDbLine
 10
28.30900613816948
 20
-1.856034697297355
 30
0.0
 11
28.49090338721946
 21
-1.852859663347364
 31
0.0
  0
LINE
  5
956
330
1F
100
AcDbEntity
  8
TitleBlock&Notes
  6
Continuous
 62
     3
100
AcDbLine
 10
28.49050150538194
 20
-1.85192734322236
 30
0.0
 11
28.30845078900697
 21
-1.85192734322236
 31
0.0
  0
LINE
  5
957
330
1F
100
AcDbEntity
  8
TitleBlock&Notes
  6
Continuous
 62
     3
100
AcDbLine
 10
27.94320774394443
 20
-2.35901973039736
 30
0.0
 11
28.29147480360696
 21
-2.35901973039736
 31
0.0
  0
LINE
  5
958
330
1F
100
AcDbEntity
  8
TitleBlock&Notes
  6
Continuous
 62
     3
100
AcDbLine
 10
27.94385946960697
 20
-1.889388480397365
 30
0.0
 11
28.29217741279448
 21
-1.889388480397365
 31
0.0
  0
LINE
  5
959
330
1F
100
AcDbEntity
  8
TitleBlock&Notes
  6
Continuous
 62
     3
100
AcDbLine
 10
27.92450784431943
 20
-2.338600980397361
 30
0.0
 11
28.31283142763201
 21
-2.338600980397361
 31
0.0
  0
LINE
  5
95A
330
1F
100
AcDbEntity
  8
TitleBlock&Notes
  6
Continuous
 62
     3
100
AcDbLine
 10
28.31419266401945
 20
-1.909807230397361
 30
0.0
 11
27.92623682239444
 21
-1.909807230397361
 31
0.0
  0
LINE
  5
95B
330
1F
100
AcDbEntity
  8
TitleBlock&Notes
  6
Continuous
 62
     3
100
AcDbLine
 10
28.26948025699446
 20
-2.379438480397356
 30
0.0
 11
27.96103972418194
 21
-2.379438480397356
 31
0.0
  0
LINE
  5
95C
330
1F
100
AcDbEntity
  8
TitleBlock&Notes
  6
Continuous
 62
     3
100
AcDbLine
 10
27.95922768263197
 20
-1.868969730397356
 30
0.0
 11
28.26948025699446
 21
-1.868969730397356
 31
0.0
  0
LINE
  5
95D
330
1F
100
AcDbEntity
  8
TitleBlock&Notes
  6
Continuous
 62
     3
100
AcDbLine
 10
29.10664900699445
 20
-2.424489226109856
 30
0.0
 11
29.62773497610695
 21
-1.215569730397363
 31
0.0
  0
LINE
  5
95E
330
1F
100
AcDbEntity
  8
TitleBlock&Notes
  6
Continuous
 62
     3
100
AcDbLine
 10
29.12706775699444
 20
-2.428702471822354
 30
0.0
 11
29.65877094521946
 21
-1.195150980397357
 31
0.0
  0
LINE
  5
95F
330
1F
100
AcDbEntity
  8
TitleBlock&Notes
  6
Continuous
 62
     3
100
AcDbLine
 10
29.08623025699447
 20
-2.420275980397358
 30
0.0
 11
29.59669900699446
 21
-1.235988480397361
 31
0.0
  0
LINE
  5
960
330
1F
100
AcDbEntity
  8
TitleBlock&Notes
  6
Continuous
 62
     3
100
AcDbLine
 10
28.93308963199449
 20
-1.95020658485985
 30
0.0
 11
29.24974340280693
 21
-1.215569730397363
 31
0.0
  0
LINE
  5
961
330
1F
100
AcDbEntity
  8
TitleBlock&Notes
  6
Continuous
 62
     3
100
AcDbLine
 10
29.23630982550696
 20
-1.195150980397357
 30
0.0
 11
28.93308963199449
 21
-1.898621839147348
 31
0.0
  0
LINE
  5
962
330
1F
100
AcDbEntity
  8
TitleBlock&Notes
  6
Continuous
 62
     3
100
AcDbLine
 10
28.93308963199449
 20
-2.001791289734859
 30
0.0
 11
29.26317702094447
 21
-1.235988480397361
 31
0.0
  0
LINE
  5
963
330
1F
100
AcDbEntity
  8
TitleBlock&Notes
  6
Continuous
 62
     3
100
AcDbLine
 10
29.26317702094447
 20
-1.235988480397361
 30
0.0
 11
29.59669900699446
 21
-1.235988480397361
 31
0.0
  0
LINE
  5
964
330
1F
100
AcDbEntity
  8
TitleBlock&Notes
  6
Continuous
 62
     3
100
AcDbLine
 10
29.24974340280693
 20
-1.215569730397363
 30
0.0
 11
29.62773497610695
 21
-1.215569730397363
 31
0.0
  0
LINE
  5
965
330
1F
100
AcDbEntity
  8
TitleBlock&Notes
  6
Continuous
 62
     3
100
AcDbLine
 10
29.65877094521946
 20
-1.195150980397357
 30
0.0
 11
29.23630982550696
 21
-1.195150980397357
 31
0.0
  0
LINE
  5
966
330
1F
100
AcDbEntity
  8
TitleBlock&Notes
  6
Continuous
 62
     3
100
AcDbLine
 10
28.87886674294447
 20
-1.772824779022352
 30
0.0
 11
28.98731248020699
 21
-1.772824779022352
 31
0.0
  0
LINE
  5
967
330
1F
100
AcDbEntity
  8
TitleBlock&Notes
  6
Continuous
 62
     3
100
AcDbLine
 10
28.870065567457
 20
-1.752406029022356
 30
0.0
 11
28.99611369653199
 21
-1.752406029022356
 31
0.0
  0
LINE
  5
968
330
1F
100
AcDbEntity
  8
TitleBlock&Notes
  6
Continuous
 62
     3
100
AcDbLine
 10
28.86126435113192
 20
-1.731987279022358
 30
0.0
 11
29.00491487201946
 21
-1.731987279022358
 31
0.0
  0
LINE
  5
969
330
1F
100
AcDbEntity
  8
TitleBlock&Notes
  6
Continuous
 62
     3
100
AcDbLine
 10
29.13526943798192
 20
-1.429564682722363
 30
0.0
 11
28.73090978516947
 21
-1.429564682722363
 31
0.0
  0
LINE
  5
96A
330
1F
100
AcDbEntity
  8
TitleBlock&Notes
  6
Continuous
 62
     3
100
AcDbLine
 10
29.14407061346945
 20
-1.409145932722367
 30
0.0
 11
28.72210860968199
 21
-1.409145932722367
 31
0.0
  0
LINE
  5
96B
330
1F
100
AcDbEntity
  8
TitleBlock&Notes
  6
Continuous
 62
     3
100
AcDbLine
 10
28.71330743419445
 20
-1.388727182722347
 30
0.0
 11
29.15287178895695
 21
-1.388727182722347
 31
0.0
  0
LINE
  5
96C
330
1F
100
AcDbEntity
  8
TitleBlock&Notes
  6
Continuous
 62
     3
100
AcDbLine
 10
28.73971100149447
 20
-1.449983432722358
 30
0.0
 11
29.12646822165697
 21
-1.449983432722358
 31
0.0
  0
LINE
  5
96D
330
1F
100
AcDbEntity
  8
TitleBlock&Notes
  6
Continuous
 62
     3
100
AcDbLine
 10
29.01371604750694
 20
-1.711568529022351
 30
0.0
 11
28.85246317564445
 21
-1.711568529022351
 31
0.0
  0
LINE
  5
96E
330
1F
100
AcDbEntity
  8
TitleBlock&Notes
  6
Continuous
 62
     3
100
AcDbLine
 10
28.84366200015697
 20
-1.691149779022366
 30
0.0
 11
29.02251722299448
 21
-1.691149779022366
 31
0.0
  0
LINE
  5
96F
330
1F
100
AcDbEntity
  8
TitleBlock&Notes
  6
Continuous
 62
     3
100
AcDbLine
 10
29.25268913419447
 20
-2.13726083424736
 30
0.0
 11
29.48029081481946
 21
-2.133288039734863
 31
0.0
  0
LINE
  5
970
330
1F
100
AcDbEntity
  8
TitleBlock&Notes
  6
Continuous
 62
     3
100
AcDbLine
 10
28.93117811029446
 20
-1.894187090834868
 30
0.0
 11
28.93503010748194
 21
-1.894119872309858
 31
0.0
  0
LINE
  5
971
330
1F
100
AcDbEntity
  8
TitleBlock&Notes
  6
Continuous
 62
     3
100
AcDbLine
 10
28.92418864965695
 20
-1.877971622197359
 30
0.0
 11
28.94212554143196
 21
-1.877658521084858
 31
0.0
  0
LINE
  5
972
330
1F
100
AcDbEntity
  8
TitleBlock&Notes
  6
Continuous
 62
     3
100
AcDbLine
 10
28.917199229857
 20
-1.861756112722356
 30
0.0
 11
28.94922093454442
 21
-1.861197169859861
 31
0.0
  0
LINE
  5
973
330
1F
100
AcDbEntity
  8
TitleBlock&Notes
  6
Continuous
 62
     3
100
AcDbLine
 10
28.95321655721946
 20
-1.85192734322236
 30
0.0
 11
28.91296266593199
 21
-1.85192734322236
 31
0.0
  0
LINE
  5
974
330
1F
100
AcDbEntity
  8
TitleBlock&Notes
  6
Continuous
 62
     3
100
AcDbLine
 10
29.37488465351947
 20
-1.853767195109871
 30
0.0
 11
29.48029081481946
 21
-1.85192734322236
 31
0.0
  0
LINE
  5
975
330
1F
100
AcDbEntity
  8
TitleBlock&Notes
  6
Continuous
 62
     3
100
AcDbLine
 10
28.16776021095694
 20
-2.761883178884859
 30
0.0
 11
28.73911150699444
 21
-2.75191021217236
 31
0.0
  0
LINE
  5
976
330
1F
100
AcDbEntity
  8
TitleBlock&Notes
  6
Continuous
 62
     3
100
AcDbLine
 10
28.17947718394449
 20
-2.745341173597359
 30
0.0
 11
28.73911150699444
 21
-2.735572721084864
 31
0.0
  0
LINE
  5
977
330
1F
100
AcDbEntity
  8
TitleBlock&Notes
  6
Continuous
 62
     3
100
AcDbLine
 10
28.19054063441947
 20
-2.728810602809872
 30
0.0
 11
28.73911150699444
 21
-2.71923522999736
 31
0.0
  0
LINE
  5
978
330
1F
100
AcDbEntity
  8
TitleBlock&Notes
  6
Continuous
 62
     3
100
AcDbLine
 10
28.20098543760696
 20
-2.712290772284859
 30
0.0
 11
28.73911150699444
 21
-2.702897738909864
 31
0.0
  0
LINE
  5
979
330
1F
100
AcDbEntity
  8
TitleBlock&Notes
  6
Continuous
 62
     3
100
AcDbLine
 10
28.21084226246945
 20
-2.695781232809864
 30
0.0
 11
28.73911150699444
 21
-2.686560288659864
 31
0.0
  0
LINE
  5
97A
330
1F
100
AcDbEntity
  8
TitleBlock&Notes
  6
Continuous
 62
     3
100
AcDbLine
 10
28.22013822510696
 20
-2.679281494334853
 30
0.0
 11
28.73911150699444
 21
-2.670222797572368
 31
0.0
  0
LINE
  5
97B
330
1F
100
AcDbEntity
  8
TitleBlock&Notes
  6
Continuous
 62
     3
100
AcDbLine
 10
28.22889754215699
 20
-2.66279110764736
 30
0.0
 11
28.73911150699444
 21
-2.65388530648485
 31
0.0
  0
LINE
  5
97C
330
1F
100
AcDbEntity
  8
TitleBlock&Notes
  6
Continuous
 62
     3
100
AcDbLine
 10
28.23714169414445
 20
-2.646309705209851
 30
0.0
 11
28.73911150699444
 21
-2.637547815397357
 31
0.0
  0
LINE
  5
97D
330
1F
100
AcDbEntity
  8
TitleBlock&Notes
  6
Continuous
 62
     3
100
AcDbLine
 10
28.24488991553197
 20
-2.629837001159857
 30
0.0
 11
28.73911150699444
 21
-2.621210324309853
 31
0.0
  0
LINE
  5
97E
330
1F
100
AcDbEntity
  8
TitleBlock&Notes
  6
Continuous
 62
     3
100
AcDbLine
 10
28.25215956225695
 20
-2.613372587122357
 30
0.0
 11
28.73911150699444
 21
-2.604872833222357
 31
0.0
  0
LINE
  5
97F
330
1F
100
AcDbEntity
  8
TitleBlock&Notes
  6
Continuous
 62
     3
100
AcDbLine
 10
28.25896607089449
 20
-2.596916299747372
 30
0.0
 11
28.73911150699444
 21
-2.588535342134863
 31
0.0
  0
LINE
  5
980
330
1F
100
AcDbEntity
  8
TitleBlock&Notes
  6
Continuous
 62
     3
100
AcDbLine
 10
28.26532340786943
 20
-2.580467853172363
 30
0.0
 11
28.73911150699444
 21
-2.572197851047357
 31
0.0
  0
LINE
  5
981
330
1F
100
AcDbEntity
  8
TitleBlock&Notes
  6
Continuous
 62
     3
100
AcDbLine
 10
28.27124423280692
 20
-2.564027002372355
 30
0.0
 11
28.73911150699444
 21
-2.555860359959863
 31
0.0
  0
LINE
  5
982
330
1F
100
AcDbEntity
  8
TitleBlock&Notes
  6
Continuous
 62
     3
100
AcDbLine
 10
28.27673977601946
 20
-2.547593583997362
 30
0.0
 11
28.73911150699444
 21
-2.539522868872357
 31
0.0
  0
LINE
  5
983
330
1F
100
AcDbEntity
  8
TitleBlock&Notes
  6
Continuous
 62
     3
100
AcDbLine
 10
28.28060108415697
 20
-2.535231950234852
 30
0.0
 11
28.73911150699444
 21
-2.535231950234852
 31
0.0
  0
LINE
  5
984
330
1F
100
AcDbEntity
  8
TitleBlock&Notes
  6
Continuous
 62
     3
100
AcDbLine
 10
28.12826058829442
 20
-2.811585111659856
 30
0.0
 11
28.73911150699444
 21
-2.800922685434853
 31
0.0
  0
LINE
  5
985
330
1F
100
AcDbEntity
  8
TitleBlock&Notes
  6
Continuous
 62
     3
100
AcDbLine
 10
28.14220112231945
 20
-2.795004310747355
 30
0.0
 11
28.73911150699444
 21
-2.784585194347357
 31
0.0
  0
LINE
  5
986
330
1F
100
AcDbEntity
  8
TitleBlock&Notes
  6
Continuous
 62
     3
100
AcDbLine
 10
28.15535006224444
 20
-2.778437312909865
 30
0.0
 11
28.73911150699444
 21
-2.768247703259853
 31
0.0
  0
LINE
  5
987
330
1F
100
AcDbEntity
  8
TitleBlock&Notes
  6
Continuous
 62
     3
100
AcDbLine
 10
27.67169211109445
 20
-3.064616875259865
 30
0.0
 11
28.73911150699444
 21
-3.045985010909864
 31
0.0
  0
LINE
  5
988
330
1F
100
AcDbEntity
  8
TitleBlock&Notes
  6
Continuous
 62
     3
100
AcDbLine
 10
27.75482366220694
 20
-3.046828346122357
 30
0.0
 11
28.73911150699444
 21
-3.029647519822358
 31
0.0
  0
LINE
  5
989
330
1F
100
AcDbEntity
  8
TitleBlock&Notes
  6
Continuous
 62
     3
100
AcDbLine
 10
27.80978799690697
 20
-3.029531418809868
 30
0.0
 11
28.73911150699444
 21
-3.013310028734864
 31
0.0
  0
LINE
  5
98A
330
1F
100
AcDbEntity
  8
TitleBlock&Notes
  6
Continuous
 62
     3
100
AcDbLine
 10
27.85338460091944
 20
-3.012432961747358
 30
0.0
 11
28.73911150699444
 21
-2.996972537647358
 31
0.0
  0
LINE
  5
98B
330
1F
100
AcDbEntity
  8
TitleBlock&Notes
  6
Continuous
 62
     3
100
AcDbLine
 10
27.89027335969449
 20
-2.995451585797354
 30
0.0
 11
28.73911150699444
 21
-2.980635046559864
 31
0.0
  0
LINE
  5
98C
330
1F
100
AcDbEntity
  8
TitleBlock&Notes
  6
Continuous
 62
     3
100
AcDbLine
 10
27.92256148823197
 20
-2.978550496372363
 30
0.0
 11
28.73911150699444
 21
-2.964297555472371
 31
0.0
  0
LINE
  5
98D
330
1F
100
AcDbEntity
  8
TitleBlock&Notes
  6
Continuous
 62
     3
100
AcDbLine
 10
27.95141787829446
 20
-2.96170931555986
 30
0.0
 11
28.73911150699444
 21
-2.947960064384854
 31
0.0
  0
LINE
  5
98E
330
1F
100
AcDbEntity
  8
TitleBlock&Notes
  6
Continuous
 62
     3
100
AcDbLine
 10
27.97757205098197
 20
-2.944915302059859
 30
0.0
 11
28.73911150699444
 21
-2.93162257329736
 31
0.0
  0
LINE
  5
98F
330
1F
100
AcDbEntity
  8
TitleBlock&Notes
  6
Continuous
 62
     3
100
AcDbLine
 10
28.00151601649444
 20
-2.928159879997352
 30
0.0
 11
28.73911150699444
 21
-2.915285123047357
 31
0.0
  0
LINE
  5
990
330
1F
100
AcDbEntity
  8
TitleBlock&Notes
  6
Continuous
 62
     3
100
AcDbLine
 10
28.023600487282
 20
-2.91143692374736
 30
0.0
 11
28.73911150699444
 21
-2.898947631959861
 31
0.0
  0
LINE
  5
991
330
1F
100
AcDbEntity
  8
TitleBlock&Notes
  6
Continuous
 62
     3
100
AcDbLine
 10
28.04408608826946
 20
-2.894741859509857
 30
0.0
 11
28.73911150699444
 21
-2.882610140872357
 31
0.0
  0
LINE
  5
992
330
1F
100
AcDbEntity
  8
TitleBlock&Notes
  6
Continuous
 62
     3
100
AcDbLine
 10
28.06317275985696
 20
-2.878071175259861
 30
0.0
 11
28.73911150699444
 21
-2.866272649784864
 31
0.0
  0
LINE
  5
993
330
1F
100
AcDbEntity
  8
TitleBlock&Notes
  6
Continuous
 62
     3
100
AcDbLine
 10
28.08101793060694
 20
-2.861422216559847
 30
0.0
 11
28.73911150699444
 21
-2.849935158697357
 31
0.0
  0
LINE
  5
994
330
1F
100
AcDbEntity
  8
TitleBlock&Notes
  6
Continuous
 62
     3
100
AcDbLine
 10
28.09774815593199
 20
-2.84479269650987
 30
0.0
 11
28.73911150699444
 21
-2.833597667609864
 31
0.0
  0
LINE
  5
995
330
1F
100
AcDbEntity
  8
TitleBlock&Notes
  6
Continuous
 62
     3
100
AcDbLine
 10
28.11346704056944
 20
-2.828180859097364
 30
0.0
 11
28.73911150699444
 21
-2.817260176522368
 31
0.0
  0
LINE
  5
996
330
1F
100
AcDbEntity
  8
TitleBlock&Notes
  6
Continuous
 62
     3
100
AcDbLine
 10
29.10664900699445
 20
-3.053257230397369
 30
0.0
 11
28.75953025699448
 21
-3.053257230397369
 31
0.0
  0
LINE
  5
997
330
1F
100
AcDbEntity
  8
TitleBlock&Notes
  6
Continuous
 62
     3
100
AcDbLine
 10
28.73911150699444
 20
-3.073675980397364
 30
0.0
 11
29.12706775699444
 21
-3.073675980397364
 31
0.0
  0
LINE
  5
998
330
1F
100
AcDbEntity
  8
TitleBlock&Notes
  6
Continuous
 62
     3
100
AcDbLine
 10
28.77994900699445
 20
-3.03283848039737
 30
0.0
 11
29.08623025699447
 21
-3.03283848039737
 31
0.0
  0
LINE
  5
999
330
1F
100
AcDbEntity
  8
TitleBlock&Notes
  6
Continuous
 62
     3
100
AcDbLine
 10
30.12758650699446
 20
-2.706138480397362
 30
0.0
 11
30.12758650699446
 21
-1.215569730397363
 31
0.0
  0
LINE
  5
99A
330
1F
100
AcDbEntity
  8
TitleBlock&Notes
  6
Continuous
 62
     3
100
AcDbLine
 10
30.14800525699443
 20
-2.685719730397366
 30
0.0
 11
30.14800525699443
 21
-1.195150980397357
 31
0.0
  0
LINE
  5
99B
330
1F
100
AcDbEntity
  8
TitleBlock&Notes
  6
Continuous
 62
     3
100
AcDbLine
 10
30.10716775699447
 20
-1.235988480397361
 30
0.0
 11
30.10716775699447
 21
-2.72655723039736
 31
0.0
  0
LINE
  5
99C
330
1F
100
AcDbEntity
  8
TitleBlock&Notes
  6
Continuous
 62
     3
100
AcDbLine
 10
29.78046775699447
 20
-1.215569730397363
 30
0.0
 11
29.78046775699447
 21
-3.053257230397369
 31
0.0
  0
LINE
  5
99D
330
1F
100
AcDbEntity
  8
TitleBlock&Notes
  6
Continuous
 62
     3
100
AcDbLine
 10
29.76004900699444
 20
-1.195150980397357
 30
0.0
 11
29.76004900699444
 21
-3.073675980397364
 31
0.0
  0
LINE
  5
99E
330
1F
100
AcDbEntity
  8
TitleBlock&Notes
  6
Continuous
 62
     3
100
AcDbLine
 10
29.80088650699445
 20
-3.03283848039737
 30
0.0
 11
29.80088650699445
 21
-1.235988480397361
 31
0.0
  0
LINE
  5
99F
330
1F
100
AcDbEntity
  8
TitleBlock&Notes
  6
Continuous
 62
     3
100
AcDbLine
 10
31.37497917480696
 20
-1.731987279022358
 30
0.0
 11
30.74570045674446
 21
-1.731987279022358
 31
0.0
  0
LINE
  5
9A0
330
1F
100
AcDbEntity
  8
TitleBlock&Notes
  6
Continuous
 62
     3
100
AcDbLine
 10
31.37497917480696
 20
-1.711568529022351
 30
0.0
 11
30.78107634949444
 21
-1.711568529022351
 31
0.0
  0
LINE
  5
9A1
330
1F
100
AcDbEntity
  8
TitleBlock&Notes
  6
Continuous
 62
     3
100
AcDbLine
 10
31.37497917480696
 20
-1.691149779022366
 30
0.0
 11
30.80694543559446
 21
-1.691149779022366
 31
0.0
  0
LINE
  5
9A2
330
1F
100
AcDbEntity
  8
TitleBlock&Notes
  6
Continuous
 62
     3
100
AcDbLine
 10
30.71386603283198
 20
-2.454843168134861
 30
0.0
 11
31.37497917480696
 21
-2.443303389059851
 31
0.0
  0
LINE
  5
9A3
330
1F
100
AcDbEntity
  8
TitleBlock&Notes
  6
Continuous
 62
     3
100
AcDbLine
 10
31.37497917480696
 20
-1.752406029022356
 30
0.0
 11
30.68264715255693
 21
-1.752406029022356
 31
0.0
  0
CIRCLE
  5
9A4
330
1F
100
AcDbEntity
  8
TitleBlock&Notes
  6
Continuous
 62
     3
100
AcDbCircle
 10
30.63620629834445
 20
-1.501432230397372
 30
0.0
 40
0.255234375
  0
LINE
  5
9A5
330
1F
100
AcDbEntity
  8
TitleBlock&Notes
  6
Continuous
 62
     3
100
AcDbLine
 10
30.14800525699443
 20
-2.052659664022366
 30
0.0
 11
31.37497917480696
 21
-2.031242763847347
 31
0.0
  0
LINE
  5
9A6
330
1F
100
AcDbEntity
  8
TitleBlock&Notes
  6
Continuous
 62
     3
100
AcDbLine
 10
30.14800525699443
 20
-2.036322172934859
 30
0.0
 11
31.37497917480696
 21
-2.014905272759854
 31
0.0
  0
LINE
  5
9A7
330
1F
100
AcDbEntity
  8
TitleBlock&Notes
  6
Continuous
 62
     3
100
AcDbLine
 10
30.14800525699443
 20
-2.019984681847366
 30
0.0
 11
31.37497917480696
 21
-1.998567781672358
 31
0.0
  0
LINE
  5
9A8
330
1F
100
AcDbEntity
  8
TitleBlock&Notes
  6
Continuous
 62
     3
100
AcDbLine
 10
30.14800525699443
 20
-2.003647190759862
 30
0.0
 11
31.37497917480696
 21
-1.982230290584854
 31
0.0
  0
LINE
  5
9A9
330
1F
100
AcDbEntity
  8
TitleBlock&Notes
  6
Continuous
 62
     3
100
AcDbLine
 10
30.14800525699443
 20
-1.987309699672366
 30
0.0
 11
31.37497917480696
 21
-1.96589279949736
 31
0.0
  0
LINE
  5
9AA
330
1F
100
AcDbEntity
  8
TitleBlock&Notes
  6
Continuous
 62
     3
100
AcDbLine
 10
30.14800525699443
 20
-1.970972249422352
 30
0.0
 11
31.37497917480696
 21
-1.949555308409854
 31
0.0
  0
LINE
  5
9AB
330
1F
100
AcDbEntity
  8
TitleBlock&Notes
  6
Continuous
 62
     3
100
AcDbLine
 10
30.14800525699443
 20
-1.954634758334859
 30
0.0
 11
31.37497917480696
 21
-1.93321781732236
 31
0.0
  0
LINE
  5
9AC
330
1F
100
AcDbEntity
  8
TitleBlock&Notes
  6
Continuous
 62
     3
100
AcDbLine
 10
30.14800525699443
 20
-1.938297267247352
 30
0.0
 11
31.37497917480696
 21
-1.916880326234864
 31
0.0
  0
LINE
  5
9AD
330
1F
100
AcDbEntity
  8
TitleBlock&Notes
  6
Continuous
 62
     3
100
AcDbLine
 10
30.14800525699443
 20
-1.921959776159859
 30
0.0
 11
31.37497917480696
 21
-1.900542875984864
 31
0.0
  0
LINE
  5
9AE
330
1F
100
AcDbEntity
  8
TitleBlock&Notes
  6
Continuous
 62
     3
100
AcDbLine
 10
30.14800525699443
 20
-1.905622285072365
 30
0.0
 11
31.37497917480696
 21
-1.884205384897347
 31
0.0
  0
LINE
  5
9AF
330
1F
100
AcDbEntity
  8
TitleBlock&Notes
  6
Continuous
 62
     3
100
AcDbLine
 10
30.14800525699443
 20
-1.889284793984859
 30
0.0
 11
31.37497917480696
 21
-1.867867893809851
 31
0.0
  0
LINE
  5
9B0
330
1F
100
AcDbEntity
  8
TitleBlock&Notes
  6
Continuous
 62
     3
100
AcDbLine
 10
30.14800525699443
 20
-1.872947302897355
 30
0.0
 11
31.35223897628192
 21
-1.85192734322236
 31
0.0
  0
LINE
  5
9B1
330
1F
100
AcDbEntity
  8
TitleBlock&Notes
  6
Continuous
 62
     3
100
AcDbLine
 10
30.14800525699443
 20
-2.448382838984866
 30
0.0
 11
31.37497917480696
 21
-2.426965897972357
 31
0.0
  0
LINE
  5
9B2
330
1F
100
AcDbEntity
  8
TitleBlock&Notes
  6
Continuous
 62
     3
100
AcDbLine
 10
30.14800525699443
 20
-2.432045347897362
 30
0.0
 11
31.37497917480696
 21
-2.410628406884851
 31
0.0
  0
LINE
  5
9B3
330
1F
100
AcDbEntity
  8
TitleBlock&Notes
  6
Continuous
 62
     3
100
AcDbLine
 10
30.14800525699443
 20
-2.415707856809866
 30
0.0
 11
31.37497917480696
 21
-2.394290915797357
 31
0.0
  0
LINE
  5
9B4
330
1F
100
AcDbEntity
  8
TitleBlock&Notes
  6
Continuous
 62
     3
100
AcDbLine
 10
30.14800525699443
 20
-2.399370365722352
 30
0.0
 11
31.37497917480696
 21
-2.377953424709861
 31
0.0
  0
LINE
  5
9B5
330
1F
100
AcDbEntity
  8
TitleBlock&Notes
  6
Continuous
 62
     3
100
AcDbLine
 10
30.14800525699443
 20
-2.383032874634856
 30
0.0
 11
31.37497917480696
 21
-2.361615974459861
 31
0.0
  0
LINE
  5
9B6
330
1F
100
AcDbEntity
  8
TitleBlock&Notes
  6
Continuous
 62
     3
100
AcDbLine
 10
30.14800525699443
 20
-2.366695383547362
 30
0.0
 11
31.37497917480696
 21
-2.345278483372355
 31
0.0
  0
LINE
  5
9B7
330
1F
100
AcDbEntity
  8
TitleBlock&Notes
  6
Continuous
 62
     3
100
AcDbLine
 10
30.14800525699443
 20
-2.350357892459856
 30
0.0
 11
31.37497917480696
 21
-2.328940992284861
 31
0.0
  0
LINE
  5
9B8
330
1F
100
AcDbEntity
  8
TitleBlock&Notes
  6
Continuous
 62
     3
100
AcDbLine
 10
30.14800525699443
 20
-2.334020401372352
 30
0.0
 11
31.37497917480696
 21
-2.312603501197365
 31
0.0
  0
LINE
  5
9B9
330
1F
100
AcDbEntity
  8
TitleBlock&Notes
  6
Continuous
 62
     3
100
AcDbLine
 10
30.14800525699443
 20
-2.317682910284858
 30
0.0
 11
31.37497917480696
 21
-2.29626601010985
 31
0.0
  0
LINE
  5
9BA
330
1F
100
AcDbEntity
  8
TitleBlock&Notes
  6
Continuous
 62
     3
100
AcDbLine
 10
30.14800525699443
 20
-2.301345419197362
 30
0.0
 11
31.37497917480696
 21
-2.279928519022368
 31
0.0
  0
LINE
  5
9BB
330
1F
100
AcDbEntity
  8
TitleBlock&Notes
  6
Continuous
 62
     3
100
AcDbLine
 10
30.14800525699443
 20
-2.285007928109869
 30
0.0
 11
31.37497917480696
 21
-2.26359102793485
 31
0.0
  0
LINE
  5
9BC
330
1F
100
AcDbEntity
  8
TitleBlock&Notes
  6
Continuous
 62
     3
100
AcDbLine
 10
30.14800525699443
 20
-2.268670437022362
 30
0.0
 11
31.37497917480696
 21
-2.247253536847357
 31
0.0
  0
LINE
  5
9BD
330
1F
100
AcDbEntity
  8
TitleBlock&Notes
  6
Continuous
 62
     3
100
AcDbLine
 10
30.14800525699443
 20
-2.252332945934847
 30
0.0
 11
31.37497917480696
 21
-2.230916045759861
 31
0.0
  0
LINE
  5
9BE
330
1F
100
AcDbEntity
  8
TitleBlock&Notes
  6
Continuous
 62
     3
100
AcDbLine
 10
30.14800525699443
 20
-2.235995454847362
 30
0.0
 11
31.37497917480696
 21
-2.214578554672357
 31
0.0
  0
LINE
  5
9BF
330
1F
100
AcDbEntity
  8
TitleBlock&Notes
  6
Continuous
 62
     3
100
AcDbLine
 10
30.14800525699443
 20
-2.219657963759869
 30
0.0
 11
31.37497917480696
 21
-2.198241063584861
 31
0.0
  0
LINE
  5
9C0
330
1F
100
AcDbEntity
  8
TitleBlock&Notes
  6
Continuous
 62
     3
100
AcDbLine
 10
30.14800525699443
 20
-2.203320513509855
 30
0.0
 11
31.37497917480696
 21
-2.181903572497357
 31
0.0
  0
LINE
  5
9C1
330
1F
100
AcDbEntity
  8
TitleBlock&Notes
  6
Continuous
 62
     3
100
AcDbLine
 10
30.14800525699443
 20
-2.186983022422362
 30
0.0
 11
31.37497917480696
 21
-2.165566081409863
 31
0.0
  0
LINE
  5
9C2
330
1F
100
AcDbEntity
  8
TitleBlock&Notes
  6
Continuous
 62
     3
100
AcDbLine
 10
30.14800525699443
 20
-2.170645531334855
 30
0.0
 11
31.37497917480696
 21
-2.149228590322367
 31
0.0
  0
LINE
  5
9C3
330
1F
100
AcDbEntity
  8
TitleBlock&Notes
  6
Continuous
 62
     3
100
AcDbLine
 10
30.14800525699443
 20
-2.154308040247362
 30
0.0
 11
31.35223897628192
 21
-2.133288039734863
 31
0.0
  0
LINE
  5
9C4
330
1F
100
AcDbEntity
  8
TitleBlock&Notes
  6
Continuous
 62
     3
100
AcDbLine
 10
31.37497917480696
 20
-2.454843168134861
 30
0.0
 11
30.14800525699443
 21
-2.454843168134861
 31
0.0
  0
LINE
  5
9C5
330
1F
100
AcDbEntity
  8
TitleBlock&Notes
  6
Continuous
 62
     3
100
AcDbLine
 10
31.37497917480696
 20
-2.133288039734863
 30
0.0
 11
30.14800525699443
 21
-2.133288039734863
 31
0.0
  0
LINE
  5
9C6
330
1F
100
AcDbEntity
  8
TitleBlock&Notes
  6
Continuous
 62
     3
100
AcDbLine
 10
31.37497917480696
 20
-2.052899257634862
 30
0.0
 11
30.14800525699443
 21
-2.052899257634862
 31
0.0
  0
LINE
  5
9C7
330
1F
100
AcDbEntity
  8
TitleBlock&Notes
  6
Continuous
 62
     3
100
AcDbLine
 10
31.37497917480696
 20
-1.85192734322236
 30
0.0
 11
30.14800525699443
 21
-1.85192734322236
 31
0.0
  0
LINE
  5
9C8
330
1F
100
AcDbEntity
  8
TitleBlock&Notes
  6
Continuous
 62
     3
100
AcDbLine
 10
31.37497917480696
 20
-1.771538561122367
 30
0.0
 11
30.14800525699443
 21
-1.771538561122367
 31
0.0
  0
TEXT
  5
9C9
330
1F
100
AcDbEntity
  8
TitleBlock&Notes
  6
Continuous
 62
     3
100
AcDbText
 10
30.5086696423945
 20
-1.659665495834865
 30
0.0
 40
0.3062812500000001
  1
R
 41
1.1965812
100
AcDbText
  0
LINE
  5
9CA
330
1F
100
AcDbEntity
  8
TitleBlock&Notes
  6
Continuous
 62
     3
100
AcDbLine
 10
29.78046775699447
 20
-1.215569730397363
 30
0.0
 11
30.12758650699446
 21
-1.215569730397363
 31
0.0
  0
LINE
  5
9CB
330
1F
100
AcDbEntity
  8
TitleBlock&Notes
  6
Continuous
 62
     3
100
AcDbLine
 10
29.76004900699444
 20
-1.195150980397357
 30
0.0
 11
30.14800525699443
 21
-1.195150980397357
 31
0.0
  0
LINE
  5
9CC
330
1F
100
AcDbEntity
  8
TitleBlock&Notes
  6
Continuous
 62
     3
100
AcDbLine
 10
29.80088650699445
 20
-1.235988480397361
 30
0.0
 11
30.10716775699447
 21
-1.235988480397361
 31
0.0
  0
LINE
  5
9CD
330
1F
100
AcDbEntity
  8
TitleBlock&Notes
  6
Continuous
 62
     3
100
AcDbLine
 10
30.14800525699443
 20
-1.752406029022356
 30
0.0
 11
30.58976544413196
 21
-1.752406029022356
 31
0.0
  0
LINE
  5
9CE
330
1F
100
AcDbEntity
  8
TitleBlock&Notes
  6
Continuous
 62
     3
100
AcDbLine
 10
30.14800525699443
 20
-1.731987279022358
 30
0.0
 11
30.52671213994447
 21
-1.731987279022358
 31
0.0
  0
LINE
  5
9CF
330
1F
100
AcDbEntity
  8
TitleBlock&Notes
  6
Continuous
 62
     3
100
AcDbLine
 10
30.14800525699443
 20
-1.711568529022351
 30
0.0
 11
30.49133624719444
 21
-1.711568529022351
 31
0.0
  0
LINE
  5
9D0
330
1F
100
AcDbEntity
  8
TitleBlock&Notes
  6
Continuous
 62
     3
100
AcDbLine
 10
30.14800525699443
 20
-1.429564682722363
 30
0.0
 11
30.39129886950694
 21
-1.429564682722363
 31
0.0
  0
LINE
  5
9D1
330
1F
100
AcDbEntity
  8
TitleBlock&Notes
  6
Continuous
 62
     3
100
AcDbLine
 10
30.14800525699443
 20
-1.409145932722367
 30
0.0
 11
30.39824030524446
 21
-1.409145932722367
 31
0.0
  0
LINE
  5
9D2
330
1F
100
AcDbEntity
  8
TitleBlock&Notes
  6
Continuous
 62
     3
100
AcDbLine
 10
30.14800525699443
 20
-1.388727182722347
 30
0.0
 11
30.40720376895695
 21
-1.388727182722347
 31
0.0
  0
LINE
  5
9D3
330
1F
100
AcDbEntity
  8
TitleBlock&Notes
  6
Continuous
 62
     3
100
AcDbLine
 10
30.14800525699443
 20
-1.449983432722358
 30
0.0
 11
30.38621108873195
 21
-1.449983432722358
 31
0.0
  0
LINE
  5
9D4
330
1F
100
AcDbEntity
  8
TitleBlock&Notes
  6
Continuous
 62
     3
100
AcDbLine
 10
30.14800525699443
 20
-1.691149779022366
 30
0.0
 11
30.46546716109448
 21
-1.691149779022366
 31
0.0
  0
LINE
  5
9D5
330
1F
100
AcDbEntity
  8
TitleBlock&Notes
  6
Continuous
 62
     3
100
AcDbLine
 10
30.14800525699443
 20
-1.856609811809859
 30
0.0
 11
30.41626487513198
 21
-1.85192734322236
 31
0.0
  0
LINE
  5
9D6
330
1F
100
AcDbEntity
  8
TitleBlock&Notes
  6
Continuous
 62
     3
100
AcDbLine
 10
30.14800525699443
 20
-2.137970549159868
 30
0.0
 11
30.41626487513198
 21
-2.133288039734863
 31
0.0
  0
LINE
  5
9D7
330
1F
100
AcDbEntity
  8
TitleBlock&Notes
  6
Continuous
 62
     3
100
AcDbLine
 10
31.37497917480696
 20
-1.429564682722363
 30
0.0
 11
30.88111372718194
 21
-1.429564682722363
 31
0.0
  0
LINE
  5
9D8
330
1F
100
AcDbEntity
  8
TitleBlock&Notes
  6
Continuous
 62
     3
100
AcDbLine
 10
31.37497917480696
 20
-1.409145932722367
 30
0.0
 11
30.87417229144444
 21
-1.409145932722367
 31
0.0
  0
LINE
  5
9D9
330
1F
100
AcDbEntity
  8
TitleBlock&Notes
  6
Continuous
 62
     3
100
AcDbLine
 10
31.37497917480696
 20
-1.388727182722347
 30
0.0
 11
30.86520882773201
 21
-1.388727182722347
 31
0.0
  0
LINE
  5
9DA
330
1F
100
AcDbEntity
  8
TitleBlock&Notes
  6
Continuous
 62
     3
100
AcDbLine
 10
31.37497917480696
 20
-1.449983432722358
 30
0.0
 11
30.88620150795694
 21
-1.449983432722358
 31
0.0
  0
TEXT
  5
9DB
330
1F
100
AcDbEntity
  8
TitleBlock&Notes
  6
Continuous
 62
     3
100
AcDbText
 10
30.97351204211948
 20
-1.626184340572354
 30
0.0
 40
0.10209375
  1
INC.
 41
1.282051279999999
100
AcDbText
  0
LINE
  5
9DC
330
1F
100
AcDbEntity
  8
TitleBlock&Notes
  6
Continuous
 62
     3
100
AcDbLine
 10
31.07025264926945
 20
-2.052899257634862
 30
0.0
 11
31.37497917480696
 21
-2.047580254934865
 31
0.0
  0
LINE
  5
9DD
330
1F
100
AcDbEntity
  8
TitleBlock&Notes
  6
Continuous
 62
     3
100
AcDbLine
 10
30.65921324741948
 20
-2.685719730397366
 30
0.0
 11
31.37497917480696
 21
-2.673225987322353
 31
0.0
  0
LINE
  5
9DE
330
1F
100
AcDbEntity
  8
TitleBlock&Notes
  6
Continuous
 62
     3
100
AcDbLine
 10
30.90349900699445
 20
-2.706138480397362
 30
0.0
 11
30.12758650699446
 21
-2.706138480397362
 31
0.0
  0
LINE
  5
9DF
330
1F
100
AcDbEntity
  8
TitleBlock&Notes
  6
Continuous
 62
     3
100
AcDbLine
 10
30.14800525699443
 20
-2.678305437247358
 30
0.0
 11
31.37497917480696
 21
-2.656888496234859
 31
0.0
  0
LINE
  5
9E0
330
1F
100
AcDbEntity
  8
TitleBlock&Notes
  6
Continuous
 62
     3
100
AcDbLine
 10
30.14800525699443
 20
-2.661967946159851
 30
0.0
 11
31.37497917480696
 21
-2.640551045984867
 31
0.0
  0
LINE
  5
9E1
330
1F
100
AcDbEntity
  8
TitleBlock&Notes
  6
Continuous
 62
     3
100
AcDbLine
 10
30.14800525699443
 20
-2.645630455072358
 30
0.0
 11
31.37497917480696
 21
-2.624213554897361
 31
0.0
  0
LINE
  5
9E2
330
1F
100
AcDbEntity
  8
TitleBlock&Notes
  6
Continuous
 62
     3
100
AcDbLine
 10
30.14800525699443
 20
-2.629292963984864
 30
0.0
 11
31.37497917480696
 21
-2.607876063809867
 31
0.0
  0
LINE
  5
9E3
330
1F
100
AcDbEntity
  8
TitleBlock&Notes
  6
Continuous
 62
     3
100
AcDbLine
 10
30.14800525699443
 20
-2.612955472897358
 30
0.0
 11
31.37497917480696
 21
-2.591538572722352
 31
0.0
  0
LINE
  5
9E4
330
1F
100
AcDbEntity
  8
TitleBlock&Notes
  6
Continuous
 62
     3
100
AcDbLine
 10
30.14800525699443
 20
-2.596617981809864
 30
0.0
 11
31.37497917480696
 21
-2.575201081634856
 31
0.0
  0
LINE
  5
9E5
330
1F
100
AcDbEntity
  8
TitleBlock&Notes
  6
Continuous
 62
     3
100
AcDbLine
 10
30.14800525699443
 20
-2.580280490722357
 30
0.0
 11
31.37497917480696
 21
-2.558863590547363
 31
0.0
  0
LINE
  5
9E6
330
1F
100
AcDbEntity
  8
TitleBlock&Notes
  6
Continuous
 62
     3
100
AcDbLine
 10
30.14800525699443
 20
-2.563942999634864
 30
0.0
 11
31.37497917480696
 21
-2.542526099459856
 31
0.0
  0
LINE
  5
9E7
330
1F
100
AcDbEntity
  8
TitleBlock&Notes
  6
Continuous
 62
     3
100
AcDbLine
 10
30.14800525699443
 20
-2.547605508547368
 30
0.0
 11
30.85688655360697
 21
-2.535231950234862
 31
0.0
  0
LINE
  5
9E8
330
1F
100
AcDbEntity
  8
TitleBlock&Notes
  6
Continuous
 62
     3
100
AcDbLine
 10
31.37497917480696
 20
-2.535231950234862
 30
0.0
 11
30.14800525699443
 21
-2.535231950234852
 31
0.0
  0
LINE
  5
9E9
330
1F
100
AcDbEntity
  8
TitleBlock&Notes
  6
Continuous
 62
     3
100
AcDbLine
 10
30.92391775699449
 20
-2.685719730397366
 30
0.0
 11
30.14800525699443
 21
-2.685719730397366
 31
0.0
  0
LINE
  5
9EA
330
1F
100
AcDbEntity
  8
TitleBlock&Notes
  6
Continuous
 62
     3
100
AcDbLine
 10
30.10716775699447
 20
-2.72655723039736
 30
0.0
 11
30.88308025699445
 21
-2.72655723039736
 31
0.0
  0
LINE
  5
9EB
330
1F
100
AcDbEntity
  8
TitleBlock&Notes
  6
Continuous
 62
     3
100
AcDbLine
 10
30.66491538754448
 20
-3.339119730397348
 30
0.0
 11
31.37497917480696
 21
-3.326725549147362
 31
0.0
  0
LINE
  5
9EC
330
1F
100
AcDbEntity
  8
TitleBlock&Notes
  6
Continuous
 62
     3
100
AcDbLine
 10
29.78046775699447
 20
-3.053257230397369
 30
0.0
 11
30.90349900699445
 21
-3.053257230397369
 31
0.0
  0
LINE
  5
9ED
330
1F
100
AcDbEntity
  8
TitleBlock&Notes
  6
Continuous
 62
     3
100
AcDbLine
 10
29.76004900699444
 20
-3.073675980397364
 30
0.0
 11
30.92391775699449
 21
-3.073675980397364
 31
0.0
  0
LINE
  5
9EE
330
1F
100
AcDbEntity
  8
TitleBlock&Notes
  6
Continuous
 62
     3
100
AcDbLine
 10
29.80088650699445
 20
-3.03283848039737
 30
0.0
 11
30.88308025699445
 21
-3.03283848039737
 31
0.0
  0
LINE
  5
9EF
330
1F
100
AcDbEntity
  8
TitleBlock&Notes
  6
Continuous
 62
     3
100
AcDbLine
 10
30.92391775699449
 20
-2.811799222672354
 30
0.0
 11
31.37497917480696
 21
-2.803925916022364
 31
0.0
  0
LINE
  5
9F0
330
1F
100
AcDbEntity
  8
TitleBlock&Notes
  6
Continuous
 62
     3
100
AcDbLine
 10
30.92391775699449
 20
-2.795461731584848
 30
0.0
 11
31.37497917480696
 21
-2.787588424934868
 31
0.0
  0
LINE
  5
9F1
330
1F
100
AcDbEntity
  8
TitleBlock&Notes
  6
Continuous
 62
     3
100
AcDbLine
 10
30.92391775699449
 20
-2.779124240497354
 30
0.0
 11
31.37497917480696
 21
-2.771250933847364
 31
0.0
  0
LINE
  5
9F2
330
1F
100
AcDbEntity
  8
TitleBlock&Notes
  6
Continuous
 62
     3
100
AcDbLine
 10
30.92391775699449
 20
-2.762786749409861
 30
0.0
 11
31.37497917480696
 21
-2.754913442759868
 31
0.0
  0
LINE
  5
9F3
330
1F
100
AcDbEntity
  8
TitleBlock&Notes
  6
Continuous
 62
     3
100
AcDbLine
 10
30.92391775699449
 20
-2.746449258322365
 30
0.0
 11
31.37497917480696
 21
-2.738575951672353
 31
0.0
  0
LINE
  5
9F4
330
1F
100
AcDbEntity
  8
TitleBlock&Notes
  6
Continuous
 62
     3
100
AcDbLine
 10
30.92391775699449
 20
-2.730111767234861
 30
0.0
 11
31.37497917480696
 21
-2.722238460584857
 31
0.0
  0
LINE
  5
9F5
330
1F
100
AcDbEntity
  8
TitleBlock&Notes
  6
Continuous
 62
     3
100
AcDbLine
 10
30.92391775699449
 20
-2.713774276147354
 30
0.0
 11
31.37497917480696
 21
-2.705900969497363
 31
0.0
  0
LINE
  5
9F6
330
1F
100
AcDbEntity
  8
TitleBlock&Notes
  6
Continuous
 62
     3
100
AcDbLine
 10
30.92391775699449
 20
-2.697436785059861
 30
0.0
 11
31.37497917480696
 21
-2.689563478409857
 31
0.0
  0
LINE
  5
9F7
330
1F
100
AcDbEntity
  8
TitleBlock&Notes
  6
Continuous
 62
     3
100
AcDbLine
 10
30.92391775699449
 20
-3.073199039234859
 30
0.0
 11
31.37497917480696
 21
-3.065325732584858
 31
0.0
  0
LINE
  5
9F8
330
1F
100
AcDbEntity
  8
TitleBlock&Notes
  6
Continuous
 62
     3
100
AcDbLine
 10
30.92391775699449
 20
-3.056861548147366
 30
0.0
 11
31.37497917480696
 21
-3.048988241497351
 31
0.0
  0
LINE
  5
9F9
330
1F
100
AcDbEntity
  8
TitleBlock&Notes
  6
Continuous
 62
     3
100
AcDbLine
 10
30.92391775699449
 20
-3.040524057059859
 30
0.0
 11
31.37497917480696
 21
-3.032650750409858
 31
0.0
  0
LINE
  5
9FA
330
1F
100
AcDbEntity
  8
TitleBlock&Notes
  6
Continuous
 62
     3
100
AcDbLine
 10
30.92391775699449
 20
-3.024186565972366
 30
0.0
 11
31.37497917480696
 21
-3.016313259322364
 31
0.0
  0
LINE
  5
9FB
330
1F
100
AcDbEntity
  8
TitleBlock&Notes
  6
Continuous
 62
     3
100
AcDbLine
 10
30.92391775699449
 20
-3.007849074884859
 30
0.0
 11
31.37497917480696
 21
-2.999975768234858
 31
0.0
  0
LINE
  5
9FC
330
1F
100
AcDbEntity
  8
TitleBlock&Notes
  6
Continuous
 62
     3
100
AcDbLine
 10
30.92391775699449
 20
-2.991511583797366
 30
0.0
 11
31.37497917480696
 21
-2.983638277147364
 31
0.0
  0
LINE
  5
9FD
330
1F
100
AcDbEntity
  8
TitleBlock&Notes
  6
Continuous
 62
     3
100
AcDbLine
 10
30.92391775699449
 20
-2.975174092709872
 30
0.0
 11
31.37497917480696
 21
-2.967300786059857
 31
0.0
  0
LINE
  5
9FE
330
1F
100
AcDbEntity
  8
TitleBlock&Notes
  6
Continuous
 62
     3
100
AcDbLine
 10
30.92391775699449
 20
-2.958836601622355
 30
0.0
 11
31.37497917480696
 21
-2.950963294972364
 31
0.0
  0
LINE
  5
9FF
330
1F
100
AcDbEntity
  8
TitleBlock&Notes
  6
Continuous
 62
     3
100
AcDbLine
 10
30.92391775699449
 20
-2.942499110534851
 30
0.0
 11
31.37497917480696
 21
-2.934625803884868
 31
0.0
  0
LINE
  5
A00
330
1F
100
AcDbEntity
  8
TitleBlock&Notes
  6
Continuous
 62
     3
100
AcDbLine
 10
30.92391775699449
 20
-2.926161619447355
 30
0.0
 11
31.37497917480696
 21
-2.918288312797353
 31
0.0
  0
LINE
  5
A01
330
1F
100
AcDbEntity
  8
TitleBlock&Notes
  6
Continuous
 62
     3
100
AcDbLine
 10
30.92391775699449
 20
-2.909824128359861
 30
0.0
 11
31.37497917480696
 21
-2.901950821709871
 31
0.0
  0
LINE
  5
A02
330
1F
100
AcDbEntity
  8
TitleBlock&Notes
  6
Continuous
 62
     3
100
AcDbLine
 10
30.92391775699449
 20
-2.893486678109859
 30
0.0
 11
31.37497917480696
 21
-2.885613371459857
 31
0.0
  0
LINE
  5
A03
330
1F
100
AcDbEntity
  8
TitleBlock&Notes
  6
Continuous
 62
     3
100
AcDbLine
 10
30.92391775699449
 20
-2.877149187022365
 30
0.0
 11
31.37497917480696
 21
-2.869275880372361
 31
0.0
  0
LINE
  5
A04
330
1F
100
AcDbEntity
  8
TitleBlock&Notes
  6
Continuous
 62
     3
100
AcDbLine
 10
30.92391775699449
 20
-2.860811695934859
 30
0.0
 11
31.37497917480696
 21
-2.852938389284857
 31
0.0
  0
LINE
  5
A05
330
1F
100
AcDbEntity
  8
TitleBlock&Notes
  6
Continuous
 62
     3
100
AcDbLine
 10
30.92391775699449
 20
-2.844474204847365
 30
0.0
 11
31.37497917480696
 21
-2.836600898197364
 31
0.0
  0
LINE
  5
A06
330
1F
100
AcDbEntity
  8
TitleBlock&Notes
  6
Continuous
 62
     3
100
AcDbLine
 10
30.88308025699445
 20
-3.03283848039737
 30
0.0
 11
30.88308025699445
 21
-2.72655723039736
 31
0.0
  0
LINE
  5
A07
330
1F
100
AcDbEntity
  8
TitleBlock&Notes
  6
Continuous
 62
     3
100
AcDbLine
 10
30.90349900699445
 20
-3.053257230397369
 30
0.0
 11
30.90349900699445
 21
-2.706138480397362
 31
0.0
  0
LINE
  5
A08
330
1F
100
AcDbEntity
  8
TitleBlock&Notes
  6
Continuous
 62
     3
100
AcDbLine
 10
30.92391775699449
 20
-2.828136713759869
 30
0.0
 11
31.37497917480696
 21
-2.820263407109857
 31
0.0
  0
LINE
  5
A09
330
1F
100
AcDbEntity
  8
TitleBlock&Notes
  6
Continuous
 62
     3
100
AcDbLine
 10
30.92391775699449
 20
-3.073675980397364
 30
0.0
 11
30.92391775699449
 21
-2.685719730397366
 31
0.0
  0
TEXT
  5
A0C
330
1F
100
AcDbEntity
  8
TitleBlock&Notes
  6
Continuous
 62
     3
100
AcDbText
 10
36.66859839698405
 20
-0.8662962218473762
 30
0.0
 40
0.22460625
  1
R
 41
1.165501169999999
100
AcDbText
  0
CIRCLE
  5
A0D
330
1F
100
AcDbEntity
  8
TitleBlock&Notes
  6
Continuous
 62
     3
100
AcDbCircle
 10
36.75392680140905
 20
-0.7545024221473753
 30
0.0
 40
0.18376875
  0
TEXT
  5
A0E
330
1F
100
AcDbEntity
  8
TitleBlock&Notes
  6
Continuous
 62
     3
100
AcDbText
 10
33.89487636831493
 20
-2.282411003425313
 30
0.0
 40
0.3267
  1
 Bolton, Ontario
 41
0.7000000000000001
100
AcDbText
  0
LINE
  5
AA5
330
1F
100
AcDbEntity
  8
0
  6
Continuous
 62
   255
100
AcDbLine
 10
17.62509338115625
 20
7.50550878464071
 30
0.0
 11
17.62509338115625
 21
14.50550878464071
 31
0.0
  0
LINE
  5
AA6
330
1F
100
AcDbEntity
  8
0
  6
Continuous
 62
   255
100
AcDbLine
 10
15.12509338115625
 20
7.50550878464071
 30
0.0
 11
15.12509338115625
 21
14.50550878464071
 31
0.0
  0
LINE
  5
AA7
330
1F
100
AcDbEntity
  8
0
  6
HIDDEN
 62
     7
100
AcDbLine
 10
15.18759338115625
 20
7.53627778464071
 30
0.0
 11
15.18759338115625
 21
2.536277784640711
 31
0.0
  0
LINE
  5
AA8
330
1F
100
AcDbEntity
  8
0
  6
HIDDEN
 62
     7
100
AcDbLine
 10
17.56259338115625
 20
7.53627778464071
 30
0.0
 11
17.56259338115625
 21
2.536277784640711
 31
0.0
  0
LINE
  5
AA9
330
1F
100
AcDbEntity
  8
0
  6
Continuous
 62
     7
100
AcDbLine
 10
17.62509338115625
 20
7.50550878464071
 30
0.0
 11
17.62509338115625
 21
2.536277784640711
 31
0.0
  0
LINE
  5
AAA
330
1F
100
AcDbEntity
  8
0
  6
Continuous
 62
     7
100
AcDbLine
 10
15.12509338115625
 20
7.50550878464071
 30
0.0
 11
15.12509338115625
 21
2.536277784640711
 31
0.0
  0
LINE
  5
AAB
330
1F
100
AcDbEntity
  8
0
  6
Continuous
 62
   255
100
AcDbLine
 10
15.50009338115625
 20
2.286277784640711
 30
0.0
 11
15.50009338115625
 21
1.461277784640712
 31
0.0
  0
LINE
  5
AAC
330
1F
100
AcDbEntity
  8
0
  6
Continuous
 62
   255
100
AcDbLine
 10
17.25009338115625
 20
1.461277784640712
 30
0.0
 11
17.25009338115625
 21
2.286277784640711
 31
0.0
  0
CIRCLE
  5
AAD
330
1F
100
AcDbEntity
  8
0
  6
Continuous
 62
   255
100
AcDbCircle
 10
16.37509338115625
 20
2.036277784640711
 30
0.0
 40
0.045
  0
CIRCLE
  5
AAE
330
1F
100
AcDbEntity
  8
0
  6
Continuous
 62
   255
100
AcDbCircle
 10
16.37509338115625
 20
2.036277784640711
 30
0.0
 40
0.065
  0
LINE
  5
AAF
330
1F
100
AcDbEntity
  8
0
  6
Continuous
 62
   255
100
AcDbLine
 10
15.55009338115625
 20
1.411277784640711
 30
0.0
 11
17.20009338115625
 21
1.411277784640711
 31
0.0
  0
LINE
  5
AB0
330
1F
100
AcDbEntity
  8
0
  6
Continuous
 62
   255
100
AcDbLine
 10
15.50009338115625
 20
1.461277784640712
 30
0.0
 11
15.55009338115625
 21
1.411277784640711
 31
0.0
  0
LINE
  5
AB1
330
1F
100
AcDbEntity
  8
0
  6
Continuous
 62
   255
100
AcDbLine
 10
17.25009338115625
 20
1.461277784640712
 30
0.0
 11
17.20009338115625
 21
1.411277784640711
 31
0.0
  0
LINE
  5
AB2
330
1F
100
AcDbEntity
  8
0
  6
Continuous
 62
   255
100
AcDbLine
 10
15.12509338115625
 20
2.536277784640711
 30
0.0
 11
17.62509338115625
 21
2.536277784640711
 31
0.0
  0
LINE
  5
AB3
330
1F
100
AcDbEntity
  8
0
  6
Continuous
 62
   255
100
AcDbLine
 10
15.21759338115625
 20
2.286277784640711
 30
0.0
 11
17.53259338115625
 21
2.286277784640711
 31
0.0
  0
LINE
  5
AB4
330
1F
100
AcDbEntity
  8
0
  6
Continuous
 62
   255
100
AcDbLine
 10
15.18759338115625
 20
2.536277784640711
 30
0.0
 11
15.18759338115625
 21
2.316277784640711
 31
0.0
  0
LINE
  5
AB5
330
1F
100
AcDbEntity
  8
0
  6
Continuous
 62
   255
100
AcDbLine
 10
15.18759338115625
 20
2.316277784640711
 30
0.0
 11
15.21759338115625
 21
2.286277784640711
 31
0.0
  0
LINE
  5
AB6
330
1F
100
AcDbEntity
  8
0
  6
Continuous
 62
   255
100
AcDbLine
 10
17.56259338115625
 20
2.316277784640711
 30
0.0
 11
17.53259338115625
 21
2.286277784640711
 31
0.0
  0
LINE
  5
AB7
330
1F
100
AcDbEntity
  8
0
  6
Continuous
 62
   255
100
AcDbLine
 10
17.56259338115625
 20
2.536277784640711
 30
0.0
 11
17.56259338115625
 21
2.316277784640711
 31
0.0
  0
LINE
  5
AB9
330
1F
100
AcDbEntity
  8
0
  6
Continuous
 62
   255
100
AcDbLine
 10
15.00009338115625
 20
19.63050878464071
 30
0.0
 11
17.75009338115625
 21
19.63050878464071
 31
0.0
  0
LINE
  5
ABA
330
1F
100
AcDbEntity
  8
0
  6
Continuous
 62
   255
100
AcDbLine
 10
15.00009338115625
 20
20.13050878464071
 30
0.0
 11
17.75009338115625
 21
20.13050878464071
 31
0.0
  0
LINE
  5
ABB
330
1F
100
AcDbEntity
  8
0
  6
Continuous
 62
   255
100
AcDbLine
 10
18.12509338115625
 20
26.38050878464071
 30
0.0
 11
17.62509338115625
 21
26.38050878464071
 31
0.0
  0
LINE
  5
ABC
330
1F
100
AcDbEntity
  8
0
  6
Continuous
 62
   255
100
AcDbLine
 10
17.75009338115625
 20
26.38050878464071
 30
0.0
 11
17.64509338115625
 21
26.38050878464071
 31
0.0
  0
LINE
  5
ABD
330
1F
100
AcDbEntity
  8
0
  6
Continuous
 62
   255
100
AcDbLine
 10
18.09509338115625
 20
26.65050878464071
 30
0.0
 11
17.65509338115625
 21
26.65050878464071
 31
0.0
  0
LINE
  5
ABE
330
1F
100
AcDbEntity
  8
0
  6
Continuous
 62
   255
100
AcDbLine
 10
18.10509338115625
 20
26.63050878464071
 30
0.0
 11
17.64509338115625
 21
26.63050878464071
 31
0.0
  0
LINE
  5
ABF
330
1F
100
AcDbEntity
  8
0
  6
Continuous
 62
   255
100
AcDbLine
 10
15.12509338115625
 20
26.38050878464071
 30
0.0
 11
18.25009338115625
 21
26.38050878464071
 31
0.0
  0
LINE
  5
AC0
330
1F
100
AcDbEntity
  8
0
  6
Continuous
 62
   255
100
AcDbLine
 10
14.50009338115625
 20
26.13050878464071
 30
0.0
 11
18.25009338115625
 21
26.13050878464071
 31
0.0
  0
LINE
  5
AC1
330
1F
100
AcDbEntity
  8
0
  6
Continuous
 62
   255
100
AcDbLine
 10
14.50009338115625
 20
15.25550878464071
 30
0.0
 11
18.25009338115625
 21
15.25550878464071
 31
0.0
  0
LINE
  5
AC2
330
1F
100
AcDbEntity
  8
0
  6
Continuous
 62
   255
100
AcDbLine
 10
14.50009338115625
 20
15.00550878464071
 30
0.0
 11
18.25009338115625
 21
15.00550878464071
 31
0.0
  0
LINE
  5
AC3
330
1F
100
AcDbEntity
  8
0
  6
Continuous
 62
   255
100
AcDbLine
 10
14.87509338115625
 20
14.50550878464071
 30
0.0
 11
17.87509338115625
 21
14.50550878464071
 31
0.0
  0
LINE
  5
AC4
330
1F
100
AcDbEntity
  8
0
  6
Continuous
 62
   255
100
AcDbLine
 10
14.50009338115625
 20
15.25550878464071
 30
0.0
 11
14.50009338115625
 21
26.13050878464071
 31
0.0
  0
LINE
  5
AC5
330
1F
100
AcDbEntity
  8
0
  6
Continuous
 62
   255
100
AcDbLine
 10
15.00009338115625
 20
26.13050878464071
 30
0.0
 11
15.00009338115625
 21
15.25550878464071
 31
0.0
  0
LINE
  5
AC6
330
1F
100
AcDbEntity
  8
0
  6
Continuous
 62
   255
100
AcDbLine
 10
14.75009338115625
 20
15.25550878464071
 30
0.0
 11
14.75009338115625
 21
26.13050878464071
 31
0.0
  0
LINE
  5
AC7
330
1F
100
AcDbEntity
  8
0
  6
Continuous
 62
   255
100
AcDbLine
 10
14.50009338115625
 20
15.00550878464071
 30
0.0
 11
14.50009338115625
 21
15.25550878464071
 31
0.0
  0
LINE
  5
AC8
330
1F
100
AcDbEntity
  8
0
  6
Continuous
 62
   255
100
AcDbLine
 10
14.87509338115625
 20
14.50550878464071
 30
0.0
 11
14.87509338115625
 21
14.9755087846407
 31
0.0
  0
LINE
  5
AC9
330
1F
100
AcDbEntity
  8
0
  6
Continuous
 62
   255
100
AcDbLine
 10
14.77009338115625
 20
14.9755087846407
 30
0.0
 11
14.98009338115625
 21
14.9755087846407
 31
0.0
  0
LINE
  5
ACA
330
1F
100
AcDbEntity
  8
0
  6
Continuous
 62
   255
100
AcDbLine
 10
14.77009338115625
 20
14.9755087846407
 30
0.0
 11
14.75009338115625
 21
14.99550878464071
 31
0.0
  0
LINE
  5
ACB
330
1F
100
AcDbEntity
  8
0
  6
Continuous
 62
   255
100
AcDbLine
 10
14.75009338115625
 20
15.00550878464071
 30
0.0
 11
14.75009338115625
 21
14.99550878464071
 31
0.0
  0
LINE
  5
ACC
330
1F
100
AcDbEntity
  8
0
  6
Continuous
 62
   255
100
AcDbLine
 10
14.98009338115625
 20
14.9755087846407
 30
0.0
 11
15.00009338115625
 21
14.99550878464071
 31
0.0
  0
LINE
  5
ACD
330
1F
100
AcDbEntity
  8
0
  6
Continuous
 62
   255
100
AcDbLine
 10
15.00009338115625
 20
15.00550878464071
 30
0.0
 11
15.00009338115625
 21
14.99550878464071
 31
0.0
  0
LINE
  5
ACE
330
1F
100
AcDbEntity
  8
0
  6
Continuous
 62
   255
100
AcDbLine
 10
14.50009338115625
 20
19.63050878464071
 30
0.0
 11
14.75009338115625
 21
19.63050878464071
 31
0.0
  0
LINE
  5
ACF
330
1F
100
AcDbEntity
  8
0
  6
Continuous
 62
   255
100
AcDbLine
 10
14.50009338115625
 20
20.13050878464071
 30
0.0
 11
14.75009338115625
 21
20.13050878464071
 31
0.0
  0
LINE
  5
AD0
330
1F
100
AcDbEntity
  8
0
  6
Continuous
 62
   255
100
AcDbLine
 10
15.25009338115625
 20
15.00550878464071
 30
0.0
 11
15.25009338115625
 21
15.25550878464071
 31
0.0
  0
LINE
  5
AD1
330
1F
100
AcDbEntity
  8
0
  6
Continuous
 62
   255
100
AcDbLine
 10
17.50009338115625
 20
15.00550878464071
 30
0.0
 11
17.50009338115625
 21
15.25550878464071
 31
0.0
  0
LWPOLYLINE
  5
AD2
330
1F
100
AcDbEntity
  8
0
  6
Continuous
 62
   255
100
AcDbPolyline
 90
        8
 70
     1
 43
0.0
 10
16.43259338115625
 20
18.75550878464071
 10
16.41428738115624
 20
18.79970278464071
 10
16.37009338115625
 20
18.81800878464071
 10
16.32589938115625
 20
18.79970278464071
 10
16.30759338115625
 20
18.75550878464071
 10
16.32589938115625
 20
18.71131478464071
 10
16.37009338115625
 20
18.69300878464071
 10
16.41428738115624
 20
18.71131478464071
  0
LWPOLYLINE
  5
AD3
330
1F
100
AcDbEntity
  8
0
  6
Continuous
 62
   255
100
AcDbPolyline
 90
        8
 70
     1
 43
0.02
 10
16.43259338115625
 20
18.75550878464071
 10
16.41428738115624
 20
18.79970278464071
 10
16.37009338115625
 20
18.81800878464071
 10
16.32589938115625
 20
18.79970278464071
 10
16.30759338115625
 20
18.75550878464071
 10
16.32589938115625
 20
18.71131478464071
 10
16.37009338115625
 20
18.69300878464071
 10
16.41428738115624
 20
18.71131478464071
  0
LINE
  5
AD4
330
1F
100
AcDbEntity
  8
0
  6
Continuous
 62
   255
100
AcDbLine
 10
15.30759338115625
 20
19.13050878464071
 30
0.0
 11
17.43259338115625
 21
19.13050878464071
 31
0.0
  0
LINE
  5
AD5
330
1F
100
AcDbEntity
  8
0
  6
Continuous
 62
   255
100
AcDbLine
 10
15.30759338115625
 20
18.38050878464071
 30
0.0
 11
17.43259338115625
 21
18.38050878464071
 31
0.0
  0
CIRCLE
  5
AD6
330
1F
100
AcDbEntity
  8
0
  6
Continuous
 62
   255
100
AcDbCircle
 10
16.37009338115625
 20
18.75550878464071
 30
0.0
 40
0.1875
  0
TEXT
  5
AD7
330
1F
100
AcDbEntity
  8
0
  6
Continuous
 62
   255
100
AcDbText
 10
15.32566138115625
 20
18.96127578464071
 30
0.0
 40
0.0688439791621138
  1
M U L T I C Y L
 41
0.9090909999999999
 72
     3
 11
16.22271938115625
 21
18.96127578464071
 31
0.0
100
AcDbText
  0
LINE
  5
AD8
330
1F
100
AcDbEntity
  8
0
  6
Continuous
 62
   255
100
AcDbLine
 10
15.24509338115625
 20
19.06800878464071
 30
0.0
 11
15.24509338115625
 21
18.44300878464071
 31
0.0
  0
ARC
  5
AD9
330
1F
100
AcDbEntity
  8
0
  6
Continuous
 62
   255
100
AcDbCircle
 10
15.30759338115625
 20
18.44300878464071
 30
0.0
 40
0.0625
100
AcDbArc
 50
180.0
 51
270.0
  0
ARC
  5
ADA
330
1F
100
AcDbEntity
  8
0
  6
Continuous
 62
   255
100
AcDbCircle
 10
15.30759338115625
 20
19.06800878464071
 30
0.0
 40
0.0625
100
AcDbArc
 50
90.0
 51
180.0
  0
TEXT
  5
ADB
330
1F
100
AcDbEntity
  8
0
  6
Continuous
 62
   255
100
AcDbText
 10
16.49284238115625
 20
18.46927878464071
 30
0.0
 40
0.0452048699475982
  1
O I L  L E V E L
 41
0.9090909999999999
 72
     3
 11
17.13666938115625
 21
18.46927878464071
 31
0.0
100
AcDbText
  0
LINE
  5
ADC
330
1F
100
AcDbEntity
  8
0
  6
Continuous
 62
   255
100
AcDbLine
 10
17.49509338115625
 20
19.06800878464071
 30
0.0
 11
17.49509338115625
 21
18.44300878464071
 31
0.0
  0
LINE
  5
ADD
330
1F
100
AcDbEntity
  8
0
  6
Continuous
 62
   255
100
AcDbLine
 10
17.17765138115625
 20
18.49942678464071
 30
0.0
 11
17.49509338115625
 21
18.49942678464071
 31
0.0
  0
ARC
  5
ADE
330
1F
100
AcDbEntity
  8
0
  6
Continuous
 62
   255
100
AcDbCircle
 10
17.43259338115625
 20
18.44300878464071
 30
0.0
 40
0.0625
100
AcDbArc
 50
270.0
 51
0.0
  0
ARC
  5
ADF
330
1F
100
AcDbEntity
  8
0
  6
Continuous
 62
   255
100
AcDbCircle
 10
17.43259338115625
 20
19.06800878464071
 30
0.0
 40
0.0625
100
AcDbArc
 50
0.0
 51
90.0
  0
LINE
  5
AE0
330
1F
100
AcDbEntity
  8
0
  6
Continuous
 62
   255
100
AcDbLine
 10
14.62509338115625
 20
26.38050878464071
 30
0.0
 11
15.12509338115625
 21
26.38050878464071
 31
0.0
  0
LINE
  5
AE1
330
1F
100
AcDbEntity
  8
0
  6
Continuous
 62
   255
100
AcDbLine
 10
15.00009338115625
 20
26.38050878464071
 30
0.0
 11
15.10509338115625
 21
26.38050878464071
 31
0.0
  0
LINE
  5
AE2
330
1F
100
AcDbEntity
  8
0
  6
Continuous
 62
   255
100
AcDbLine
 10
14.65509338115625
 20
26.65050878464071
 30
0.0
 11
15.09509338115625
 21
26.65050878464071
 31
0.0
  0
LINE
  5
AE3
330
1F
100
AcDbEntity
  8
0
  6
Continuous
 62
   255
100
AcDbLine
 10
14.64509338115625
 20
26.63050878464071
 30
0.0
 11
15.10509338115625
 21
26.63050878464071
 31
0.0
  0
LINE
  5
AE4
330
1F
100
AcDbEntity
  8
0
  6
Continuous
 62
   255
100
AcDbLine
 10
14.64509338115625
 20
26.38050878464071
 30
0.0
 11
14.75009338115625
 21
26.38050878464071
 31
0.0
  0
LINE
  5
AE5
330
1F
100
AcDbEntity
  8
0
  6
Continuous
 62
   255
100
AcDbLine
 10
14.50009338115625
 20
26.13050878464071
 30
0.0
 11
14.50009338115625
 21
26.38050878464071
 31
0.0
  0
LINE
  5
AE6
330
1F
100
AcDbEntity
  8
0
  6
Continuous
 62
   255
100
AcDbLine
 10
14.50009338115625
 20
26.38050878464071
 30
0.0
 11
14.62509338115625
 21
26.38050878464071
 31
0.0
  0
ARC
  5
AE7
330
1F
100
AcDbEntity
  8
0
  6
Continuous
 62
   255
100
AcDbCircle
 10
14.64509338115625
 20
26.40050878464071
 30
0.0
 40
0.02
100
AcDbArc
 50
180.0
 51
270.0
  0
ARC
  5
AE8
330
1F
100
AcDbEntity
  8
0
  6
Continuous
 62
   255
100
AcDbCircle
 10
14.64509338115625
 20
26.61050878464071
 30
0.0
 40
0.02
100
AcDbArc
 50
90.0
 51
180.0
  0
LINE
  5
AE9
330
1F
100
AcDbEntity
  8
0
  6
Continuous
 62
   255
100
AcDbLine
 10
14.64509338115625
 20
26.64050878464071
 30
0.0
 11
14.64509338115625
 21
26.63050878464071
 31
0.0
  0
ARC
  5
AEA
330
1F
100
AcDbEntity
  8
0
  6
Continuous
 62
   255
100
AcDbCircle
 10
14.65509338115625
 20
26.64050878464071
 30
0.0
 40
0.01
100
AcDbArc
 50
90.0
 51
180.0
  0
LINE
  5
AEB
330
1F
100
AcDbEntity
  8
0
  6
Continuous
 62
   255
100
AcDbLine
 10
14.62509338115625
 20
26.40050878464071
 30
0.0
 11
14.62509338115625
 21
26.61050878464071
 31
0.0
  0
LINE
  5
AEC
330
1F
100
AcDbEntity
  8
0
  6
Continuous
 62
   255
100
AcDbLine
 10
14.75009338115625
 20
26.67050878464071
 30
0.0
 11
15.00009338115625
 21
26.67050878464071
 31
0.0
  0
LINE
  5
AED
330
1F
100
AcDbEntity
  8
0
  6
Continuous
 62
   255
100
AcDbLine
 10
14.77009338115625
 20
26.38050878464071
 30
0.0
 11
14.98009338115625
 21
26.38050878464071
 31
0.0
  0
LINE
  5
AEE
330
1F
100
AcDbEntity
  8
0
  6
Continuous
 62
   255
100
AcDbLine
 10
14.75009338115625
 20
26.65050878464071
 30
0.0
 11
14.75009338115625
 21
26.67050878464071
 31
0.0
  0
LINE
  5
AEF
330
1F
100
AcDbEntity
  8
0
  6
Continuous
 62
   255
100
AcDbLine
 10
14.75009338115625
 20
26.40050878464071
 30
0.0
 11
14.75009338115625
 21
26.61050878464071
 31
0.0
  0
ARC
  5
AF0
330
1F
100
AcDbEntity
  8
0
  6
Continuous
 62
   255
100
AcDbCircle
 10
14.77009338115625
 20
26.40050878464071
 30
0.0
 40
0.02
100
AcDbArc
 50
180.0
 51
270.0
  0
ARC
  5
AF1
330
1F
100
AcDbEntity
  8
0
  6
Continuous
 62
   255
100
AcDbCircle
 10
14.77009338115625
 20
26.61050878464071
 30
0.0
 40
0.02
100
AcDbArc
 50
90.0
 51
180.0
  0
LINE
  5
AF2
330
1F
100
AcDbEntity
  8
0
  6
Continuous
 62
   255
100
AcDbLine
 10
15.00009338115625
 20
26.65050878464071
 30
0.0
 11
15.00009338115625
 21
26.67050878464071
 31
0.0
  0
LINE
  5
AF3
330
1F
100
AcDbEntity
  8
0
  6
Continuous
 62
   255
100
AcDbLine
 10
15.00009338115625
 20
26.40050878464071
 30
0.0
 11
15.00009338115625
 21
26.61050878464071
 31
0.0
  0
ARC
  5
AF4
330
1F
100
AcDbEntity
  8
0
  6
Continuous
 62
   255
100
AcDbCircle
 10
14.98009338115625
 20
26.40050878464071
 30
0.0
 40
0.02
100
AcDbArc
 50
270.0
 51
0.0
  0
ARC
  5
AF5
330
1F
100
AcDbEntity
  8
0
  6
Continuous
 62
   255
100
AcDbCircle
 10
14.98009338115625
 20
26.61050878464071
 30
0.0
 40
0.02
100
AcDbArc
 50
0.0
 51
90.0
  0
TEXT
  5
AF6
330
1F
100
AcDbEntity
  8
0
  6
Continuous
 62
   255
100
AcDbText
 10
15.46755238115625
 20
24.3462307846407
 30
0.0
 40
0.3225611352540917
  1
MULTICYL
 41
0.8474579999999999
  7
SAS_____
 72
     3
 11
17.32180538115625
 21
24.3462307846407
 31
0.0
100
AcDbText
  0
LINE
  5
AF7
330
1F
100
AcDbEntity
  8
0
  6
Continuous
 62
   255
100
AcDbLine
 10
15.31259338115625
 20
24.88050878464071
 30
0.0
 11
17.43759338115625
 21
24.88050878464071
 31
0.0
  0
LINE
  5
AF8
330
1F
100
AcDbEntity
  8
0
  6
Continuous
 62
   255
100
AcDbLine
 10
15.31259338115625
 20
24.13050878464071
 30
0.0
 11
17.43759338115625
 21
24.13050878464071
 31
0.0
  0
LINE
  5
AF9
330
1F
100
AcDbEntity
  8
0
  6
Continuous
 62
   255
100
AcDbLine
 10
15.25009338115625
 20
24.81800878464071
 30
0.0
 11
15.25009338115625
 21
24.19300878464071
 31
0.0
  0
ARC
  5
AFA
330
1F
100
AcDbEntity
  8
0
  6
Continuous
 62
   255
100
AcDbCircle
 10
15.31259338115625
 20
24.19300878464071
 30
0.0
 40
0.0625
100
AcDbArc
 50
180.0
 51
270.0
  0
ARC
  5
AFB
330
1F
100
AcDbEntity
  8
0
  6
Continuous
 62
   255
100
AcDbCircle
 10
15.31259338115625
 20
24.81800878464071
 30
0.0
 40
0.0625
100
AcDbArc
 50
90.0
 51
180.0
  0
LINE
  5
AFC
330
1F
100
AcDbEntity
  8
0
  6
Continuous
 62
   255
100
AcDbLine
 10
17.50009338115625
 20
24.81800878464071
 30
0.0
 11
17.50009338115625
 21
24.19300878464071
 31
0.0
  0
ARC
  5
AFD
330
1F
100
AcDbEntity
  8
0
  6
Continuous
 62
   255
100
AcDbCircle
 10
17.43759338115625
 20
24.19300878464071
 30
0.0
 40
0.0625
100
AcDbArc
 50
270.0
 51
0.0
  0
ARC
  5
AFE
330
1F
100
AcDbEntity
  8
0
  6
Continuous
 62
   255
100
AcDbCircle
 10
17.43759338115625
 20
24.81800878464071
 30
0.0
 40
0.0625
100
AcDbArc
 50
0.0
 51
90.0
  0
LINE
  5
AFF
330
1F
100
AcDbEntity
  8
0
  6
Continuous
 62
   255
100
AcDbLine
 10
15.25009338115625
 20
26.13050878464071
 30
0.0
 11
15.25009338115625
 21
26.38050878464071
 31
0.0
  0
ARC
  5
B00
330
1F
100
AcDbEntity
  8
0
  6
Continuous
 62
   255
100
AcDbCircle
 10
15.10509338115625
 20
26.40050878464071
 30
0.0
 40
0.02
100
AcDbArc
 50
270.0
 51
0.0
  0
ARC
  5
B01
330
1F
100
AcDbEntity
  8
0
  6
Continuous
 62
   255
100
AcDbCircle
 10
15.10509338115625
 20
26.61050878464071
 30
0.0
 40
0.02
100
AcDbArc
 50
0.0
 51
90.0
  0
LINE
  5
B02
330
1F
100
AcDbEntity
  8
0
  6
Continuous
 62
   255
100
AcDbLine
 10
15.10509338115625
 20
26.64050878464071
 30
0.0
 11
15.10509338115625
 21
26.63050878464071
 31
0.0
  0
ARC
  5
B03
330
1F
100
AcDbEntity
  8
0
  6
Continuous
 62
   255
100
AcDbCircle
 10
15.09509338115625
 20
26.64050878464071
 30
0.0
 40
0.01
100
AcDbArc
 50
0.0
 51
90.0
  0
LINE
  5
B04
330
1F
100
AcDbEntity
  8
0
  6
Continuous
 62
   255
100
AcDbLine
 10
15.12509338115625
 20
26.40050878464071
 30
0.0
 11
15.12509338115625
 21
26.61050878464071
 31
0.0
  0
LINE
  5
B05
330
1F
100
AcDbEntity
  8
0
  6
Continuous
 62
   255
100
AcDbLine
 10
16.62503238115625
 20
26.38050878464071
 30
0.0
 11
16.68759338115625
 21
26.38050878464071
 31
0.0
  0
LINE
  5
B06
330
1F
100
AcDbEntity
  8
0
  6
Continuous
 62
   255
100
AcDbLine
 10
16.80986138115625
 20
26.38050878464071
 30
0.0
 11
16.68759338115625
 21
26.38050878464071
 31
0.0
  0
LINE
  5
B07
330
1F
100
AcDbEntity
  8
0
  6
Continuous
 62
   255
100
AcDbLine
 10
17.50009338115625
 20
26.13050878464071
 30
0.0
 11
17.50009338115625
 21
26.38050878464071
 31
0.0
  0
ARC
  5
B08
330
1F
100
AcDbEntity
  8
0
  6
Continuous
 62
   255
100
AcDbCircle
 10
17.64509338115625
 20
26.40050878464071
 30
0.0
 40
0.02
100
AcDbArc
 50
180.0
 51
270.0
  0
ARC
  5
B09
330
1F
100
AcDbEntity
  8
0
  6
Continuous
 62
   255
100
AcDbCircle
 10
17.64509338115625
 20
26.61050878464071
 30
0.0
 40
0.02
100
AcDbArc
 50
90.0
 51
180.0
  0
LINE
  5
B0A
330
1F
100
AcDbEntity
  8
0
  6
Continuous
 62
   255
100
AcDbLine
 10
17.64509338115625
 20
26.64050878464071
 30
0.0
 11
17.64509338115625
 21
26.63050878464071
 31
0.0
  0
ARC
  5
B0B
330
1F
100
AcDbEntity
  8
0
  6
Continuous
 62
   255
100
AcDbCircle
 10
17.65509338115625
 20
26.64050878464071
 30
0.0
 40
0.01
100
AcDbArc
 50
90.0
 51
180.0
  0
LINE
  5
B0C
330
1F
100
AcDbEntity
  8
0
  6
Continuous
 62
   255
100
AcDbLine
 10
17.62509338115625
 20
26.40050878464071
 30
0.0
 11
17.62509338115625
 21
26.61050878464071
 31
0.0
  0
LINE
  5
B0D
330
1F
100
AcDbEntity
  8
0
  6
Continuous
 62
   255
100
AcDbLine
 10
18.00009338115625
 20
26.13050878464071
 30
0.0
 11
18.00009338115625
 21
15.25550878464071
 31
0.0
  0
LINE
  5
B0E
330
1F
100
AcDbEntity
  8
0
  6
Continuous
 62
   255
100
AcDbLine
 10
17.75009338115625
 20
15.25550878464071
 30
0.0
 11
17.75009338115625
 21
26.13050878464071
 31
0.0
  0
LINE
  5
B0F
330
1F
100
AcDbEntity
  8
0
  6
Continuous
 62
   255
100
AcDbLine
 10
18.25009338115625
 20
20.13050878464071
 30
0.0
 11
18.25009338115625
 21
26.13050878464071
 31
0.0
  0
LINE
  5
B10
330
1F
100
AcDbEntity
  8
0
  6
Continuous
 62
   255
100
AcDbLine
 10
18.25009338115625
 20
15.25550878464071
 30
0.0
 11
18.25009338115625
 21
19.63050878464071
 31
0.0
  0
LINE
  5
B11
330
1F
100
AcDbEntity
  8
0
  6
Continuous
 62
   255
100
AcDbLine
 10
18.25009338115625
 20
15.00550878464071
 30
0.0
 11
18.25009338115625
 21
15.25550878464071
 31
0.0
  0
LINE
  5
B12
330
1F
100
AcDbEntity
  8
0
  6
Continuous
 62
   255
100
AcDbLine
 10
17.98009338115625
 20
14.9755087846407
 30
0.0
 11
18.00009338115625
 21
14.99550878464071
 31
0.0
  0
LINE
  5
B13
330
1F
100
AcDbEntity
  8
0
  6
Continuous
 62
   255
100
AcDbLine
 10
17.87509338115625
 20
14.50550878464071
 30
0.0
 11
17.87509338115625
 21
14.9755087846407
 31
0.0
  0
LINE
  5
B14
330
1F
100
AcDbEntity
  8
0
  6
Continuous
 62
   255
100
AcDbLine
 10
17.98009338115625
 20
14.9755087846407
 30
0.0
 11
17.77009338115625
 21
14.9755087846407
 31
0.0
  0
LINE
  5
B15
330
1F
100
AcDbEntity
  8
0
  6
Continuous
 62
   255
100
AcDbLine
 10
17.77009338115625
 20
14.9755087846407
 30
0.0
 11
17.75009338115625
 21
14.99550878464071
 31
0.0
  0
LINE
  5
B16
330
1F
100
AcDbEntity
  8
0
  6
Continuous
 62
   255
100
AcDbLine
 10
17.75009338115625
 20
15.00550878464071
 30
0.0
 11
17.75009338115625
 21
14.99550878464071
 31
0.0
  0
LINE
  5
B17
330
1F
100
AcDbEntity
  8
0
  6
Continuous
 62
   255
100
AcDbLine
 10
18.00009338115625
 20
15.00550878464071
 30
0.0
 11
18.00009338115625
 21
14.99550878464071
 31
0.0
  0
LINE
  5
B18
330
1F
100
AcDbEntity
  8
0
  6
Continuous
 62
   255
100
AcDbLine
 10
18.25009338115625
 20
19.63050878464071
 30
0.0
 11
18.25009338115625
 21
20.13050878464071
 31
0.0
  0
LINE
  5
B19
330
1F
100
AcDbEntity
  8
0
  6
Continuous
 62
   255
100
AcDbLine
 10
18.00009338115625
 20
19.63050878464071
 30
0.0
 11
18.25009338115625
 21
19.63050878464071
 31
0.0
  0
LINE
  5
B1A
330
1F
100
AcDbEntity
  8
0
  6
Continuous
 62
   255
100
AcDbLine
 10
18.00009338115625
 20
20.13050878464071
 30
0.0
 11
18.25009338115625
 21
20.13050878464071
 31
0.0
  0
LINE
  5
B1B
330
1F
100
AcDbEntity
  8
0
  6
Continuous
 62
   255
100
AcDbLine
 10
18.00009338115625
 20
26.67050878464071
 30
0.0
 11
17.75009338115625
 21
26.67050878464071
 31
0.0
  0
ARC
  5
B1C
330
1F
100
AcDbEntity
  8
0
  6
Continuous
 62
   255
100
AcDbCircle
 10
17.98009338115625
 20
26.40050878464071
 30
0.0
 40
0.02
100
AcDbArc
 50
270.0
 51
0.0
  0
ARC
  5
B1D
330
1F
100
AcDbEntity
  8
0
  6
Continuous
 62
   255
100
AcDbCircle
 10
17.98009338115625
 20
26.61050878464071
 30
0.0
 40
0.02
100
AcDbArc
 50
0.0
 51
90.0
  0
LINE
  5
B1E
330
1F
100
AcDbEntity
  8
0
  6
Continuous
 62
   255
100
AcDbLine
 10
17.98009338115625
 20
26.38050878464071
 30
0.0
 11
17.77009338115625
 21
26.38050878464071
 31
0.0
  0
LINE
  5
B1F
330
1F
100
AcDbEntity
  8
0
  6
Continuous
 62
   255
100
AcDbLine
 10
17.75009338115625
 20
26.65050878464071
 30
0.0
 11
17.75009338115625
 21
26.67050878464071
 31
0.0
  0
LINE
  5
B20
330
1F
100
AcDbEntity
  8
0
  6
Continuous
 62
   255
100
AcDbLine
 10
17.75009338115625
 20
26.40050878464071
 30
0.0
 11
17.75009338115625
 21
26.61050878464071
 31
0.0
  0
ARC
  5
B21
330
1F
100
AcDbEntity
  8
0
  6
Continuous
 62
   255
100
AcDbCircle
 10
17.77009338115625
 20
26.40050878464071
 30
0.0
 40
0.02
100
AcDbArc
 50
180.0
 51
270.0
  0
ARC
  5
B22
330
1F
100
AcDbEntity
  8
0
  6
Continuous
 62
   255
100
AcDbCircle
 10
17.77009338115625
 20
26.61050878464071
 30
0.0
 40
0.02
100
AcDbArc
 50
90.0
 51
180.0
  0
LINE
  5
B23
330
1F
100
AcDbEntity
  8
0
  6
Continuous
 62
   255
100
AcDbLine
 10
18.25009338115625
 20
26.13050878464071
 30
0.0
 11
18.25009338115625
 21
26.38050878464071
 31
0.0
  0
LINE
  5
B24
330
1F
100
AcDbEntity
  8
0
  6
Continuous
 62
   255
100
AcDbLine
 10
18.00009338115625
 20
26.65050878464071
 30
0.0
 11
18.00009338115625
 21
26.67050878464071
 31
0.0
  0
LINE
  5
B25
330
1F
100
AcDbEntity
  8
0
  6
Continuous
 62
   255
100
AcDbLine
 10
18.00009338115625
 20
26.40050878464071
 30
0.0
 11
18.00009338115625
 21
26.61050878464071
 31
0.0
  0
ARC
  5
B26
330
1F
100
AcDbEntity
  8
0
  6
Continuous
 62
   255
100
AcDbCircle
 10
18.10509338115625
 20
26.40050878464071
 30
0.0
 40
0.02
100
AcDbArc
 50
270.0
 51
0.0
  0
LINE
  5
B27
330
1F
100
AcDbEntity
  8
0
  6
Continuous
 62
   255
100
AcDbLine
 10
18.10509338115625
 20
26.38050878464071
 30
0.0
 11
18.00009338115625
 21
26.38050878464071
 31
0.0
  0
ARC
  5
B28
330
1F
100
AcDbEntity
  8
0
  6
Continuous
 62
   255
100
AcDbCircle
 10
18.10509338115625
 20
26.61050878464071
 30
0.0
 40
0.02
100
AcDbArc
 50
0.0
 51
90.0
  0
LINE
  5
B29
330
1F
100
AcDbEntity
  8
0
  6
Continuous
 62
   255
100
AcDbLine
 10
18.10509338115625
 20
26.64050878464071
 30
0.0
 11
18.10509338115625
 21
26.63050878464071
 31
0.0
  0
ARC
  5
B2A
330
1F
100
AcDbEntity
  8
0
  6
Continuous
 62
   255
100
AcDbCircle
 10
18.09509338115625
 20
26.64050878464071
 30
0.0
 40
0.01
100
AcDbArc
 50
0.0
 51
90.0
  0
LINE
  5
B2B
330
1F
100
AcDbEntity
  8
0
  6
Continuous
 62
   255
100
AcDbLine
 10
18.12509338115625
 20
26.40050878464071
 30
0.0
 11
18.12509338115625
 21
26.61050878464071
 31
0.0
  0
MTEXT
  5
B61
330
1F
100
AcDbEntity
  8
Dimensions
100
AcDbMText
 10
19.51349772973947
 20
28.62489983891804
 30
0.0
 40
0.25
 41
0.0
 71
     1
 72
     1
  1
\A1;{\H0.7x;\S1/4;} NPT INLET FOR INCOMING AIR
 73
     1
 44
1.0
  0
LINE
  5
B62
330
1F
100
AcDbEntity
  8
Dimensions
100
AcDbLine
 10
16.63522983642706
 20
26.53360950817914
 30
0.0
 11
19.17349772973946
 21
28.49989983891804
 31
0.0
  0
LINE
  5
B63
330
1F
100
AcDbEntity
  8
Dimensions
100
AcDbLine
 10
19.17349772973946
 20
28.49989983891804
 30
0.0
 11
19.42349772973947
 21
28.49989983891804
 31
0.0
  0
SOLID
  5
B64
330
1F
100
AcDbEntity
  8
Dimensions
100
AcDbTrace
 10
16.66074662368346
 20
26.50067009896734
 30
0.0
 11
16.60971304917065
 21
26.56654891739094
 31
0.0
 12
16.43759338115625
 22
26.38050878464071
 32
0.0
 13
16.43759338115625
 23
26.38050878464071
 33
0.0
  0
LINE
  5
B65
330
1F
100
AcDbEntity
  8
0
  6
HIDDEN
 48
0.625
100
AcDbLine
 10
16.18759338115625
 20
26.38050878464071
 30
0.0
 11
16.18759338115625
 21
26.13050878464071
 31
0.0
  0
LINE
  5
B66
330
1F
100
AcDbEntity
  8
0
  6
HIDDEN
 48
0.625
100
AcDbLine
 10
16.21884338115625
 20
26.38050878464071
 30
0.0
 11
16.21884338115625
 21
26.13050878464071
 31
0.0
  0
LINE
  5
B67
330
1F
100
AcDbEntity
  8
0
  6
HIDDEN
 48
0.625
100
AcDbLine
 10
16.56259338115625
 20
26.38050878464071
 30
0.0
 11
16.56259338115625
 21
26.13050878464071
 31
0.0
  0
LINE
  5
B68
330
1F
100
AcDbEntity
  8
0
  6
HIDDEN
 48
0.625
100
AcDbLine
 10
16.53134338115625
 20
26.38050878464071
 30
0.0
 11
16.53134338115625
 21
26.13050878464071
 31
0.0
  0
TEXT
  5
B69
330
1F
100
AcDbEntity
  8
0
100
AcDbText
 10
5.481712882895852
 20
25.61402813221
 30
0.0
 40
0.325
  1
2" OVERALL STROKE
100
AcDbText
  0
TEXT
  5
B6A
330
1F
100
AcDbEntity
  8
0
100
AcDbText
 10
5.481712882895852
 20
25.07236146554333
 30
0.0
 40
0.325
  1
5/8 POWER STROKE
100
AcDbText
  0
LINE
  5
B6B
330
1F
100
AcDbEntity
  8
0
100
AcDbLine
 10
5.391006935615894
 20
26.52413788363777
 30
0.0
 11
11.40781832267556
 21
26.52413788363777
 31
0.0
  0
TEXT
  5
B6C
330
1F
100
AcDbEntity
  8
0
100
AcDbText
 10
5.481712882895852
 20
26.69526118569075
 30
0.0
 40
0.325
  1
MC 5-16-20 CYLINDER
100
AcDbText
  0
DIMENSION
  5
B6D
330
1F
100
AcDbEntity
  8
Dimensions
100
AcDbDimension
  2
*D3
 10
14.37951461589216
 20
7.536277784640711
 30
0.0
 11
14.37951461589216
 21
5.036277784640714
 31
0.0
 70
    32
 71
     5
 42
5.0
  3
Standard
100
AcDbAlignedDimension
 13
15.12509338115625
 23
2.536277784640711
 33
0.0
 14
15.12509338115625
 24
7.536277784640711
 34
0.0
 50
90.0
100
AcDbRotatedDimension
1001
ACAD
1000
DSTYLE
1002
{
1070
   270
1070
     5
1070
    41
1040
0.25
1070
   140
1040
0.25
1070
   271
1070
     3
1070
   272
1070
     3
1070
   277
1070
     5
1002
}
  0
DIMENSION
  5
B6E
330
1F
100
AcDbEntity
  8
Dimensions
100
AcDbDimension
  2
*D4
 10
14.62237300240321
 20
2.536277784640712
 30
0.0
 11
14.62237300240321
 21
1.973777784640714
 31
0.0
 70
    32
 71
     5
 42
1.125
  3
Standard
100
AcDbAlignedDimension
 13
15.55009338115625
 23
1.411277784640711
 33
0.0
 14
15.12509338115625
 24
2.536277784640711
 34
0.0
 50
90.0
100
AcDbRotatedDimension
1001
ACAD
1000
DSTYLE
1002
{
1070
   270
1070
     5
1070
    41
1040
0.25
1070
   140
1040
0.25
1070
   271
1070
     3
1070
   272
1070
     3
1070
   277
1070
     5
1002
}
  0
MTEXT
  5
B6F
330
1F
100
AcDbEntity
  8
Dimensions
100
AcDbMText
 10
20.19198472440205
 20
7.84490993632542
 30
0.0
 40
0.25
 41
0.0
 71
     1
 72
     1
  1
\A1;2{\H0.7x;\S1/2;}-16 TPI
 73
     1
 44
1.0
1001
ACAD
1000
MTEXTBEGIN
1070
    73
1070
     1
1070
    44
1040
1.0
1070
    74
1070
     0
1000
MTEXTEND
  0
LINE
  5
B70
330
1F
100
AcDbEntity
  8
Dimensions
100
AcDbLine
 10
17.75480392892276
 20
5.227567361101906
 30
0.0
 11
19.85198472440204
 21
7.71990993632542
 31
0.0
  0
LINE
  5
B71
330
1F
100
AcDbEntity
  8
Dimensions
100
AcDbLine
 10
19.85198472440204
 20
7.71990993632542
 30
0.0
 11
20.10198472440204
 21
7.71990993632542
 31
0.0
  0
SOLID
  5
B72
330
1F
100
AcDbEntity
  8
Dimensions
100
AcDbTrace
 10
17.78668552499962
 20
5.20074060314082
 30
0.0
 11
17.7229223328459
 21
5.254394119062991
 31
0.0
 12
17.59384338115625
 22
5.036277784640711
 32
0.0
 13
17.59384338115625
 23
5.036277784640711
 33
0.0
  0
LINE
  5
BB6
330
1F
100
AcDbEntity
  8
0
  6
Continuous
 62
   255
100
AcDbLine
 10
15.12509338115625
 20
7.536277784640711
 30
0.0
 11
17.62509338115625
 21
7.536277784640711
 31
0.0
  0
DIMENSION
  5
BB9
330
1F
100
AcDbEntity
  8
Dimensions
100
AcDbDimension
  2
*D5
 10
13.11551715979158
 20
26.65050878464071
 30
0.0
 11
13.11551715979157
 21
14.03089328464071
 31
0.0
 70
    32
 71
     5
 42
25.239231
  3
Standard
100
AcDbAlignedDimension
 13
15.55009338115625
 23
1.411277784640711
 33
0.0
 14
14.65509338115625
 24
26.65050878464071
 34
0.0
 50
90.0
100
AcDbRotatedDimension
1001
ACAD
1000
DSTYLE
1002
{
1070
    41
1040
0.25
1070
   140
1040
0.25
1070
   271
1070
     2
1070
   272
1070
     2
1070
   277
1070
     5
1002
}
  0
DIMENSION
  5
BC7
330
1F
100
AcDbEntity
  8
Dimensions
100
AcDbDimension
  2
*D6
 10
18.25009338115625
 20
27.20098093203874
 30
0.0
 11
16.37509338115625
 21
27.20098093203874
 31
0.0
 70
    32
 71
     5
 42
3.75
  3
Standard
100
AcDbAlignedDimension
 13
14.50009338115625
 23
26.38050878464071
 33
0.0
 14
18.25009338115625
 24
26.38050878464071
 34
0.0
100
AcDbRotatedDimension
1001
ACAD
1000
DSTYLE
1002
{
1070
    41
1040
0.25
1070
   140
1040
0.25
1070
   271
1070
     2
1070
   272
1070
     2
1070
   277
1070
     5
1002
}
  0
TEXT
  5
BEE
330
1F
100
AcDbEntity
  8
0
100
AcDbText
 10
5.481712882895852
 20
24.49104034331396
 30
0.0
 40
0.325
  1
2 1/2 TON MAX OUTPUT
100
AcDbText
  0
ENDSEC
  0
SECTION
  2
OBJECTS
  0
DICTIONARY
  5
C
330
0
100
AcDbDictionary
281
     1
  3
ACAD_GROUP
350
D
  3
ACAD_LAYOUT
350
1A
  3
ACAD_MLINESTYLE
350
17
  3
ACAD_PLOTSETTINGS
350
19
  3
ACAD_PLOTSTYLENAME
350
E
  0
DICTIONARY
  5
D
102
{ACAD_REACTORS
330
C
102
}
330
C
100
AcDbDictionary
281
     1
  0
DICTIONARY
  5
1A
102
{ACAD_REACTORS
330
C
102
}
330
C
100
AcDbDictionary
281
     1
  3
Layout1
350
1E
  3
Layout2
350
26
  3
Model
350
22
  0
DICTIONARY
  5
17
102
{ACAD_REACTORS
330
C
102
}
330
C
100
AcDbDictionary
281
     1
  3
Standard
350
18
  0
DICTIONARY
  5
19
102
{ACAD_REACTORS
330
C
102
}
330
C
100
AcDbDictionary
281
     1
  0
ACDBDICTIONARYWDFLT
  5
E
102
{ACAD_REACTORS
330
C
102
}
330
C
100
AcDbDictionary
281
     1
  3
Normal
350
F
100
AcDbDictionaryWithDefault
340
F
  0
LAYOUT
  5
1E
102
{ACAD_REACTORS
330
1A
102
}
330
1A
100
AcDbPlotSettings
  1

  2
HP LaserJet III
  4

  6

 40
0.0
 41
0.0
 42
0.0
 43
0.0
 44
0.0
 45
0.0
 46
0.0
 47
0.0
 48
0.0
 49
0.0
140
0.0
141
0.0
142
1.0
143
1.0
 70
   688
 72
     0
 73
     0
 74
     5
  7

 75
    16
147
1.0
148
0.0
149
0.0
100
AcDbLayout
  1
Layout1
 70
     1
 71
     1
 10
0.0
 20
0.0
 11
12.0
 21
9.0
 12
0.0
 22
0.0
 32
0.0
 14
1.000000000000000E+20
 24
1.000000000000000E+20
 34
1.000000000000000E+20
 15
-1.000000000000000E+20
 25
-1.000000000000000E+20
 35
-1.000000000000000E+20
146
0.0
 13
0.0
 23
0.0
 33
0.0
 16
1.0
 26
0.0
 36
0.0
 17
0.0
 27
1.0
 37
0.0
 76
     0
330
1B
  0
LAYOUT
  5
26
102
{ACAD_REACTORS
330
1A
102
}
330
1A
100
AcDbPlotSettings
  1

  2
HP LaserJet III
  4

  6

 40
0.0
 41
0.0
 42
0.0
 43
0.0
 44
0.0
 45
0.0
 46
0.0
 47
0.0
 48
0.0
 49
0.0
140
0.0
141
0.0
142
1.0
143
1.0
 70
   688
 72
     0
 73
     0
 74
     5
  7

 75
    16
147
1.0
148
0.0
149
0.0
100
AcDbLayout
  1
Layout2
 70
     1
 71
     2
 10
0.0
 20
0.0
 11
12.0
 21
9.0
 12
0.0
 22
0.0
 32
0.0
 14
0.0
 24
0.0
 34
0.0
 15
0.0
 25
0.0
 35
0.0
146
0.0
 13
0.0
 23
0.0
 33
0.0
 16
1.0
 26
0.0
 36
0.0
 17
0.0
 27
1.0
 37
0.0
 76
     0
330
23
  0
LAYOUT
  5
22
102
{ACAD_REACTORS
330
1A
102
}
330
1A
100
AcDbPlotSettings
  1

  2
HP LaserJet III
  4

  6

 40
0.0
 41
0.0
 42
0.0
 43
0.0
 44
0.0
 45
0.0
 46
0.0
 47
0.0
 48
0.0
 49
0.0
140
0.0
141
0.0
142
1.0
143
1.0
 70
  1712
 72
     0
 73
     0
 74
     0
  7

 75
     0
147
1.0
148
0.0
149
0.0
100
AcDbLayout
  1
Model
 70
     1
 71
     0
 10
0.0
 20
0.0
 11
12.0
 21
9.0
 12
0.0
 22
0.0
 32
0.0
 14
0.0
 24
0.0
 34
0.0
 15
0.0
 25
0.0
 35
0.0
146
0.0
 13
0.0
 23
0.0
 33
0.0
 16
1.0
 26
0.0
 36
0.0
 17
0.0
 27
1.0
 37
0.0
 76
     0
330
1F
  0
MLINESTYLE
  5
18
102
{ACAD_REACTORS
330
17
102
}
330
17
100
AcDbMlineStyle
  2
STANDARD
 70
     0
  3

 62
   256
 51
90.0
 52
90.0
 71
     2
 49
0.5
 62
   256
  6
BYLAYER
 49
-0.5
 62
   256
  6
BYLAYER
  0
ACDBPLACEHOLDER
  5
F
102
{ACAD_REACTORS
330
E
102
}
330
E
  0
ENDSEC
  0
EOF
