  0
SECTION
  2
HEADER
  9
$ACADVER
  1
AC1009
  9
$INSBASE
 10
0.0
 20
0.0
 30
0.0
  9
$EXTMIN
 10
-2.6680123593972089
 20
-2.1735094850646699
 30
-0.0015258207003583
  9
$EXTMAX
 10
57.835680267560221
 20
44.583832702368639
 30
0.0000000349246037
  9
$LIMMIN
 10
0.0
 20
0.0
  9
$LIMMAX
 10
12.0
 20
9.0
  9
$ORTHOMODE
 70
     0
  9
$REGENMODE
 70
     1
  9
$FILLMODE
 70
     1
  9
$QTEXTMODE
 70
     0
  9
$MIRRTEXT
 70
     1
  9
$DRAGMODE
 70
     2
  9
$LTSCALE
 40
1.0
  9
$OSMODE
 70
    39
  9
$ATTMODE
 70
     1
  9
$TEXTSIZE
 40
0.3135
  9
$TRACEWID
 40
0.05
  9
$TEXTSTYLE
  7
HAND
  9
$CLAYER
  8
DIMENSIONS
  9
$CELTYPE
  6
BYLAYER
  9
$CECOLOR
 62
   256
  9
$DIMSCALE
 40
1.0
  9
$DIMASZ
 40
0.36
  9
$DIMEXO
 40
0.125
  9
$DIMDLI
 40
0.5
  9
$DIMRND
 40
0.0
  9
$DIMDLE
 40
0.0
  9
$DIMEXE
 40
0.36
  9
$DIMTP
 40
0.0
  9
$DIMTM
 40
0.0
  9
$DIMTXT
 40
0.3135
  9
$DIMCEN
 40
0.18
  9
$DIMTSZ
 40
0.0
  9
$DIMTOL
 70
     0
  9
$DIMLIM
 70
     0
  9
$DIMTIH
 70
     1
  9
$DIMTOH
 70
     1
  9
$DIMSE1
 70
     0
  9
$DIMSE2
 70
     0
  9
$DIMTAD
 70
     0
  9
$DIMZIN
 70
     0
  9
$DIMBLK
  1

  9
$DIMASO
 70
     1
  9
$DIMSHO
 70
     1
  9
$DIMPOST
  1

  9
$DIMAPOST
  1

  9
$DIMALT
 70
     0
  9
$DIMALTD
 70
     2
  9
$DIMALTF
 40
25.399999999999999
  9
$DIMLFAC
 40
1.0
  9
$DIMTOFL
 70
     0
  9
$DIMTVP
 40
0.0
  9
$DIMTIX
 70
     0
  9
$DIMSOXD
 70
     0
  9
$DIMSAH
 70
     0
  9
$DIMBLK1
  1

  9
$DIMBLK2
  1

  9
$DIMSTYLE
  2
STANDARD
  9
$DIMCLRD
 70
     0
  9
$DIMCLRE
 70
     0
  9
$DIMCLRT
 70
     0
  9
$DIMTFAC
 40
1.0
  9
$DIMGAP
 40
0.18
  9
$LUNITS
 70
     2
  9
$LUPREC
 70
     4
  9
$SKETCHINC
 40
0.1
  9
$FILLETRAD
 40
0.5
  9
$AUNITS
 70
     0
  9
$AUPREC
 70
     0
  9
$MENU
  1
.
  9
$ELEVATION
 40
0.0
  9
$PELEVATION
 40
0.0
  9
$THICKNESS
 40
0.0
  9
$LIMCHECK
 70
     0
  9
$BLIPMODE
 70
     0
  9
$CHAMFERA
 40
0.5
  9
$CHAMFERB
 40
0.5
  9
$SKPOLY
 70
     0
  9
$TDCREATE
 40
2451642.4833487272
  9
$TDUPDATE
 40
2453874.5981028131
  9
$TDINDWG
 40
3.6057924769
  9
$TDUSRTIMER
 40
3.6057787384000002
  9
$USRTIMER
 70
     1
  9
$ANGBASE
 50
0.0
  9
$ANGDIR
 70
     0
  9
$PDMODE
 70
     0
  9
$PDSIZE
 40
0.0
  9
$PLINEWID
 40
0.0
  9
$COORDS
 70
     1
  9
$SPLFRAME
 70
     0
  9
$SPLINETYPE
 70
     6
  9
$SPLINESEGS
 70
     8
  9
$ATTDIA
 70
     0
  9
$ATTREQ
 70
     1
  9
$HANDLING
 70
     1
  9
$HANDSEED
  5
1C51
  9
$SURFTAB1
 70
     6
  9
$SURFTAB2
 70
     6
  9
$SURFTYPE
 70
     6
  9
$SURFU
 70
     6
  9
$SURFV
 70
     6
  9
$UCSNAME
  2

  9
$UCSORG
 10
0.0
 20
0.0
 30
0.0
  9
$UCSXDIR
 10
1.0
 20
0.0
 30
0.0
  9
$UCSYDIR
 10
0.0
 20
1.0
 30
0.0
  9
$PUCSNAME
  2

  9
$PUCSORG
 10
0.0
 20
0.0
 30
0.0
  9
$PUCSXDIR
 10
1.0
 20
0.0
 30
0.0
  9
$PUCSYDIR
 10
0.0
 20
1.0
 30
0.0
  9
$USERI1
 70
     0
  9
$USERI2
 70
     0
  9
$USERI3
 70
     0
  9
$USERI4
 70
     0
  9
$USERI5
 70
     0
  9
$USERR1
 40
0.0
  9
$USERR2
 40
0.0
  9
$USERR3
 40
0.0
  9
$USERR4
 40
0.0
  9
$USERR5
 40
0.0
  9
$WORLDVIEW
 70
     1
  9
$SHADEDGE
 70
     3
  9
$SHADEDIF
 70
    70
  9
$TILEMODE
 70
     1
  9
$MAXACTVP
 70
    64
  9
$PLIMCHECK
 70
     0
  9
$PEXTMIN
 10
1.0000000000000000E+020
 20
1.0000000000000000E+020
 30
1.0000000000000000E+020
  9
$PEXTMAX
 10
-1.0000000000000000E+020
 20
-1.0000000000000000E+020
 30
-1.0000000000000000E+020
  9
$PLIMMIN
 10
0.0
 20
0.0
  9
$PLIMMAX
 10
12.0
 20
9.0
  9
$UNITMODE
 70
     0
  9
$VISRETAIN
 70
     1
  9
$PLINEGEN
 70
     0
  9
$PSLTSCALE
 70
     1
  0
ENDSEC
  0
SECTION
  2
TABLES
  0
TABLE
  2
VPORT
 70
     2
  0
VPORT
  2
*ACTIVE
 70
     0
 10
0.0
 20
0.0
 11
1.0
 21
1.0
 12
27.583833954081499
 22
21.205161608651981
 13
0.0
 23
0.0
 14
0.5
 24
0.5
 15
0.5
 25
0.5
 16
0.0
 26
0.0
 36
1.0
 17
0.0
 27
0.0
 37
0.0
 40
47.113362559418839
 41
1.4993646759847521
 42
50.0
 43
0.0
 44
0.0
 50
0.0
 51
0.0
 71
     0
 72
   100
 73
     1
 74
     3
 75
     0
 76
     0
 77
     0
 78
     0
  0
ENDTAB
  0
TABLE
  2
LTYPE
 70
     5
  0
LTYPE
  2
CONTINUOUS
 70
     0
  3
Solid line
 72
    65
 73
     0
 40
0.0
  0
LTYPE
  2
CENTER2
 70
     0
  3
Center (.5x) ___ _ ___ _ ___ _ ___ _ ___ _ ___
 72
    65
 73
     4
 40
1.125
 49
0.75
 49
-0.125
 49
0.125
 49
-0.125
  0
LTYPE
  2
HIDDEN2
 70
     0
  3
Hidden (.5x) _ _ _ _ _ _ _ _ _ _ _ _ _ _ _ _ _
 72
    65
 73
     2
 40
0.1875
 49
0.125
 49
-0.0625
  0
LTYPE
  2
CENTER
 70
     0
  3
Center ____ _ ____ _ ____ _ ____ _ ____ _ ____
 72
    65
 73
     4
 40
2.0
 49
1.25
 49
-0.25
 49
0.25
 49
-0.25
  0
LTYPE
  2
HIDDEN
 70
     0
  3
Hidden __ __ __ __ __ __ __ __ __ __ __ __ __ _
 72
    65
 73
     2
 40
0.375
 49
0.25
 49
-0.125
  0
ENDTAB
  0
TABLE
  2
LAYER
 70
    12
  0
LAYER
  2
0
 70
     0
 62
     7
  6
CONTINUOUS
  0
LAYER
  2
TITLEBLOCK_NOTES
 70
     0
 62
     3
  6
CONTINUOUS
  0
LAYER
  2
B_O_M
 70
     0
 62
     3
  6
CONTINUOUS
  0
LAYER
  2
DEFPOINTS
 70
     0
 62
     7
  6
CONTINUOUS
  0
LAYER
  2
DIMENSIONS
 70
     0
 62
     1
  6
CONTINUOUS
  0
LAYER
  2
CENTRE
 70
     0
 62
     2
  6
CONTINUOUS
  0
LAYER
  2
6083FLAMECUT
 70
     0
 62
     7
  6
CONTINUOUS
  0
LAYER
  2
4496BASEPLATE
 70
     0
 62
     7
  6
CONTINUOUS
  0
LAYER
  2
5829SUBPLATE
 70
     0
 62
     7
  6
CONTINUOUS
  0
LAYER
  2
6071PLATESUPPORT
 70
     0
 62
     7
  6
CONTINUOUS
  0
LAYER
  2
5828MOUNTPLATE
 70
     0
 62
     7
  6
CONTINUOUS
  0
LAYER
  2
OBJ
 70
     0
 62
   255
  6
CONTINUOUS
  0
ENDTAB
  0
TABLE
  2
STYLE
 70
     3
  0
STYLE
  2
STANDARD
 70
     0
 40
0.0
 41
1.0
 50
0.0
 71
     0
 42
0.3135
  3
txt
  4

  0
STYLE
  2
COUNTRY
 70
     0
 40
0.0
 41
1.0
 50
0.0
 71
     0
 42
0.5
  3
txt
  4

  0
STYLE
  2
HAND
 70
     0
 40
0.0
 41
1.0
 50
0.0
 71
     0
 42
0.3135
  3
txt
  4

  0
ENDTAB
  0
TABLE
  2
VIEW
 70
     0
  0
ENDTAB
  0
TABLE
  2
UCS
 70
     0
  0
ENDTAB
  0
TABLE
  2
APPID
 70
     2
  0
APPID
  2
ACAD
 70
     0
  0
APPID
  2
DCO15
 70
     0
  0
ENDTAB
  0
TABLE
  2
DIMSTYLE
 70
     1
  0
DIMSTYLE
  2
STANDARD
 70
     0
  3

  4

  5

  6

  7

 40
1.0
 41
0.18
 42
0.0625
 43
0.38
 44
0.18
 45
0.0
 46
0.0
 47
0.0
 48
0.0
140
0.18
141
0.09
142
0.0
143
25.399999999999999
144
1.0
145
0.0
146
1.0
147
0.09
 71
     0
 72
     0
 73
     1
 74
     1
 75
     0
 76
     0
 77
     0
 78
     0
170
     0
171
     2
172
     0
173
     0
174
     0
175
     0
176
     0
177
     0
178
     0
  0
ENDTAB
  0
ENDSEC
  0
SECTION
  2
BLOCKS
  0
BLOCK
  8
0
  2
$MODEL_SPACE
 70
     0
 10
0.0
 20
0.0
 30
0.0
  3
$MODEL_SPACE
  1

  0
ENDBLK
  5
21
  8
0
  0
BLOCK
 67
     1
  8
0
  2
$PAPER_SPACE
 70
     0
 10
0.0
 20
0.0
 30
0.0
  3
$PAPER_SPACE
  1

  0
ENDBLK
  5
1D
 67
     1
  8
0
  0
BLOCK
  8
0
  2
*D1
 70
     1
 10
0.0
 20
0.0
 30
0.0
  3
*D1
  1

  0
LINE
  5
1B0C
  8
DIMENSIONS
 62
     0
 10
31.708086499316831
 20
27.914095748850571
 30
0.0
 11
31.708086499316831
 21
27.508108860615369
 31
0.0
  0
LINE
  5
1B0D
  8
DIMENSIONS
 62
     0
 10
39.208086499316828
 20
27.877902676152711
 30
0.0
 11
39.208086499316828
 21
27.508108860615369
 31
0.0
  0
LINE
  5
1B0E
  8
DIMENSIONS
 62
     0
 10
32.068086499316827
 20
27.868108860615369
 30
0.0
 11
35.016836499316831
 21
27.868108860615369
 31
0.0
  0
LINE
  5
1B0F
  8
DIMENSIONS
 62
     0
 10
38.848086499316828
 20
27.868108860615369
 30
0.0
 11
35.899336499316817
 21
27.868108860615369
 31
0.0
  0
SOLID
  5
1B10
  8
DIMENSIONS
 62
     0
 10
32.068086499316827
 20
27.928108860615371
 30
0.0
 11
32.068086499316827
 21
27.808108860615381
 31
0.0
 12
31.708086499316831
 22
27.868108860615369
 32
0.0
 13
31.708086499316831
 23
27.868108860615369
 33
0.0
  0
SOLID
  5
1B11
  8
DIMENSIONS
 62
     0
 10
38.848086499316828
 20
27.928108860615371
 30
0.0
 11
38.848086499316828
 21
27.808108860615381
 31
0.0
 12
39.208086499316828
 22
27.868108860615369
 32
0.0
 13
39.208086499316828
 23
27.868108860615369
 33
0.0
  0
TEXT
  8
DIMENSIONS
  40
0.3135
  5
1C37
  62
0
  72
0
  71
0
 10
34.8311
 20
27.3132
 30
0.000000
  1
7 1/2
  0
POINT
  5
1B13
  8
DEFPOINTS
 62
     0
 10
31.708086499316831
 20
28.039095748850571
 30
0.0
  0
POINT
  5
1B14
  8
DEFPOINTS
 62
     0
 10
39.208086499316828
 20
28.002902676152711
 30
0.0
  0
POINT
  5
1B15
  8
DEFPOINTS
 62
     0
 10
39.208086499316828
 20
27.868108860615369
 30
0.0
  0
ENDBLK
  5
FAF
  8
0
  0
BLOCK
  8
0
  2
*D2
 70
     1
 10
0.0
 20
0.0
 30
0.0
  3
*D2
  1

  0
LINE
  5
1B16
  8
DIMENSIONS
 62
     0
 10
43.333086499316842
 20
18.752902676152711
 30
0.0
 11
47.890959279462443
 21
18.752902676152711
 31
0.0
  0
LINE
  5
1B17
  8
DIMENSIONS
 62
     0
 10
43.333086499316842
 20
37.252902676152708
 30
0.0
 11
47.890959279462443
 21
37.252902676152708
 31
0.0
  0
LINE
  5
1B18
  8
DIMENSIONS
 62
     0
 10
47.530959279462451
 20
19.112902676152711
 30
0.0
 11
47.530959279462451
 21
27.45715267615271
 31
0.0
  0
LINE
  5
1B19
  8
DIMENSIONS
 62
     0
 10
47.530959279462451
 20
36.892902676152708
 30
0.0
 11
47.530959279462451
 21
28.54865267615271
 31
0.0
  0
SOLID
  5
1B1A
  8
DIMENSIONS
 62
     0
 10
47.470959279462448
 20
19.112902676152711
 30
0.0
 11
47.590959279462453
 21
19.112902676152711
 31
0.0
 12
47.530959279462451
 22
18.752902676152711
 32
0.0
 13
47.530959279462451
 23
18.752902676152711
 33
0.0
  0
SOLID
  5
1B1B
  8
DIMENSIONS
 62
     0
 10
47.470959279462448
 20
36.892902676152708
 30
0.0
 11
47.590959279462453
 21
36.892902676152708
 31
0.0
 12
47.530959279462451
 22
37.252902676152708
 32
0.0
 13
47.530959279462451
 23
37.252902676152708
 33
0.0
  0
TEXT
  8
DIMENSIONS
  40
0.3135
  5
1C38
  62
0
  72
0
  71
0
 10
46.9040
 20
27.4480
 30
0.000000
  1
18 1/2
  0
POINT
  5
1B1D
  8
DEFPOINTS
 62
     0
 10
43.208086499316842
 20
18.752902676152711
 30
0.0
  0
POINT
  5
1B1E
  8
DEFPOINTS
 62
     0
 10
43.208086499316842
 20
37.252902676152708
 30
0.0
  0
POINT
  5
1B1F
  8
DEFPOINTS
 62
     0
 10
47.530959279462451
 20
37.252902676152708
 30
0.0
  0
ENDBLK
  5
FD9
  8
0
  0
BLOCK
  8
0
  2
*D3
 70
     1
 10
0.0
 20
0.0
 30
0.0
  3
*D3
  1

  0
LINE
  5
1B20
  8
DIMENSIONS
 62
     0
 10
30.083086499316831
 20
18.627902676152711
 30
0.0
 11
26.301661867810441
 21
18.627902676152711
 31
0.0
  0
LINE
  5
1B21
  8
DIMENSIONS
 62
     0
 10
27.833086499316831
 20
23.877902676152711
 30
0.0
 11
26.301661867810441
 21
23.877902676152711
 31
0.0
  0
LINE
  5
1B22
  8
DIMENSIONS
 62
     0
 10
26.661661867810441
 20
18.987902676152711
 30
0.0
 11
26.661661867810441
 21
20.70715267615271
 31
0.0
  0
LINE
  5
1B23
  8
DIMENSIONS
 62
     0
 10
26.661661867810441
 20
23.517902676152708
 30
0.0
 11
26.661661867810441
 21
21.79865267615271
 31
0.0
  0
SOLID
  5
1B24
  8
DIMENSIONS
 62
     0
 10
26.601661867810439
 20
18.987902676152711
 30
0.0
 11
26.72166186781044
 21
18.987902676152711
 31
0.0
 12
26.661661867810441
 22
18.627902676152711
 32
0.0
 13
26.661661867810441
 23
18.627902676152711
 33
0.0
  0
SOLID
  5
1B25
  8
DIMENSIONS
 62
     0
 10
26.601661867810439
 20
23.517902676152708
 30
0.0
 11
26.72166186781044
 21
23.517902676152708
 31
0.0
 12
26.661661867810441
 22
23.877902676152711
 32
0.0
 13
26.661661867810441
 23
23.877902676152711
 33
0.0
  0
TEXT
  8
DIMENSIONS
  40
0.3135
  5
1C39
  62
0
  72
0
  71
0
 10
26.0347
 20
20.6980
 30
0.000000
  1
5 1/4
  0
POINT
  5
1B27
  8
DEFPOINTS
 62
     0
 10
30.208086499316821
 20
18.627902676152711
 30
0.0
  0
POINT
  5
1B28
  8
DEFPOINTS
 62
     0
 10
27.958086499316831
 20
23.877902676152711
 30
0.0
  0
POINT
  5
1B29
  8
DEFPOINTS
 62
     0
 10
26.661661867810441
 20
23.877902676152711
 30
0.0
  0
ENDBLK
  5
FF5
  8
0
  0
BLOCK
  8
0
  2
*D4
 70
     1
 10
0.0
 20
0.0
 30
0.0
  3
*D4
  1

  0
LINE
  5
1B2E
  8
DIMENSIONS
 62
     0
 10
19.313050777091199
 20
37.377902676152708
 30
0.0
 11
19.313050777091199
 21
40.536279350773491
 31
0.0
  0
LINE
  5
1B2F
  8
DIMENSIONS
 62
     0
 10
14.313050777091201
 20
37.377902676152708
 30
0.0
 11
14.313050777091201
 21
40.536279350773491
 31
0.0
  0
LINE
  5
1B30
  8
DIMENSIONS
 62
     0
 10
18.9530507770912
 20
40.176279350773477
 30
0.0
 11
17.102898093881169
 21
40.176279350773477
 31
0.0
  0
LINE
  5
1B31
  8
DIMENSIONS
 62
     0
 10
14.6730507770912
 20
40.176279350773477
 30
0.0
 11
16.53389809388117
 21
40.176279350773477
 31
0.0
  0
SOLID
  5
1B32
  8
DIMENSIONS
 62
     0
 10
18.9530507770912
 20
40.236279350773493
 30
0.0
 11
18.9530507770912
 21
40.116279350773482
 31
0.0
 12
19.313050777091199
 22
40.176279350773477
 32
0.0
 13
19.313050777091199
 23
40.176279350773477
 33
0.0
  0
SOLID
  5
1B33
  8
DIMENSIONS
 62
     0
 10
14.6730507770912
 20
40.236279350773493
 30
0.0
 11
14.6730507770912
 21
40.116279350773482
 31
0.0
 12
14.313050777091201
 22
40.176279350773477
 32
0.0
 13
14.313050777091201
 23
40.176279350773477
 33
0.0
  0
TEXT
  8
DIMENSIONS
  40
0.3135
  5
1C3A
  62
0
  72
0
  71
0
 10
16.1914
 20
39.6214
 30
0.000000
  1
5
  0
POINT
  5
1B35
  8
DEFPOINTS
 62
     0
 10
19.313050777091199
 20
37.252902676152708
 30
0.0
  0
POINT
  5
1B36
  8
DEFPOINTS
 62
     0
 10
14.313050777091201
 20
37.252902676152708
 30
0.0
  0
POINT
  5
1B37
  8
DEFPOINTS
 62
     0
 10
14.313050777091201
 20
40.176279350773477
 30
0.0
  0
ENDBLK
  5
107E
  8
0
  0
BLOCK
  8
0
  2
*D5
 70
     1
 10
0.0
 20
0.0
 30
0.0
  3
*D5
  1

  0
LINE
  5
1B3C
  8
DIMENSIONS
 62
     0
 10
16.813050777091199
 20
13.679162099209391
 30
0.0
 11
16.813050777091199
 21
13.241833473927199
 31
0.0
  0
LINE
  5
1B3D
  8
DIMENSIONS
 62
     0
 10
20.813050777091188
 20
10.223395382009739
 30
0.0
 11
20.813050777091188
 21
13.9618334739272
 31
0.0
  0
LINE
  5
1B3E
  8
DIMENSIONS
 62
     0
 10
17.173050777091198
 20
13.601833473927201
 30
0.0
 11
18.64483891401807
 21
13.601833473927201
 31
0.0
  0
LINE
  5
1B3F
  8
DIMENSIONS
 62
     0
 10
20.453050777091189
 20
13.601833473927201
 30
0.0
 11
19.213838914018069
 21
13.601833473927201
 31
0.0
  0
SOLID
  5
1B40
  8
DIMENSIONS
 62
     0
 10
17.173050777091198
 20
13.661833473927199
 30
0.0
 11
17.173050777091198
 21
13.5418334739272
 31
0.0
 12
16.813050777091199
 22
13.601833473927201
 32
0.0
 13
16.813050777091199
 23
13.601833473927201
 33
0.0
  0
SOLID
  5
1B41
  8
DIMENSIONS
 62
     0
 10
20.453050777091189
 20
13.661833473927199
 30
0.0
 11
20.453050777091189
 21
13.5418334739272
 31
0.0
 12
20.813050777091188
 22
13.601833473927201
 32
0.0
 13
20.813050777091188
 23
13.601833473927201
 33
0.0
  0
TEXT
  8
DIMENSIONS
  40
0.3135
  5
1C3B
  62
0
  72
0
  71
0
 10
18.3023
 20
13.0469
 30
0.000000
  1
4
  0
POINT
  5
1B43
  8
DEFPOINTS
 62
     0
 10
16.813050777091199
 20
13.804162099209391
 30
0.0
  0
POINT
  5
1B44
  8
DEFPOINTS
 62
     0
 10
20.813050777091188
 20
10.098395382009739
 30
0.0
  0
POINT
  5
1B45
  8
DEFPOINTS
 62
     0
 10
20.813050777091188
 20
13.601833473927201
 30
0.0
  0
ENDBLK
  5
150B
  8
0
  0
BLOCK
  8
0
  2
*D6
 70
     1
 10
0.0
 20
0.0
 30
0.0
  3
*D6
  1

  0
LINE
  5
1B46
  8
DIMENSIONS
 62
     0
 10
12.81305077709119
 20
10.223395382009739
 30
0.0
 11
12.81305077709119
 21
13.9618334739272
 31
0.0
  0
LINE
  5
1B47
  8
DIMENSIONS
 62
     0
 10
16.813050777091199
 20
13.554162099209391
 30
0.0
 11
16.813050777091199
 21
13.241833473927199
 31
0.0
  0
LINE
  5
1B48
  8
DIMENSIONS
 62
     0
 10
13.17305077709119
 20
13.601833473927201
 30
0.0
 11
14.643581796850761
 21
13.601833473927201
 31
0.0
  0
LINE
  5
1B49
  8
DIMENSIONS
 62
     0
 10
16.4530507770912
 20
13.601833473927201
 30
0.0
 11
15.21258179685076
 21
13.601833473927201
 31
0.0
  0
SOLID
  5
1B4A
  8
DIMENSIONS
 62
     0
 10
13.17305077709119
 20
13.661833473927199
 30
0.0
 11
13.17305077709119
 21
13.5418334739272
 31
0.0
 12
12.81305077709119
 22
13.601833473927201
 32
0.0
 13
12.81305077709119
 23
13.601833473927201
 33
0.0
  0
SOLID
  5
1B4B
  8
DIMENSIONS
 62
     0
 10
16.4530507770912
 20
13.661833473927199
 30
0.0
 11
16.4530507770912
 21
13.5418334739272
 31
0.0
 12
16.813050777091199
 22
13.601833473927201
 32
0.0
 13
16.813050777091199
 23
13.601833473927201
 33
0.0
  0
TEXT
  8
DIMENSIONS
  40
0.3135
  5
1C3C
  62
0
  72
0
  71
0
 10
14.3011
 20
13.0469
 30
0.000000
  1
4
  0
POINT
  5
1B4D
  8
DEFPOINTS
 62
     0
 10
12.81305077709119
 20
10.098395382009739
 30
0.0
  0
POINT
  5
1B4E
  8
DEFPOINTS
 62
     0
 10
16.813050777091199
 20
13.679162099209391
 30
0.0
  0
POINT
  5
1B4F
  8
DEFPOINTS
 62
     0
 10
16.813050777091199
 20
13.601833473927201
 30
0.0
  0
ENDBLK
  5
1519
  8
0
  0
BLOCK
  8
0
  2
*D7
 70
     1
 10
0.0
 20
0.0
 30
0.0
  3
*D7
  1

  0
LINE
  5
1B50
  8
DIMENSIONS
 62
     0
 10
17.382009406408471
 20
6.029436752692467
 30
0.0
 11
17.697946029121951
 21
6.029436752692467
 31
0.0
  0
LINE
  5
1B51
  8
DIMENSIONS
 62
     0
 10
17.382009406408471
 20
7.529436752692467
 30
0.0
 11
17.697946029121951
 21
7.529436752692467
 31
0.0
  0
LINE
  5
1B52
  8
DIMENSIONS
 62
     0
 10
17.337946029121952
 20
5.6694367526924667
 30
0.0
 11
17.337946029121952
 21
5.3094367526924682
 31
0.0
  0
LINE
  5
1B53
  8
DIMENSIONS
 62
     0
 10
17.337946029121952
 20
7.8894367526924682
 30
0.0
 11
17.337946029121952
 21
8.2494367526924677
 31
0.0
  0
SOLID
  5
1B54
  8
DIMENSIONS
 62
     0
 10
17.277946029121949
 20
5.6694367526924667
 30
0.0
 11
17.39794602912194
 21
5.6694367526924667
 31
0.0
 12
17.337946029121952
 22
6.029436752692467
 32
0.0
 13
17.337946029121952
 23
6.029436752692467
 33
0.0
  0
SOLID
  5
1B55
  8
DIMENSIONS
 62
     0
 10
17.277946029121949
 20
7.8894367526924682
 30
0.0
 11
17.39794602912194
 21
7.8894367526924682
 31
0.0
 12
17.337946029121952
 22
7.529436752692467
 32
0.0
 13
17.337946029121952
 23
7.529436752692467
 33
0.0
  0
TEXT
  8
DIMENSIONS
  40
0.3135
  5
1C3D
  62
0
  72
0
  71
0
 10
16.7109
 20
6.18335
 30
0.000000
  1
1 1/2
  0
POINT
  5
1B57
  8
DEFPOINTS
 62
     0
 10
17.257009406408471
 20
6.029436752692467
 30
0.0
  0
POINT
  5
1B58
  8
DEFPOINTS
 62
     0
 10
17.257009406408471
 20
7.529436752692467
 30
0.0
  0
POINT
  5
1B59
  8
DEFPOINTS
 62
     0
 10
17.337946029121952
 20
7.529436752692467
 30
0.0
  0
ENDBLK
  5
1527
  8
0
  0
BLOCK
  8
0
  2
*D8
 70
     1
 10
0.0
 20
0.0
 30
0.0
  3
*D8
  1

  0
LINE
  5
1B5A
  8
DIMENSIONS
 62
     0
 10
16.24409214777392
 20
7.529436752692467
 30
0.0
 11
15.50864934956253
 21
7.529436752692467
 31
0.0
  0
LINE
  5
1B5B
  8
DIMENSIONS
 62
     0
 10
16.24409214777392
 20
8.5294367526924688
 30
0.0
 11
15.50864934956253
 21
8.5294367526924688
 31
0.0
  0
LINE
  5
1B5C
  8
DIMENSIONS
 62
     0
 10
15.86864934956253
 20
7.1694367526924667
 30
0.0
 11
15.86864934956253
 21
6.8094367526924682
 31
0.0
  0
LINE
  5
1B5D
  8
DIMENSIONS
 62
     0
 10
15.86864934956253
 20
8.8894367526924682
 30
0.0
 11
15.86864934956253
 21
9.2494367526924695
 31
0.0
  0
SOLID
  5
1B5E
  8
DIMENSIONS
 62
     0
 10
15.808649349562531
 20
7.1694367526924667
 30
0.0
 11
15.92864934956253
 21
7.1694367526924667
 31
0.0
 12
15.86864934956253
 22
7.529436752692467
 32
0.0
 13
15.86864934956253
 23
7.529436752692467
 33
0.0
  0
SOLID
  5
1B5F
  8
DIMENSIONS
 62
     0
 10
15.808649349562531
 20
8.8894367526924682
 30
0.0
 11
15.92864934956253
 21
8.8894367526924682
 31
0.0
 12
15.86864934956253
 22
8.5294367526924688
 32
0.0
 13
15.86864934956253
 23
8.5294367526924688
 33
0.0
  0
TEXT
  8
DIMENSIONS
  40
0.3135
  5
1C3E
  62
0
  72
0
  71
0
 10
15.2416
 20
7.47454
 30
0.000000
  1
1
  0
POINT
  5
1B61
  8
DEFPOINTS
 62
     0
 10
16.36909214777392
 20
7.529436752692467
 30
0.0
  0
POINT
  5
1B62
  8
DEFPOINTS
 62
     0
 10
16.36909214777392
 20
8.5294367526924688
 30
0.0
  0
POINT
  5
1B63
  8
DEFPOINTS
 62
     0
 10
15.86864934956253
 20
8.5294367526924688
 30
0.0
  0
ENDBLK
  5
1535
  8
0
  0
BLOCK
  8
0
  2
*D9
 70
     1
 10
0.0
 20
0.0
 30
0.0
  3
*D9
  1

  0
LINE
  5
1B64
  8
DIMENSIONS
 62
     0
 10
17.382009406408471
 20
8.5294367526924688
 30
0.0
 11
17.697946029121951
 21
8.5294367526924688
 31
0.0
  0
LINE
  5
1B65
  8
DIMENSIONS
 62
     0
 10
17.382009406408471
 20
9.529436752692467
 30
0.0
 11
17.697946029121951
 21
9.529436752692467
 31
0.0
  0
LINE
  5
1B66
  8
DIMENSIONS
 62
     0
 10
17.337946029121952
 20
8.1694367526924694
 30
0.0
 11
17.337946029121952
 21
7.8094367526924691
 31
0.0
  0
LINE
  5
1B67
  8
DIMENSIONS
 62
     0
 10
17.337946029121952
 20
9.8894367526924665
 30
0.0
 11
17.337946029121952
 21
10.249436752692469
 31
0.0
  0
SOLID
  5
1B68
  8
DIMENSIONS
 62
     0
 10
17.277946029121949
 20
8.1694367526924694
 30
0.0
 11
17.39794602912195
 21
8.1694367526924694
 31
0.0
 12
17.337946029121952
 22
8.5294367526924688
 32
0.0
 13
17.337946029121952
 23
8.5294367526924688
 33
0.0
  0
SOLID
  5
1B69
  8
DIMENSIONS
 62
     0
 10
17.277946029121949
 20
9.8894367526924665
 30
0.0
 11
17.39794602912195
 21
9.8894367526924665
 31
0.0
 12
17.337946029121952
 22
9.529436752692467
 32
0.0
 13
17.337946029121952
 23
9.529436752692467
 33
0.0
  0
TEXT
  8
DIMENSIONS
  40
0.3135
  5
1C3F
  62
0
  72
0
  71
0
 10
16.7109
 20
8.47454
 30
0.000000
  1
1
  0
POINT
  5
1B6B
  8
DEFPOINTS
 62
     0
 10
17.257009406408471
 20
8.5294367526924688
 30
0.0
  0
POINT
  5
1B6C
  8
DEFPOINTS
 62
     0
 10
17.257009406408471
 20
9.529436752692467
 30
0.0
  0
POINT
  5
1B6D
  8
DEFPOINTS
 62
     0
 10
17.337946029121952
 20
9.529436752692467
 30
0.0
  0
ENDBLK
  5
1543
  8
0
  0
BLOCK
  8
0
  2
*D10
 70
     1
 10
0.0
 20
0.0
 30
0.0
  3
*D10
  1

  0
LINE
  5
1B6E
  8
DIMENSIONS
 62
     0
 10
16.813050777091199
 20
3.391236997074468
 30
0.0
 11
16.813050777091199
 21
3.6514280952860929
 31
0.0
  0
LINE
  5
1B6F
  8
DIMENSIONS
 62
     0
 10
14.125550777091201
 20
4.7104781233751876
 30
0.0
 11
14.125550777091201
 21
2.9314280952860932
 31
0.0
  0
LINE
  5
1B70
  8
DIMENSIONS
 62
     0
 10
16.4530507770912
 20
3.291428095286093
 30
0.0
 11
15.81468641913011
 21
3.291428095286093
 31
0.0
  0
LINE
  5
1B71
  8
DIMENSIONS
 62
     0
 10
14.4855507770912
 20
3.291428095286093
 30
0.0
 11
14.72318641913011
 21
3.291428095286093
 31
0.0
  0
SOLID
  5
1B72
  8
DIMENSIONS
 62
     0
 10
16.4530507770912
 20
3.3514280952860931
 30
0.0
 11
16.4530507770912
 21
3.231428095286093
 31
0.0
 12
16.813050777091199
 22
3.291428095286093
 32
0.0
 13
16.813050777091199
 23
3.291428095286093
 33
0.0
  0
SOLID
  5
1B73
  8
DIMENSIONS
 62
     0
 10
14.4855507770912
 20
3.3514280952860931
 30
0.0
 11
14.4855507770912
 21
3.231428095286093
 31
0.0
 12
14.125550777091201
 22
3.291428095286093
 32
0.0
 13
14.125550777091201
 23
3.291428095286093
 33
0.0
  0
TEXT
  8
DIMENSIONS
  40
0.3135
  5
1C40
  62
0
  72
0
  71
0
 10
14.6419
 20
2.73653
 30
0.000000
  1
2 11/16
  0
POINT
  5
1B75
  8
DEFPOINTS
 62
     0
 10
16.813050777091199
 20
3.266236997074468
 30
0.0
  0
POINT
  5
1B76
  8
DEFPOINTS
 62
     0
 10
14.125550777091201
 20
4.8354781233751876
 30
0.0
  0
POINT
  5
1B77
  8
DEFPOINTS
 62
     0
 10
14.125550777091201
 20
3.291428095286093
 30
0.0
  0
ENDBLK
  5
1551
  8
0
  0
BLOCK
  8
0
  2
*D11
 70
     1
 10
0.0
 20
0.0
 30
0.0
  3
*D11
  1

  0
LINE
  5
1B78
  8
DIMENSIONS
 62
     0
 10
16.813050777091199
 20
3.391236997074468
 30
0.0
 11
16.813050777091199
 21
3.681400393082042
 31
0.0
  0
LINE
  5
1B79
  8
DIMENSIONS
 62
     0
 10
19.500550777091188
 20
4.7104781233751876
 30
0.0
 11
19.500550777091188
 21
2.9614003930820432
 31
0.0
  0
LINE
  5
1B7A
  8
DIMENSIONS
 62
     0
 10
17.173050777091198
 20
3.321400393082043
 30
0.0
 11
17.601808485205702
 21
3.321400393082043
 31
0.0
  0
LINE
  5
1B7B
  8
DIMENSIONS
 62
     0
 10
19.140550777091189
 20
3.321400393082043
 30
0.0
 11
18.693308485205701
 21
3.321400393082043
 31
0.0
  0
SOLID
  5
1B7C
  8
DIMENSIONS
 62
     0
 10
17.173050777091198
 20
3.3814003930820431
 30
0.0
 11
17.173050777091198
 21
3.2614003930820421
 31
0.0
 12
16.813050777091199
 22
3.321400393082043
 32
0.0
 13
16.813050777091199
 23
3.321400393082043
 33
0.0
  0
SOLID
  5
1B7D
  8
DIMENSIONS
 62
     0
 10
19.140550777091189
 20
3.3814003930820431
 30
0.0
 11
19.140550777091189
 21
3.2614003930820421
 31
0.0
 12
19.500550777091188
 22
3.321400393082043
 32
0.0
 13
19.500550777091188
 23
3.321400393082043
 33
0.0
  0
TEXT
  8
DIMENSIONS
  40
0.3135
  5
1C41
  62
0
  72
0
  71
0
 10
17.5206
 20
2.76651
 30
0.000000
  1
2 11/16
  0
POINT
  5
1B7F
  8
DEFPOINTS
 62
     0
 10
16.813050777091199
 20
3.266236997074468
 30
0.0
  0
POINT
  5
1B80
  8
DEFPOINTS
 62
     0
 10
19.500550777091188
 20
4.8354781233751876
 30
0.0
  0
POINT
  5
1B81
  8
DEFPOINTS
 62
     0
 10
19.500550777091188
 20
3.321400393082043
 30
0.0
  0
ENDBLK
  5
155F
  8
0
  0
BLOCK
  8
0
  2
*D12
 70
     1
 10
0.0
 20
0.0
 30
0.0
  3
*D12
  1

  0
LINE
  5
1B82
  8
DIMENSIONS
 62
     0
 10
14.81305077709119
 20
5.4756264544346811
 30
0.0
 11
14.81305077709119
 21
4.4899881812584228
 31
0.0
  0
LINE
  5
1B83
  8
DIMENSIONS
 62
     0
 10
16.4530507770912
 20
4.849988181258424
 30
0.0
 11
16.123163703040898
 21
4.849988181258424
 31
0.0
  0
LINE
  5
1B84
  8
DIMENSIONS
 62
     0
 10
15.17305077709119
 20
4.849988181258424
 30
0.0
 11
15.554163703040899
 21
4.849988181258424
 31
0.0
  0
SOLID
  5
1B85
  8
DIMENSIONS
 62
     0
 10
16.4530507770912
 20
4.9099881812584227
 30
0.0
 11
16.4530507770912
 21
4.7899881812584244
 31
0.0
 12
16.813050777091199
 22
4.849988181258424
 32
0.0
 13
16.813050777091199
 23
4.849988181258424
 33
0.0
  0
SOLID
  5
1B86
  8
DIMENSIONS
 62
     0
 10
15.17305077709119
 20
4.9099881812584227
 30
0.0
 11
15.17305077709119
 21
4.7899881812584244
 31
0.0
 12
14.81305077709119
 22
4.849988181258424
 32
0.0
 13
14.81305077709119
 23
4.849988181258424
 33
0.0
  0
TEXT
  8
DIMENSIONS
  40
0.3135
  5
1C42
  62
0
  72
0
  71
0
 10
15.2117
 20
4.29509
 30
0.000000
  1
2
  0
POINT
  5
1B88
  8
DEFPOINTS
 62
     0
 10
16.813050777091199
 20
3.7794367526924679
 30
0.0
  0
POINT
  5
1B89
  8
DEFPOINTS
 62
     0
 10
14.81305077709119
 20
5.6006264544346811
 30
0.0
  0
POINT
  5
1B8A
  8
DEFPOINTS
 62
     0
 10
14.81305077709119
 20
4.849988181258424
 30
0.0
  0
ENDBLK
  5
156D
  8
0
  0
BLOCK
  8
0
  2
*D13
 70
     1
 10
0.0
 20
0.0
 30
0.0
  3
*D13
  1

  0
LINE
  5
1B8B
  8
DIMENSIONS
 62
     0
 10
18.813050777091199
 20
5.4756264544346811
 30
0.0
 11
18.813050777091199
 21
4.519960479054375
 31
0.0
  0
LINE
  5
1B8C
  8
DIMENSIONS
 62
     0
 10
18.4530507770912
 20
4.8799604790543754
 30
0.0
 11
17.83234555477328
 21
4.8799604790543754
 31
0.0
  0
LINE
  5
1B8D
  8
DIMENSIONS
 62
     0
 10
17.173050777091198
 20
4.8799604790543754
 30
0.0
 11
17.26334555477327
 21
4.8799604790543754
 31
0.0
  0
SOLID
  5
1B8E
  8
DIMENSIONS
 62
     0
 10
18.4530507770912
 20
4.9399604790543741
 30
0.0
 11
18.4530507770912
 21
4.8199604790543749
 31
0.0
 12
18.813050777091199
 22
4.8799604790543754
 32
0.0
 13
18.813050777091199
 23
4.8799604790543754
 33
0.0
  0
SOLID
  5
1B8F
  8
DIMENSIONS
 62
     0
 10
17.173050777091198
 20
4.9399604790543741
 30
0.0
 11
17.173050777091198
 21
4.8199604790543749
 31
0.0
 12
16.813050777091199
 22
4.8799604790543754
 32
0.0
 13
16.813050777091199
 23
4.8799604790543754
 33
0.0
  0
TEXT
  8
DIMENSIONS
  40
0.3135
  5
1C43
  62
0
  72
0
  71
0
 10
16.9208
 20
4.32507
 30
0.000000
  1
2
  0
POINT
  5
1B91
  8
DEFPOINTS
 62
     0
 10
18.813050777091199
 20
5.6006264544346811
 30
0.0
  0
POINT
  5
1B92
  8
DEFPOINTS
 62
     0
 10
16.813050777091199
 20
3.7794367526924679
 30
0.0
  0
POINT
  5
1B93
  8
DEFPOINTS
 62
     0
 10
16.813050777091199
 20
4.8799604790543754
 30
0.0
  0
ENDBLK
  5
157B
  8
0
  0
BLOCK
  8
0
  2
*D14
 70
     1
 10
0.0
 20
0.0
 30
0.0
  3
*D14
  1

  0
LINE
  5
1B94
  8
DIMENSIONS
 62
     0
 10
12.18805077709119
 20
3.7794367526924679
 30
0.0
 11
10.56101784683859
 21
3.7794367526924679
 31
0.0
  0
LINE
  5
1B95
  8
DIMENSIONS
 62
     0
 10
13.556592147773911
 20
5.279436752692467
 30
0.0
 11
10.56101784683859
 21
5.279436752692467
 31
0.0
  0
LINE
  5
1B96
  8
DIMENSIONS
 62
     0
 10
10.921017846838589
 20
3.4194367526924681
 30
0.0
 11
10.921017846838589
 21
3.0594367526924682
 31
0.0
  0
LINE
  5
1B97
  8
DIMENSIONS
 62
     0
 10
10.921017846838589
 20
5.6394367526924682
 30
0.0
 11
10.921017846838589
 21
5.9994367526924668
 31
0.0
  0
SOLID
  5
1B98
  8
DIMENSIONS
 62
     0
 10
10.861017846838591
 20
3.4194367526924681
 30
0.0
 11
10.98101784683859
 21
3.4194367526924681
 31
0.0
 12
10.921017846838589
 22
3.7794367526924679
 32
0.0
 13
10.921017846838589
 23
3.7794367526924679
 33
0.0
  0
SOLID
  5
1B99
  8
DIMENSIONS
 62
     0
 10
10.861017846838591
 20
5.6394367526924682
 30
0.0
 11
10.98101784683859
 21
5.6394367526924682
 31
0.0
 12
10.921017846838589
 22
5.279436752692467
 32
0.0
 13
10.921017846838589
 23
5.279436752692467
 33
0.0
  0
TEXT
  8
DIMENSIONS
  40
0.3135
  5
1C44
  62
0
  72
0
  71
0
 10
10.2940
 20
3.99537
 30
0.000000
  1
1 1/2
  0
POINT
  5
1B9B
  8
DEFPOINTS
 62
     0
 10
12.31305077709119
 20
3.7794367526924679
 30
0.0
  0
POINT
  5
1B9C
  8
DEFPOINTS
 62
     0
 10
13.681592147773911
 20
5.279436752692467
 30
0.0
  0
POINT
  5
1B9D
  8
DEFPOINTS
 62
     0
 10
10.921017846838589
 20
5.279436752692467
 30
0.0
  0
ENDBLK
  5
1589
  8
0
  0
BLOCK
  8
0
  2
*D15
 70
     1
 10
0.0
 20
0.0
 30
0.0
  3
*D15
  1

  0
LINE
  5
1B9E
  8
DIMENSIONS
 62
     0
 10
12.18805077709119
 20
3.7794367526924679
 30
0.0
 11
9.4515490988820972
 21
3.7794367526924679
 31
0.0
  0
LINE
  5
1B9F
  8
DIMENSIONS
 62
     0
 10
16.24409214777392
 20
6.029436752692467
 30
0.0
 11
9.4515490988820972
 21
6.0294367526924688
 31
0.0
  0
LINE
  5
1BA0
  8
DIMENSIONS
 62
     0
 10
9.8115490988820984
 20
4.1394367526924691
 30
0.0
 11
9.8115490988820984
 21
4.57398896151913
 31
0.0
  0
LINE
  5
1BA1
  8
DIMENSIONS
 62
     0
 10
9.8115490988820984
 20
5.6694367526924694
 30
0.0
 11
9.8115490988820984
 21
5.66548896151913
 31
0.0
  0
SOLID
  5
1BA2
  8
DIMENSIONS
 62
     0
 10
9.7515490988820979
 20
4.1394367526924691
 30
0.0
 11
9.8715490988820989
 21
4.1394367526924691
 31
0.0
 12
9.8115490988820966
 22
3.7794367526924679
 32
0.0
 13
9.8115490988820966
 23
3.7794367526924679
 33
0.0
  0
SOLID
  5
1BA3
  8
DIMENSIONS
 62
     0
 10
9.7515490988820979
 20
5.6694367526924694
 30
0.0
 11
9.8715490988820989
 21
5.6694367526924694
 31
0.0
 12
9.8115490988820984
 22
6.0294367526924688
 32
0.0
 13
9.8115490988820984
 23
6.0294367526924688
 33
0.0
  0
TEXT
  8
DIMENSIONS
  40
0.3135
  5
1C45
  62
0
  72
0
  71
0
 10
9.18455
 20
4.56484
 30
0.000000
  1
2 1/4
  0
POINT
  5
1BA5
  8
DEFPOINTS
 62
     0
 10
12.31305077709119
 20
3.7794367526924679
 30
0.0
  0
POINT
  5
1BA6
  8
DEFPOINTS
 62
     0
 10
16.36909214777392
 20
6.029436752692467
 30
0.0
  0
POINT
  5
1BA7
  8
DEFPOINTS
 62
     0
 10
9.8115490988820984
 20
6.0294367526924688
 30
0.0
  0
ENDBLK
  5
15C1
  8
0
  0
BLOCK
  8
0
  2
*D16
 70
     1
 10
0.0
 20
0.0
 30
0.0
  3
*D16
  1

  0
LINE
  5
1BA8
  8
DIMENSIONS
 62
     0
 10
12.18805077709119
 20
3.7794367526924679
 30
0.0
 11
8.2521232380172904
 21
3.7794367526924688
 31
0.0
  0
LINE
  5
1BA9
  8
DIMENSIONS
 62
     0
 10
14.19674047883341
 20
6.091936752692467
 30
0.0
 11
8.2521232380172922
 21
6.0919367526924688
 31
0.0
  0
LINE
  5
1BAA
  8
DIMENSIONS
 62
     0
 10
8.6121232380172916
 20
4.13943675269247
 30
0.0
 11
8.6121232380172916
 21
4.6339336572081997
 31
0.0
  0
LINE
  5
1BAB
  8
DIMENSIONS
 62
     0
 10
8.6121232380172916
 20
5.7319367526924694
 30
0.0
 11
8.6121232380172916
 21
5.7254336572081996
 31
0.0
  0
SOLID
  5
1BAC
  8
DIMENSIONS
 62
     0
 10
8.5521232380172911
 20
4.13943675269247
 30
0.0
 11
8.6721232380172921
 21
4.13943675269247
 31
0.0
 12
8.6121232380172899
 22
3.7794367526924688
 32
0.0
 13
8.6121232380172899
 23
3.7794367526924688
 33
0.0
  0
SOLID
  5
1BAD
  8
DIMENSIONS
 62
     0
 10
8.5521232380172911
 20
5.7319367526924694
 30
0.0
 11
8.6721232380172921
 21
5.7319367526924694
 31
0.0
 12
8.6121232380172916
 22
6.0919367526924688
 32
0.0
 13
8.6121232380172916
 23
6.0919367526924688
 33
0.0
  0
TEXT
  8
DIMENSIONS
  40
0.3135
  5
1C46
  62
0
  72
0
  71
0
 10
7.98512
 20
4.62479
 30
0.000000
  1
2 5/16
  0
POINT
  5
1BAF
  8
DEFPOINTS
 62
     0
 10
12.31305077709119
 20
3.7794367526924679
 30
0.0
  0
POINT
  5
1BB0
  8
DEFPOINTS
 62
     0
 10
14.32174047883341
 20
6.091936752692467
 30
0.0
  0
POINT
  5
1BB1
  8
DEFPOINTS
 62
     0
 10
8.6121232380172916
 20
6.0919367526924688
 30
0.0
  0
ENDBLK
  5
15CF
  8
0
  0
BLOCK
  8
0
  2
*D17
 70
     1
 10
0.0
 20
0.0
 30
0.0
  3
*D17
  1

  0
LINE
  5
1BB2
  8
DIMENSIONS
 62
     0
 10
12.18805077709119
 20
3.7794367526924679
 30
0.0
 11
7.472496428455158
 21
3.7794367526924688
 31
0.0
  0
LINE
  5
1BB3
  8
DIMENSIONS
 62
     0
 10
12.24409214777392
 20
9.654436752692467
 30
0.0
 11
7.472496428455158
 21
9.6544367526924688
 31
0.0
  0
LINE
  5
1BB4
  8
DIMENSIONS
 62
     0
 10
7.8324964284551584
 20
4.13943675269247
 30
0.0
 11
7.8324964284551593
 21
6.4022999278493371
 31
0.0
  0
LINE
  5
1BB5
  8
DIMENSIONS
 62
     0
 10
7.8324964284551593
 20
9.2944367526924694
 30
0.0
 11
7.8324964284551593
 21
7.493799927849337
 31
0.0
  0
SOLID
  5
1BB6
  8
DIMENSIONS
 62
     0
 10
7.7724964284551579
 20
4.13943675269247
 30
0.0
 11
7.8924964284551571
 21
4.13943675269247
 31
0.0
 12
7.8324964284551584
 22
3.7794367526924688
 32
0.0
 13
7.8324964284551584
 23
3.7794367526924688
 33
0.0
  0
SOLID
  5
1BB7
  8
DIMENSIONS
 62
     0
 10
7.7724964284551588
 20
9.2944367526924694
 30
0.0
 11
7.892496428455158
 21
9.2944367526924694
 31
0.0
 12
7.8324964284551593
 22
9.6544367526924688
 32
0.0
 13
7.8324964284551593
 23
9.6544367526924688
 33
0.0
  0
TEXT
  8
DIMENSIONS
  40
0.3135
  5
1C47
  62
0
  72
0
  71
0
 10
7.20550
 20
6.39315
 30
0.000000
  1
5 7/8
  0
POINT
  5
1BB9
  8
DEFPOINTS
 62
     0
 10
12.31305077709119
 20
3.7794367526924679
 30
0.0
  0
POINT
  5
1BBA
  8
DEFPOINTS
 62
     0
 10
12.36909214777392
 20
9.654436752692467
 30
0.0
  0
POINT
  5
1BBB
  8
DEFPOINTS
 62
     0
 10
7.8324964284551593
 20
9.6544367526924688
 30
0.0
  0
ENDBLK
  5
15DD
  8
0
  0
BLOCK
  8
0
  2
*D18
 70
     1
 10
0.0
 20
0.0
 30
0.0
  3
*D18
  1

  0
LINE
  5
1BBC
  8
DIMENSIONS
 62
     0
 10
12.18805077709119
 20
3.7794367526924679
 30
0.0
 11
6.3630275071551932
 21
3.7794367526924701
 31
0.0
  0
LINE
  5
1BBD
  8
DIMENSIONS
 62
     0
 10
14.19674047883341
 20
10.34193675269246
 30
0.0
 11
6.3630275071551941
 21
10.34193675269246
 31
0.0
  0
LINE
  5
1BBE
  8
DIMENSIONS
 62
     0
 10
6.7230275071551926
 20
4.13943675269247
 30
0.0
 11
6.7230275071551944
 21
7.3014692621164663
 31
0.0
  0
LINE
  5
1BBF
  8
DIMENSIONS
 62
     0
 10
6.7230275071551944
 20
9.9819367526924641
 30
0.0
 11
6.7230275071551944
 21
8.3929692621164662
 31
0.0
  0
SOLID
  5
1BC0
  8
DIMENSIONS
 62
     0
 10
6.663027507155193
 20
4.13943675269247
 30
0.0
 11
6.7830275071551931
 21
4.13943675269247
 31
0.0
 12
6.7230275071551926
 22
3.7794367526924701
 32
0.0
 13
6.7230275071551926
 23
3.7794367526924701
 33
0.0
  0
SOLID
  5
1BC1
  8
DIMENSIONS
 62
     0
 10
6.6630275071551939
 20
9.9819367526924641
 30
0.0
 11
6.7830275071551931
 21
9.9819367526924641
 31
0.0
 12
6.7230275071551953
 22
10.34193675269246
 32
0.0
 13
6.7230275071551953
 23
10.34193675269246
 33
0.0
  0
TEXT
  8
DIMENSIONS
  40
0.3135
  5
1C48
  62
0
  72
0
  71
0
 10
6.09603
 20
7.29232
 30
0.000000
  1
6 9/16
  0
POINT
  5
1BC3
  8
DEFPOINTS
 62
     0
 10
12.31305077709119
 20
3.7794367526924679
 30
0.0
  0
POINT
  5
1BC4
  8
DEFPOINTS
 62
     0
 10
14.32174047883341
 20
10.34193675269246
 30
0.0
  0
POINT
  5
1BC5
  8
DEFPOINTS
 62
     0
 10
6.7230275071551953
 20
10.34193675269246
 30
0.0
  0
ENDBLK
  5
15EB
  8
0
  0
BLOCK
  8
0
  2
*D19
 70
     1
 10
0.0
 20
0.0
 30
0.0
  3
*D19
  1

  0
LINE
  5
1BC6
  8
DIMENSIONS
 62
     0
 10
11.81305077709119
 20
13.404436752692471
 30
0.0
 11
11.81305077709119
 21
14.711210686557999
 31
0.0
  0
LINE
  5
1BC7
  8
DIMENSIONS
 62
     0
 10
21.813050777091199
 20
13.404436752692471
 30
0.0
 11
21.813050777091199
 21
14.711210686557999
 31
0.0
  0
LINE
  5
1BC8
  8
DIMENSIONS
 62
     0
 10
12.173050777091181
 20
14.351210686558
 30
0.0
 11
16.435329391732779
 21
14.351210686558
 31
0.0
  0
LINE
  5
1BC9
  8
DIMENSIONS
 62
     0
 10
21.4530507770912
 20
14.351210686558
 30
0.0
 11
17.16107939173278
 21
14.351210686558
 31
0.0
  0
SOLID
  5
1BCA
  8
DIMENSIONS
 62
     0
 10
12.173050777091181
 20
14.411210686558
 30
0.0
 11
12.173050777091181
 21
14.291210686557999
 31
0.0
 12
11.81305077709119
 22
14.351210686558
 32
0.0
 13
11.81305077709119
 23
14.351210686558
 33
0.0
  0
SOLID
  5
1BCB
  8
DIMENSIONS
 62
     0
 10
21.4530507770912
 20
14.411210686558
 30
0.0
 11
21.4530507770912
 21
14.291210686557999
 31
0.0
 12
21.813050777091199
 22
14.351210686558
 32
0.0
 13
21.813050777091199
 23
14.351210686558
 33
0.0
  0
TEXT
  8
DIMENSIONS
  40
0.3135
  5
1C49
  62
0
  72
0
  71
0
 10
16.1712
 20
13.7963
 30
0.000000
  1
10
  0
POINT
  5
1BCD
  8
DEFPOINTS
 62
     0
 10
11.81305077709119
 20
13.279436752692471
 30
0.0
  0
POINT
  5
1BCE
  8
DEFPOINTS
 62
     0
 10
21.813050777091199
 20
13.279436752692471
 30
0.0
  0
POINT
  5
1BCF
  8
DEFPOINTS
 62
     0
 10
21.813050777091199
 20
14.351210686558
 30
0.0
  0
ENDBLK
  5
15F9
  8
0
  0
BLOCK
  8
0
  2
*D20
 70
     1
 10
0.0
 20
0.0
 30
0.0
  3
*D20
  1

  0
LINE
  5
1BD0
  8
DIMENSIONS
 62
     0
 10
12.18805077709119
 20
3.7794367526924679
 30
0.0
 11
5.3744027313203571
 21
3.7794367526924701
 31
0.0
  0
LINE
  5
1BD1
  8
DIMENSIONS
 62
     0
 10
11.68805077709119
 20
13.279436752692471
 30
0.0
 11
5.374402731320358
 21
13.279436752692471
 31
0.0
  0
LINE
  5
1BD2
  8
DIMENSIONS
 62
     0
 10
5.7344027313203574
 20
4.13943675269247
 30
0.0
 11
5.7344027313203583
 21
8.1105235105860025
 31
0.0
  0
LINE
  5
1BD3
  8
DIMENSIONS
 62
     0
 10
5.7344027313203592
 20
12.919436752692469
 30
0.0
 11
5.7344027313203583
 21
9.2020235105860024
 31
0.0
  0
SOLID
  5
1BD4
  8
DIMENSIONS
 62
     0
 10
5.6744027313203569
 20
4.13943675269247
 30
0.0
 11
5.7944027313203561
 21
4.13943675269247
 31
0.0
 12
5.7344027313203574
 22
3.7794367526924701
 32
0.0
 13
5.7344027313203574
 23
3.7794367526924701
 33
0.0
  0
SOLID
  5
1BD5
  8
DIMENSIONS
 62
     0
 10
5.6744027313203587
 20
12.919436752692469
 30
0.0
 11
5.7944027313203579
 21
12.919436752692469
 31
0.0
 12
5.7344027313203592
 22
13.279436752692471
 32
0.0
 13
5.7344027313203592
 23
13.279436752692471
 33
0.0
  0
TEXT
  8
DIMENSIONS
  40
0.3135
  5
1C4A
  62
0
  72
0
  71
0
 10
5.10740
 20
8.10138
 30
0.000000
  1
9 1/2
  0
POINT
  5
1BD7
  8
DEFPOINTS
 62
     0
 10
12.31305077709119
 20
3.7794367526924679
 30
0.0
  0
POINT
  5
1BD8
  8
DEFPOINTS
 62
     0
 10
11.81305077709119
 20
13.279436752692471
 30
0.0
  0
POINT
  5
1BD9
  8
DEFPOINTS
 62
     0
 10
5.7344027313203592
 20
13.279436752692471
 30
0.0
  0
ENDBLK
  5
1755
  8
0
  0
BLOCK
  8
0
  2
*D21
 70
     1
 10
0.0
 20
0.0
 30
0.0
  3
*D21
  1

  0
LINE
  5
1BF2
  8
DIMENSIONS
 62
     0
 10
27.833086499316831
 20
23.877902676152711
 30
0.0
 11
26.27850313931361
 21
23.877902676152711
 31
0.0
  0
LINE
  5
1BF3
  8
DIMENSIONS
 62
     0
 10
28.583086499316831
 20
35.002902676152708
 30
0.0
 11
26.27850313931361
 21
35.002902676152708
 31
0.0
  0
LINE
  5
1BF4
  8
DIMENSIONS
 62
     0
 10
26.63850313931361
 20
24.237902676152711
 30
0.0
 11
26.63850313931361
 21
27.192440260005721
 31
0.0
  0
LINE
  5
1BF5
  8
DIMENSIONS
 62
     0
 10
26.63850313931361
 20
34.642902676152708
 30
0.0
 11
26.63850313931361
 21
28.283940260005728
 31
0.0
  0
SOLID
  5
1BF6
  8
DIMENSIONS
 62
     0
 10
26.578503139313611
 20
24.237902676152711
 30
0.0
 11
26.698503139313608
 21
24.237902676152711
 31
0.0
 12
26.63850313931361
 22
23.877902676152711
 32
0.0
 13
26.63850313931361
 23
23.877902676152711
 33
0.0
  0
SOLID
  5
1BF7
  8
DIMENSIONS
 62
     0
 10
26.578503139313611
 20
34.642902676152708
 30
0.0
 11
26.698503139313608
 21
34.642902676152708
 31
0.0
 12
26.63850313931361
 22
35.002902676152708
 32
0.0
 13
26.63850313931361
 23
35.002902676152708
 33
0.0
  0
TEXT
  8
DIMENSIONS
  40
0.3135
  5
1C4B
  62
0
  72
0
  71
0
 10
26.0115
 20
27.1833
 30
0.000000
  1
11 1/8
  0
POINT
  5
1BF9
  8
DEFPOINTS
 62
     0
 10
27.958086499316831
 20
23.877902676152711
 30
0.0
  0
POINT
  5
1BFA
  8
DEFPOINTS
 62
     0
 10
28.708086499316821
 20
35.002902676152708
 30
0.0
  0
POINT
  5
1BFB
  8
DEFPOINTS
 62
     0
 10
26.63850313931361
 20
35.002902676152708
 30
0.0
  0
ENDBLK
  5
1942
  8
0
  0
BLOCK
  8
0
  2
*D22
 70
     1
 10
0.0
 20
0.0
 30
0.0
  3
*D22
  1

  0
LINE
  5
1BFC
  8
DIMENSIONS
 62
     0
 10
30.208086499316821
 20
18.502902676152711
 30
0.0
 11
30.208086499316821
 21
16.161070870020261
 31
0.0
  0
LINE
  5
1BFD
  8
DIMENSIONS
 62
     0
 10
45.708086499316842
 20
21.127902676152711
 30
0.0
 11
45.708086499316842
 21
16.161070870020261
 31
0.0
  0
LINE
  5
1BFE
  8
DIMENSIONS
 62
     0
 10
30.56808649931682
 20
16.52107087002026
 30
0.0
 11
37.434925401882033
 21
16.52107087002026
 31
0.0
  0
LINE
  5
1BFF
  8
DIMENSIONS
 62
     0
 10
45.348086499316842
 20
16.52107087002026
 30
0.0
 11
38.526425401882022
 21
16.52107087002026
 31
0.0
  0
SOLID
  5
1C00
  8
DIMENSIONS
 62
     0
 10
30.56808649931682
 20
16.581070870020259
 30
0.0
 11
30.56808649931682
 21
16.461070870020261
 31
0.0
 12
30.208086499316821
 22
16.52107087002026
 32
0.0
 13
30.208086499316821
 23
16.52107087002026
 33
0.0
  0
SOLID
  5
1C01
  8
DIMENSIONS
 62
     0
 10
45.348086499316842
 20
16.581070870020259
 30
0.0
 11
45.348086499316842
 21
16.461070870020261
 31
0.0
 12
45.708086499316842
 22
16.52107087002026
 32
0.0
 13
45.708086499316842
 23
16.52107087002026
 33
0.0
  0
TEXT
  8
DIMENSIONS
  40
0.3135
  5
1C4C
  62
0
  72
0
  71
0
 10
37.3537
 20
15.9662
 30
0.000000
  1
15 1/2
  0
POINT
  5
1C03
  8
DEFPOINTS
 62
     0
 10
30.208086499316821
 20
18.627902676152711
 30
0.0
  0
POINT
  5
1C04
  8
DEFPOINTS
 62
     0
 10
45.708086499316842
 20
21.252902676152711
 30
0.0
  0
POINT
  5
1C05
  8
DEFPOINTS
 62
     0
 10
45.708086499316842
 20
16.52107087002026
 30
0.0
  0
ENDBLK
  5
1950
  8
0
  0
BLOCK
  8
0
  2
*D23
 70
     1
 10
0.0
 20
0.0
 30
0.0
  3
*D23
  1

  0
LINE
  5
1C06
  8
DIMENSIONS
 62
     0
 10
27.958086499316831
 20
22.252902676152711
 30
0.0
 11
27.958086499316831
 21
14.70203678705016
 31
0.0
  0
LINE
  5
1C07
  8
DIMENSIONS
 62
     0
 10
45.708086499316842
 20
21.127902676152711
 30
0.0
 11
45.708086499316842
 21
14.70203678705016
 31
0.0
  0
LINE
  5
1C08
  8
DIMENSIONS
 62
     0
 10
28.31808649931682
 20
15.062036787050159
 30
0.0
 11
36.029538221199779
 21
15.062036787050159
 31
0.0
  0
LINE
  5
1C09
  8
DIMENSIONS
 62
     0
 10
45.348086499316842
 20
15.062036787050159
 30
0.0
 11
37.121038221199782
 21
15.062036787050159
 31
0.0
  0
SOLID
  5
1C0A
  8
DIMENSIONS
 62
     0
 10
28.31808649931682
 20
15.12203678705016
 30
0.0
 11
28.31808649931682
 21
15.002036787050161
 31
0.0
 12
27.958086499316831
 22
15.062036787050159
 32
0.0
 13
27.958086499316831
 23
15.062036787050159
 33
0.0
  0
SOLID
  5
1C0B
  8
DIMENSIONS
 62
     0
 10
45.348086499316842
 20
15.12203678705016
 30
0.0
 11
45.348086499316842
 21
15.002036787050161
 31
0.0
 12
45.708086499316842
 22
15.062036787050159
 32
0.0
 13
45.708086499316842
 23
15.062036787050159
 33
0.0
  0
TEXT
  8
DIMENSIONS
  40
0.3135
  5
1C4D
  62
0
  72
0
  71
0
 10
35.9483
 20
14.5071
 30
0.000000
  1
17 3/4
  0
POINT
  5
1C0D
  8
DEFPOINTS
 62
     0
 10
27.958086499316831
 20
22.377902676152711
 30
0.0
  0
POINT
  5
1C0E
  8
DEFPOINTS
 62
     0
 10
45.708086499316842
 20
21.252902676152711
 30
0.0
  0
POINT
  5
1C0F
  8
DEFPOINTS
 62
     0
 10
45.708086499316842
 20
15.062036787050159
 30
0.0
  0
ENDBLK
  5
195E
  8
0
  0
BLOCK
  8
0
  2
*D24
 70
     1
 10
0.0
 20
0.0
 30
0.0
  3
*D24
  1

  0
LINE
  5
1C10
  8
DIMENSIONS
 62
     0
 10
20.813050777091199
 20
18.627902676152711
 30
0.0
 11
20.813050777091199
 21
15.765368931262239
 31
0.0
  0
LINE
  5
1C11
  8
DIMENSIONS
 62
     0
 10
12.813050777091201
 20
18.627902676152711
 30
0.0
 11
12.813050777091201
 21
15.765368931262239
 31
0.0
  0
LINE
  5
1C12
  8
DIMENSIONS
 62
     0
 10
20.4530507770912
 20
16.125368931262241
 30
0.0
 11
17.082798811075222
 21
16.125368931262241
 31
0.0
  0
LINE
  5
1C13
  8
DIMENSIONS
 62
     0
 10
13.1730507770912
 20
16.125368931262241
 30
0.0
 11
16.513798811075219
 21
16.125368931262241
 31
0.0
  0
SOLID
  5
1C14
  8
DIMENSIONS
 62
     0
 10
20.4530507770912
 20
16.185368931262239
 30
0.0
 11
20.4530507770912
 21
16.065368931262238
 31
0.0
 12
20.813050777091199
 22
16.125368931262241
 32
0.0
 13
20.813050777091199
 23
16.125368931262241
 33
0.0
  0
SOLID
  5
1C15
  8
DIMENSIONS
 62
     0
 10
13.1730507770912
 20
16.185368931262239
 30
0.0
 11
13.1730507770912
 21
16.065368931262238
 31
0.0
 12
12.813050777091201
 22
16.125368931262241
 32
0.0
 13
12.813050777091201
 23
16.125368931262241
 33
0.0
  0
TEXT
  8
DIMENSIONS
  40
0.3135
  5
1C4E
  62
0
  72
0
  71
0
 10
16.1713
 20
15.5705
 30
0.000000
  1
8
  0
POINT
  5
1C17
  8
DEFPOINTS
 62
     0
 10
20.813050777091199
 20
18.752902676152711
 30
0.0
  0
POINT
  5
1C18
  8
DEFPOINTS
 62
     0
 10
12.813050777091201
 20
18.752902676152711
 30
0.0
  0
POINT
  5
1C19
  8
DEFPOINTS
 62
     0
 10
12.813050777091201
 20
16.125368931262241
 30
0.0
  0
ENDBLK
  5
1980
  8
0
  0
BLOCK
  8
0
  2
*D25
 70
     1
 10
0.0
 20
0.0
 30
0.0
  3
*D25
  1

  0
LINE
  5
1C1A
  8
DIMENSIONS
 62
     0
 10
31.708086499316831
 20
17.058628637942601
 30
0.0
 11
31.708086499316831
 21
18.296324258796151
 31
0.0
  0
LINE
  5
1C1B
  8
DIMENSIONS
 62
     0
 10
30.708086499316821
 20
18.127902676152711
 30
0.0
 11
30.708086499316821
 21
17.576324258796149
 31
0.0
  0
LINE
  5
1C1C
  8
DIMENSIONS
 62
     0
 10
32.068086499316827
 20
17.936324258796141
 30
0.0
 11
32.428086499316827
 21
17.936324258796141
 31
0.0
  0
LINE
  5
1C1D
  8
DIMENSIONS
 62
     0
 10
30.348086499316821
 20
17.936324258796141
 30
0.0
 11
29.427132672090728
 21
17.936324258796141
 31
0.0
  0
SOLID
  5
1C1E
  8
DIMENSIONS
 62
     0
 10
32.068086499316827
 20
17.99632425879615
 30
0.0
 11
32.068086499316827
 21
17.876324258796149
 31
0.0
 12
31.708086499316831
 22
17.936324258796141
 32
0.0
 13
31.708086499316831
 23
17.936324258796141
 33
0.0
  0
SOLID
  5
1C1F
  8
DIMENSIONS
 62
     0
 10
30.348086499316821
 20
17.99632425879615
 30
0.0
 11
30.348086499316821
 21
17.876324258796149
 31
0.0
 12
30.708086499316821
 22
17.936324258796141
 32
0.0
 13
30.708086499316821
 23
17.936324258796141
 33
0.0
  0
TEXT
  8
DIMENSIONS
  40
0.3135
  5
1C4F
  62
0
  72
0
  71
0
 10
28.5679
 20
17.3814
 30
0.000000
  1
1
  0
POINT
  5
1C21
  8
DEFPOINTS
 62
     0
 10
31.708086499316831
 20
16.933628637942601
 30
0.0
  0
POINT
  5
1C22
  8
DEFPOINTS
 62
     0
 10
30.708086499316821
 20
18.252902676152711
 30
0.0
  0
POINT
  5
1C23
  8
DEFPOINTS
 62
     0
 10
30.708086499316821
 20
17.936324258796141
 30
0.0
  0
ENDBLK
  5
1AD9
  8
0
  0
BLOCK
  8
0
  2
*D26
 70
     1
 10
0.0
 20
0.0
 30
0.0
  3
*D26
  1

  0
LINE
  5
1C24
  8
DIMENSIONS
 62
     0
 10
39.208086499316821
 20
18.127902676152711
 30
0.0
 11
39.208086499316821
 21
16.604190579068131
 31
0.0
  0
LINE
  5
1C25
  8
DIMENSIONS
 62
     0
 10
31.708086499316831
 20
16.933628637942601
 30
0.0
 11
31.708086499316831
 21
16.604190579068131
 31
0.0
  0
LINE
  5
1C26
  8
DIMENSIONS
 62
     0
 10
38.848086499316821
 20
16.964190579068131
 30
0.0
 11
32.068086499316827
 21
16.964190579068131
 31
0.0
  0
LINE
  5
1C27
  8
DIMENSIONS
 62
     0
 10
31.708086499316831
 20
16.964190579068131
 30
0.0
 11
29.504681780242869
 21
16.964190579068131
 31
0.0
  0
SOLID
  5
1C28
  8
DIMENSIONS
 62
     0
 10
38.848086499316821
 20
17.024190579068129
 30
0.0
 11
38.848086499316821
 21
16.904190579068128
 31
0.0
 12
39.208086499316821
 22
16.964190579068131
 32
0.0
 13
39.208086499316821
 23
16.964190579068131
 33
0.0
  0
SOLID
  5
1C29
  8
DIMENSIONS
 62
     0
 10
32.068086499316827
 20
17.024190579068129
 30
0.0
 11
32.068086499316827
 21
16.904190579068128
 31
0.0
 12
31.708086499316831
 22
16.964190579068131
 32
0.0
 13
31.708086499316831
 23
16.964190579068131
 33
0.0
  0
TEXT
  8
DIMENSIONS
  40
0.3135
  5
1C50
  62
0
  72
0
  71
0
 10
28.4364
 20
16.4093
 30
0.000000
  1
7 1/2
  0
POINT
  5
1C2B
  8
DEFPOINTS
 62
     0
 10
39.208086499316821
 20
18.252902676152711
 30
0.0
  0
POINT
  5
1C2C
  8
DEFPOINTS
 62
     0
 10
31.708086499316831
 20
17.058628637942601
 30
0.0
  0
POINT
  5
1C2D
  8
DEFPOINTS
 62
     0
 10
31.708086499316831
 20
16.964190579068131
 30
0.0
  0
ENDBLK
  5
1AE7
  8
0
  0
BLOCK
  8
0
  2
*U27
 70
     1
 10
0.0
 20
0.0
 30
0.0
  3
*U27
  1

  0
TEXT
  5
1B2B
  8
DIMENSIONS
 10
34.506864104959988
 20
39.687895947515159
 30
0.0
 40
0.3135
  1
75mm-1.5mm PITCH
  0
ENDBLK
  5
1B2D
  8
0
  0
BLOCK
  8
0
  2
*U28
 70
     1
 10
0.0
 20
0.0
 30
0.0
  3
*U28
  1

  0
TEXT
  5
1B39
  8
0
 10
11.818874801843039
 20
1.9782324213583851
 30
0.0
 40
0.3135
  1
SEE SUBPLATE HOLE PATTERN DRAWING
  0
ENDBLK
  5
1B3B
  8
0
  0
BLOCK
  8
0
  2
*U29
 70
     1
 10
0.0
 20
0.0
 30
0.0
  3
*U29
  1

  0
TEXT
  5
1BDB
  8
DIMENSIONS
 10
23.247487559905611
 20
3.2933609482488482
 30
0.0
 40
0.3135
  1
1/2-13 TPI, 4 PLCS
  0
ENDBLK
  5
1BDD
  8
0
  0
BLOCK
  8
0
  2
*U30
 70
     1
 10
0.0
 20
0.0
 30
0.0
  3
*U30
  1

  0
TEXT
  5
1BDF
  8
DIMENSIONS
 10
23.28391048946628
 20
4.4683215054302607
 30
0.0
 40
0.3135
  1
CLEARANCE FOR 
  0
TEXT
  5
1BE0
  8
DIMENSIONS
 10
27.709485489466282
 20
4.6616465054302623
 30
0.0
 40
0.21945
  1
1
  0
LINE
  5
1BE1
  8
DIMENSIONS
 10
27.672910489466279
 20
4.6250715054302622
 30
0.0
 11
27.819210489466279
 21
4.6250715054302622
 31
0.0
  0
TEXT
  5
1BE2
  8
DIMENSIONS
 10
27.672910489466279
 20
4.3690465054302621
 30
0.0
 40
0.21945
  1
2
  0
TEXT
  5
1BE3
  8
DIMENSIONS
 10
27.892360489466281
 20
4.4683215054302607
 30
0.0
 40
0.3135
  1
 SHCS, FOR MOUNTING PLATE TO FRAME, 4 PLCS
  0
ENDBLK
  5
1BE5
  8
0
  0
BLOCK
  8
0
  2
*U31
 70
     1
 10
0.0
 20
0.0
 30
0.0
  3
*U31
  1

  0
TEXT
  5
1BE7
  8
DIMENSIONS
 10
23.203101751441331
 20
7.5161985761269543
 30
0.0
 40
0.3135
  1
1/2 REAM, 2 PLCS
  0
ENDBLK
  5
1BE9
  8
0
  0
BLOCK
  8
0
  2
*U32
 70
     1
 10
0.0
 20
0.0
 30
0.0
  3
*U32
  1

  0
TEXT
  5
1BEB
  8
DIMENSIONS
 10
23.175581804079851
 20
9.3568075816764367
 30
0.0
 40
0.3135
  1
7/16 DRILL
  0
ENDBLK
  5
1BED
  8
0
  0
BLOCK
  8
0
  2
*U33
 70
     1
 10
0.0
 20
0.0
 30
0.0
  3
*U33
  1

  0
TEXT
  5
1BEF
  8
DIMENSIONS
 10
23.58673268808176
 20
11.146288450855391
 30
0.0
 40
0.3135
  1
3/8-16 TPI
  0
ENDBLK
  5
1BF1
  8
0
  0
BLOCK
  8
0
  2
*U34
 70
     1
 10
0.0
 20
0.0
 30
0.0
  3
*U34
  1

  0
TEXT
  5
1C2F
  8
DIMENSIONS
 10
33.836153608241013
 20
17.359192151052849
 30
0.0
 40
0.3135
  1
1/2 REAM
  0
ENDBLK
  5
1C31
  8
0
  0
BLOCK
  8
0
  2
*U35
 70
     1
 10
0.0
 20
0.0
 30
0.0
  3
*U35
  1

  0
TEXT
  5
1C33
  8
DIMENSIONS
 10
40.66052016533348
 20
17.74103221540744
 30
0.0
 40
0.3135
  1
CLEARANCE FOR 
  0
TEXT
  5
1C34
  8
DIMENSIONS
 10
40.66052016533348
 20
17.218532215407439
 30
0.0
 40
0.3135
  1
3/8 SHCS
  0
ENDBLK
  5
1C36
  8
0
  0
ENDSEC
  0
SECTION
  2
ENTITIES
  0
POLYLINE
  5
520
  8
TITLEBLOCK_NOTES
 66
     1
 10
0.0
 20
0.0
 30
0.0
 70
     1
  0
VERTEX
  5
1B07
  8
TITLEBLOCK_NOTES
 10
-2.6661661867810449
 20
-2.167594240247912
 30
0.0
  0
VERTEX
  5
1B08
  8
TITLEBLOCK_NOTES
 10
57.833833813218973
 20
-2.16759424024792
 30
0.0
  0
VERTEX
  5
1B09
  8
TITLEBLOCK_NOTES
 10
57.833833813218973
 20
44.582405759752071
 30
0.0
  0
VERTEX
  5
1B0A
  8
TITLEBLOCK_NOTES
 10
-2.666166186781036
 20
44.582405759752092
 30
0.0
  0
SEQEND
  5
1B0B
  8
TITLEBLOCK_NOTES
  0
LINE
  5
521
  8
TITLEBLOCK_NOTES
 62
     3
 10
57.833833813218973
 20
7.9056557597520696
 30
0.0
 11
57.833833813218973
 21
-2.1675942402479178
 31
0.0
  0
TEXT
  5
53E
  8
TITLEBLOCK_NOTES
  6
CONTINUOUS
 62
     3
 10
49.965933373626392
 20
1.168676394333906
 30
0.0
 40
0.3920400000000001
  1
640 Hardwick Road, Unit 5
 41
0.7000000000000001
  0
TEXT
  5
53F
  8
TITLEBLOCK_NOTES
  6
CONTINUOUS
 62
     3
 10
49.327587368549317
 20
1.9108031692284599
 30
0.0
 40
0.7350750000000001
  1
MULTICYL  Inc.
 41
0.85470085
  0
TEXT
  5
540
  8
TITLEBLOCK_NOTES
  6
CONTINUOUS
 62
     3
 10
50.722672079997039
 20
-0.7514070578917718
 30
0.0
 40
0.3136320000000001
  1
(905) 951-0670 
 41
1.282051279999999
  0
TEXT
  5
541
  8
TITLEBLOCK_NOTES
  6
CONTINUOUS
 62
     3
 10
49.866195167140319
 20
-1.302581929620322
 30
0.0
 40
0.3136320000000001
  1
FAX (905) 951-0672
 41
1.282051279999999
  0
TEXT
  5
542
  8
TITLEBLOCK_NOTES
  6
CONTINUOUS
 62
     3
 10
48.593585845319033
 20
-0.0938904303191066
 30
0.0
 40
0.3920400000000001
  1
          Canada L7E 5R1
 41
0.7000000000000001
  0
LINE
  5
543
  8
TITLEBLOCK_NOTES
 62
     3
 10
34.556458813218939
 20
-2.167594240247936
 30
0.0
 11
57.833833813218973
 21
-2.1675942402479178
 31
0.0
  0
LINE
  5
544
  8
TITLEBLOCK_NOTES
  6
CONTINUOUS
 62
     3
 10
34.556458813218939
 20
3.3454682597520771
 30
0.0
 11
57.833833813218973
 21
3.3454682597520771
 31
0.0
  0
LINE
  5
547
  8
TITLEBLOCK_NOTES
 62
     3
 10
40.591333813218952
 20
-2.1675942402479311
 30
0.0
 11
27.805702379586361
 21
-2.172082760165678
 31
0.0
  0
LINE
  5
553
  8
TITLEBLOCK_NOTES
  6
CONTINUOUS
 62
     3
 10
40.145247563598893
 20
1.842133788927063
 30
0.0
 11
41.664402563598898
 21
1.842133788927063
 31
0.0
  0
LINE
  5
554
  8
TITLEBLOCK_NOTES
  6
CONTINUOUS
 62
     3
 10
40.120745063598903
 20
1.8666362889270709
 30
0.0
 11
41.688905063598881
 21
1.8666362889270709
 31
0.0
  0
LINE
  5
555
  8
TITLEBLOCK_NOTES
  6
CONTINUOUS
 62
     3
 10
40.169750063598919
 20
1.817631288927066
 30
0.0
 11
41.639900063598901
 21
1.817631288927066
 31
0.0
  0
LINE
  5
556
  8
TITLEBLOCK_NOTES
  6
CONTINUOUS
 62
     3
 10
40.721056313598922
 20
-0.3385887110729442
 30
0.0
 11
41.088593813598941
 21
-0.3385887110729442
 31
0.0
  0
LINE
  5
557
  8
TITLEBLOCK_NOTES
  6
CONTINUOUS
 62
     3
 10
40.696553813598932
 20
-0.3630912110729412
 30
0.0
 11
41.113096313598902
 21
-0.3630912110729412
 31
0.0
  0
LINE
  5
558
  8
TITLEBLOCK_NOTES
  6
CONTINUOUS
 62
     3
 10
40.672051313598892
 20
-0.3875937110729346
 30
0.0
 11
41.137598813598892
 21
-0.3875937110729346
 31
0.0
  0
TEXT
  5
559
  8
TITLEBLOCK_NOTES
  6
CONTINUOUS
 62
     3
 10
39.18558553989395
 20
-1.5293357724779171
 30
0.0
 40
0.3430350000000001
  1
 with the
 41
0.8
 51
11.0
  0
LINE
  5
55A
  8
TITLEBLOCK_NOTES
  6
CONTINUOUS
 62
     3
 10
40.470683838993871
 20
-0.706126211072917
 30
0.0
 11
48.061773764973907
 21
-0.5736232577429236
 31
0.0
  0
LINE
  5
55B
  8
TITLEBLOCK_NOTES
  6
CONTINUOUS
 62
     3
 10
39.347514966618917
 20
-0.706126211072917
 30
0.0
 11
48.061773764973907
 21
-0.5540182684379325
 31
0.0
  0
LINE
  5
55C
  8
TITLEBLOCK_NOTES
  6
CONTINUOUS
 62
     3
 10
38.224346045238903
 20
-0.706126211072917
 30
0.0
 11
48.061773764973907
 21
-0.5344132791329237
 31
0.0
  0
LINE
  5
55D
  8
TITLEBLOCK_NOTES
  6
CONTINUOUS
 62
     3
 10
37.101177172863899
 20
-0.706126211072917
 30
0.0
 11
48.061773764973907
 21
-0.5148082898279293
 31
0.0
  0
LINE
  5
55E
  8
TITLEBLOCK_NOTES
  6
CONTINUOUS
 62
     3
 10
35.978008300488881
 20
-0.706126211072917
 30
0.0
 11
48.061773764973907
 21
-0.4952033005229383
 31
0.0
  0
LINE
  5
55F
  8
TITLEBLOCK_NOTES
  6
CONTINUOUS
 62
     3
 10
34.854839379108938
 20
-0.706126211072917
 30
0.0
 11
48.061773764973907
 21
-0.4755983112179294
 31
0.0
  0
LINE
  5
560
  8
TITLEBLOCK_NOTES
  6
CONTINUOUS
 62
     3
 10
34.556458813218939
 20
-0.6917294731679216
 30
0.0
 11
48.061773764973907
 21
-0.455993321912935
 31
0.0
  0
LINE
  5
561
  8
TITLEBLOCK_NOTES
  6
CONTINUOUS
 62
     3
 10
34.556458813218939
 20
-0.6721245328679295
 30
0.0
 11
48.061773764973907
 21
-0.436388381612936
 31
0.0
  0
LINE
  5
562
  8
TITLEBLOCK_NOTES
  6
CONTINUOUS
 62
     3
 10
34.556458813218939
 20
-0.6525195435629208
 30
0.0
 11
48.061773764973907
 21
-0.4167833923079415
 31
0.0
  0
LINE
  5
563
  8
TITLEBLOCK_NOTES
  6
CONTINUOUS
 62
     3
 10
34.556458813218939
 20
-0.6329145542579298
 30
0.0
 11
48.061773764973907
 21
-0.3971784030029219
 31
0.0
  0
LINE
  5
564
  8
TITLEBLOCK_NOTES
  6
CONTINUOUS
 62
     3
 10
34.556458813218939
 20
-0.6133095649529246
 30
0.0
 11
47.487709641978888
 21
-0.3875937110729346
 31
0.0
  0
LINE
  5
565
  8
TITLEBLOCK_NOTES
  6
CONTINUOUS
 62
     3
 10
34.556458813218939
 20
-0.5937045756479301
 30
0.0
 11
46.364540720598903
 21
-0.3875937110729346
 31
0.0
  0
LINE
  5
566
  8
TITLEBLOCK_NOTES
  6
CONTINUOUS
 62
     3
 10
34.556458813218939
 20
-0.706126211072917
 30
0.0
 11
48.061773764973907
 21
-0.706126211072917
 31
0.0
  0
LINE
  5
567
  8
TITLEBLOCK_NOTES
  6
CONTINUOUS
 62
     3
 10
48.061773764973907
 20
1.9949367694770661
 30
0.0
 11
34.556458813218939
 21
1.9949367694770661
 31
0.0
  0
LINE
  5
568
  8
TITLEBLOCK_NOTES
  6
CONTINUOUS
 62
     3
 10
48.061773764973907
 20
2.4772694620770661
 30
0.0
 11
34.556458813218939
 21
2.4772694620770661
 31
0.0
  0
LINE
  5
569
  8
TITLEBLOCK_NOTES
  6
CONTINUOUS
 62
     3
 10
34.556458813218939
 20
-0.574099586342939
 30
0.0
 11
45.241371848223871
 21
-0.3875937110729346
 31
0.0
  0
LINE
  5
56A
  8
TITLEBLOCK_NOTES
  6
CONTINUOUS
 62
     3
 10
34.556458813218939
 20
-0.5544945970379303
 30
0.0
 11
44.898732563598891
 21
-0.3739695369929308
 31
0.0
  0
LINE
  5
56B
  8
TITLEBLOCK_NOTES
  6
CONTINUOUS
 62
     3
 10
34.556458813218939
 20
-0.5348896077329393
 30
0.0
 11
43.368811704153913
 21
-0.3810694303979325
 31
0.0
  0
LINE
  5
56C
  8
TITLEBLOCK_NOTES
  6
CONTINUOUS
 62
     3
 10
34.556458813218939
 20
-0.5152846184279305
 30
0.0
 11
41.871865182093892
 21
-0.3875937110729346
 31
0.0
  0
LINE
  5
56D
  8
TITLEBLOCK_NOTES
  6
CONTINUOUS
 62
     3
 10
34.556458813218939
 20
-2.167594240247936
 30
0.0
 11
34.556458813218939
 21
3.3454682597520771
 31
0.0
  0
LINE
  5
574
  8
TITLEBLOCK_NOTES
  6
CONTINUOUS
 62
     3
 10
35.729864426268897
 20
1.842133788927063
 30
0.0
 11
35.122235063598922
 21
1.842133788927063
 31
0.0
  0
LINE
  5
575
  8
TITLEBLOCK_NOTES
  6
CONTINUOUS
 62
     3
 10
35.146737563598933
 20
1.817631288927066
 30
0.0
 11
35.710295063598892
 21
1.817631288927066
 31
0.0
  0
LINE
  5
576
  8
TITLEBLOCK_NOTES
  6
CONTINUOUS
 62
     3
 10
35.097732563598882
 20
1.8666362889270709
 30
0.0
 11
35.749433788938887
 21
1.8666362889270709
 31
0.0
  0
LINE
  5
577
  8
TITLEBLOCK_NOTES
  6
CONTINUOUS
 62
     3
 10
35.563280063598881
 20
-0.0860057679329245
 30
0.0
 11
35.740720699938933
 21
-0.0829085539229304
 31
0.0
  0
LINE
  5
578
  8
TITLEBLOCK_NOTES
  6
CONTINUOUS
 62
     3
 10
35.563280063598881
 20
-0.0664007786279299
 30
0.0
 11
35.733923167383907
 21
-0.0634222057229295
 31
0.0
  0
LINE
  5
579
  8
TITLEBLOCK_NOTES
  6
CONTINUOUS
 62
     3
 10
35.563280063598881
 20
-0.046795838327931
 30
0.0
 11
35.727125585823948
 21
-0.0439358575229285
 31
0.0
  0
LINE
  5
57A
  8
TITLEBLOCK_NOTES
  6
CONTINUOUS
 62
     3
 10
35.563280063598881
 20
-0.0271908490229365
 30
0.0
 11
35.720328053268901
 21
-0.0244495583279409
 31
0.0
  0
LINE
  5
57B
  8
TITLEBLOCK_NOTES
  6
CONTINUOUS
 62
     3
 10
35.563280063598881
 20
-0.0075858597179455
 30
0.0
 11
35.713530471708943
 21
-0.0049632101279364
 31
0.0
  0
LINE
  5
57C
  8
TITLEBLOCK_NOTES
  6
CONTINUOUS
 62
     3
 10
35.563280063598881
 20
0.0120191295870775
 30
0.0
 11
35.706732939153902
 21
0.0145231380720787
 31
0.0
  0
LINE
  5
57D
  8
TITLEBLOCK_NOTES
  6
CONTINUOUS
 62
     3
 10
35.563280063598881
 20
0.0316241188920827
 30
0.0
 11
35.699935357593951
 21
0.0340094372670663
 31
0.0
  0
LINE
  5
57E
  8
TITLEBLOCK_NOTES
  6
CONTINUOUS
 62
     3
 10
35.563280063598881
 20
0.0512291081970773
 30
0.0
 11
35.693137825038882
 21
0.0534957854670815
 31
0.0
  0
LINE
  5
57F
  8
TITLEBLOCK_NOTES
  6
CONTINUOUS
 62
     3
 10
35.563280063598881
 20
0.0708340975020683
 30
0.0
 11
35.686340243478959
 21
0.0729821336670717
 31
0.0
  0
LINE
  5
580
  8
TITLEBLOCK_NOTES
  6
CONTINUOUS
 62
     3
 10
35.563280063598881
 20
0.0904390868070735
 30
0.0
 11
35.679542710923897
 21
0.0924684818670727
 31
0.0
  0
LINE
  5
581
  8
TITLEBLOCK_NOTES
  6
CONTINUOUS
 62
     3
 10
35.563280063598881
 20
-0.3800805585029394
 30
0.0
 11
35.84268408030389
 21
-0.3752035809029337
 31
0.0
  0
LINE
  5
582
  8
TITLEBLOCK_NOTES
  6
CONTINUOUS
 62
     3
 10
35.563280063598881
 20
-0.3604755691979449
 30
0.0
 11
35.83588654774892
 21
-0.3557172327029328
 31
0.0
  0
LINE
  5
583
  8
TITLEBLOCK_NOTES
  6
CONTINUOUS
 62
     3
 10
35.563280063598881
 20
-0.3408705798929255
 30
0.0
 11
35.829088966188891
 21
-0.3362308845029283
 31
0.0
  0
LINE
  5
584
  8
TITLEBLOCK_NOTES
  6
CONTINUOUS
 62
     3
 10
35.563280063598881
 20
-0.321265639592923
 30
0.0
 11
35.822291433633922
 21
-0.3167445363029238
 31
0.0
  0
LINE
  5
585
  8
TITLEBLOCK_NOTES
  6
CONTINUOUS
 62
     3
 10
35.563280063598881
 20
-0.301660650287932
 30
0.0
 11
35.815493852073899
 21
-0.2972582371079255
 31
0.0
  0
LINE
  5
586
  8
TITLEBLOCK_NOTES
  6
CONTINUOUS
 62
     3
 10
35.563280063598881
 20
-0.2820556609829374
 30
0.0
 11
35.808696319518923
 21
-0.2777718889079388
 31
0.0
  0
LINE
  5
587
  8
TITLEBLOCK_NOTES
  6
CONTINUOUS
 62
     3
 10
35.563280063598881
 20
-0.2624506716779287
 30
0.0
 11
35.801898737958908
 21
-0.2582855407079307
 31
0.0
  0
LINE
  5
588
  8
TITLEBLOCK_NOTES
  6
CONTINUOUS
 62
     3
 10
35.563280063598881
 20
-0.2428456823729377
 30
0.0
 11
35.795101156398943
 21
-0.2387992415129219
 31
0.0
  0
LINE
  5
589
  8
TITLEBLOCK_NOTES
  6
CONTINUOUS
 62
     3
 10
35.563280063598881
 20
-0.2232406930679325
 30
0.0
 11
35.788303623843888
 21
-0.2193128933129316
 31
0.0
  0
LINE
  5
58A
  8
TITLEBLOCK_NOTES
  6
CONTINUOUS
 62
     3
 10
35.563280063598881
 20
-0.2036357037629379
 30
0.0
 11
35.78150604228393
 21
-0.1998265451129129
 31
0.0
  0
LINE
  5
58B
  8
TITLEBLOCK_NOTES
  6
CONTINUOUS
 62
     3
 10
35.563280063598881
 20
-0.1840307144579469
 30
0.0
 11
35.774708509728903
 21
-0.1803401969129226
 31
0.0
  0
LINE
  5
58C
  8
TITLEBLOCK_NOTES
  6
CONTINUOUS
 62
     3
 10
35.563280063598881
 20
-0.1644257251529275
 30
0.0
 11
35.767910928168959
 21
-0.1608538977179243
 31
0.0
  0
LINE
  5
58D
  8
TITLEBLOCK_NOTES
  6
CONTINUOUS
 62
     3
 10
35.563280063598881
 20
-0.1448207358479188
 30
0.0
 11
35.76111339561389
 21
-0.1413675495179376
 31
0.0
  0
LINE
  5
58E
  8
TITLEBLOCK_NOTES
  6
CONTINUOUS
 62
     3
 10
35.563280063598881
 20
-0.1252157465429242
 30
0.0
 11
35.75431581405396
 21
-0.1218812013179331
 31
0.0
  0
LINE
  5
58F
  8
TITLEBLOCK_NOTES
  6
CONTINUOUS
 62
     3
 10
35.563280063598881
 20
-0.1056107572379332
 30
0.0
 11
35.747518281498898
 21
-0.1023949021229349
 31
0.0
  0
LINE
  5
590
  8
TITLEBLOCK_NOTES
  6
CONTINUOUS
 62
     3
 10
35.538777563598892
 20
0.5703867550620672
 30
0.0
 11
35.864409368943889
 21
-0.3630912110729412
 31
0.0
  0
LINE
  5
591
  8
TITLEBLOCK_NOTES
  6
CONTINUOUS
 62
     3
 10
35.847006223293903
 20
-0.3875937110729346
 30
0.0
 11
35.563280063598881
 21
0.4257547211970625
 31
0.0
  0
LINE
  5
592
  8
TITLEBLOCK_NOTES
  6
CONTINUOUS
 62
     3
 10
35.514275063598902
 20
0.7150187889270792
 30
0.0
 11
35.88181256359892
 21
-0.3385887110729442
 31
0.0
  0
LINE
  5
593
  8
TITLEBLOCK_NOTES
  6
CONTINUOUS
 62
     3
 10
34.556458813218939
 20
-0.4368646612079311
 30
0.0
 11
37.858513674213931
 21
-0.379227087422926
 31
0.0
  0
LINE
  5
594
  8
TITLEBLOCK_NOTES
  6
CONTINUOUS
 62
     3
 10
34.556458813218939
 20
-0.4172596719029258
 30
0.0
 11
36.256020722208902
 21
-0.3875937110729346
 31
0.0
  0
LINE
  5
595
  8
TITLEBLOCK_NOTES
  6
CONTINUOUS
 62
     3
 10
34.556458813218939
 20
-0.4956796291229361
 30
0.0
 11
40.748696260713892
 21
-0.3875937110729346
 31
0.0
  0
LINE
  5
596
  8
TITLEBLOCK_NOTES
  6
CONTINUOUS
 62
     3
 10
34.556458813218939
 20
-0.4760746398179451
 30
0.0
 11
39.625527388338952
 21
-0.3875937110729346
 31
0.0
  0
LINE
  5
597
  8
TITLEBLOCK_NOTES
  6
CONTINUOUS
 62
     3
 10
34.556458813218939
 20
-0.4564696505129221
 30
0.0
 11
39.067137563598891
 21
-0.377735473232935
 31
0.0
  0
TEXT
  5
598
  8
TITLEBLOCK_NOTES
  6
CONTINUOUS
 62
     3
 10
34.60968059545889
 20
-1.5293357724779171
 30
0.0
 40
0.3430350000000001
  1
The
 41
0.8
 51
11.0
  0
LINE
  5
599
  8
TITLEBLOCK_NOTES
  6
CONTINUOUS
 62
     3
 10
35.122235063598922
 20
-0.3630912110729412
 30
0.0
 11
35.122235063598922
 21
1.842133788927063
 31
0.0
  0
LINE
  5
59A
  8
TITLEBLOCK_NOTES
  6
CONTINUOUS
 62
     3
 10
35.146737563598933
 20
-0.3385887110729442
 30
0.0
 11
35.146737563598933
 21
1.817631288927066
 31
0.0
  0
LINE
  5
59B
  8
TITLEBLOCK_NOTES
  6
CONTINUOUS
 62
     3
 10
35.097732563598882
 20
-0.3875937110729346
 30
0.0
 11
35.097732563598882
 21
1.8666362889270709
 31
0.0
  0
LINE
  5
59C
  8
TITLEBLOCK_NOTES
  6
CONTINUOUS
 62
     3
 10
35.538777563598892
 20
0.5703867550620672
 30
0.0
 11
35.538777563598892
 21
-0.3630912110729412
 31
0.0
  0
LINE
  5
59D
  8
TITLEBLOCK_NOTES
  6
CONTINUOUS
 62
     3
 10
35.563280063598881
 20
-0.3875937110729346
 30
0.0
 11
35.563280063598881
 21
0.4257547211970625
 31
0.0
  0
LINE
  5
59E
  8
TITLEBLOCK_NOTES
  6
CONTINUOUS
 62
     3
 10
35.514275063598902
 20
-0.3385887110729442
 30
0.0
 11
35.514275063598902
 21
0.7150187889270792
 31
0.0
  0
LINE
  5
59F
  8
TITLEBLOCK_NOTES
  6
CONTINUOUS
 62
     3
 10
34.556458813218939
 20
1.2224327305770719
 30
0.0
 11
35.097732563598882
 21
1.2224327305770719
 31
0.0
  0
LINE
  5
5A0
  8
TITLEBLOCK_NOTES
  6
CONTINUOUS
 62
     3
 10
34.556458813218939
 20
1.1994736920570821
 30
0.0
 11
35.097732563598882
 21
1.1994736920570821
 31
0.0
  0
LINE
  5
5A1
  8
TITLEBLOCK_NOTES
  6
CONTINUOUS
 62
     3
 10
34.556458813218939
 20
1.1749711920570609
 30
0.0
 11
35.097732563598882
 21
1.1749711920570609
 31
0.0
  0
LINE
  5
5A2
  8
TITLEBLOCK_NOTES
  6
CONTINUOUS
 62
     3
 10
34.556458813218939
 20
1.2469352305770789
 30
0.0
 11
35.097732563598882
 21
1.2469352305770789
 31
0.0
  0
LINE
  5
5A3
  8
TITLEBLOCK_NOTES
  6
CONTINUOUS
 62
     3
 10
34.556458813218939
 20
1.585339846137078
 30
0.0
 11
35.097732563598882
 21
1.585339846137078
 31
0.0
  0
LINE
  5
5A4
  8
TITLEBLOCK_NOTES
  6
CONTINUOUS
 62
     3
 10
34.556458813218939
 20
1.6098423461370639
 30
0.0
 11
35.097732563598882
 21
1.6098423461370639
 31
0.0
  0
LINE
  5
5A5
  8
TITLEBLOCK_NOTES
  6
CONTINUOUS
 62
     3
 10
34.556458813218939
 20
1.6343448461370811
 30
0.0
 11
35.097732563598882
 21
1.6343448461370811
 31
0.0
  0
LINE
  5
5A6
  8
TITLEBLOCK_NOTES
  6
CONTINUOUS
 62
     3
 10
34.556458813218939
 20
1.5608373461370839
 30
0.0
 11
35.097732563598882
 21
1.5608373461370839
 31
0.0
  0
LINE
  5
5A7
  8
TITLEBLOCK_NOTES
  6
CONTINUOUS
 62
     3
 10
34.556458813218939
 20
1.2714377305770621
 30
0.0
 11
35.097732563598882
 21
1.2714377305770621
 31
0.0
  0
LINE
  5
5A8
  8
TITLEBLOCK_NOTES
  6
CONTINUOUS
 62
     3
 10
35.563280063598881
 20
0.2864889308520695
 30
0.0
 11
35.611567091343922
 21
0.2873318168520633
 31
0.0
  0
LINE
  5
5A9
  8
TITLEBLOCK_NOTES
  6
CONTINUOUS
 62
     3
 10
35.563280063598881
 20
0.3060939201570783
 30
0.0
 11
35.604769558788938
 21
0.3068181160470793
 31
0.0
  0
LINE
  5
5AA
  8
TITLEBLOCK_NOTES
  6
CONTINUOUS
 62
     3
 10
35.563280063598881
 20
0.3256989094620692
 30
0.0
 11
35.597971977228923
 21
0.326304464247066
 31
0.0
  0
LINE
  5
5AB
  8
TITLEBLOCK_NOTES
  6
CONTINUOUS
 62
     3
 10
35.563280063598881
 20
0.3453038987670638
 30
0.0
 11
35.591174444673953
 21
0.3457908124470705
 31
0.0
  0
LINE
  5
5AC
  8
TITLEBLOCK_NOTES
  6
CONTINUOUS
 62
     3
 10
35.563280063598881
 20
0.3649088880720726
 30
0.0
 11
35.584376863113953
 21
0.3652771116420688
 31
0.0
  0
LINE
  5
5AD
  8
TITLEBLOCK_NOTES
  6
CONTINUOUS
 62
     3
 10
35.563280063598881
 20
0.3845138773770635
 30
0.0
 11
35.57757933055894
 21
0.3847634598420733
 31
0.0
  0
LINE
  5
5AE
  8
TITLEBLOCK_NOTES
  6
CONTINUOUS
 62
     3
 10
35.563280063598881
 20
0.4041188666820795
 30
0.0
 11
35.570781748998918
 21
0.4042498080420637
 31
0.0
  0
LINE
  5
5AF
  8
TITLEBLOCK_NOTES
  6
CONTINUOUS
 62
     3
 10
35.563280063598881
 20
0.4237238559870776
 30
0.0
 11
35.563984216443963
 21
0.4237361562420788
 31
0.0
  0
LINE
  5
5B0
  8
TITLEBLOCK_NOTES
  6
CONTINUOUS
 62
     3
 10
34.913580202458917
 20
0.3550056636420678
 30
0.0
 11
35.097732563598882
 21
0.3582200486070768
 31
0.0
  0
LINE
  5
5B1
  8
TITLEBLOCK_NOTES
  6
CONTINUOUS
 62
     3
 10
34.556458813218939
 20
0.3683770699320661
 30
0.0
 11
35.097732563598882
 21
0.377825037912082
 31
0.0
  0
LINE
  5
5B2
  8
TITLEBLOCK_NOTES
  6
CONTINUOUS
 62
     3
 10
34.556458813218939
 20
0.3550056636420678
 30
0.0
 11
35.097732563598882
 21
0.3550056636420678
 31
0.0
  0
LINE
  5
5B3
  8
TITLEBLOCK_NOTES
  6
CONTINUOUS
 62
     3
 10
34.556458813218939
 20
0.8432448308820744
 30
0.0
 11
35.097732563598882
 21
0.8526927988620798
 31
0.0
  0
LINE
  5
5B4
  8
TITLEBLOCK_NOTES
  6
CONTINUOUS
 62
     3
 10
34.556458813218939
 20
0.8628498201870725
 30
0.0
 11
35.097732563598882
 21
0.8722977881670742
 31
0.0
  0
LINE
  5
5B5
  8
TITLEBLOCK_NOTES
  6
CONTINUOUS
 62
     3
 10
34.556458813218939
 20
0.8824548094920743
 30
0.0
 11
35.097732563598882
 21
0.8919027774720651
 31
0.0
  0
LINE
  5
5B6
  8
TITLEBLOCK_NOTES
  6
CONTINUOUS
 62
     3
 10
34.556458813218939
 20
0.9020597987970687
 30
0.0
 11
35.097732563598882
 21
0.9115077667770704
 31
0.0
  0
LINE
  5
5B7
  8
TITLEBLOCK_NOTES
  6
CONTINUOUS
 62
     3
 10
34.556458813218939
 20
0.9216647881020597
 30
0.0
 11
35.097732563598882
 21
0.9311127560820791
 31
0.0
  0
LINE
  5
5B8
  8
TITLEBLOCK_NOTES
  6
CONTINUOUS
 62
     3
 10
34.556458813218939
 20
0.9412697774070686
 30
0.0
 11
35.097732563598882
 21
0.9507177453870706
 31
0.0
  0
LINE
  5
5B9
  8
TITLEBLOCK_NOTES
  6
CONTINUOUS
 62
     3
 10
34.556458813218939
 20
0.9608747667120631
 30
0.0
 11
35.097732563598882
 21
0.9703227346920647
 31
0.0
  0
LINE
  5
5BA
  8
TITLEBLOCK_NOTES
  6
CONTINUOUS
 62
     3
 10
34.556458813218939
 20
0.9804797560170824
 30
0.0
 11
35.097732563598882
 21
0.9899277239970736
 31
0.0
  0
LINE
  5
5BB
  8
TITLEBLOCK_NOTES
  6
CONTINUOUS
 62
     3
 10
34.556458813218939
 20
1.000084745322072
 30
0.0
 11
35.097732563598882
 21
1.009532713302064
 31
0.0
  0
LINE
  5
5BC
  8
TITLEBLOCK_NOTES
  6
CONTINUOUS
 62
     3
 10
34.556458813218939
 20
1.0196897346270679
 30
0.0
 11
35.097732563598882
 21
1.0291377026070869
 31
0.0
  0
LINE
  5
5BD
  8
TITLEBLOCK_NOTES
  6
CONTINUOUS
 62
     3
 10
34.556458813218939
 20
1.039294723932076
 30
0.0
 11
35.097732563598882
 21
1.0487426919120639
 31
0.0
  0
LINE
  5
5BE
  8
TITLEBLOCK_NOTES
  6
CONTINUOUS
 62
     3
 10
34.556458813218939
 20
1.0588997132370661
 30
0.0
 11
35.097732563598882
 21
1.068347681217054
 31
0.0
  0
LINE
  5
5BF
  8
TITLEBLOCK_NOTES
  6
CONTINUOUS
 62
     3
 10
34.556458813218939
 20
0.3879820592370713
 30
0.0
 11
35.097732563598882
 21
0.397430027217073
 31
0.0
  0
LINE
  5
5C0
  8
TITLEBLOCK_NOTES
  6
CONTINUOUS
 62
     3
 10
34.556458813218939
 20
0.407587048542066
 30
0.0
 11
35.097732563598882
 21
0.4170350165220677
 31
0.0
  0
LINE
  5
5C1
  8
TITLEBLOCK_NOTES
  6
CONTINUOUS
 62
     3
 10
34.556458813218939
 20
0.4271920378470712
 30
0.0
 11
35.097732563598882
 21
0.4366400058270763
 31
0.0
  0
LINE
  5
5C2
  8
TITLEBLOCK_NOTES
  6
CONTINUOUS
 62
     3
 10
34.556458813218939
 20
0.4467970271520656
 30
0.0
 11
35.097732563598882
 21
0.4562449951320673
 31
0.0
  0
LINE
  5
5C3
  8
TITLEBLOCK_NOTES
  6
CONTINUOUS
 62
     3
 10
34.556458813218939
 20
0.4664020164570566
 30
0.0
 11
35.097732563598882
 21
0.4758499844370725
 31
0.0
  0
LINE
  5
5C4
  8
TITLEBLOCK_NOTES
  6
CONTINUOUS
 62
     3
 10
34.556458813218939
 20
0.4860070057620797
 30
0.0
 11
35.097732563598882
 21
0.4954549737420706
 31
0.0
  0
LINE
  5
5C5
  8
TITLEBLOCK_NOTES
  6
CONTINUOUS
 62
     3
 10
34.556458813218939
 20
0.5056119950670706
 30
0.0
 11
35.097732563598882
 21
0.5150599630470616
 31
0.0
  0
LINE
  5
5C6
  8
TITLEBLOCK_NOTES
  6
CONTINUOUS
 62
     3
 10
34.556458813218939
 20
0.5252169353670732
 30
0.0
 11
35.097732563598882
 21
0.5346649033470641
 31
0.0
  0
LINE
  5
5C7
  8
TITLEBLOCK_NOTES
  6
CONTINUOUS
 62
     3
 10
34.556458813218939
 20
0.5448219246720643
 30
0.0
 11
35.097732563598882
 21
0.5542698926520835
 31
0.0
  0
LINE
  5
5C8
  8
TITLEBLOCK_NOTES
  6
CONTINUOUS
 62
     3
 10
34.556458813218939
 20
0.5644269139770728
 30
0.0
 11
35.097732563598882
 21
0.5738748819570745
 31
0.0
  0
LINE
  5
5C9
  8
TITLEBLOCK_NOTES
  6
CONTINUOUS
 62
     3
 10
34.556458813218939
 20
0.5840319032820676
 30
0.0
 11
35.097732563598882
 21
0.5934798712620693
 31
0.0
  0
LINE
  5
5CA
  8
TITLEBLOCK_NOTES
  6
CONTINUOUS
 62
     3
 10
34.556458813218939
 20
0.6036368925870727
 30
0.0
 11
35.097732563598882
 21
0.6130848605670778
 31
0.0
  0
LINE
  5
5CB
  8
TITLEBLOCK_NOTES
  6
CONTINUOUS
 62
     3
 10
34.556458813218939
 20
0.6232418818920671
 30
0.0
 11
35.097732563598882
 21
0.6326898498720688
 31
0.0
  0
LINE
  5
5CC
  8
TITLEBLOCK_NOTES
  6
CONTINUOUS
 62
     3
 10
34.556458813218939
 20
0.6428468711970619
 30
0.0
 11
35.097732563598882
 21
0.652294839177074
 31
0.0
  0
LINE
  5
5CD
  8
TITLEBLOCK_NOTES
  6
CONTINUOUS
 62
     3
 10
34.556458813218939
 20
0.6624518605020633
 30
0.0
 11
35.097732563598882
 21
0.6718998284820688
 31
0.0
  0
LINE
  5
5CE
  8
TITLEBLOCK_NOTES
  6
CONTINUOUS
 62
     3
 10
34.556458813218939
 20
0.6820568498070581
 30
0.0
 11
35.097732563598882
 21
0.6915048177870597
 31
0.0
  0
LINE
  5
5CF
  8
TITLEBLOCK_NOTES
  6
CONTINUOUS
 62
     3
 10
34.556458813218939
 20
0.7016618391120773
 30
0.0
 11
35.097732563598882
 21
0.7111098070920683
 31
0.0
  0
LINE
  5
5D0
  8
TITLEBLOCK_NOTES
  6
CONTINUOUS
 62
     3
 10
34.556458813218939
 20
0.7212668284170718
 30
0.0
 11
35.097732563598882
 21
0.7307147963970631
 31
0.0
  0
LINE
  5
5D1
  8
TITLEBLOCK_NOTES
  6
CONTINUOUS
 62
     3
 10
34.556458813218939
 20
1.078504653537069
 30
0.0
 11
35.097732563598882
 21
1.078504653537069
 31
0.0
  0
LINE
  5
5D2
  8
TITLEBLOCK_NOTES
  6
CONTINUOUS
 62
     3
 10
34.556458813218939
 20
0.8373383562420675
 30
0.0
 11
35.097732563598882
 21
0.8373383562420675
 31
0.0
  0
LINE
  5
5D3
  8
TITLEBLOCK_NOTES
  6
CONTINUOUS
 62
     3
 10
34.556458813218939
 20
0.7408718177220628
 30
0.0
 11
35.097732563598882
 21
0.7408718177220628
 31
0.0
  0
LINE
  5
5D4
  8
TITLEBLOCK_NOTES
  6
CONTINUOUS
 62
     3
 10
35.563280063598881
 20
0.110044076112068
 30
0.0
 11
35.672745129363939
 21
0.1119547810620602
 31
0.0
  0
LINE
  5
5D5
  8
TITLEBLOCK_NOTES
  6
CONTINUOUS
 62
     3
 10
35.563280063598881
 20
0.1296490654170768
 30
0.0
 11
35.665947547803931
 21
0.1314411292620754
 31
0.0
  0
LINE
  5
5D6
  8
TITLEBLOCK_NOTES
  6
CONTINUOUS
 62
     3
 10
35.563280063598881
 20
0.1492540547220678
 30
0.0
 11
35.659150015248962
 21
0.1509274774620657
 31
0.0
  0
LINE
  5
5D7
  8
TITLEBLOCK_NOTES
  6
CONTINUOUS
 62
     3
 10
35.563280063598881
 20
0.1688590440270623
 30
0.0
 11
35.652352433688961
 21
0.1704137766570781
 31
0.0
  0
LINE
  5
5D8
  8
TITLEBLOCK_NOTES
  6
CONTINUOUS
 62
     3
 10
35.563280063598881
 20
0.1884640333320711
 30
0.0
 11
35.645554901133941
 21
0.1899001248570684
 31
0.0
  0
LINE
  5
5D9
  8
TITLEBLOCK_NOTES
  6
CONTINUOUS
 62
     3
 10
35.563280063598881
 20
0.2080690226370621
 30
0.0
 11
35.638757319573941
 21
0.2093864730570694
 31
0.0
  0
LINE
  5
5DA
  8
TITLEBLOCK_NOTES
  6
CONTINUOUS
 62
     3
 10
35.563280063598881
 20
0.2276740119420815
 30
0.0
 11
35.631959787018943
 21
0.2288728212570596
 31
0.0
  0
LINE
  5
5DB
  8
TITLEBLOCK_NOTES
  6
CONTINUOUS
 62
     3
 10
35.563280063598881
 20
0.2472789522420733
 30
0.0
 11
35.625162205458942
 21
0.2483591204520721
 31
0.0
  0
LINE
  5
5DC
  8
TITLEBLOCK_NOTES
  6
CONTINUOUS
 62
     3
 10
35.563280063598881
 20
0.2668839415470749
 30
0.0
 11
35.618364672903972
 21
0.267845468652073
 31
0.0
  0
LINE
  5
5DD
  8
TITLEBLOCK_NOTES
  6
CONTINUOUS
 62
     3
 10
35.122235063598922
 20
-0.3630912110729412
 30
0.0
 11
35.538777563598892
 21
-0.3630912110729412
 31
0.0
  0
LINE
  5
5DE
  8
TITLEBLOCK_NOTES
  6
CONTINUOUS
 62
     3
 10
35.146737563598933
 20
-0.3385887110729442
 30
0.0
 11
35.514275063598902
 21
-0.3385887110729442
 31
0.0
  0
LINE
  5
5DF
  8
TITLEBLOCK_NOTES
  6
CONTINUOUS
 62
     3
 10
35.097732563598882
 20
-0.3875937110729346
 30
0.0
 11
35.563280063598881
 21
-0.3875937110729346
 31
0.0
  0
LINE
  5
5E0
  8
TITLEBLOCK_NOTES
  6
CONTINUOUS
 62
     3
 10
34.556458813218939
 20
-0.3780497422979288
 30
0.0
 11
35.097732563598882
 21
-0.3686017743179271
 31
0.0
  0
LINE
  5
5E1
  8
TITLEBLOCK_NOTES
  6
CONTINUOUS
 62
     3
 10
34.556458813218939
 20
-0.3584447529929342
 30
0.0
 11
35.097732563598882
 21
-0.3489967850129325
 31
0.0
  0
LINE
  5
5E2
  8
TITLEBLOCK_NOTES
  6
CONTINUOUS
 62
     3
 10
34.556458813218939
 20
-0.3388397636879326
 30
0.0
 11
35.097732563598882
 21
-0.3293917957079273
 31
0.0
  0
LINE
  5
5E3
  8
TITLEBLOCK_NOTES
  6
CONTINUOUS
 62
     3
 10
34.556458813218939
 20
-0.3192347743829345
 30
0.0
 11
35.097732563598882
 21
-0.3097868064029328
 31
0.0
  0
LINE
  5
5E4
  8
TITLEBLOCK_NOTES
  6
CONTINUOUS
 62
     3
 10
34.556458813218939
 20
-0.2996297850779399
 30
0.0
 11
35.097732563598882
 21
-0.2901818170979275
 31
0.0
  0
LINE
  5
5E5
  8
TITLEBLOCK_NOTES
  6
CONTINUOUS
 62
     3
 10
34.556458813218939
 20
-0.280024795772924
 30
0.0
 11
35.097732563598882
 21
-0.270576827792933
 31
0.0
  0
LINE
  5
5E6
  8
TITLEBLOCK_NOTES
  6
CONTINUOUS
 62
     3
 10
34.556458813218939
 20
-0.2604198064679295
 30
0.0
 11
35.097732563598882
 21
-0.250971838487942
 31
0.0
  0
LINE
  5
5E7
  8
TITLEBLOCK_NOTES
  6
CONTINUOUS
 62
     3
 10
34.556458813218939
 20
-0.2408148171629243
 30
0.0
 11
35.097732563598882
 21
-0.2313668491829226
 31
0.0
  0
LINE
  5
5E8
  8
TITLEBLOCK_NOTES
  6
CONTINUOUS
 62
     3
 10
34.556458813218939
 20
-0.2212098278579297
 30
0.0
 11
35.097732563598882
 21
-0.2117618598779387
 31
0.0
  0
LINE
  5
5E9
  8
TITLEBLOCK_NOTES
  6
CONTINUOUS
 62
     3
 10
34.556458813218939
 20
-0.2016048385529388
 30
0.0
 11
35.097732563598882
 21
-0.1921568705729193
 31
0.0
  0
LINE
  5
5EA
  8
TITLEBLOCK_NOTES
  6
CONTINUOUS
 62
     3
 10
34.556458813218939
 20
-0.18199984924793
 30
0.0
 11
35.097732563598882
 21
-0.1725518812679283
 31
0.0
  0
LINE
  5
5EB
  8
TITLEBLOCK_NOTES
  6
CONTINUOUS
 62
     3
 10
34.556458813218939
 20
-0.1623948599429248
 30
0.0
 11
35.097732563598882
 21
-0.1529468919629338
 31
0.0
  0
LINE
  5
5EC
  8
TITLEBLOCK_NOTES
  6
CONTINUOUS
 62
     3
 10
34.556458813218939
 20
-0.1427898706379338
 30
0.0
 11
35.097732563598882
 21
-0.133341902657925
 31
0.0
  0
LINE
  5
5ED
  8
TITLEBLOCK_NOTES
  6
CONTINUOUS
 62
     3
 10
34.556458813218939
 20
-0.1231848813329357
 30
0.0
 11
35.097732563598882
 21
-0.113736913352934
 31
0.0
  0
LINE
  5
5EE
  8
TITLEBLOCK_NOTES
  6
CONTINUOUS
 62
     3
 10
34.556458813218939
 20
-0.1035799410329226
 30
0.0
 11
35.097732563598882
 21
-0.0941319730529315
 31
0.0
  0
LINE
  5
5EF
  8
TITLEBLOCK_NOTES
  6
CONTINUOUS
 62
     3
 10
34.556458813218939
 20
-0.0839749517279422
 30
0.0
 11
35.097732563598882
 21
-0.0745269837479405
 31
0.0
  0
LINE
  5
5F0
  8
TITLEBLOCK_NOTES
  6
CONTINUOUS
 62
     3
 10
34.556458813218939
 20
-0.0643699624229228
 30
0.0
 11
35.097732563598882
 21
-0.0549219944429318
 31
0.0
  0
LINE
  5
5F1
  8
TITLEBLOCK_NOTES
  6
CONTINUOUS
 62
     3
 10
34.556458813218939
 20
-0.0447649731179283
 30
0.0
 11
35.097732563598882
 21
-0.0353170051379372
 31
0.0
  0
LINE
  5
5F2
  8
TITLEBLOCK_NOTES
  6
CONTINUOUS
 62
     3
 10
34.556458813218939
 20
-0.0251599838129373
 30
0.0
 11
35.097732563598882
 21
-0.0157120158329178
 31
0.0
  0
LINE
  5
5F3
  8
TITLEBLOCK_NOTES
  6
CONTINUOUS
 62
     3
 10
34.556458813218939
 20
-0.0055549945079285
 30
0.0
 11
35.097732563598882
 21
0.0038929734720732
 31
0.0
  0
LINE
  5
5F4
  8
TITLEBLOCK_NOTES
  6
CONTINUOUS
 62
     3
 10
34.556458813218939
 20
0.0140499947970767
 30
0.0
 11
35.097732563598882
 21
0.0234979627770677
 31
0.0
  0
LINE
  5
5F5
  8
TITLEBLOCK_NOTES
  6
CONTINUOUS
 62
     3
 10
34.556458813218939
 20
0.0336549841020713
 30
0.0
 11
35.097732563598882
 21
0.0431029520820729
 31
0.0
  0
LINE
  5
5F6
  8
TITLEBLOCK_NOTES
  6
CONTINUOUS
 62
     3
 10
34.556458813218939
 20
0.0532599734070622
 30
0.0
 11
35.097732563598882
 21
0.0627079413870675
 31
0.0
  0
LINE
  5
5F7
  8
TITLEBLOCK_NOTES
  6
CONTINUOUS
 62
     3
 10
34.556458813218939
 20
0.072864962712071
 30
0.0
 11
35.097732563598882
 21
0.0823129306920727
 31
0.0
  0
LINE
  5
5F8
  8
TITLEBLOCK_NOTES
  6
CONTINUOUS
 62
     3
 10
34.556458813218939
 20
0.092469952017062
 30
0.0
 11
35.097732563598882
 21
0.1019179199970672
 31
0.0
  0
LINE
  5
5F9
  8
TITLEBLOCK_NOTES
  6
CONTINUOUS
 62
     3
 10
34.556458813218939
 20
0.1120749413220849
 30
0.0
 11
35.097732563598882
 21
0.1215229093020582
 31
0.0
  0
LINE
  5
5FA
  8
TITLEBLOCK_NOTES
  6
CONTINUOUS
 62
     3
 10
34.556458813218939
 20
0.1316799306270759
 30
0.0
 11
35.097732563598882
 21
0.141127898607067
 31
0.0
  0
LINE
  5
5FB
  8
TITLEBLOCK_NOTES
  6
CONTINUOUS
 62
     3
 10
34.556458813218939
 20
0.1512849199320705
 30
0.0
 11
35.097732563598882
 21
0.1607328879120864
 31
0.0
  0
LINE
  5
5FC
  8
TITLEBLOCK_NOTES
  6
CONTINUOUS
 62
     3
 10
34.556458813218939
 20
0.1708899092370792
 30
0.0
 11
35.097732563598882
 21
0.1803378772170809
 31
0.0
  0
LINE
  5
5FD
  8
TITLEBLOCK_NOTES
  6
CONTINUOUS
 62
     3
 10
34.556458813218939
 20
0.1904948495370782
 30
0.0
 11
35.097732563598882
 21
0.1999428175170692
 31
0.0
  0
LINE
  5
5FE
  8
TITLEBLOCK_NOTES
  6
CONTINUOUS
 62
     3
 10
34.556458813218939
 20
0.2100998388420727
 30
0.0
 11
35.097732563598882
 21
0.2195478068220744
 31
0.0
  0
LINE
  5
5FF
  8
TITLEBLOCK_NOTES
  6
CONTINUOUS
 62
     3
 10
34.556458813218939
 20
0.2297048281470637
 30
0.0
 11
35.097732563598882
 21
0.2391527961270654
 31
0.0
  0
LINE
  5
600
  8
TITLEBLOCK_NOTES
  6
CONTINUOUS
 62
     3
 10
34.556458813218939
 20
0.2493098174520725
 30
0.0
 11
35.085204827388921
 21
0.2585391251220805
 31
0.0
  0
LINE
  5
601
  8
TITLEBLOCK_NOTES
  6
CONTINUOUS
 62
     3
 10
34.556458813218939
 20
0.2585391251220805
 30
0.0
 11
35.097732563598882
 21
0.2585391251220805
 31
0.0
  0
LINE
  5
602
  8
TITLEBLOCK_NOTES
  6
CONTINUOUS
 62
     3
 10
34.556458813218939
 20
-0.3976546825979312
 30
0.0
 11
35.132851849833912
 21
-0.3875937110729346
 31
0.0
  0
TEXT
  5
603
  8
TITLEBLOCK_NOTES
  6
CONTINUOUS
 62
     3
 10
37.880282724318903
 20
-1.5293357724779171
 30
0.0
 40
0.3430350000000001
  1
 AIR
 41
1.098901099999998
 51
11.0
  0
TEXT
  5
604
  8
TITLEBLOCK_NOTES
  6
CONTINUOUS
 62
     3
 10
36.995507887383923
 20
-1.5293357724779171
 30
0.0
 40
0.3430350000000001
  1
 of
 41
1.098901099999998
 51
11.0
  0
TEXT
  5
605
  8
TITLEBLOCK_NOTES
  6
CONTINUOUS
 62
     3
 10
35.515070463753879
 20
-1.52933577247793
 30
0.0
 40
0.3430350000000001
  1
 SPEED
 41
0.8
 51
11.0
  0
ARC
  5
606
  8
TITLEBLOCK_NOTES
  6
CONTINUOUS
 62
     3
 10
38.209550063598897
 20
0.2739737889270657
 30
0.0
 40
0.2205225
 50
270.0000000000008
 51
359.99999532000078
  0
LINE
  5
607
  8
TITLEBLOCK_NOTES
  6
CONTINUOUS
 62
     3
 10
38.28308686858891
 20
0.3550056636420678
 30
0.0
 11
38.405570063598923
 21
0.3571436047770788
 31
0.0
  0
ARC
  5
608
  8
TITLEBLOCK_NOTES
  6
CONTINUOUS
 62
     3
 10
38.209550063598897
 20
0.2739737889270657
 30
0.0
 40
0.1960200000000001
 50
270.0000000000008
 51
0.0000000000008015
  0
ARC
  5
609
  8
TITLEBLOCK_NOTES
  6
CONTINUOUS
 62
     3
 10
38.209550063598897
 20
0.2739737889270657
 30
0.0
 40
0.245025
 50
270.0000000000008
 51
359.99999532000078
  0
LINE
  5
60A
  8
TITLEBLOCK_NOTES
  6
CONTINUOUS
 62
     3
 10
38.405570063598923
 20
1.197930230577074
 30
0.0
 11
37.76850506359888
 21
1.197930230577074
 31
0.0
  0
LINE
  5
60B
  8
TITLEBLOCK_NOTES
  6
CONTINUOUS
 62
     3
 10
38.405570063598923
 20
1.2224327305770719
 30
0.0
 11
37.76850506359888
 21
1.2224327305770719
 31
0.0
  0
LINE
  5
60C
  8
TITLEBLOCK_NOTES
  6
CONTINUOUS
 62
     3
 10
38.405570063598923
 20
1.2469352305770789
 30
0.0
 11
37.76850506359888
 21
1.2469352305770789
 31
0.0
  0
LINE
  5
60D
  8
TITLEBLOCK_NOTES
  6
CONTINUOUS
 62
     3
 10
38.405570063598923
 20
1.585339846137066
 30
0.0
 11
37.76850506359888
 21
1.585339846137066
 31
0.0
  0
LINE
  5
60E
  8
TITLEBLOCK_NOTES
  6
CONTINUOUS
 62
     3
 10
38.405570063598923
 20
1.6098423461370639
 30
0.0
 11
37.76850506359888
 21
1.6098423461370639
 31
0.0
  0
LINE
  5
60F
  8
TITLEBLOCK_NOTES
  6
CONTINUOUS
 62
     3
 10
37.867899650868871
 20
0.1034235496170659
 30
0.0
 11
38.3189107977189
 21
0.1112960068470628
 31
0.0
  0
LINE
  5
610
  8
TITLEBLOCK_NOTES
  6
CONTINUOUS
 62
     3
 10
37.840056480018887
 20
0.1225425563370805
 30
0.0
 11
38.344008904488902
 21
0.1313390518470712
 31
0.0
  0
LINE
  5
611
  8
TITLEBLOCK_NOTES
  6
CONTINUOUS
 62
     3
 10
37.819776201813887
 20
0.1417935335220761
 30
0.0
 11
38.362410968058953
 21
0.1512652689270766
 31
0.0
  0
LINE
  5
612
  8
TITLEBLOCK_NOTES
  6
CONTINUOUS
 62
     3
 10
37.804245488208927
 20
0.1611274271670595
 30
0.0
 11
38.37641478387394
 21
0.171114695172065
 31
0.0
  0
LINE
  5
613
  8
TITLEBLOCK_NOTES
  6
CONTINUOUS
 62
     3
 10
37.792215201753962
 20
0.1805224300470769
 30
0.0
 11
38.387098951983901
 21
0.1909061485020835
 31
0.0
  0
LINE
  5
614
  8
TITLEBLOCK_NOTES
  6
CONTINUOUS
 62
     3
 10
37.783012503798908
 20
0.1999667809620575
 30
0.0
 11
38.395060010253907
 21
0.2106501159870717
 31
0.0
  0
LINE
  5
615
  8
TITLEBLOCK_NOTES
  6
CONTINUOUS
 62
     3
 10
37.776239669763903
 20
0.2194535212020696
 30
0.0
 11
38.400654862098961
 21
0.2303527232520679
 31
0.0
  0
LINE
  5
616
  8
TITLEBLOCK_NOTES
  6
CONTINUOUS
 62
     3
 10
37.771654173903897
 20
0.2389784853420735
 30
0.0
 11
38.40410069767897
 21
0.2500178906970802
 31
0.0
  0
LINE
  5
617
  8
TITLEBLOCK_NOTES
  6
CONTINUOUS
 62
     3
 10
37.76850506359888
 20
0.8404963854570546
 30
0.0
 11
38.405570063598923
 21
0.8516163550320817
 31
0.0
  0
LINE
  5
618
  8
TITLEBLOCK_NOTES
  6
CONTINUOUS
 62
     3
 10
37.76850506359888
 20
0.8601013257570713
 30
0.0
 11
38.405570063598923
 21
0.8712213443370764
 31
0.0
  0
LINE
  5
619
  8
TITLEBLOCK_NOTES
  6
CONTINUOUS
 62
     3
 10
37.76850506359888
 20
0.8797063150620765
 30
0.0
 11
38.405570063598923
 21
0.8908263336420708
 31
0.0
  0
LINE
  5
61A
  8
TITLEBLOCK_NOTES
  6
CONTINUOUS
 62
     3
 10
37.76850506359888
 20
0.8993113043670709
 30
0.0
 11
38.405570063598923
 21
0.9104313229470726
 31
0.0
  0
LINE
  5
61B
  8
TITLEBLOCK_NOTES
  6
CONTINUOUS
 62
     3
 10
37.76850506359888
 20
0.9189162936720656
 30
0.0
 11
38.405570063598923
 21
0.9300363122520671
 31
0.0
  0
LINE
  5
61C
  8
TITLEBLOCK_NOTES
  6
CONTINUOUS
 62
     3
 10
37.76850506359888
 20
0.9385212829770708
 30
0.0
 11
38.405570063598923
 21
0.9496413015570761
 31
0.0
  0
LINE
  5
61D
  8
TITLEBLOCK_NOTES
  6
CONTINUOUS
 62
     3
 10
37.76850506359888
 20
0.9581262722820618
 30
0.0
 11
38.405570063598923
 21
0.9692462908620667
 31
0.0
  0
LINE
  5
61E
  8
TITLEBLOCK_NOTES
  6
CONTINUOUS
 62
     3
 10
37.76850506359888
 20
0.9777312615870704
 30
0.0
 11
38.405570063598923
 21
0.9888512801670613
 31
0.0
  0
LINE
  5
61F
  8
TITLEBLOCK_NOTES
  6
CONTINUOUS
 62
     3
 10
37.76850506359888
 20
0.9973362508920654
 30
0.0
 11
38.405570063598923
 21
1.0084562694720689
 31
0.0
  0
LINE
  5
620
  8
TITLEBLOCK_NOTES
  6
CONTINUOUS
 62
     3
 10
37.76850506359888
 20
1.016941240197055
 30
0.0
 11
38.405570063598923
 21
1.028061258777061
 31
0.0
  0
LINE
  5
621
  8
TITLEBLOCK_NOTES
  6
CONTINUOUS
 62
     3
 10
37.76850506359888
 20
1.0365462295020751
 30
0.0
 11
38.405570063598923
 21
1.0476662480820791
 31
0.0
  0
LINE
  5
622
  8
TITLEBLOCK_NOTES
  6
CONTINUOUS
 62
     3
 10
37.76850506359888
 20
1.056151218807079
 30
0.0
 11
38.405570063598923
 21
1.0672712373870741
 31
0.0
  0
LINE
  5
623
  8
TITLEBLOCK_NOTES
  6
CONTINUOUS
 62
     3
 10
37.76850506359888
 20
0.3656285755020683
 30
0.0
 11
38.405570063598923
 21
0.3767485940820734
 31
0.0
  0
LINE
  5
624
  8
TITLEBLOCK_NOTES
  6
CONTINUOUS
 62
     3
 10
37.76850506359888
 20
0.3852335648070699
 30
0.0
 11
38.405570063598923
 21
0.3963535833870786
 31
0.0
  0
LINE
  5
625
  8
TITLEBLOCK_NOTES
  6
CONTINUOUS
 62
     3
 10
37.76850506359888
 20
0.4048385541120645
 30
0.0
 11
38.405570063598923
 21
0.4159585726920696
 31
0.0
  0
LINE
  5
626
  8
TITLEBLOCK_NOTES
  6
CONTINUOUS
 62
     3
 10
37.76850506359888
 20
0.4244435434170734
 30
0.0
 11
38.405570063598923
 21
0.4355635619970643
 31
0.0
  0
LINE
  5
627
  8
TITLEBLOCK_NOTES
  6
CONTINUOUS
 62
     3
 10
37.76850506359888
 20
0.4440485327220644
 30
0.0
 11
38.405570063598923
 21
0.4551685513020729
 31
0.0
  0
LINE
  5
628
  8
TITLEBLOCK_NOTES
  6
CONTINUOUS
 62
     3
 10
37.76850506359888
 20
0.4636535220270588
 30
0.0
 11
38.405570063598923
 21
0.4747735406070639
 31
0.0
  0
LINE
  5
629
  8
TITLEBLOCK_NOTES
  6
CONTINUOUS
 62
     3
 10
37.76850506359888
 20
0.4832585113320677
 30
0.0
 11
38.405570063598923
 21
0.4943785299120728
 31
0.0
  0
LINE
  5
62A
  8
TITLEBLOCK_NOTES
  6
CONTINUOUS
 62
     3
 10
37.76850506359888
 20
0.502863500637087
 30
0.0
 11
38.405570063598923
 21
0.5139835192170636
 31
0.0
  0
LINE
  5
62B
  8
TITLEBLOCK_NOTES
  6
CONTINUOUS
 62
     3
 10
37.76850506359888
 20
0.522468489942078
 30
0.0
 11
38.405570063598923
 21
0.5335885085220582
 31
0.0
  0
LINE
  5
62C
  8
TITLEBLOCK_NOTES
  6
CONTINUOUS
 62
     3
 10
37.76850506359888
 20
0.5420734792470725
 30
0.0
 11
38.405570063598923
 21
0.5531934488220716
 31
0.0
  0
LINE
  5
62D
  8
TITLEBLOCK_NOTES
  6
CONTINUOUS
 62
     3
 10
37.76850506359888
 20
0.5616784685520777
 30
0.0
 11
38.405570063598923
 21
0.5727984381270801
 31
0.0
  0
LINE
  5
62E
  8
TITLEBLOCK_NOTES
  6
CONTINUOUS
 62
     3
 10
37.76850506359888
 20
0.581283408852066
 30
0.0
 11
38.405570063598923
 21
0.5924034274320711
 31
0.0
  0
LINE
  5
62F
  8
TITLEBLOCK_NOTES
  6
CONTINUOUS
 62
     3
 10
37.76850506359888
 20
0.600888398157075
 30
0.0
 11
38.405570063598923
 21
0.6120084167370659
 31
0.0
  0
LINE
  5
630
  8
TITLEBLOCK_NOTES
  6
CONTINUOUS
 62
     3
 10
37.76850506359888
 20
0.6204933874620693
 30
0.0
 11
38.405570063598923
 21
0.6316134060420744
 31
0.0
  0
LINE
  5
631
  8
TITLEBLOCK_NOTES
  6
CONTINUOUS
 62
     3
 10
37.76850506359888
 20
0.6400983767670603
 30
0.0
 11
38.405570063598923
 21
0.6512183953470654
 31
0.0
  0
LINE
  5
632
  8
TITLEBLOCK_NOTES
  6
CONTINUOUS
 62
     3
 10
37.76850506359888
 20
0.6597033660720693
 30
0.0
 11
38.405570063598923
 21
0.6708233846520706
 31
0.0
  0
LINE
  5
633
  8
TITLEBLOCK_NOTES
  6
CONTINUOUS
 62
     3
 10
37.76850506359888
 20
0.6793083553770849
 30
0.0
 11
38.405570063598923
 21
0.6904283739570652
 31
0.0
  0
LINE
  5
634
  8
TITLEBLOCK_NOTES
  6
CONTINUOUS
 62
     3
 10
37.76850506359888
 20
0.6989133446820796
 30
0.0
 11
38.405570063598923
 21
0.7100333632620597
 31
0.0
  0
LINE
  5
635
  8
TITLEBLOCK_NOTES
  6
CONTINUOUS
 62
     3
 10
37.76850506359888
 20
0.7185183339870741
 30
0.0
 11
38.405570063598923
 21
0.7296383525670649
 31
0.0
  0
LINE
  5
636
  8
TITLEBLOCK_NOTES
  6
CONTINUOUS
 62
     3
 10
38.405570063598923
 20
1.6343448461370811
 30
0.0
 11
37.76850506359888
 21
1.6343448461370811
 31
0.0
  0
LINE
  5
637
  8
TITLEBLOCK_NOTES
  6
CONTINUOUS
 62
     3
 10
38.405570063598923
 20
1.5608373461370699
 30
0.0
 11
37.76850506359888
 21
1.5608373461370699
 31
0.0
  0
LINE
  5
638
  8
TITLEBLOCK_NOTES
  6
CONTINUOUS
 62
     3
 10
38.405570063598923
 20
1.078504653537069
 30
0.0
 11
37.76850506359888
 21
1.078504653537069
 31
0.0
  0
LINE
  5
639
  8
TITLEBLOCK_NOTES
  6
CONTINUOUS
 62
     3
 10
38.405570063598923
 20
1.2714377305770621
 30
0.0
 11
37.76850506359888
 21
1.2714377305770621
 31
0.0
  0
LINE
  5
63A
  8
TITLEBLOCK_NOTES
  6
CONTINUOUS
 62
     3
 10
38.405570063598923
 20
1.1749711920570609
 30
0.0
 11
37.76850506359888
 21
1.1749711920570609
 31
0.0
  0
LINE
  5
63B
  8
TITLEBLOCK_NOTES
  6
CONTINUOUS
 62
     3
 10
38.405570063598923
 20
0.8373383562420675
 30
0.0
 11
37.76850506359888
 21
0.8373383562420675
 31
0.0
  0
LINE
  5
63C
  8
TITLEBLOCK_NOTES
  6
CONTINUOUS
 62
     3
 10
38.405570063598923
 20
0.7408718177220628
 30
0.0
 11
37.76850506359888
 21
0.7408718177220628
 31
0.0
  0
LINE
  5
63D
  8
TITLEBLOCK_NOTES
  6
CONTINUOUS
 62
     3
 10
38.405570063598923
 20
0.3550056636420678
 30
0.0
 11
37.76850506359888
 21
0.3550056636420678
 31
0.0
  0
LINE
  5
63E
  8
TITLEBLOCK_NOTES
  6
CONTINUOUS
 62
     3
 10
38.404961421498932
 20
0.2585391251220805
 30
0.0
 11
37.769113656693939
 21
0.2585391251220805
 31
0.0
  0
ARC
  5
63F
  8
TITLEBLOCK_NOTES
  6
CONTINUOUS
 62
     3
 10
38.209550063598897
 20
0.2739737889270657
 30
0.0
 40
0.637065
 50
270.0000000000008
 51
0.0000000000008015
  0
ARC
  5
640
  8
TITLEBLOCK_NOTES
  6
CONTINUOUS
 62
     3
 10
38.209550063598897
 20
0.2739737889270657
 30
0.0
 40
0.6615675000000003
 50
270.0000000000008
 51
0.0000000000008015
  0
ARC
  5
641
  8
TITLEBLOCK_NOTES
  6
CONTINUOUS
 62
     3
 10
38.209550063598897
 20
0.2739737889270657
 30
0.0
 40
0.6125625000000002
 50
270.0000000000008
 51
0.0000000000008015
  0
LINE
  5
642
  8
TITLEBLOCK_NOTES
  6
CONTINUOUS
 62
     3
 10
37.744002563598912
 20
0.2739737399220736
 30
0.0
 11
37.744002563598912
 21
1.842133788927063
 31
0.0
  0
LINE
  5
643
  8
TITLEBLOCK_NOTES
  6
CONTINUOUS
 62
     3
 10
37.327460063598927
 20
0.2739737889270657
 30
0.0
 11
37.327460063598927
 21
1.842133788927063
 31
0.0
  0
LINE
  5
644
  8
TITLEBLOCK_NOTES
  6
CONTINUOUS
 62
     3
 10
37.76850506359888
 20
0.2739737399220736
 30
0.0
 11
37.76850506359888
 21
1.8666362889270709
 31
0.0
  0
LINE
  5
645
  8
TITLEBLOCK_NOTES
  6
CONTINUOUS
 62
     3
 10
37.302957563598888
 20
1.8666362889270709
 30
0.0
 11
37.302957563598888
 21
0.2739737889270657
 31
0.0
  0
LINE
  5
646
  8
TITLEBLOCK_NOTES
  6
CONTINUOUS
 62
     3
 10
37.71950006359895
 20
1.817631288927066
 30
0.0
 11
37.71950006359895
 21
0.2739737399220736
 31
0.0
  0
LINE
  5
647
  8
TITLEBLOCK_NOTES
  6
CONTINUOUS
 62
     3
 10
37.351962563598931
 20
1.817631288927066
 30
0.0
 11
37.351962563598931
 21
0.2739737889270657
 31
0.0
  0
LINE
  5
648
  8
TITLEBLOCK_NOTES
  6
CONTINUOUS
 62
     3
 10
36.065581313598891
 20
0.2504805469020752
 30
0.0
 11
35.710295063598892
 21
1.817631288927066
 31
0.0
  0
LINE
  5
649
  8
TITLEBLOCK_NOTES
  6
CONTINUOUS
 62
     3
 10
36.065581313598891
 20
0.2504805469020752
 30
0.0
 11
36.420867563598939
 21
1.817631288927066
 31
0.0
  0
LINE
  5
64A
  8
TITLEBLOCK_NOTES
  6
CONTINUOUS
 62
     3
 10
37.008927563598931
 20
1.842133788927063
 30
0.0
 11
37.008927563598931
 21
-0.3630912110729412
 31
0.0
  0
LINE
  5
64B
  8
TITLEBLOCK_NOTES
  6
CONTINUOUS
 62
     3
 10
37.033430063598949
 20
-0.3875937110729346
 30
0.0
 11
37.033430063598949
 21
1.8666362889270709
 31
0.0
  0
LINE
  5
64C
  8
TITLEBLOCK_NOTES
  6
CONTINUOUS
 62
     3
 10
36.984425063598927
 20
-0.3385887110729442
 30
0.0
 11
36.984425063598927
 21
1.817631288927066
 31
0.0
  0
LINE
  5
64D
  8
TITLEBLOCK_NOTES
  6
CONTINUOUS
 62
     3
 10
36.592385063598911
 20
0.5703867550620672
 30
0.0
 11
36.592385063598911
 21
-0.3630912110729412
 31
0.0
  0
LINE
  5
64E
  8
TITLEBLOCK_NOTES
  6
CONTINUOUS
 62
     3
 10
36.592385063598911
 20
0.5703867550620672
 30
0.0
 11
36.266753209248932
 21
-0.3630912110729412
 31
0.0
  0
LINE
  5
64F
  8
TITLEBLOCK_NOTES
  6
CONTINUOUS
 62
     3
 10
36.567882563598928
 20
0.4257547211970625
 30
0.0
 11
36.567882563598928
 21
-0.3875937110729346
 31
0.0
  0
LINE
  5
650
  8
TITLEBLOCK_NOTES
  6
CONTINUOUS
 62
     3
 10
36.284156354898933
 20
-0.3875937110729346
 30
0.0
 11
36.567882563598928
 21
0.4257547211970625
 31
0.0
  0
LINE
  5
651
  8
TITLEBLOCK_NOTES
  6
CONTINUOUS
 62
     3
 10
36.616887563598901
 20
-0.3385887110729442
 30
0.0
 11
36.616887563598901
 21
0.7150187889270792
 31
0.0
  0
LINE
  5
652
  8
TITLEBLOCK_NOTES
  6
CONTINUOUS
 62
     3
 10
36.249350063598939
 20
-0.3385887110729442
 30
0.0
 11
36.616887563598901
 21
0.7150187889270792
 31
0.0
  0
LINE
  5
653
  8
TITLEBLOCK_NOTES
  6
CONTINUOUS
 62
     3
 10
36.401298200928892
 20
1.842133788927063
 30
0.0
 11
37.008927563598931
 21
1.842133788927063
 31
0.0
  0
LINE
  5
654
  8
TITLEBLOCK_NOTES
  6
CONTINUOUS
 62
     3
 10
37.033430063598949
 20
1.8666362889270709
 30
0.0
 11
36.381728838258908
 21
1.8666362889270709
 31
0.0
  0
LINE
  5
655
  8
TITLEBLOCK_NOTES
  6
CONTINUOUS
 62
     3
 10
36.984425063598927
 20
1.817631288927066
 30
0.0
 11
36.420867563598939
 21
1.817631288927066
 31
0.0
  0
LINE
  5
656
  8
TITLEBLOCK_NOTES
  6
CONTINUOUS
 62
     3
 10
36.065581313598891
 20
0.3613025611170784
 30
0.0
 11
35.729864426268897
 21
1.842133788927063
 31
0.0
  0
LINE
  5
657
  8
TITLEBLOCK_NOTES
  6
CONTINUOUS
 62
     3
 10
36.065581313598891
 20
0.472124575332071
 30
0.0
 11
35.749433788938887
 21
1.8666362889270709
 31
0.0
  0
LINE
  5
658
  8
TITLEBLOCK_NOTES
  6
CONTINUOUS
 62
     3
 10
36.401298200928892
 20
1.842133788927063
 30
0.0
 11
36.065581313598891
 21
0.3613025611170784
 31
0.0
  0
LINE
  5
659
  8
TITLEBLOCK_NOTES
  6
CONTINUOUS
 62
     3
 10
36.381728838258908
 20
1.8666362889270709
 30
0.0
 11
36.065581313598891
 21
0.472124575332071
 31
0.0
  0
LINE
  5
65A
  8
TITLEBLOCK_NOTES
  6
CONTINUOUS
 62
     3
 10
35.895130211403888
 20
1.2239761920570751
 30
0.0
 11
36.236032366788869
 21
1.2239761920570751
 31
0.0
  0
LINE
  5
65B
  8
TITLEBLOCK_NOTES
  6
CONTINUOUS
 62
     3
 10
35.889925194333877
 20
1.2469352305770789
 30
0.0
 11
36.241237383858881
 21
1.2469352305770789
 31
0.0
  0
LINE
  5
65C
  8
TITLEBLOCK_NOTES
  6
CONTINUOUS
 62
     3
 10
36.323511486318928
 20
1.6098423461370639
 30
0.0
 11
35.807651091873907
 21
1.6098423461370639
 31
0.0
  0
LINE
  5
65D
  8
TITLEBLOCK_NOTES
  6
CONTINUOUS
 62
     3
 10
36.317956573548891
 20
1.585339846137078
 30
0.0
 11
35.81320605364894
 21
1.585339846137078
 31
0.0
  0
LINE
  5
65E
  8
TITLEBLOCK_NOTES
  6
CONTINUOUS
 62
     3
 10
35.802096179103927
 20
1.6343448461370811
 30
0.0
 11
36.329066399088923
 21
1.6343448461370811
 31
0.0
  0
LINE
  5
65F
  8
TITLEBLOCK_NOTES
  6
CONTINUOUS
 62
     3
 10
35.8187609664189
 20
1.5608373461370839
 30
0.0
 11
36.312401611773929
 21
1.5608373461370839
 31
0.0
  0
LINE
  5
660
  8
TITLEBLOCK_NOTES
  6
CONTINUOUS
 62
     3
 10
35.884370281563903
 20
1.2714377305770621
 30
0.0
 11
36.246792296628868
 21
1.2714377305770621
 31
0.0
  0
LINE
  5
661
  8
TITLEBLOCK_NOTES
  6
CONTINUOUS
 62
     3
 10
36.230477454018889
 20
1.1994736920570821
 30
0.0
 11
35.90068512417389
 21
1.1994736920570821
 31
0.0
  0
LINE
  5
662
  8
TITLEBLOCK_NOTES
  6
CONTINUOUS
 62
     3
 10
35.906240036943942
 20
1.1749711920570609
 30
0.0
 11
36.224922541248901
 21
1.1749711920570609
 31
0.0
  0
LINE
  5
663
  8
TITLEBLOCK_NOTES
  6
CONTINUOUS
 62
     3
 10
36.51827749737388
 20
0.2835534823470738
 30
0.0
 11
36.567882563598928
 21
0.2844193516920548
 31
0.0
  0
LINE
  5
664
  8
TITLEBLOCK_NOTES
  6
CONTINUOUS
 62
     3
 10
36.52515833842893
 20
0.3032785829070619
 30
0.0
 11
36.567882563598928
 21
0.3040243409970635
 31
0.0
  0
LINE
  5
665
  8
TITLEBLOCK_NOTES
  6
CONTINUOUS
 62
     3
 10
36.532039179483917
 20
0.3230036834670749
 30
0.0
 11
36.567882563598928
 21
0.323629330302083
 31
0.0
  0
LINE
  5
666
  8
TITLEBLOCK_NOTES
  6
CONTINUOUS
 62
     3
 10
36.538920020538903
 20
0.3427287840270594
 30
0.0
 11
36.567882563598928
 21
0.3432343196070775
 31
0.0
  0
LINE
  5
667
  8
TITLEBLOCK_NOTES
  6
CONTINUOUS
 62
     3
 10
36.545800861593939
 20
0.3624538845870724
 30
0.0
 11
36.567882563598928
 21
0.3628393089120685
 31
0.0
  0
LINE
  5
668
  8
TITLEBLOCK_NOTES
  6
CONTINUOUS
 62
     3
 10
36.552681702648897
 20
0.3821789361420684
 30
0.0
 11
36.567882563598928
 21
0.3824442982170772
 31
0.0
  0
LINE
  5
669
  8
TITLEBLOCK_NOTES
  6
CONTINUOUS
 62
     3
 10
36.559562543703898
 20
0.4019040367020815
 30
0.0
 11
36.567882563598928
 21
0.4020492875220718
 31
0.0
  0
LINE
  5
66A
  8
TITLEBLOCK_NOTES
  6
CONTINUOUS
 62
     3
 10
36.566443384758941
 20
0.4216291372620696
 30
0.0
 11
36.567882563598928
 21
0.4216542768270771
 31
0.0
  0
LINE
  5
66B
  8
TITLEBLOCK_NOTES
  6
CONTINUOUS
 62
     3
 10
35.975828460078958
 20
0.8680200437070695
 30
0.0
 11
36.156047287878962
 21
0.8711657726670694
 31
0.0
  0
LINE
  5
66C
  8
TITLEBLOCK_NOTES
  6
CONTINUOUS
 62
     3
 10
35.971401348378869
 20
0.8875477521270767
 30
0.0
 11
36.160509536163893
 21
0.8908486309170662
 31
0.0
  0
LINE
  5
66D
  8
TITLEBLOCK_NOTES
  6
CONTINUOUS
 62
     3
 10
35.966974285683847
 20
0.907075460547059
 30
0.0
 11
36.164971833453933
 21
0.9105315381720552
 31
0.0
  0
LINE
  5
66E
  8
TITLEBLOCK_NOTES
  6
CONTINUOUS
 62
     3
 10
35.962547173983872
 20
0.9266031689670695
 30
0.0
 11
36.169434081738871
 21
0.9302143964220695
 31
0.0
  0
LINE
  5
66F
  8
TITLEBLOCK_NOTES
  6
CONTINUOUS
 62
     3
 10
35.958120062283882
 20
0.9461308773870802
 30
0.0
 11
36.173896379028918
 21
0.9498972546720699
 31
0.0
  0
LINE
  5
670
  8
TITLEBLOCK_NOTES
  6
CONTINUOUS
 62
     3
 10
35.953692999588931
 20
0.9656585858070627
 30
0.0
 11
36.178358676318908
 21
0.9695801619270623
 31
0.0
  0
LINE
  5
671
  8
TITLEBLOCK_NOTES
  6
CONTINUOUS
 62
     3
 10
35.949265887888942
 20
0.9851862942270701
 30
0.0
 11
36.182820924603902
 21
0.9892630201770735
 31
0.0
  0
LINE
  5
672
  8
TITLEBLOCK_NOTES
  6
CONTINUOUS
 62
     3
 10
35.944838776188952
 20
1.0047140026470791
 30
0.0
 11
36.187283221893892
 21
1.0089458784270731
 31
0.0
  0
LINE
  5
673
  8
TITLEBLOCK_NOTES
  6
CONTINUOUS
 62
     3
 10
35.94041171349393
 20
1.024241711067077
 30
0.0
 11
36.191745470178901
 21
1.0286287856820611
 31
0.0
  0
LINE
  5
674
  8
TITLEBLOCK_NOTES
  6
CONTINUOUS
 62
     3
 10
35.935984601793933
 20
1.043769419487073
 30
0.0
 11
36.196207767468948
 21
1.0483116439320621
 31
0.0
  0
LINE
  5
675
  8
TITLEBLOCK_NOTES
  6
CONTINUOUS
 62
     3
 10
35.931557490093958
 20
1.0632971279070651
 30
0.0
 11
36.200670015753921
 21
1.067994502182076
 31
0.0
  0
LINE
  5
676
  8
TITLEBLOCK_NOTES
  6
CONTINUOUS
 62
     3
 10
35.92810984132889
 20
1.078504653537069
 30
0.0
 11
36.203052736863903
 21
1.078504653537069
 31
0.0
  0
LINE
  5
677
  8
TITLEBLOCK_NOTES
  6
CONTINUOUS
 62
     3
 10
35.980255571778933
 20
0.8484923352870621
 30
0.0
 11
36.151584990588887
 21
0.8514829144170832
 31
0.0
  0
LINE
  5
678
  8
TITLEBLOCK_NOTES
  6
CONTINUOUS
 62
     3
 10
36.065352264228892
 20
0.4731348624120672
 30
0.0
 11
36.065812127148902
 21
0.4731428502270667
 31
0.0
  0
LINE
  5
679
  8
TITLEBLOCK_NOTES
  6
CONTINUOUS
 62
     3
 10
36.060925152528888
 20
0.4926625708320742
 30
0.0
 11
36.0702744244389
 21
0.4928257574820735
 31
0.0
  0
LINE
  5
67A
  8
TITLEBLOCK_NOTES
  6
CONTINUOUS
 62
     3
 10
36.056498040828913
 20
0.5121902792520601
 30
0.0
 11
36.074736672723901
 21
0.512508615732088
 31
0.0
  0
LINE
  5
67B
  8
TITLEBLOCK_NOTES
  6
CONTINUOUS
 62
     3
 10
36.052070978133877
 20
0.5317179876720674
 30
0.0
 11
36.079198970013891
 21
0.532191522987077
 31
0.0
  0
LINE
  5
67C
  8
TITLEBLOCK_NOTES
  6
CONTINUOUS
 62
     3
 10
36.04764386643388
 20
0.551245696092078
 30
0.0
 11
36.083661267303931
 21
0.5518743812370737
 31
0.0
  0
LINE
  5
67D
  8
TITLEBLOCK_NOTES
  6
CONTINUOUS
 62
     3
 10
36.043216754733912
 20
0.5707734045120853
 30
0.0
 11
36.088123515588933
 21
0.5715572394870601
 31
0.0
  0
LINE
  5
67E
  8
TITLEBLOCK_NOTES
  6
CONTINUOUS
 62
     3
 10
36.03878969203889
 20
0.5903011129320676
 30
0.0
 11
36.09258581287893
 21
0.5912401467420665
 31
0.0
  0
LINE
  5
67F
  8
TITLEBLOCK_NOTES
  6
CONTINUOUS
 62
     3
 10
36.034362580338893
 20
0.6098288213520782
 30
0.0
 11
36.097048061163861
 21
0.6109230049920811
 31
0.0
  0
LINE
  5
680
  8
TITLEBLOCK_NOTES
  6
CONTINUOUS
 62
     3
 10
36.029935468638882
 20
0.6293565297720605
 30
0.0
 11
36.101510358453922
 21
0.6306058632420674
 31
0.0
  0
LINE
  5
681
  8
TITLEBLOCK_NOTES
  6
CONTINUOUS
 62
     3
 10
36.025508405943931
 20
0.6488842381920678
 30
0.0
 11
36.105972606738931
 21
0.6502887704970668
 31
0.0
  0
LINE
  5
682
  8
TITLEBLOCK_NOTES
  6
CONTINUOUS
 62
     3
 10
36.021081294243949
 20
0.6684119466120642
 30
0.0
 11
36.110434904028921
 21
0.6699716287470814
 31
0.0
  0
LINE
  5
683
  8
TITLEBLOCK_NOTES
  6
CONTINUOUS
 62
     3
 10
36.016654182543959
 20
0.6879396550320749
 30
0.0
 11
36.114897152313922
 21
0.6896544869970676
 31
0.0
  0
LINE
  5
684
  8
TITLEBLOCK_NOTES
  6
CONTINUOUS
 62
     3
 10
36.01222711984893
 20
0.7074673634520714
 30
0.0
 11
36.119359449603877
 21
0.7093373942520742
 31
0.0
  0
LINE
  5
685
  8
TITLEBLOCK_NOTES
  6
CONTINUOUS
 62
     3
 10
36.007800008148926
 20
0.7269950718720644
 30
0.0
 11
36.123821697888893
 21
0.7290202525020604
 31
0.0
  0
LINE
  5
686
  8
TITLEBLOCK_NOTES
  6
CONTINUOUS
 62
     3
 10
36.004654034163892
 20
0.7408718177220628
 30
0.0
 11
36.126508544028937
 21
0.7408718177220628
 31
0.0
  0
LINE
  5
687
  8
TITLEBLOCK_NOTES
  6
CONTINUOUS
 62
     3
 10
35.982784278783889
 20
0.8373383562420675
 30
0.0
 11
36.148378299408897
 21
0.8373383562420675
 31
0.0
  0
LINE
  5
688
  8
TITLEBLOCK_NOTES
  6
CONTINUOUS
 62
     3
 10
37.327460063598927
 20
1.842133788927063
 30
0.0
 11
37.744002563598912
 21
1.842133788927063
 31
0.0
  0
LINE
  5
689
  8
TITLEBLOCK_NOTES
  6
CONTINUOUS
 62
     3
 10
37.302957563598888
 20
1.8666362889270709
 30
0.0
 11
37.76850506359888
 21
1.8666362889270709
 31
0.0
  0
LINE
  5
68A
  8
TITLEBLOCK_NOTES
  6
CONTINUOUS
 62
     3
 10
37.351962563598931
 20
1.817631288927066
 30
0.0
 11
37.71950006359895
 21
1.817631288927066
 31
0.0
  0
LINE
  5
68B
  8
TITLEBLOCK_NOTES
  6
CONTINUOUS
 62
     3
 10
37.302957563598888
 20
1.2239761920570751
 30
0.0
 11
37.033430063598949
 21
1.2239761920570751
 31
0.0
  0
LINE
  5
68C
  8
TITLEBLOCK_NOTES
  6
CONTINUOUS
 62
     3
 10
37.302957563598888
 20
1.2469352305770789
 30
0.0
 11
37.033430063598949
 21
1.2469352305770789
 31
0.0
  0
LINE
  5
68D
  8
TITLEBLOCK_NOTES
  6
CONTINUOUS
 62
     3
 10
37.302957563598888
 20
1.6098423461370639
 30
0.0
 11
37.033430063598949
 21
1.6098423461370639
 31
0.0
  0
LINE
  5
68E
  8
TITLEBLOCK_NOTES
  6
CONTINUOUS
 62
     3
 10
37.302957563598888
 20
1.585339846137066
 30
0.0
 11
37.033430063598949
 21
1.585339846137066
 31
0.0
  0
LINE
  5
68F
  8
TITLEBLOCK_NOTES
  6
CONTINUOUS
 62
     3
 10
37.302957563598888
 20
1.6343448461370811
 30
0.0
 11
37.033430063598949
 21
1.6343448461370811
 31
0.0
  0
LINE
  5
690
  8
TITLEBLOCK_NOTES
  6
CONTINUOUS
 62
     3
 10
37.302957563598888
 20
1.5608373461370699
 30
0.0
 11
37.033430063598949
 21
1.5608373461370699
 31
0.0
  0
LINE
  5
691
  8
TITLEBLOCK_NOTES
  6
CONTINUOUS
 62
     3
 10
37.302957563598888
 20
1.2714377305770621
 30
0.0
 11
37.033430063598949
 21
1.2714377305770621
 31
0.0
  0
LINE
  5
692
  8
TITLEBLOCK_NOTES
  6
CONTINUOUS
 62
     3
 10
37.302957563598888
 20
1.1994736920570821
 30
0.0
 11
37.033430063598949
 21
1.1994736920570821
 31
0.0
  0
LINE
  5
693
  8
TITLEBLOCK_NOTES
  6
CONTINUOUS
 62
     3
 10
37.302957563598888
 20
1.1749711920570609
 30
0.0
 11
37.033430063598949
 21
1.1749711920570609
 31
0.0
  0
LINE
  5
694
  8
TITLEBLOCK_NOTES
  6
CONTINUOUS
 62
     3
 10
37.76850506359888
 20
1.075756208112074
 30
0.0
 11
37.925965479348932
 21
1.078504653537069
 31
0.0
  0
LINE
  5
695
  8
TITLEBLOCK_NOTES
  6
CONTINUOUS
 62
     3
 10
37.76850506359888
 20
0.7381233232920508
 30
0.0
 11
37.925965479348932
 21
0.7408718177220628
 31
0.0
  0
LINE
  5
696
  8
TITLEBLOCK_NOTES
  6
CONTINUOUS
 62
     3
 10
37.159917996213878
 20
0.3550056636420678
 30
0.0
 11
37.302957563598888
 21
0.3575024193870782
 31
0.0
  0
LINE
  5
697
  8
TITLEBLOCK_NOTES
  6
CONTINUOUS
 62
     3
 10
37.033430063598949
 20
0.3724027816770707
 30
0.0
 11
37.302957563598888
 21
0.3771074086920692
 31
0.0
  0
LINE
  5
698
  8
TITLEBLOCK_NOTES
  6
CONTINUOUS
 62
     3
 10
37.302957563598888
 20
0.3550056636420678
 30
0.0
 11
37.033430063598949
 21
0.3550056636420678
 31
0.0
  0
LINE
  5
699
  8
TITLEBLOCK_NOTES
  6
CONTINUOUS
 62
     3
 10
37.033430063598949
 20
0.8472705916320569
 30
0.0
 11
37.302957563598888
 21
0.8519751696420668
 31
0.0
  0
LINE
  5
69A
  8
TITLEBLOCK_NOTES
  6
CONTINUOUS
 62
     3
 10
37.033430063598949
 20
0.8668755319320736
 30
0.0
 11
37.302957563598888
 21
0.8715801589470757
 31
0.0
  0
LINE
  5
69B
  8
TITLEBLOCK_NOTES
  6
CONTINUOUS
 62
     3
 10
37.033430063598949
 20
0.8864805212370788
 30
0.0
 11
37.302957563598888
 21
0.8911851482520667
 31
0.0
  0
LINE
  5
69C
  8
TITLEBLOCK_NOTES
  6
CONTINUOUS
 62
     3
 10
37.033430063598949
 20
0.9060855105420699
 30
0.0
 11
37.302957563598888
 21
0.9107901375570753
 31
0.0
  0
LINE
  5
69D
  8
TITLEBLOCK_NOTES
  6
CONTINUOUS
 62
     3
 10
37.033430063598949
 20
0.9256904998470643
 30
0.0
 11
37.302957563598888
 21
0.9303951268620698
 31
0.0
  0
LINE
  5
69E
  8
TITLEBLOCK_NOTES
  6
CONTINUOUS
 62
     3
 10
37.033430063598949
 20
0.9452954891520731
 30
0.0
 11
37.302957563598888
 21
0.9500001161670608
 31
0.0
  0
LINE
  5
69F
  8
TITLEBLOCK_NOTES
  6
CONTINUOUS
 62
     3
 10
37.033430063598949
 20
0.9649004784570641
 30
0.0
 11
37.302957563598888
 21
0.9696051054720805
 31
0.0
  0
LINE
  5
6A0
  8
TITLEBLOCK_NOTES
  6
CONTINUOUS
 62
     3
 10
37.033430063598949
 20
0.9845054677620693
 30
0.0
 11
37.302957563598888
 21
0.9892100947770572
 31
0.0
  0
LINE
  5
6A1
  8
TITLEBLOCK_NOTES
  6
CONTINUOUS
 62
     3
 10
37.033430063598949
 20
1.004110457067066
 30
0.0
 11
37.302957563598888
 21
1.0088150840820791
 31
0.0
  0
LINE
  5
6A2
  8
TITLEBLOCK_NOTES
  6
CONTINUOUS
 62
     3
 10
37.033430063598949
 20
1.023715446372057
 30
0.0
 11
37.302957563598888
 21
1.0284200733870741
 31
0.0
  0
LINE
  5
6A3
  8
TITLEBLOCK_NOTES
  6
CONTINUOUS
 62
     3
 10
37.033430063598949
 20
1.0433204356770771
 30
0.0
 11
37.302957563598888
 21
1.0480250626920691
 31
0.0
  0
LINE
  5
6A4
  8
TITLEBLOCK_NOTES
  6
CONTINUOUS
 62
     3
 10
37.033430063598949
 20
1.0629254249820821
 30
0.0
 11
37.302957563598888
 21
1.0676300519970701
 31
0.0
  0
LINE
  5
6A5
  8
TITLEBLOCK_NOTES
  6
CONTINUOUS
 62
     3
 10
37.033430063598949
 20
0.3920077709820724
 30
0.0
 11
37.302957563598888
 21
0.3967123979970637
 31
0.0
  0
LINE
  5
6A6
  8
TITLEBLOCK_NOTES
  6
CONTINUOUS
 62
     3
 10
37.033430063598949
 20
0.4116127602870671
 30
0.0
 11
37.302957563598888
 21
0.4163173873020726
 31
0.0
  0
LINE
  5
6A7
  8
TITLEBLOCK_NOTES
  6
CONTINUOUS
 62
     3
 10
37.033430063598949
 20
0.4312177495920757
 30
0.0
 11
37.302957563598888
 21
0.4359223766070636
 31
0.0
  0
LINE
  5
6A8
  8
TITLEBLOCK_NOTES
  6
CONTINUOUS
 62
     3
 10
37.033430063598949
 20
0.4508227388970667
 30
0.0
 11
37.302957563598888
 21
0.455527365912083
 31
0.0
  0
LINE
  5
6A9
  8
TITLEBLOCK_NOTES
  6
CONTINUOUS
 62
     3
 10
37.033430063598949
 20
0.4704277282020614
 30
0.0
 11
37.302957563598888
 21
0.4751323552170632
 31
0.0
  0
LINE
  5
6AA
  8
TITLEBLOCK_NOTES
  6
CONTINUOUS
 62
     3
 10
37.033430063598949
 20
0.49003271750707
 30
0.0
 11
37.302957563598888
 21
0.4947373445220579
 31
0.0
  0
LINE
  5
6AB
  8
TITLEBLOCK_NOTES
  6
CONTINUOUS
 62
     3
 10
37.033430063598949
 20
0.5096377068120859
 30
0.0
 11
37.302957563598888
 21
0.5143423338270737
 31
0.0
  0
LINE
  5
6AC
  8
TITLEBLOCK_NOTES
  6
CONTINUOUS
 62
     3
 10
37.033430063598949
 20
0.5292426961170769
 30
0.0
 11
37.302957563598888
 21
0.5339473231320682
 31
0.0
  0
LINE
  5
6AD
  8
TITLEBLOCK_NOTES
  6
CONTINUOUS
 62
     3
 10
37.033430063598949
 20
0.5488476854220751
 30
0.0
 11
37.302957563598888
 21
0.5535522634320742
 31
0.0
  0
LINE
  5
6AE
  8
TITLEBLOCK_NOTES
  6
CONTINUOUS
 62
     3
 10
37.033430063598949
 20
0.5684526747270519
 30
0.0
 11
37.302957563598888
 21
0.5731572527370652
 31
0.0
  0
LINE
  5
6AF
  8
TITLEBLOCK_NOTES
  6
CONTINUOUS
 62
     3
 10
37.033430063598949
 20
0.5880576150270686
 30
0.0
 11
37.302957563598888
 21
0.5927622420420704
 31
0.0
  0
LINE
  5
6B0
  8
TITLEBLOCK_NOTES
  6
CONTINUOUS
 62
     3
 10
37.033430063598949
 20
0.6076626043320738
 30
0.0
 11
37.302957563598888
 21
0.6123672313470614
 31
0.0
  0
LINE
  5
6B1
  8
TITLEBLOCK_NOTES
  6
CONTINUOUS
 62
     3
 10
37.033430063598949
 20
0.6272675936370719
 30
0.0
 11
37.302957563598888
 21
0.6319722206520702
 31
0.0
  0
LINE
  5
6B2
  8
TITLEBLOCK_NOTES
  6
CONTINUOUS
 62
     3
 10
37.033430063598949
 20
0.6468725829420629
 30
0.0
 11
37.302957563598888
 21
0.6515772099570647
 31
0.0
  0
LINE
  5
6B3
  8
TITLEBLOCK_NOTES
  6
CONTINUOUS
 62
     3
 10
37.033430063598949
 20
0.6664775722470681
 30
0.0
 11
37.302957563598888
 21
0.6711821992620557
 31
0.0
  0
LINE
  5
6B4
  8
TITLEBLOCK_NOTES
  6
CONTINUOUS
 62
     3
 10
37.033430063598949
 20
0.6860825615520874
 30
0.0
 11
37.302957563598888
 21
0.6907871885670751
 31
0.0
  0
LINE
  5
6B5
  8
TITLEBLOCK_NOTES
  6
CONTINUOUS
 62
     3
 10
37.033430063598949
 20
0.7056875508570677
 30
0.0
 11
37.302957563598888
 21
0.7103921778720697
 31
0.0
  0
LINE
  5
6B6
  8
TITLEBLOCK_NOTES
  6
CONTINUOUS
 62
     3
 10
37.033430063598949
 20
0.7252925401620624
 30
0.0
 11
37.302957563598888
 21
0.7299971671770784
 31
0.0
  0
LINE
  5
6B7
  8
TITLEBLOCK_NOTES
  6
CONTINUOUS
 62
     3
 10
37.302957563598888
 20
1.078504653537069
 30
0.0
 11
37.033430063598949
 21
1.078504653537069
 31
0.0
  0
LINE
  5
6B8
  8
TITLEBLOCK_NOTES
  6
CONTINUOUS
 62
     3
 10
37.302957563598888
 20
0.8373383562420675
 30
0.0
 11
37.033430063598949
 21
0.8373383562420675
 31
0.0
  0
LINE
  5
6B9
  8
TITLEBLOCK_NOTES
  6
CONTINUOUS
 62
     3
 10
37.302957563598888
 20
0.7408718177220628
 30
0.0
 11
37.033430063598949
 21
0.7408718177220628
 31
0.0
  0
LINE
  5
6BA
  8
TITLEBLOCK_NOTES
  6
CONTINUOUS
 62
     3
 10
36.592385063598911
 20
-0.3630912110729412
 30
0.0
 11
37.008927563598931
 21
-0.3630912110729412
 31
0.0
  0
LINE
  5
6BB
  8
TITLEBLOCK_NOTES
  6
CONTINUOUS
 62
     3
 10
36.567882563598928
 20
-0.3875937110729346
 30
0.0
 11
37.033430063598949
 21
-0.3875937110729346
 31
0.0
  0
LINE
  5
6BC
  8
TITLEBLOCK_NOTES
  6
CONTINUOUS
 62
     3
 10
36.984425063598927
 20
-0.3385887110729442
 30
0.0
 11
36.616887563598901
 21
-0.3385887110729442
 31
0.0
  0
LINE
  5
6BD
  8
TITLEBLOCK_NOTES
  6
CONTINUOUS
 62
     3
 10
36.394422260373901
 20
-0.0714981317129286
 30
0.0
 11
36.567882563598928
 21
-0.0684704067929225
 31
0.0
  0
LINE
  5
6BE
  8
TITLEBLOCK_NOTES
  6
CONTINUOUS
 62
     3
 10
36.40130310142893
 20
-0.0517730311529157
 30
0.0
 11
36.567882563598928
 21
-0.048865417487928
 31
0.0
  0
LINE
  5
6BF
  8
TITLEBLOCK_NOTES
  6
CONTINUOUS
 62
     3
 10
36.408183942483923
 20
-0.0320479795979232
 30
0.0
 11
36.567882563598928
 21
-0.0292604281829227
 31
0.0
  0
LINE
  5
6C0
  8
TITLEBLOCK_NOTES
  6
CONTINUOUS
 62
     3
 10
36.415064783538902
 20
-0.0123228790379351
 30
0.0
 11
36.567882563598928
 21
-0.0096554388779317
 31
0.0
  0
LINE
  5
6C1
  8
TITLEBLOCK_NOTES
  6
CONTINUOUS
 62
     3
 10
36.421945624593903
 20
0.0074022215220673
 30
0.0
 11
36.567882563598928
 21
0.0099495504270628
 31
0.0
  0
LINE
  5
6C2
  8
TITLEBLOCK_NOTES
  6
CONTINUOUS
 62
     3
 10
36.42882646564896
 20
0.0271273220820625
 30
0.0
 11
36.567882563598928
 21
0.0295545397320716
 31
0.0
  0
LINE
  5
6C3
  8
TITLEBLOCK_NOTES
  6
CONTINUOUS
 62
     3
 10
36.435707306703932
 20
0.0468524226420755
 30
0.0
 11
36.567882563598928
 21
0.0491595290370768
 31
0.0
  0
LINE
  5
6C4
  8
TITLEBLOCK_NOTES
  6
CONTINUOUS
 62
     3
 10
36.44258814775889
 20
0.0665774741970715
 30
0.0
 11
36.567882563598928
 21
0.0687645183420678
 31
0.0
  0
LINE
  5
6C5
  8
TITLEBLOCK_NOTES
  6
CONTINUOUS
 62
     3
 10
36.449469037818901
 20
0.0863025747570738
 30
0.0
 11
36.567882563598928
 21
0.0883695076470659
 31
0.0
  0
LINE
  5
6C6
  8
TITLEBLOCK_NOTES
  6
CONTINUOUS
 62
     3
 10
36.456349878873887
 20
0.1060276753170726
 30
0.0
 11
36.567882563598928
 21
0.1079744969520568
 31
0.0
  0
LINE
  5
6C7
  8
TITLEBLOCK_NOTES
  6
CONTINUOUS
 62
     3
 10
36.463230719928887
 20
0.1257527758770571
 30
0.0
 11
36.567882563598928
 21
0.1275794862570621
 31
0.0
  0
LINE
  5
6C8
  8
TITLEBLOCK_NOTES
  6
CONTINUOUS
 62
     3
 10
36.470111560983923
 20
0.1454778764370701
 30
0.0
 11
36.567882563598928
 21
0.1471844755620815
 31
0.0
  0
LINE
  5
6C9
  8
TITLEBLOCK_NOTES
  6
CONTINUOUS
 62
     3
 10
36.47699240203891
 20
0.1652029769970831
 30
0.0
 11
36.567882563598928
 21
0.166789464867076
 31
0.0
  0
LINE
  5
6CA
  8
TITLEBLOCK_NOTES
  6
CONTINUOUS
 62
     3
 10
36.483873243093861
 20
0.1849280285520791
 30
0.0
 11
36.567882563598928
 21
0.186394454172067
 31
0.0
  0
LINE
  5
6CB
  8
TITLEBLOCK_NOTES
  6
CONTINUOUS
 62
     3
 10
36.490754084148932
 20
0.2046531291120637
 30
0.0
 11
36.567882563598928
 21
0.205999394472073
 31
0.0
  0
LINE
  5
6CC
  8
TITLEBLOCK_NOTES
  6
CONTINUOUS
 62
     3
 10
36.49763492520389
 20
0.224378229672066
 30
0.0
 11
36.567882563598928
 21
0.2256043837770782
 31
0.0
  0
LINE
  5
6CD
  8
TITLEBLOCK_NOTES
  6
CONTINUOUS
 62
     3
 10
36.504515766258891
 20
0.2441033302320683
 30
0.0
 11
36.567882563598928
 21
0.2452093730820692
 31
0.0
  0
LINE
  5
6CE
  8
TITLEBLOCK_NOTES
  6
CONTINUOUS
 62
     3
 10
36.511396607313927
 20
0.2638284307920777
 30
0.0
 11
36.567882563598928
 21
0.2648143623870638
 31
0.0
  0
LINE
  5
6CF
  8
TITLEBLOCK_NOTES
  6
CONTINUOUS
 62
     3
 10
36.373779688203904
 20
-0.130673433392932
 30
0.0
 11
36.567882563598928
 21
-0.1272853257029212
 31
0.0
  0
LINE
  5
6D0
  8
TITLEBLOCK_NOTES
  6
CONTINUOUS
 62
     3
 10
36.380660578263956
 20
-0.1109483328329297
 30
0.0
 11
36.567882563598928
 21
-0.1076803363979302
 31
0.0
  0
LINE
  5
6D1
  8
TITLEBLOCK_NOTES
  6
CONTINUOUS
 62
     3
 10
35.864409368943889
 20
-0.3630912110729412
 30
0.0
 11
36.266753209248932
 21
-0.3630912110729412
 31
0.0
  0
LINE
  5
6D2
  8
TITLEBLOCK_NOTES
  6
CONTINUOUS
 62
     3
 10
35.847006223293903
 20
-0.3875937110729346
 30
0.0
 11
36.284156354898933
 21
-0.3875937110729346
 31
0.0
  0
LINE
  5
6D3
  8
TITLEBLOCK_NOTES
  6
CONTINUOUS
 62
     3
 10
35.88181256359892
 20
-0.3385887110729442
 30
0.0
 11
36.249350063598939
 21
-0.3385887110729442
 31
0.0
  0
LINE
  5
6D4
  8
TITLEBLOCK_NOTES
  6
CONTINUOUS
 62
     3
 10
36.284328705483887
 20
-0.3870995936579256
 30
0.0
 11
36.567882563598928
 21
-0.3821501376629221
 31
0.0
  0
LINE
  5
6D5
  8
TITLEBLOCK_NOTES
  6
CONTINUOUS
 62
     3
 10
36.29120954653893
 20
-0.3673745421029153
 30
0.0
 11
36.567882563598928
 21
-0.3625451973629374
 31
0.0
  0
LINE
  5
6D6
  8
TITLEBLOCK_NOTES
  6
CONTINUOUS
 62
     3
 10
36.298090387593909
 20
-0.3476494415429308
 30
0.0
 11
36.567882563598928
 21
-0.3429402080579287
 31
0.0
  0
LINE
  5
6D7
  8
TITLEBLOCK_NOTES
  6
CONTINUOUS
 62
     3
 10
36.304971228648888
 20
-0.3279243409829284
 30
0.0
 11
36.567882563598928
 21
-0.3233352187529377
 31
0.0
  0
LINE
  5
6D8
  8
TITLEBLOCK_NOTES
  6
CONTINUOUS
 62
     3
 10
36.311852118708913
 20
-0.3081992404229297
 30
0.0
 11
36.567882563598928
 21
-0.3037302294479289
 31
0.0
  0
LINE
  5
6D9
  8
TITLEBLOCK_NOTES
  6
CONTINUOUS
 62
     3
 10
36.318732959763899
 20
-0.2884741398629344
 30
0.0
 11
36.567882563598928
 21
-0.2841252401429344
 31
0.0
  0
LINE
  5
6DA
  8
TITLEBLOCK_NOTES
  6
CONTINUOUS
 62
     3
 10
36.325613800818957
 20
-0.2687490393029215
 30
0.0
 11
36.567882563598928
 21
-0.2645202508379434
 31
0.0
  0
LINE
  5
6DB
  8
TITLEBLOCK_NOTES
  6
CONTINUOUS
 62
     3
 10
36.332494641873929
 20
-0.2490239877479219
 30
0.0
 11
36.567882563598928
 21
-0.244915261532924
 31
0.0
  0
LINE
  5
6DC
  8
TITLEBLOCK_NOTES
  6
CONTINUOUS
 62
     3
 10
36.33937548292888
 20
-0.2292988871879231
 30
0.0
 11
36.567882563598928
 21
-0.2253102722279294
 31
0.0
  0
LINE
  5
6DD
  8
TITLEBLOCK_NOTES
  6
CONTINUOUS
 62
     3
 10
36.346256323983958
 20
-0.2095737866279386
 30
0.0
 11
36.567882563598928
 21
-0.2057052829229242
 31
0.0
  0
LINE
  5
6DE
  8
TITLEBLOCK_NOTES
  6
CONTINUOUS
 62
     3
 10
36.353137165038902
 20
-0.1898486860679362
 30
0.0
 11
36.567882563598928
 21
-0.1861002936179297
 31
0.0
  0
LINE
  5
6DF
  8
TITLEBLOCK_NOTES
  6
CONTINUOUS
 62
     3
 10
36.360018006093902
 20
-0.1701235855079233
 30
0.0
 11
36.567882563598928
 21
-0.1664953043129351
 31
0.0
  0
LINE
  5
6E0
  8
TITLEBLOCK_NOTES
  6
CONTINUOUS
 62
     3
 10
36.366898847148939
 20
-0.1503985339529272
 30
0.0
 11
36.567882563598928
 21
-0.1468903150079299
 31
0.0
  0
LINE
  5
6E1
  8
TITLEBLOCK_NOTES
  6
CONTINUOUS
 62
     3
 10
36.3875414193189
 20
-0.091223232272931
 30
0.0
 11
36.567882563598928
 21
-0.0880753470929357
 31
0.0
  0
ARC
  5
6E2
  8
TITLEBLOCK_NOTES
  6
CONTINUOUS
 62
     3
 10
37.964525063598941
 20
0.2739737889270657
 30
0.0
 40
0.2205225
 50
180.00000468000039
 51
269.99999317000049
  0
ARC
  5
6E3
  8
TITLEBLOCK_NOTES
  6
CONTINUOUS
 62
     3
 10
37.964525063598941
 20
0.2739737889270657
 30
0.0
 40
0.1960200000000001
 50
180.00000523000051
 51
269.99999477000051
  0
ARC
  5
6E4
  8
TITLEBLOCK_NOTES
  6
CONTINUOUS
 62
     3
 10
37.964525063598941
 20
0.2739737889270657
 30
0.0
 40
0.245025
 50
180.00000468000039
 51
269.99999317000049
  0
LINE
  5
6E5
  8
TITLEBLOCK_NOTES
  6
CONTINUOUS
 62
     3
 10
37.033430063598949
 20
-0.0799491909779349
 30
0.0
 11
37.401361612803932
 21
-0.0735269387129201
 31
0.0
  0
LINE
  5
6E6
  8
TITLEBLOCK_NOTES
  6
CONTINUOUS
 62
     3
 10
37.033430063598949
 20
-0.0603442016729154
 30
0.0
 11
37.38984053730389
 21
-0.0541230659279322
 31
0.0
  0
LINE
  5
6E7
  8
TITLEBLOCK_NOTES
  6
CONTINUOUS
 62
     3
 10
37.033430063598949
 20
-0.0407392613729378
 30
0.0
 11
37.379180920698943
 21
-0.0347041486079185
 31
0.0
  0
LINE
  5
6E8
  8
TITLEBLOCK_NOTES
  6
CONTINUOUS
 62
     3
 10
37.033430063598949
 20
-0.0211342720679468
 30
0.0
 11
37.369338266448857
 21
-0.0152709708329226
 31
0.0
  0
LINE
  5
6E9
  8
TITLEBLOCK_NOTES
  6
CONTINUOUS
 62
     3
 10
37.033430063598949
 20
-0.0015292827629239
 30
0.0
 11
37.360274399658863
 21
0.0041758303320769
 31
0.0
  0
LINE
  5
6EA
  8
TITLEBLOCK_NOTES
  6
CONTINUOUS
 62
     3
 10
37.033430063598949
 20
0.0180757065420778
 30
0.0
 11
37.351956192948883
 21
0.0236356178220589
 31
0.0
  0
LINE
  5
6EB
  8
TITLEBLOCK_NOTES
  6
CONTINUOUS
 62
     3
 10
37.033430063598949
 20
0.0376806958470724
 30
0.0
 11
37.344355125408903
 21
0.043107901587085
 31
0.0
  0
LINE
  5
6EC
  8
TITLEBLOCK_NOTES
  6
CONTINUOUS
 62
     3
 10
37.033430063598949
 20
0.0572856851520633
 30
0.0
 11
37.337446351503893
 21
0.0625923385920757
 31
0.0
  0
LINE
  5
6ED
  8
TITLEBLOCK_NOTES
  6
CONTINUOUS
 62
     3
 10
37.033430063598949
 20
0.0768906744570721
 30
0.0
 11
37.331208554058932
 21
0.082088438787082
 31
0.0
  0
LINE
  5
6EE
  8
TITLEBLOCK_NOTES
  6
CONTINUOUS
 62
     3
 10
37.033430063598949
 20
0.0964956637620667
 30
0.0
 11
37.325623111173861
 21
0.1015959081420661
 31
0.0
  0
LINE
  5
6EF
  8
TITLEBLOCK_NOTES
  6
CONTINUOUS
 62
     3
 10
37.033430063598949
 20
0.1161006530670754
 30
0.0
 11
37.320674243238919
 21
0.1211145016320714
 31
0.0
  0
LINE
  5
6F0
  8
TITLEBLOCK_NOTES
  6
CONTINUOUS
 62
     3
 10
37.033430063598949
 20
0.1357056423720664
 30
0.0
 11
37.316348424873908
 21
0.14064397423207
 31
0.0
  0
LINE
  5
6F1
  8
TITLEBLOCK_NOTES
  6
CONTINUOUS
 62
     3
 10
37.033430063598949
 20
0.1553106316770609
 30
0.0
 11
37.312634188908902
 21
0.1601841299220794
 31
0.0
  0
LINE
  5
6F2
  8
TITLEBLOCK_NOTES
  6
CONTINUOUS
 62
     3
 10
37.033430063598949
 20
0.1749156209820803
 30
0.0
 11
37.309522126383911
 21
0.1797348216870773
 31
0.0
  0
LINE
  5
6F3
  8
TITLEBLOCK_NOTES
  6
CONTINUOUS
 62
     3
 10
37.033430063598949
 20
0.1945206102870713
 30
0.0
 11
37.30700469052892
 21
0.1992958535070741
 31
0.0
  0
LINE
  5
6F4
  8
TITLEBLOCK_NOTES
  6
CONTINUOUS
 62
     3
 10
37.033430063598949
 20
0.2141255995920765
 30
0.0
 11
37.305076000743931
 21
0.2188671763770777
 31
0.0
  0
LINE
  5
6F5
  8
TITLEBLOCK_NOTES
  6
CONTINUOUS
 62
     3
 10
37.033430063598949
 20
0.2337305888970711
 30
0.0
 11
37.303731744588902
 21
0.2384486922870828
 31
0.0
  0
LINE
  5
6F6
  8
TITLEBLOCK_NOTES
  6
CONTINUOUS
 62
     3
 10
37.033430063598949
 20
0.2533355291970771
 30
0.0
 11
37.30296937380394
 21
0.2580404012370678
 31
0.0
  0
LINE
  5
6F7
  8
TITLEBLOCK_NOTES
  6
CONTINUOUS
 62
     3
 10
37.302957563598888
 20
0.2585391251220805
 30
0.0
 11
37.033430063598949
 21
0.2585391251220805
 31
0.0
  0
LINE
  5
6F8
  8
TITLEBLOCK_NOTES
  6
CONTINUOUS
 62
     3
 10
37.913838261003903
 20
0.0846204291270816
 30
0.0
 11
38.279892575673912
 21
0.091009946052079
 31
0.0
  0
LINE
  5
6F9
  8
TITLEBLOCK_NOTES
  6
CONTINUOUS
 62
     3
 10
37.964524965588907
 20
0.0534512889270644
 30
0.0
 11
38.209550063598897
 21
0.0534512889270644
 31
0.0
  0
LINE
  5
6FA
  8
TITLEBLOCK_NOTES
  6
CONTINUOUS
 62
     3
 10
38.209550063598897
 20
0.0779537889270614
 30
0.0
 11
37.964525014593868
 21
0.0779537889270614
 31
0.0
  0
LINE
  5
6FB
  8
TITLEBLOCK_NOTES
  6
CONTINUOUS
 62
     3
 10
37.964524965588907
 20
0.028948788927071
 30
0.0
 11
38.209550063598897
 21
0.028948788927071
 31
0.0
  0
LINE
  5
6FC
  8
TITLEBLOCK_NOTES
  6
CONTINUOUS
 62
     3
 10
37.033430063598949
 20
-0.3740239815479214
 30
0.0
 11
37.778274455373939
 21
-0.361022710022926
 31
0.0
  0
LINE
  5
6FD
  8
TITLEBLOCK_NOTES
  6
CONTINUOUS
 62
     3
 10
37.033430063598949
 20
-0.3544189922429304
 30
0.0
 11
37.723634321418963
 21
-0.3423714560279336
 31
0.0
  0
LINE
  5
6FE
  8
TITLEBLOCK_NOTES
  6
CONTINUOUS
 62
     3
 10
37.033430063598949
 20
-0.3348140029379216
 30
0.0
 11
37.680090193593891
 21
-0.3235265342729399
 31
0.0
  0
LINE
  5
6FF
  8
TITLEBLOCK_NOTES
  6
CONTINUOUS
 62
     3
 10
37.033430063598949
 20
-0.3152090626379298
 30
0.0
 11
37.643271904008891
 21
-0.3045641965379247
 31
0.0
  0
LINE
  5
700
  8
TITLEBLOCK_NOTES
  6
CONTINUOUS
 62
     3
 10
37.033430063598949
 20
-0.2956040733329388
 30
0.0
 11
37.611146333223871
 21
-0.2855199714479433
 31
0.0
  0
LINE
  5
701
  8
TITLEBLOCK_NOTES
  6
CONTINUOUS
 62
     3
 10
37.033430063598949
 20
-0.2759990840279336
 30
0.0
 11
37.582568185383892
 21
-0.2664138040379242
 31
0.0
  0
LINE
  5
702
  8
TITLEBLOCK_NOTES
  6
CONTINUOUS
 62
     3
 10
37.033430063598949
 20
-0.2563940947229142
 30
0.0
 11
37.556815763853898
 21
-0.247258337597934
 31
0.0
  0
LINE
  5
703
  8
TITLEBLOCK_NOTES
  6
CONTINUOUS
 62
     3
 10
37.033430063598949
 20
-0.2367891054179196
 30
0.0
 11
37.533398871618949
 21
-0.2280620989979276
 31
0.0
  0
LINE
  5
704
  8
TITLEBLOCK_NOTES
  6
CONTINUOUS
 62
     3
 10
37.033430063598949
 20
-0.2171841161129286
 30
0.0
 11
37.511966632878888
 21
-0.2088312138629185
 31
0.0
  0
LINE
  5
705
  8
TITLEBLOCK_NOTES
  6
CONTINUOUS
 62
     3
 10
37.033430063598949
 20
-0.1975791268079341
 30
0.0
 11
37.492257409938901
 21
-0.1895702396579288
 31
0.0
  0
LINE
  5
706
  8
TITLEBLOCK_NOTES
  6
CONTINUOUS
 62
     3
 10
37.033430063598949
 20
-0.1779741375029289
 30
0.0
 11
37.474070233293908
 21
-0.1702827537479301
 31
0.0
  0
LINE
  5
707
  8
TITLEBLOCK_NOTES
  6
CONTINUOUS
 62
     3
 10
37.033430063598949
 20
-0.1583691481979237
 30
0.0
 11
37.457246620773887
 21
-0.1509714024029272
 31
0.0
  0
LINE
  5
708
  8
TITLEBLOCK_NOTES
  6
CONTINUOUS
 62
     3
 10
37.033430063598949
 20
-0.1387641588929291
 30
0.0
 11
37.441659404403929
 21
-0.1316384888579165
 31
0.0
  0
LINE
  5
709
  8
TITLEBLOCK_NOTES
  6
CONTINUOUS
 62
     3
 10
37.033430063598949
 20
-0.1191591695879346
 30
0.0
 11
37.427204546568902
 21
-0.1122858262979349
 31
0.0
  0
LINE
  5
70A
  8
TITLEBLOCK_NOTES
  6
CONTINUOUS
 62
     3
 10
37.033430063598949
 20
-0.0995541802829294
 30
0.0
 11
37.413795994488922
 21
-0.0929148848729291
 31
0.0
  0
LINE
  5
70B
  8
TITLEBLOCK_NOTES
  6
CONTINUOUS
 62
     3
 10
37.964524965588907
 20
-0.3630912110729412
 30
0.0
 11
38.209550063598897
 21
-0.3630912110729412
 31
0.0
  0
LINE
  5
70C
  8
TITLEBLOCK_NOTES
  6
CONTINUOUS
 62
     3
 10
37.964524965588907
 20
-0.3875937110729346
 30
0.0
 11
38.209550063598897
 21
-0.3875937110729346
 31
0.0
  0
LINE
  5
70D
  8
TITLEBLOCK_NOTES
  6
CONTINUOUS
 62
     3
 10
37.964524965588907
 20
-0.3385887110729442
 30
0.0
 11
38.209550063598897
 21
-0.3385887110729442
 31
0.0
  0
ARC
  5
70E
  8
TITLEBLOCK_NOTES
  6
CONTINUOUS
 62
     3
 10
37.964525063598941
 20
0.2739737889270657
 30
0.0
 40
0.637065
 50
180.0000000000004
 51
269.9999934300003
  0
ARC
  5
70F
  8
TITLEBLOCK_NOTES
  6
CONTINUOUS
 62
     3
 10
37.964525063598941
 20
0.2739737889270657
 30
0.0
 40
0.6615675000000003
 50
180.0000000000004
 51
269.9999934300003
  0
ARC
  5
710
  8
TITLEBLOCK_NOTES
  6
CONTINUOUS
 62
     3
 10
37.964525063598941
 20
0.2739737889270657
 30
0.0
 40
0.6125625000000002
 50
180.0000000000004
 51
269.99999317000049
  0
LINE
  5
711
  8
TITLEBLOCK_NOTES
  6
CONTINUOUS
 62
     3
 10
38.846615063598961
 20
0.2739737889270657
 30
0.0
 11
38.846615063598961
 21
1.842133788927063
 31
0.0
  0
LINE
  5
712
  8
TITLEBLOCK_NOTES
  6
CONTINUOUS
 62
     3
 10
39.508182563598929
 20
0.0534512889270644
 30
0.0
 11
39.508182563598929
 21
1.842133788927063
 31
0.0
  0
LINE
  5
713
  8
TITLEBLOCK_NOTES
  6
CONTINUOUS
 62
     3
 10
39.532685063598869
 20
0.0779537889270614
 30
0.0
 11
39.532685063598869
 21
1.8666362889270709
 31
0.0
  0
LINE
  5
714
  8
TITLEBLOCK_NOTES
  6
CONTINUOUS
 62
     3
 10
38.871117563598929
 20
0.2739737889270657
 30
0.0
 11
38.871117563598929
 21
1.8666362889270709
 31
0.0
  0
LINE
  5
715
  8
TITLEBLOCK_NOTES
  6
CONTINUOUS
 62
     3
 10
39.483680063598918
 20
1.817631288927066
 30
0.0
 11
39.483680063598918
 21
0.028948788927071
 31
0.0
  0
LINE
  5
716
  8
TITLEBLOCK_NOTES
  6
CONTINUOUS
 62
     3
 10
38.822112563598921
 20
1.817631288927066
 30
0.0
 11
38.822112563598921
 21
0.2739737889270657
 31
0.0
  0
LINE
  5
717
  8
TITLEBLOCK_NOTES
  6
CONTINUOUS
 62
     3
 10
38.430072563598927
 20
0.2739737399220736
 30
0.0
 11
38.430072563598927
 21
1.842133788927063
 31
0.0
  0
LINE
  5
718
  8
TITLEBLOCK_NOTES
  6
CONTINUOUS
 62
     3
 10
38.405570063598923
 20
1.8666362889270709
 30
0.0
 11
38.405570063598923
 21
0.2739737889270657
 31
0.0
  0
LINE
  5
719
  8
TITLEBLOCK_NOTES
  6
CONTINUOUS
 62
     3
 10
38.454575063598881
 20
1.817631288927066
 30
0.0
 11
38.454575063598881
 21
0.2739737399220736
 31
0.0
  0
LINE
  5
71A
  8
TITLEBLOCK_NOTES
  6
CONTINUOUS
 62
     3
 10
39.091640063598867
 20
-0.3630912110729412
 30
0.0
 11
39.091640063598867
 21
1.842133788927063
 31
0.0
  0
LINE
  5
71B
  8
TITLEBLOCK_NOTES
  6
CONTINUOUS
 62
     3
 10
39.067137563598891
 20
1.8666362889270709
 30
0.0
 11
39.067137563598891
 21
-0.3875937110729346
 31
0.0
  0
LINE
  5
71C
  8
TITLEBLOCK_NOTES
  6
CONTINUOUS
 62
     3
 10
39.116142563598899
 20
-0.3385887110729442
 30
0.0
 11
39.116142563598899
 21
1.817631288927066
 31
0.0
  0
LINE
  5
71D
  8
TITLEBLOCK_NOTES
  6
CONTINUOUS
 62
     3
 10
40.696553813598932
 20
1.425591288927075
 30
0.0
 11
40.696553813598932
 21
-0.3630912110729412
 31
0.0
  0
LINE
  5
71E
  8
TITLEBLOCK_NOTES
  6
CONTINUOUS
 62
     3
 10
40.672051313598892
 20
1.4010887889270791
 30
0.0
 11
40.672051313598892
 21
-0.3875937110729346
 31
0.0
  0
LINE
  5
71F
  8
TITLEBLOCK_NOTES
  6
CONTINUOUS
 62
     3
 10
40.721056313598922
 20
1.4500937889270651
 30
0.0
 11
40.721056313598922
 21
-0.3385887110729442
 31
0.0
  0
LINE
  5
720
  8
TITLEBLOCK_NOTES
  6
CONTINUOUS
 62
     3
 10
39.532685063598869
 20
1.197930230577074
 30
0.0
 11
40.672051313598892
 21
1.197930230577074
 31
0.0
  0
LINE
  5
721
  8
TITLEBLOCK_NOTES
  6
CONTINUOUS
 62
     3
 10
39.532685063598869
 20
1.2224327305770719
 30
0.0
 11
40.672051313598892
 21
1.2224327305770719
 31
0.0
  0
LINE
  5
722
  8
TITLEBLOCK_NOTES
  6
CONTINUOUS
 62
     3
 10
39.532685063598869
 20
1.2469352305770789
 30
0.0
 11
40.672051313598892
 21
1.2469352305770789
 31
0.0
  0
LINE
  5
723
  8
TITLEBLOCK_NOTES
  6
CONTINUOUS
 62
     3
 10
39.532685063598869
 20
0.8516852560620725
 30
0.0
 11
40.672051313598892
 21
0.8715729552120697
 31
0.0
  0
LINE
  5
724
  8
TITLEBLOCK_NOTES
  6
CONTINUOUS
 62
     3
 10
39.532685063598869
 20
0.8712902453670672
 30
0.0
 11
40.672051313598892
 21
0.8911779445170784
 31
0.0
  0
LINE
  5
725
  8
TITLEBLOCK_NOTES
  6
CONTINUOUS
 62
     3
 10
39.532685063598869
 20
0.8908952346720724
 30
0.0
 11
40.672051313598892
 21
0.9107829338220732
 31
0.0
  0
LINE
  5
726
  8
TITLEBLOCK_NOTES
  6
CONTINUOUS
 62
     3
 10
39.532685063598869
 20
0.9105002239770776
 30
0.0
 11
40.672051313598892
 21
0.930387923127064
 31
0.0
  0
LINE
  5
727
  8
TITLEBLOCK_NOTES
  6
CONTINUOUS
 62
     3
 10
39.532685063598869
 20
0.930105213282072
 30
0.0
 11
40.672051313598892
 21
0.9499929124320587
 31
0.0
  0
LINE
  5
728
  8
TITLEBLOCK_NOTES
  6
CONTINUOUS
 62
     3
 10
39.532685063598869
 20
0.9497102025870631
 30
0.0
 11
40.672051313598892
 21
0.9695979017370676
 31
0.0
  0
LINE
  5
729
  8
TITLEBLOCK_NOTES
  6
CONTINUOUS
 62
     3
 10
39.532685063598869
 20
0.9693151918920575
 30
0.0
 11
40.672051313598892
 21
0.9892028910420831
 31
0.0
  0
LINE
  5
72A
  8
TITLEBLOCK_NOTES
  6
CONTINUOUS
 62
     3
 10
39.532685063598869
 20
0.9889201321920602
 30
0.0
 11
40.672051313598892
 21
1.0088078803470739
 31
0.0
  0
LINE
  5
72B
  8
TITLEBLOCK_NOTES
  6
CONTINUOUS
 62
     3
 10
39.532685063598869
 20
1.008525121497079
 30
0.0
 11
40.672051313598892
 21
1.028412869652072
 31
0.0
  0
LINE
  5
72C
  8
TITLEBLOCK_NOTES
  6
CONTINUOUS
 62
     3
 10
39.532685063598869
 20
1.0281301108020691
 30
0.0
 11
40.672051313598892
 21
1.0480178589570761
 31
0.0
  0
LINE
  5
72D
  8
TITLEBLOCK_NOTES
  6
CONTINUOUS
 62
     3
 10
39.532685063598869
 20
1.0477351001070681
 30
0.0
 11
40.672051313598892
 21
1.0676228482620671
 31
0.0
  0
LINE
  5
72E
  8
TITLEBLOCK_NOTES
  6
CONTINUOUS
 62
     3
 10
39.532685063598869
 20
0.3572125058070696
 30
0.0
 11
40.672051313598892
 21
0.3771002049570669
 31
0.0
  0
LINE
  5
72F
  8
TITLEBLOCK_NOTES
  6
CONTINUOUS
 62
     3
 10
39.532685063598869
 20
0.3768174951120748
 30
0.0
 11
40.672051313598892
 21
0.3967051942620614
 31
0.0
  0
LINE
  5
730
  8
TITLEBLOCK_NOTES
  6
CONTINUOUS
 62
     3
 10
39.532685063598869
 20
0.3964224844170658
 30
0.0
 11
40.672051313598892
 21
0.4163101835670703
 31
0.0
  0
LINE
  5
731
  8
TITLEBLOCK_NOTES
  6
CONTINUOUS
 62
     3
 10
39.532685063598869
 20
0.4160274737220604
 30
0.0
 11
40.672051313598892
 21
0.4359151728720719
 31
0.0
  0
LINE
  5
732
  8
TITLEBLOCK_NOTES
  6
CONTINUOUS
 62
     3
 10
39.532685063598869
 20
0.4356324140220666
 30
0.0
 11
40.672051313598892
 21
0.4555201621770665
 31
0.0
  0
LINE
  5
733
  8
TITLEBLOCK_NOTES
  6
CONTINUOUS
 62
     3
 10
39.532685063598869
 20
0.4552374033270681
 30
0.0
 11
40.672051313598892
 21
0.4751251514820575
 31
0.0
  0
LINE
  5
734
  8
TITLEBLOCK_NOTES
  6
CONTINUOUS
 62
     3
 10
39.532685063598869
 20
0.4748423926320628
 30
0.0
 11
40.672051313598892
 21
0.4947301407870805
 31
0.0
  0
LINE
  5
735
  8
TITLEBLOCK_NOTES
  6
CONTINUOUS
 62
     3
 10
39.532685063598869
 20
0.4944473819370537
 30
0.0
 11
40.672051313598892
 21
0.5143351300920749
 31
0.0
  0
LINE
  5
736
  8
TITLEBLOCK_NOTES
  6
CONTINUOUS
 62
     3
 10
39.532685063598869
 20
0.5140523712420766
 30
0.0
 11
40.672051313598892
 21
0.5339400703920774
 31
0.0
  0
LINE
  5
737
  8
TITLEBLOCK_NOTES
  6
CONTINUOUS
 62
     3
 10
39.532685063598869
 20
0.5336573605470676
 30
0.0
 11
40.672051313598892
 21
0.5535450596970684
 31
0.0
  0
LINE
  5
738
  8
TITLEBLOCK_NOTES
  6
CONTINUOUS
 62
     3
 10
39.532685063598869
 20
0.5532623498520765
 30
0.0
 11
40.672051313598892
 21
0.5731500490020629
 31
0.0
  0
LINE
  5
739
  8
TITLEBLOCK_NOTES
  6
CONTINUOUS
 62
     3
 10
39.532685063598869
 20
0.5728673391570675
 30
0.0
 11
40.672051313598892
 21
0.5927550383070717
 31
0.0
  0
LINE
  5
73A
  8
TITLEBLOCK_NOTES
  6
CONTINUOUS
 62
     3
 10
39.532685063598869
 20
0.5924723284620619
 30
0.0
 11
40.672051313598892
 21
0.6123600276120769
 31
0.0
  0
LINE
  5
73B
  8
TITLEBLOCK_NOTES
  6
CONTINUOUS
 62
     3
 10
39.532685063598869
 20
0.6120773177670708
 30
0.0
 11
40.672051313598892
 21
0.6319650169170679
 31
0.0
  0
LINE
  5
73C
  8
TITLEBLOCK_NOTES
  6
CONTINUOUS
 62
     3
 10
39.532685063598869
 20
0.631682307072076
 30
0.0
 11
40.672051313598892
 21
0.6515700062220624
 31
0.0
  0
LINE
  5
73D
  8
TITLEBLOCK_NOTES
  6
CONTINUOUS
 62
     3
 10
39.532685063598869
 20
0.651287296377067
 30
0.0
 11
40.672051313598892
 21
0.6711749955270819
 31
0.0
  0
LINE
  5
73E
  8
TITLEBLOCK_NOTES
  6
CONTINUOUS
 62
     3
 10
39.532685063598869
 20
0.6708922856820614
 30
0.0
 11
40.672051313598892
 21
0.6907799848320729
 31
0.0
  0
LINE
  5
73F
  8
TITLEBLOCK_NOTES
  6
CONTINUOUS
 62
     3
 10
39.532685063598869
 20
0.6904972749870808
 30
0.0
 11
40.672051313598892
 21
0.7103849741370816
 31
0.0
  0
LINE
  5
740
  8
TITLEBLOCK_NOTES
  6
CONTINUOUS
 62
     3
 10
39.532685063598869
 20
0.7101022152870691
 30
0.0
 11
40.672051313598892
 21
0.7299899634420762
 31
0.0
  0
LINE
  5
741
  8
TITLEBLOCK_NOTES
  6
CONTINUOUS
 62
     3
 10
39.532685063598869
 20
1.2714377305770621
 30
0.0
 11
40.672051313598892
 21
1.2714377305770621
 31
0.0
  0
LINE
  5
742
  8
TITLEBLOCK_NOTES
  6
CONTINUOUS
 62
     3
 10
39.532685063598869
 20
1.1749711920570609
 30
0.0
 11
40.672051313598892
 21
1.1749711920570609
 31
0.0
  0
LINE
  5
743
  8
TITLEBLOCK_NOTES
  6
CONTINUOUS
 62
     3
 10
39.532685063598869
 20
1.078504653537069
 30
0.0
 11
40.672051313598892
 21
1.078504653537069
 31
0.0
  0
LINE
  5
744
  8
TITLEBLOCK_NOTES
  6
CONTINUOUS
 62
     3
 10
39.532685063598869
 20
0.8373383562420675
 30
0.0
 11
40.672051313598892
 21
0.8373383562420675
 31
0.0
  0
LINE
  5
745
  8
TITLEBLOCK_NOTES
  6
CONTINUOUS
 62
     3
 10
39.532685063598869
 20
0.7408718177220628
 30
0.0
 11
40.672051313598892
 21
0.7408718177220628
 31
0.0
  0
LINE
  5
746
  8
TITLEBLOCK_NOTES
  6
CONTINUOUS
 62
     3
 10
39.532685063598869
 20
0.3550056636420678
 30
0.0
 11
40.672051313598892
 21
0.3550056636420678
 31
0.0
  0
LINE
  5
747
  8
TITLEBLOCK_NOTES
  6
CONTINUOUS
 62
     3
 10
39.532685063598869
 20
1.067340089412073
 30
0.0
 11
40.172303273103957
 21
1.078504653537069
 31
0.0
  0
LINE
  5
748
  8
TITLEBLOCK_NOTES
  6
CONTINUOUS
 62
     3
 10
39.532685063598869
 20
0.7297072045920781
 30
0.0
 11
40.172303273103957
 21
0.7408718177220628
 31
0.0
  0
LINE
  5
749
  8
TITLEBLOCK_NOTES
  6
CONTINUOUS
 62
     3
 10
39.532685063598869
 20
1.585339846137066
 30
0.0
 11
40.120745063598903
 21
1.585339846137066
 31
0.0
  0
LINE
  5
74A
  8
TITLEBLOCK_NOTES
  6
CONTINUOUS
 62
     3
 10
39.532685063598869
 20
1.6098423461370639
 30
0.0
 11
40.120745063598903
 21
1.6098423461370639
 31
0.0
  0
LINE
  5
74B
  8
TITLEBLOCK_NOTES
  6
CONTINUOUS
 62
     3
 10
39.532685063598869
 20
1.6343448461370811
 30
0.0
 11
40.120745063598903
 21
1.6343448461370811
 31
0.0
  0
LINE
  5
74C
  8
TITLEBLOCK_NOTES
  6
CONTINUOUS
 62
     3
 10
39.532685063598869
 20
1.5608373461370699
 30
0.0
 11
40.120745063598903
 21
1.5608373461370699
 31
0.0
  0
LINE
  5
74D
  8
TITLEBLOCK_NOTES
  6
CONTINUOUS
 62
     3
 10
39.091640063598867
 20
1.842133788927063
 30
0.0
 11
39.508182563598929
 21
1.842133788927063
 31
0.0
  0
LINE
  5
74E
  8
TITLEBLOCK_NOTES
  6
CONTINUOUS
 62
     3
 10
39.067137563598891
 20
1.8666362889270709
 30
0.0
 11
39.532685063598869
 21
1.8666362889270709
 31
0.0
  0
LINE
  5
74F
  8
TITLEBLOCK_NOTES
  6
CONTINUOUS
 62
     3
 10
39.116142563598899
 20
1.817631288927066
 30
0.0
 11
39.483680063598918
 21
1.817631288927066
 31
0.0
  0
LINE
  5
750
  8
TITLEBLOCK_NOTES
  6
CONTINUOUS
 62
     3
 10
38.430072563598927
 20
1.842133788927063
 30
0.0
 11
38.846615063598961
 21
1.842133788927063
 31
0.0
  0
LINE
  5
751
  8
TITLEBLOCK_NOTES
  6
CONTINUOUS
 62
     3
 10
38.871117563598929
 20
1.8666362889270709
 30
0.0
 11
38.405570063598923
 21
1.8666362889270709
 31
0.0
  0
LINE
  5
752
  8
TITLEBLOCK_NOTES
  6
CONTINUOUS
 62
     3
 10
38.822112563598921
 20
1.817631288927066
 30
0.0
 11
38.454575063598881
 21
1.817631288927066
 31
0.0
  0
LINE
  5
753
  8
TITLEBLOCK_NOTES
  6
CONTINUOUS
 62
     3
 10
39.067137563598891
 20
1.2224327305770719
 30
0.0
 11
38.871117563598929
 21
1.2224327305770719
 31
0.0
  0
LINE
  5
754
  8
TITLEBLOCK_NOTES
  6
CONTINUOUS
 62
     3
 10
39.067137563598891
 20
1.2469352305770789
 30
0.0
 11
38.871117563598929
 21
1.2469352305770789
 31
0.0
  0
LINE
  5
755
  8
TITLEBLOCK_NOTES
  6
CONTINUOUS
 62
     3
 10
39.067137563598891
 20
1.585339846137066
 30
0.0
 11
38.871117563598929
 21
1.585339846137066
 31
0.0
  0
LINE
  5
756
  8
TITLEBLOCK_NOTES
  6
CONTINUOUS
 62
     3
 10
39.067137563598891
 20
1.6098423461370639
 30
0.0
 11
38.871117563598929
 21
1.6098423461370639
 31
0.0
  0
LINE
  5
757
  8
TITLEBLOCK_NOTES
  6
CONTINUOUS
 62
     3
 10
39.067137563598891
 20
1.6343448461370811
 30
0.0
 11
38.871117563598929
 21
1.6343448461370811
 31
0.0
  0
LINE
  5
758
  8
TITLEBLOCK_NOTES
  6
CONTINUOUS
 62
     3
 10
39.067137563598891
 20
1.5608373461370699
 30
0.0
 11
38.871117563598929
 21
1.5608373461370699
 31
0.0
  0
LINE
  5
759
  8
TITLEBLOCK_NOTES
  6
CONTINUOUS
 62
     3
 10
39.067137563598891
 20
1.2714377305770621
 30
0.0
 11
38.871117563598929
 21
1.2714377305770621
 31
0.0
  0
LINE
  5
75A
  8
TITLEBLOCK_NOTES
  6
CONTINUOUS
 62
     3
 10
39.067137563598891
 20
1.197930230577074
 30
0.0
 11
38.871117563598929
 21
1.197930230577074
 31
0.0
  0
LINE
  5
75B
  8
TITLEBLOCK_NOTES
  6
CONTINUOUS
 62
     3
 10
39.067137563598891
 20
1.1749711920570609
 30
0.0
 11
38.871117563598929
 21
1.1749711920570609
 31
0.0
  0
LINE
  5
75C
  8
TITLEBLOCK_NOTES
  6
CONTINUOUS
 62
     3
 10
38.871117563598929
 20
0.3652697608920796
 30
0.0
 11
39.067137563598891
 21
0.3686913389970741
 31
0.0
  0
LINE
  5
75D
  8
TITLEBLOCK_NOTES
  6
CONTINUOUS
 62
     3
 10
39.067137563598891
 20
0.3550056636420678
 30
0.0
 11
38.871117563598929
 21
0.3550056636420678
 31
0.0
  0
LINE
  5
75E
  8
TITLEBLOCK_NOTES
  6
CONTINUOUS
 62
     3
 10
38.871117563598929
 20
0.8401375708470695
 30
0.0
 11
39.067137563598891
 21
0.8435590999470684
 31
0.0
  0
LINE
  5
75F
  8
TITLEBLOCK_NOTES
  6
CONTINUOUS
 62
     3
 10
38.871117563598929
 20
0.8597425601520605
 30
0.0
 11
39.067137563598891
 21
0.8631640892520771
 31
0.0
  0
LINE
  5
760
  8
TITLEBLOCK_NOTES
  6
CONTINUOUS
 62
     3
 10
38.871117563598929
 20
0.8793475004520772
 30
0.0
 11
39.067137563598891
 21
0.8827690785570679
 31
0.0
  0
LINE
  5
761
  8
TITLEBLOCK_NOTES
  6
CONTINUOUS
 62
     3
 10
38.871117563598929
 20
0.8989524897570715
 30
0.0
 11
39.067137563598891
 21
0.9023740678620627
 31
0.0
  0
LINE
  5
762
  8
TITLEBLOCK_NOTES
  6
CONTINUOUS
 62
     3
 10
38.871117563598929
 20
0.9185574790620803
 30
0.0
 11
39.067137563598891
 21
0.9219790571670679
 31
0.0
  0
LINE
  5
763
  8
TITLEBLOCK_NOTES
  6
CONTINUOUS
 62
     3
 10
38.871117563598929
 20
0.9381624683670716
 30
0.0
 11
39.067137563598891
 21
0.9415839974670843
 31
0.0
  0
LINE
  5
764
  8
TITLEBLOCK_NOTES
  6
CONTINUOUS
 62
     3
 10
38.871117563598929
 20
0.9577674576720658
 30
0.0
 11
39.067137563598891
 21
0.9611889867720757
 31
0.0
  0
LINE
  5
765
  8
TITLEBLOCK_NOTES
  6
CONTINUOUS
 62
     3
 10
38.871117563598929
 20
0.9773724469770675
 30
0.0
 11
39.067137563598891
 21
0.9807939760770699
 31
0.0
  0
LINE
  5
766
  8
TITLEBLOCK_NOTES
  6
CONTINUOUS
 62
     3
 10
38.871117563598929
 20
0.9969774362820763
 30
0.0
 11
39.067137563598891
 21
1.0003989653820771
 31
0.0
  0
LINE
  5
767
  8
TITLEBLOCK_NOTES
  6
CONTINUOUS
 62
     3
 10
38.871117563598929
 20
1.0165824255870699
 30
0.0
 11
39.067137563598891
 21
1.0200039546870681
 31
0.0
  0
LINE
  5
768
  8
TITLEBLOCK_NOTES
  6
CONTINUOUS
 62
     3
 10
38.871117563598929
 20
1.036187414892062
 30
0.0
 11
39.067137563598891
 21
1.039608943992077
 31
0.0
  0
LINE
  5
769
  8
TITLEBLOCK_NOTES
  6
CONTINUOUS
 62
     3
 10
38.871117563598929
 20
1.055792404197055
 30
0.0
 11
39.067137563598891
 21
1.059213933297072
 31
0.0
  0
LINE
  5
76A
  8
TITLEBLOCK_NOTES
  6
CONTINUOUS
 62
     3
 10
38.871117563598929
 20
1.075397393502064
 30
0.0
 11
39.049134400728917
 21
1.078504653537069
 31
0.0
  0
LINE
  5
76B
  8
TITLEBLOCK_NOTES
  6
CONTINUOUS
 62
     3
 10
38.871117563598929
 20
0.3848747501970742
 30
0.0
 11
39.067137563598891
 21
0.3882962792970729
 31
0.0
  0
LINE
  5
76C
  8
TITLEBLOCK_NOTES
  6
CONTINUOUS
 62
     3
 10
38.871117563598929
 20
0.4044797395020653
 30
0.0
 11
39.067137563598891
 21
0.4079012686020677
 31
0.0
  0
LINE
  5
76D
  8
TITLEBLOCK_NOTES
  6
CONTINUOUS
 62
     3
 10
38.871117563598929
 20
0.4240847288070741
 30
0.0
 11
39.067137563598891
 21
0.4275062579070587
 31
0.0
  0
LINE
  5
76E
  8
TITLEBLOCK_NOTES
  6
CONTINUOUS
 62
     3
 10
38.871117563598929
 20
0.4436897181120793
 30
0.0
 11
39.067137563598891
 21
0.4471112472120815
 31
0.0
  0
LINE
  5
76F
  8
TITLEBLOCK_NOTES
  6
CONTINUOUS
 62
     3
 10
38.871117563598929
 20
0.4632947074170737
 30
0.0
 11
39.067137563598891
 21
0.4667162365170725
 31
0.0
  0
LINE
  5
770
  8
TITLEBLOCK_NOTES
  6
CONTINUOUS
 62
     3
 10
38.871117563598929
 20
0.4828996967220647
 30
0.0
 11
39.067137563598891
 21
0.4863212258220814
 31
0.0
  0
LINE
  5
771
  8
TITLEBLOCK_NOTES
  6
CONTINUOUS
 62
     3
 10
38.871117563598929
 20
0.5025046860270628
 30
0.0
 11
39.067137563598891
 21
0.5059262151270723
 31
0.0
  0
LINE
  5
772
  8
TITLEBLOCK_NOTES
  6
CONTINUOUS
 62
     3
 10
38.871117563598929
 20
0.522109675332068
 30
0.0
 11
39.067137563598891
 21
0.5255312044320668
 31
0.0
  0
LINE
  5
773
  8
TITLEBLOCK_NOTES
  6
CONTINUOUS
 62
     3
 10
38.871117563598929
 20
0.5417146646370874
 30
0.0
 11
39.067137563598891
 21
0.545136193737072
 31
0.0
  0
LINE
  5
774
  8
TITLEBLOCK_NOTES
  6
CONTINUOUS
 62
     3
 10
38.871117563598929
 20
0.561319653942068
 30
0.0
 11
39.067137563598891
 21
0.5647411830420666
 31
0.0
  0
LINE
  5
775
  8
TITLEBLOCK_NOTES
  6
CONTINUOUS
 62
     3
 10
38.871117563598929
 20
0.580924643247059
 30
0.0
 11
39.067137563598891
 21
0.5843461723470718
 31
0.0
  0
LINE
  5
776
  8
TITLEBLOCK_NOTES
  6
CONTINUOUS
 62
     3
 10
38.871117563598929
 20
0.6005295835470719
 30
0.0
 11
39.067137563598891
 21
0.6039511616520663
 31
0.0
  0
LINE
  5
777
  8
TITLEBLOCK_NOTES
  6
CONTINUOUS
 62
     3
 10
38.871117563598929
 20
0.6201345728520809
 30
0.0
 11
39.067137563598891
 21
0.6235561509570573
 31
0.0
  0
LINE
  5
778
  8
TITLEBLOCK_NOTES
  6
CONTINUOUS
 62
     3
 10
38.871117563598929
 20
0.6397395621570752
 30
0.0
 11
39.067137563598891
 21
0.6431611402620661
 31
0.0
  0
LINE
  5
779
  8
TITLEBLOCK_NOTES
  6
CONTINUOUS
 62
     3
 10
38.871117563598929
 20
0.6593445514620662
 30
0.0
 11
39.067137563598891
 21
0.6627661295670855
 31
0.0
  0
LINE
  5
77A
  8
TITLEBLOCK_NOTES
  6
CONTINUOUS
 62
     3
 10
38.871117563598929
 20
0.6789495407670607
 30
0.0
 11
39.067137563598891
 21
0.6823710698670773
 31
0.0
  0
LINE
  5
77B
  8
TITLEBLOCK_NOTES
  6
CONTINUOUS
 62
     3
 10
38.871117563598929
 20
0.6985545300720695
 30
0.0
 11
39.067137563598891
 21
0.7019760591720683
 31
0.0
  0
LINE
  5
77C
  8
TITLEBLOCK_NOTES
  6
CONTINUOUS
 62
     3
 10
38.871117563598929
 20
0.7181595193770747
 30
0.0
 11
39.067137563598891
 21
0.7215810484770735
 31
0.0
  0
LINE
  5
77D
  8
TITLEBLOCK_NOTES
  6
CONTINUOUS
 62
     3
 10
38.871117563598929
 20
0.7377645086820657
 30
0.0
 11
39.049134400728917
 21
0.7408718177220628
 31
0.0
  0
LINE
  5
77E
  8
TITLEBLOCK_NOTES
  6
CONTINUOUS
 62
     3
 10
39.067137563598891
 20
1.078504653537069
 30
0.0
 11
38.871117563598929
 21
1.078504653537069
 31
0.0
  0
LINE
  5
77F
  8
TITLEBLOCK_NOTES
  6
CONTINUOUS
 62
     3
 10
39.067137563598891
 20
0.8373383562420675
 30
0.0
 11
38.871117563598929
 21
0.8373383562420675
 31
0.0
  0
LINE
  5
780
  8
TITLEBLOCK_NOTES
  6
CONTINUOUS
 62
     3
 10
39.067137563598891
 20
0.7408718177220628
 30
0.0
 11
38.871117563598929
 21
0.7408718177220628
 31
0.0
  0
LINE
  5
781
  8
TITLEBLOCK_NOTES
  6
CONTINUOUS
 62
     3
 10
40.145247563598893
 20
1.425591288927075
 30
0.0
 11
40.696553813598932
 21
1.425591288927075
 31
0.0
  0
LINE
  5
782
  8
TITLEBLOCK_NOTES
  6
CONTINUOUS
 62
     3
 10
40.120745063598903
 20
1.4010887889270791
 30
0.0
 11
40.672051313598892
 21
1.4010887889270791
 31
0.0
  0
LINE
  5
783
  8
TITLEBLOCK_NOTES
  6
CONTINUOUS
 62
     3
 10
40.145247563598893
 20
1.842133788927063
 30
0.0
 11
40.145247563598893
 21
1.425591288927075
 31
0.0
  0
LINE
  5
784
  8
TITLEBLOCK_NOTES
  6
CONTINUOUS
 62
     3
 10
40.120745063598903
 20
1.8666362889270709
 30
0.0
 11
40.120745063598903
 21
1.4010887889270791
 31
0.0
  0
LINE
  5
785
  8
TITLEBLOCK_NOTES
  6
CONTINUOUS
 62
     3
 10
40.169750063598919
 20
1.4500937889270651
 30
0.0
 11
40.169750063598919
 21
1.817631288927066
 31
0.0
  0
LINE
  5
786
  8
TITLEBLOCK_NOTES
  6
CONTINUOUS
 62
     3
 10
40.169750063598919
 20
1.4500937889270651
 30
0.0
 11
40.721056313598922
 21
1.4500937889270651
 31
0.0
  0
LINE
  5
787
  8
TITLEBLOCK_NOTES
  6
CONTINUOUS
 62
     3
 10
40.529424662343942
 20
0.3550056636420678
 30
0.0
 11
40.672051313598892
 21
0.3574952156520759
 31
0.0
  0
LINE
  5
788
  8
TITLEBLOCK_NOTES
  6
CONTINUOUS
 62
     3
 10
39.833919680688901
 20
0.8373383562420675
 30
0.0
 11
40.672051313598892
 21
0.8519679659070683
 31
0.0
  0
LINE
  5
789
  8
TITLEBLOCK_NOTES
  6
CONTINUOUS
 62
     3
 10
39.532685063598869
 20
0.0813053878920656
 30
0.0
 11
40.672051313598892
 21
0.1011930870420628
 31
0.0
  0
LINE
  5
78A
  8
TITLEBLOCK_NOTES
  6
CONTINUOUS
 62
     3
 10
39.532685063598869
 20
0.1009103281920822
 30
0.0
 11
40.672051313598892
 21
0.1207980763470609
 31
0.0
  0
LINE
  5
78B
  8
TITLEBLOCK_NOTES
  6
CONTINUOUS
 62
     3
 10
39.532685063598869
 20
0.1205153174970768
 30
0.0
 11
40.672051313598892
 21
0.1404030656520803
 31
0.0
  0
LINE
  5
78C
  8
TITLEBLOCK_NOTES
  6
CONTINUOUS
 62
     3
 10
39.532685063598869
 20
0.140120306802082
 30
0.0
 11
40.672051313598892
 21
0.1600080549570748
 31
0.0
  0
LINE
  5
78D
  8
TITLEBLOCK_NOTES
  6
CONTINUOUS
 62
     3
 10
39.532685063598869
 20
0.159725296107073
 30
0.0
 11
40.672051313598892
 21
0.1796130442620658
 31
0.0
  0
LINE
  5
78E
  8
TITLEBLOCK_NOTES
  6
CONTINUOUS
 62
     3
 10
39.532685063598869
 20
0.1793302854120675
 30
0.0
 11
40.672051313598892
 21
0.1992179845620683
 31
0.0
  0
LINE
  5
78F
  8
TITLEBLOCK_NOTES
  6
CONTINUOUS
 62
     3
 10
39.532685063598869
 20
0.1989352747170727
 30
0.0
 11
40.672051313598892
 21
0.218822973867077
 31
0.0
  0
LINE
  5
790
  8
TITLEBLOCK_NOTES
  6
CONTINUOUS
 62
     3
 10
39.532685063598869
 20
0.2185402640220673
 30
0.0
 11
40.672051313598892
 21
0.238427963172068
 31
0.0
  0
LINE
  5
791
  8
TITLEBLOCK_NOTES
  6
CONTINUOUS
 62
     3
 10
39.532685063598869
 20
0.238145253327076
 30
0.0
 11
40.672051313598892
 21
0.2580329524770626
 31
0.0
  0
LINE
  5
792
  8
TITLEBLOCK_NOTES
  6
CONTINUOUS
 62
     3
 10
39.532685063598869
 20
0.2585391251220805
 30
0.0
 11
40.672051313598892
 21
0.2585391251220805
 31
0.0
  0
LINE
  5
793
  8
TITLEBLOCK_NOTES
  6
CONTINUOUS
 62
     3
 10
40.463780063598882
 20
0.0779537889270614
 30
0.0
 11
39.532685063598869
 21
0.0779537889270614
 31
0.0
  0
LINE
  5
794
  8
TITLEBLOCK_NOTES
  6
CONTINUOUS
 62
     3
 10
40.439277563598907
 20
0.0534512889270644
 30
0.0
 11
39.508182563598929
 21
0.0534512889270644
 31
0.0
  0
LINE
  5
795
  8
TITLEBLOCK_NOTES
  6
CONTINUOUS
 62
     3
 10
39.483680063598918
 20
0.028948788927071
 30
0.0
 11
40.414775063598931
 21
0.028948788927071
 31
0.0
  0
LINE
  5
796
  8
TITLEBLOCK_NOTES
  6
CONTINUOUS
 62
     3
 10
39.067137563598891
 20
-0.3875937110729346
 30
0.0
 11
40.463780063598882
 21
-0.3875937110729346
 31
0.0
  0
LINE
  5
797
  8
TITLEBLOCK_NOTES
  6
CONTINUOUS
 62
     3
 10
40.439277563598907
 20
-0.3630912110729412
 30
0.0
 11
39.091640063598867
 21
-0.3630912110729412
 31
0.0
  0
LINE
  5
798
  8
TITLEBLOCK_NOTES
  6
CONTINUOUS
 62
     3
 10
39.116142563598899
 20
-0.3385887110729442
 30
0.0
 11
40.414775063598931
 21
-0.3385887110729442
 31
0.0
  0
LINE
  5
799
  8
TITLEBLOCK_NOTES
  6
CONTINUOUS
 62
     3
 10
39.532685063598869
 20
0.257750242632067
 30
0.0
 11
39.577880414898893
 21
0.2585391251220805
 31
0.0
  0
LINE
  5
79A
  8
TITLEBLOCK_NOTES
  6
CONTINUOUS
 62
     3
 10
38.786729728473901
 20
-0.0493452254429272
 30
0.0
 11
39.067137563598891
 21
-0.0444507040529345
 31
0.0
  0
LINE
  5
79B
  8
TITLEBLOCK_NOTES
  6
CONTINUOUS
 62
     3
 10
38.797378416963952
 20
-0.0295544091779263
 30
0.0
 11
39.067137563598891
 21
-0.0248457147479293
 31
0.0
  0
LINE
  5
79C
  8
TITLEBLOCK_NOTES
  6
CONTINUOUS
 62
     3
 10
38.807175545568903
 20
-0.009778392422934
 30
0.0
 11
39.067137563598891
 21
-0.0052407254429205
 31
0.0
  0
LINE
  5
79D
  8
TITLEBLOCK_NOTES
  6
CONTINUOUS
 62
     3
 10
38.816164140678879
 20
0.0099835108920665
 30
0.0
 11
39.067137563598891
 21
0.0143642638620705
 31
0.0
  0
LINE
  5
79E
  8
TITLEBLOCK_NOTES
  6
CONTINUOUS
 62
     3
 10
38.824381299078937
 20
0.0297318888270652
 30
0.0
 11
39.067137563598891
 21
0.033969253167065
 31
0.0
  0
LINE
  5
79F
  8
TITLEBLOCK_NOTES
  6
CONTINUOUS
 62
     3
 10
38.831859021033928
 20
0.0494674274520719
 30
0.0
 11
39.067137563598891
 21
0.0535741934670639
 31
0.0
  0
LINE
  5
7A0
  8
TITLEBLOCK_NOTES
  6
CONTINUOUS
 62
     3
 10
38.838625043373924
 20
0.0691905188070621
 30
0.0
 11
39.067137563598891
 21
0.0731791827720869
 31
0.0
  0
LINE
  5
7A1
  8
TITLEBLOCK_NOTES
  6
CONTINUOUS
 62
     3
 10
38.844703427553902
 20
0.088901603937078
 30
0.0
 11
39.067137563598891
 21
0.0927841720770779
 31
0.0
  0
LINE
  5
7A2
  8
TITLEBLOCK_NOTES
  6
CONTINUOUS
 62
     3
 10
38.850114951693918
 20
0.1086010258770749
 30
0.0
 11
39.067137563598891
 21
0.1123891613820724
 31
0.0
  0
LINE
  5
7A3
  8
TITLEBLOCK_NOTES
  6
CONTINUOUS
 62
     3
 10
38.854877502618933
 20
0.128289127662061
 30
0.0
 11
39.067137563598891
 21
0.131994150687067
 31
0.0
  0
LINE
  5
7A4
  8
TITLEBLOCK_NOTES
  6
CONTINUOUS
 62
     3
 10
38.859006467898901
 20
0.1479662033220705
 30
0.0
 11
39.067137563598891
 21
0.1515991399920722
 31
0.0
  0
LINE
  5
7A5
  8
TITLEBLOCK_NOTES
  6
CONTINUOUS
 62
     3
 10
38.862514882863898
 20
0.1676324488770788
 30
0.0
 11
39.067137563598891
 21
0.1712041292970774
 31
0.0
  0
LINE
  5
7A6
  8
TITLEBLOCK_NOTES
  6
CONTINUOUS
 62
     3
 10
38.865413724633889
 20
0.1872880113420763
 30
0.0
 11
39.067137563598891
 21
0.1908091186020719
 31
0.0
  0
LINE
  5
7A7
  8
TITLEBLOCK_NOTES
  6
CONTINUOUS
 62
     3
 10
38.867711961123952
 20
0.20693313574208
 30
0.0
 11
39.067137563598891
 21
0.2104141079070665
 31
0.0
  0
LINE
  5
7A8
  8
TITLEBLOCK_NOTES
  6
CONTINUOUS
 62
     3
 10
38.869416894078888
 20
0.226567871082068
 30
0.0
 11
39.067137563598891
 21
0.2300190972120717
 31
0.0
  0
LINE
  5
7A9
  8
TITLEBLOCK_NOTES
  6
CONTINUOUS
 62
     3
 10
38.870533963053937
 20
0.2461923643770625
 30
0.0
 11
39.067137563598891
 21
0.2496240865170627
 31
0.0
  0
LINE
  5
7AA
  8
TITLEBLOCK_NOTES
  6
CONTINUOUS
 62
     3
 10
39.067137563598891
 20
0.2585391251220805
 30
0.0
 11
38.8709374702239
 21
0.2585391251220805
 31
0.0
  0
LINE
  5
7AB
  8
TITLEBLOCK_NOTES
  6
CONTINUOUS
 62
     3
 10
38.7751792009689
 20
-0.0691518703229228
 30
0.0
 11
39.067137563598891
 21
-0.0640556933579291
 31
0.0
  0
LINE
  5
7AC
  8
TITLEBLOCK_NOTES
  6
CONTINUOUS
 62
     3
 10
38.359004826528903
 20
-0.3704909660729321
 30
0.0
 11
39.067137563598891
 21
-0.3581304839279298
 31
0.0
  0
LINE
  5
7AD
  8
TITLEBLOCK_NOTES
  6
CONTINUOUS
 62
     3
 10
38.430407071728922
 20
-0.3496396816079219
 30
0.0
 11
39.067137563598891
 21
-0.3385254946229352
 31
0.0
  0
LINE
  5
7AE
  8
TITLEBLOCK_NOTES
  6
CONTINUOUS
 62
     3
 10
38.481433282953887
 20
-0.3291440264279366
 30
0.0
 11
39.067137563598891
 21
-0.3189205053179442
 31
0.0
  0
LINE
  5
7AF
  8
TITLEBLOCK_NOTES
  6
CONTINUOUS
 62
     3
 10
38.522636588943897
 20
-0.3088198397429203
 30
0.0
 11
39.067137563598891
 21
-0.2993155160129248
 31
0.0
  0
LINE
  5
7B0
  8
TITLEBLOCK_NOTES
  6
CONTINUOUS
 62
     3
 10
38.557656787068929
 20
-0.2886035620679301
 30
0.0
 11
39.067137563598891
 21
-0.2797105267079161
 31
0.0
  0
LINE
  5
7B1
  8
TITLEBLOCK_NOTES
  6
CONTINUOUS
 62
     3
 10
38.588275111068931
 20
-0.2684641242329278
 30
0.0
 11
39.067137563598891
 21
-0.2601055374029215
 31
0.0
  0
LINE
  5
7B2
  8
TITLEBLOCK_NOTES
  6
CONTINUOUS
 62
     3
 10
38.615523459228953
 20
-0.2483835414029265
 30
0.0
 11
39.067137563598891
 21
-0.2405005480979305
 31
0.0
  0
LINE
  5
7B3
  8
TITLEBLOCK_NOTES
  6
CONTINUOUS
 62
     3
 10
38.640063938103879
 20
-0.2283501993929313
 30
0.0
 11
39.067137563598891
 21
-0.220895607797928
 31
0.0
  0
LINE
  5
7B4
  8
TITLEBLOCK_NOTES
  6
CONTINUOUS
 62
     3
 10
38.662351755138857
 20
-0.2083561593929311
 30
0.0
 11
39.067137563598891
 21
-0.2012906184929371
 31
0.0
  0
LINE
  5
7B5
  8
TITLEBLOCK_NOTES
  6
CONTINUOUS
 62
     3
 10
38.682715978908853
 20
-0.1883957368229296
 30
0.0
 11
39.067137563598891
 21
-0.1816856291879283
 31
0.0
  0
LINE
  5
7B6
  8
TITLEBLOCK_NOTES
  6
CONTINUOUS
 62
     3
 10
38.7014035946139
 20
-0.1684645212329308
 30
0.0
 11
39.067137563598891
 21
-0.1620806398829337
 31
0.0
  0
LINE
  5
7B7
  8
TITLEBLOCK_NOTES
  6
CONTINUOUS
 62
     3
 10
38.718605427723858
 20
-0.1485592782929395
 30
0.0
 11
39.067137563598891
 21
-0.1424756505779428
 31
0.0
  0
LINE
  5
7B8
  8
TITLEBLOCK_NOTES
  6
CONTINUOUS
 62
     3
 10
38.734472560653941
 20
-0.1286773617329295
 30
0.0
 11
39.067137563598891
 21
-0.1228706612729375
 31
0.0
  0
LINE
  5
7B9
  8
TITLEBLOCK_NOTES
  6
CONTINUOUS
 62
     3
 10
38.749126819833933
 20
-0.1088165663279312
 30
0.0
 11
39.067137563598891
 21
-0.1032656719679181
 31
0.0
  0
LINE
  5
7BA
  8
TITLEBLOCK_NOTES
  6
CONTINUOUS
 62
     3
 10
38.762668126458927
 20
-0.0889752259079266
 30
0.0
 11
39.067137563598891
 21
-0.0836606826629201
 31
0.0
  0
LINE
  5
7BB
  8
TITLEBLOCK_NOTES
  6
CONTINUOUS
 62
     3
 10
40.463780063598882
 20
-0.0788872036229336
 30
0.0
 11
40.672051313598892
 21
-0.0752518167029273
 31
0.0
  0
LINE
  5
7BC
  8
TITLEBLOCK_NOTES
  6
CONTINUOUS
 62
     3
 10
40.463780063598882
 20
-0.059282214317939
 30
0.0
 11
40.672051313598892
 21
-0.0556468273979221
 31
0.0
  0
LINE
  5
7BD
  8
TITLEBLOCK_NOTES
  6
CONTINUOUS
 62
     3
 10
40.463780063598882
 20
-0.0396772250129374
 30
0.0
 11
40.672051313598892
 21
-0.0360418380929275
 31
0.0
  0
LINE
  5
7BE
  8
TITLEBLOCK_NOTES
  6
CONTINUOUS
 62
     3
 10
40.463780063598882
 20
-0.0200722357079144
 30
0.0
 11
40.672051313598892
 21
-0.016436848787933
 31
0.0
  0
LINE
  5
7BF
  8
TITLEBLOCK_NOTES
  6
CONTINUOUS
 62
     3
 10
40.463780063598882
 20
-0.0004672464029234
 30
0.0
 11
40.672051313598892
 21
0.0031681405170723
 31
0.0
  0
LINE
  5
7C0
  8
TITLEBLOCK_NOTES
  6
CONTINUOUS
 62
     3
 10
40.463780063598882
 20
0.0191377429020747
 30
0.0
 11
40.672051313598892
 21
0.0227731298220668
 31
0.0
  0
LINE
  5
7C1
  8
TITLEBLOCK_NOTES
  6
CONTINUOUS
 62
     3
 10
40.463780063598882
 20
0.0387427322070657
 30
0.0
 11
40.672051313598892
 21
0.0423781191270756
 31
0.0
  0
LINE
  5
7C2
  8
TITLEBLOCK_NOTES
  6
CONTINUOUS
 62
     3
 10
40.463780063598882
 20
0.0583477215120709
 30
0.0
 11
40.672051313598892
 21
0.0619831084320666
 31
0.0
  0
LINE
  5
7C3
  8
TITLEBLOCK_NOTES
  6
CONTINUOUS
 62
     3
 10
40.463780063598882
 20
0.0779527108170797
 30
0.0
 11
40.672051313598892
 21
0.0815880977370611
 31
0.0
  0
LINE
  5
7C4
  8
TITLEBLOCK_NOTES
  6
CONTINUOUS
 62
     3
 10
40.463780063598882
 20
-0.3729619941929236
 30
0.0
 11
40.672051313598892
 21
-0.369326607272928
 31
0.0
  0
LINE
  5
7C5
  8
TITLEBLOCK_NOTES
  6
CONTINUOUS
 62
     3
 10
40.463780063598882
 20
-0.3533570048879255
 30
0.0
 11
40.672051313598892
 21
-0.3497216179679334
 31
0.0
  0
LINE
  5
7C6
  8
TITLEBLOCK_NOTES
  6
CONTINUOUS
 62
     3
 10
40.463780063598882
 20
-0.3337520155829345
 30
0.0
 11
40.672051313598892
 21
-0.3301166286629282
 31
0.0
  0
LINE
  5
7C7
  8
TITLEBLOCK_NOTES
  6
CONTINUOUS
 62
     3
 10
40.463780063598882
 20
-0.3141470262779293
 30
0.0
 11
40.672051313598892
 21
-0.3105116393579337
 31
0.0
  0
LINE
  5
7C8
  8
TITLEBLOCK_NOTES
  6
CONTINUOUS
 62
     3
 10
40.463780063598882
 20
-0.2945420369729348
 30
0.0
 11
40.672051313598892
 21
-0.2909066500529391
 31
0.0
  0
LINE
  5
7C9
  8
TITLEBLOCK_NOTES
  6
CONTINUOUS
 62
     3
 10
40.463780063598882
 20
-0.2749370476679296
 30
0.0
 11
40.672051313598892
 21
-0.2713016607479197
 31
0.0
  0
LINE
  5
7CA
  8
TITLEBLOCK_NOTES
  6
CONTINUOUS
 62
     3
 10
40.463780063598882
 20
-0.255332058362935
 30
0.0
 11
40.672051313598892
 21
-0.2516966714429287
 31
0.0
  0
LINE
  5
7CB
  8
TITLEBLOCK_NOTES
  6
CONTINUOUS
 62
     3
 10
40.463780063598882
 20
-0.235727069057944
 30
0.0
 11
40.672051313598892
 21
-0.23209168213792
 31
0.0
  0
LINE
  5
7CC
  8
TITLEBLOCK_NOTES
  6
CONTINUOUS
 62
     3
 10
40.463780063598882
 20
-0.2161220797529211
 30
0.0
 11
40.672051313598892
 21
-0.2124866928329254
 31
0.0
  0
LINE
  5
7CD
  8
TITLEBLOCK_NOTES
  6
CONTINUOUS
 62
     3
 10
40.463780063598882
 20
-0.1965170904479123
 30
0.0
 11
40.672051313598892
 21
-0.1928817035279344
 31
0.0
  0
LINE
  5
7CE
  8
TITLEBLOCK_NOTES
  6
CONTINUOUS
 62
     3
 10
40.463780063598882
 20
-0.1769121011429213
 30
0.0
 11
40.672051313598892
 21
-0.1732767142229292
 31
0.0
  0
LINE
  5
7CF
  8
TITLEBLOCK_NOTES
  6
CONTINUOUS
 62
     3
 10
40.463780063598882
 20
-0.1573071118379268
 30
0.0
 11
40.672051313598892
 21
-0.1536717249179311
 31
0.0
  0
LINE
  5
7D0
  8
TITLEBLOCK_NOTES
  6
CONTINUOUS
 62
     3
 10
40.463780063598882
 20
-0.1377021225329358
 30
0.0
 11
40.672051313598892
 21
-0.1340667356129295
 31
0.0
  0
LINE
  5
7D1
  8
TITLEBLOCK_NOTES
  6
CONTINUOUS
 62
     3
 10
40.463780063598882
 20
-0.1180971332279306
 30
0.0
 11
40.672051313598892
 21
-0.1144617463079349
 31
0.0
  0
LINE
  5
7D2
  8
TITLEBLOCK_NOTES
  6
CONTINUOUS
 62
     3
 10
40.463780063598882
 20
-0.0984921929279246
 30
0.0
 11
40.672051313598892
 21
-0.0948568060079183
 31
0.0
  0
LINE
  5
7D3
  8
TITLEBLOCK_NOTES
  6
CONTINUOUS
 62
     3
 10
40.439277563598907
 20
0.0534512889270644
 30
0.0
 11
40.439277563598907
 21
-0.3630912110729412
 31
0.0
  0
LINE
  5
7D4
  8
TITLEBLOCK_NOTES
  6
CONTINUOUS
 62
     3
 10
40.414775063598931
 20
-0.3385887110729442
 30
0.0
 11
40.414775063598931
 21
0.028948788927071
 31
0.0
  0
LINE
  5
7D5
  8
TITLEBLOCK_NOTES
  6
CONTINUOUS
 62
     3
 10
40.463780063598882
 20
-0.3875937110729346
 30
0.0
 11
40.463780063598882
 21
0.0779537889270614
 31
0.0
  0
LINE
  5
7D6
  8
TITLEBLOCK_NOTES
  6
CONTINUOUS
 62
     3
 10
48.061773764973907
 20
3.3454682597520771
 30
0.0
 11
48.061773764973907
 21
-2.167594240247936
 31
0.0
  0
LINE
  5
7DE
  8
TITLEBLOCK_NOTES
  6
CONTINUOUS
 62
     3
 10
46.123857563598868
 20
1.2224327305770719
 30
0.0
 11
45.724649945283907
 21
1.2224327305770719
 31
0.0
  0
LINE
  5
7DF
  8
TITLEBLOCK_NOTES
  6
CONTINUOUS
 62
     3
 10
46.123857563598868
 20
1.2469352305770789
 30
0.0
 11
45.73521140487393
 21
1.2469352305770789
 31
0.0
  0
LINE
  5
7E0
  8
TITLEBLOCK_NOTES
  6
CONTINUOUS
 62
     3
 10
46.123857563598868
 20
1.2714377305770621
 30
0.0
 11
45.74577281545892
 21
1.2714377305770621
 31
0.0
  0
LINE
  5
7E1
  8
TITLEBLOCK_NOTES
  6
CONTINUOUS
 62
     3
 10
46.123857563598868
 20
1.585339846137066
 30
0.0
 11
45.881075424438869
 21
1.585339846137066
 31
0.0
  0
LINE
  5
7E2
  8
TITLEBLOCK_NOTES
  6
CONTINUOUS
 62
     3
 10
46.123857563598868
 20
1.6098423461370639
 30
0.0
 11
45.891636884028898
 21
1.6098423461370639
 31
0.0
  0
LINE
  5
7E3
  8
TITLEBLOCK_NOTES
  6
CONTINUOUS
 62
     3
 10
46.123857563598868
 20
1.6343448461370811
 30
0.0
 11
45.902198294613918
 21
1.6343448461370811
 31
0.0
  0
LINE
  5
7E4
  8
TITLEBLOCK_NOTES
  6
CONTINUOUS
 62
     3
 10
45.870514013853899
 20
1.5608373461370699
 30
0.0
 11
46.123857563598868
 21
1.5608373461370699
 31
0.0
  0
LINE
  5
7E5
  8
TITLEBLOCK_NOTES
  6
CONTINUOUS
 62
     3
 10
45.559486531593933
 20
0.8392535696520758
 30
0.0
 11
46.123857563598868
 21
0.8491047017670645
 31
0.0
  0
LINE
  5
7E6
  8
TITLEBLOCK_NOTES
  6
CONTINUOUS
 62
     3
 10
45.364280063598883
 20
0.3609784420470774
 30
0.0
 11
46.123857563598868
 21
0.3742368918120675
 31
0.0
  0
LINE
  5
7E7
  8
TITLEBLOCK_NOTES
  6
CONTINUOUS
 62
     3
 10
45.364280063598883
 20
0.3805834313520684
 30
0.0
 11
46.123857563598868
 21
0.3938418811170585
 31
0.0
  0
LINE
  5
7E8
  8
TITLEBLOCK_NOTES
  6
CONTINUOUS
 62
     3
 10
45.370279451718879
 20
0.4002931443420758
 30
0.0
 11
46.123857563598868
 21
0.413446870422078
 31
0.0
  0
LINE
  5
7E9
  8
TITLEBLOCK_NOTES
  6
CONTINUOUS
 62
     3
 10
45.378793923453912
 20
0.4200467168070823
 30
0.0
 11
46.123857563598868
 21
0.4330518597270725
 31
0.0
  0
LINE
  5
7EA
  8
TITLEBLOCK_NOTES
  6
CONTINUOUS
 62
     3
 10
45.387308395188853
 20
0.4398003382770811
 30
0.0
 11
46.123857563598868
 21
0.4526568490320777
 31
0.0
  0
LINE
  5
7EB
  8
TITLEBLOCK_NOTES
  6
CONTINUOUS
 62
     3
 10
45.39582291592891
 20
0.4595539597470797
 30
0.0
 11
46.123857563598868
 21
0.4722618383370687
 31
0.0
  0
LINE
  5
7EC
  8
TITLEBLOCK_NOTES
  6
CONTINUOUS
 62
     3
 10
45.404337387663936
 20
0.4793075322120722
 30
0.0
 11
46.123857563598868
 21
0.4918668276420634
 31
0.0
  0
LINE
  5
7ED
  8
TITLEBLOCK_NOTES
  6
CONTINUOUS
 62
     3
 10
45.412851859398927
 20
0.499061153682071
 30
0.0
 11
46.123857563598868
 21
0.511471816947072
 31
0.0
  0
LINE
  5
7EE
  8
TITLEBLOCK_NOTES
  6
CONTINUOUS
 62
     3
 10
45.42136638013892
 20
0.5188147751520698
 30
0.0
 11
46.123857563598868
 21
0.531076806252063
 31
0.0
  0
LINE
  5
7EF
  8
TITLEBLOCK_NOTES
  6
CONTINUOUS
 62
     3
 10
45.429880851873932
 20
0.5385683476170656
 30
0.0
 11
46.123857563598868
 21
0.5506817955570718
 31
0.0
  0
LINE
  5
7F0
  8
TITLEBLOCK_NOTES
  6
CONTINUOUS
 62
     3
 10
45.43839532360888
 20
0.5583219690870643
 30
0.0
 11
46.123857563598868
 21
0.5702867848620663
 31
0.0
  0
LINE
  5
7F1
  8
TITLEBLOCK_NOTES
  6
CONTINUOUS
 62
     3
 10
45.446909795343899
 20
0.5780755905570632
 30
0.0
 11
46.123857563598868
 21
0.5898917741670573
 31
0.0
  0
LINE
  5
7F2
  8
TITLEBLOCK_NOTES
  6
CONTINUOUS
 62
     3
 10
45.455424316083892
 20
0.5978292120270581
 30
0.0
 11
46.123857563598868
 21
0.609496714467074
 31
0.0
  0
LINE
  5
7F3
  8
TITLEBLOCK_NOTES
  6
CONTINUOUS
 62
     3
 10
45.463938787818918
 20
0.6175827844920541
 30
0.0
 11
46.123857563598868
 21
0.6291017037720792
 31
0.0
  0
LINE
  5
7F4
  8
TITLEBLOCK_NOTES
  6
CONTINUOUS
 62
     3
 10
45.472453259553888
 20
0.6373364059620812
 30
0.0
 11
46.123857563598868
 21
0.6487066930770702
 31
0.0
  0
LINE
  5
7F5
  8
TITLEBLOCK_NOTES
  6
CONTINUOUS
 62
     3
 10
45.480967780293923
 20
0.6570900274320799
 30
0.0
 11
46.123857563598868
 21
0.668311682382065
 31
0.0
  0
LINE
  5
7F6
  8
TITLEBLOCK_NOTES
  6
CONTINUOUS
 62
     3
 10
45.489482252028957
 20
0.6768435998970726
 30
0.0
 11
46.123857563598868
 21
0.6879166716870735
 31
0.0
  0
LINE
  5
7F7
  8
TITLEBLOCK_NOTES
  6
CONTINUOUS
 62
     3
 10
45.497996723763919
 20
0.6965972213670713
 30
0.0
 11
46.123857563598868
 21
0.7075216609920645
 31
0.0
  0
LINE
  5
7F8
  8
TITLEBLOCK_NOTES
  6
CONTINUOUS
 62
     3
 10
45.506511195498888
 20
0.7163508428370699
 30
0.0
 11
46.123857563598868
 21
0.7271266502970697
 31
0.0
  0
LINE
  5
7F9
  8
TITLEBLOCK_NOTES
  6
CONTINUOUS
 62
     3
 10
45.364280063598883
 20
-0.0717685903079399
 30
0.0
 11
46.123857563598868
 21
-0.0585100915379293
 31
0.0
  0
LINE
  5
7FA
  8
TITLEBLOCK_NOTES
  6
CONTINUOUS
 62
     3
 10
45.364280063598883
 20
-0.0521636010029205
 30
0.0
 11
46.123857563598868
 21
-0.0389051022329277
 31
0.0
  0
LINE
  5
7FB
  8
TITLEBLOCK_NOTES
  6
CONTINUOUS
 62
     3
 10
45.364280063598883
 20
-0.0325586116979366
 30
0.0
 11
46.123857563598868
 21
-0.0193001129279331
 31
0.0
  0
LINE
  5
7FC
  8
TITLEBLOCK_NOTES
  6
CONTINUOUS
 62
     3
 10
45.364280063598883
 20
-0.0129536223929456
 30
0.0
 11
46.123857563598868
 21
0.0003048273720552
 31
0.0
  0
LINE
  5
7FD
  8
TITLEBLOCK_NOTES
  6
CONTINUOUS
 62
     3
 10
45.364280063598883
 20
0.0066513669120738
 30
0.0
 11
46.123857563598868
 21
0.0199098166770782
 31
0.0
  0
LINE
  5
7FE
  8
TITLEBLOCK_NOTES
  6
CONTINUOUS
 62
     3
 10
45.364280063598883
 20
0.026256356217079
 30
0.0
 11
46.123857563598868
 21
0.0395148059820834
 31
0.0
  0
LINE
  5
7FF
  8
TITLEBLOCK_NOTES
  6
CONTINUOUS
 62
     3
 10
45.364280063598883
 20
0.0458613455220736
 30
0.0
 11
46.123857563598868
 21
0.0591197952870779
 31
0.0
  0
LINE
  5
800
  8
TITLEBLOCK_NOTES
  6
CONTINUOUS
 62
     3
 10
45.364280063598883
 20
0.0654663348270646
 30
0.0
 11
46.123857563598868
 21
0.0787247845920689
 31
0.0
  0
LINE
  5
801
  8
TITLEBLOCK_NOTES
  6
CONTINUOUS
 62
     3
 10
45.364280063598883
 20
0.0850713241320733
 30
0.0
 11
46.123857563598868
 21
0.0983297738970635
 31
0.0
  0
LINE
  5
802
  8
TITLEBLOCK_NOTES
  6
CONTINUOUS
 62
     3
 10
45.364280063598883
 20
0.1046763134370678
 30
0.0
 11
46.123857563598868
 21
0.1179347632020686
 31
0.0
  0
LINE
  5
803
  8
TITLEBLOCK_NOTES
  6
CONTINUOUS
 62
     3
 10
45.364280063598883
 20
0.1242812537370668
 30
0.0
 11
46.123857563598868
 21
0.1375397525070774
 31
0.0
  0
LINE
  5
804
  8
TITLEBLOCK_NOTES
  6
CONTINUOUS
 62
     3
 10
45.364280063598883
 20
0.1438862430420613
 30
0.0
 11
46.123857563598868
 21
0.1571447418120684
 31
0.0
  0
LINE
  5
805
  8
TITLEBLOCK_NOTES
  6
CONTINUOUS
 62
     3
 10
45.364280063598883
 20
0.1634912323470559
 30
0.0
 11
46.123857563598868
 21
0.1767497311170629
 31
0.0
  0
LINE
  5
806
  8
TITLEBLOCK_NOTES
  6
CONTINUOUS
 62
     3
 10
45.364280063598883
 20
0.1830962216520788
 30
0.0
 11
46.123857563598868
 21
0.1963547204220717
 31
0.0
  0
LINE
  5
807
  8
TITLEBLOCK_NOTES
  6
CONTINUOUS
 62
     3
 10
45.364280063598883
 20
0.2027012109570805
 30
0.0
 11
46.123857563598868
 21
0.2159597097270627
 31
0.0
  0
LINE
  5
808
  8
TITLEBLOCK_NOTES
  6
CONTINUOUS
 62
     3
 10
45.364280063598883
 20
0.222306200262075
 30
0.0
 11
46.123857563598868
 21
0.2355646990320821
 31
0.0
  0
LINE
  5
809
  8
TITLEBLOCK_NOTES
  6
CONTINUOUS
 62
     3
 10
45.364280063598883
 20
0.241911189567066
 30
0.0
 11
46.123857563598868
 21
0.2551696883370766
 31
0.0
  0
LINE
  5
80A
  8
TITLEBLOCK_NOTES
  6
CONTINUOUS
 62
     3
 10
45.558660993363937
 20
0.8373383562420675
 30
0.0
 11
46.123857563598868
 21
0.8373383562420675
 31
0.0
  0
LINE
  5
80B
  8
TITLEBLOCK_NOTES
  6
CONTINUOUS
 62
     3
 10
45.517080593898868
 20
0.7408718177220628
 30
0.0
 11
46.123857563598868
 21
0.7408718177220628
 31
0.0
  0
LINE
  5
80C
  8
TITLEBLOCK_NOTES
  6
CONTINUOUS
 62
     3
 10
45.364280063598883
 20
0.3550056636420678
 30
0.0
 11
46.123857563598868
 21
0.3550056636420678
 31
0.0
  0
LINE
  5
80D
  8
TITLEBLOCK_NOTES
  6
CONTINUOUS
 62
     3
 10
45.364280063598883
 20
0.2585391251220805
 30
0.0
 11
46.123857563598868
 21
0.2585391251220805
 31
0.0
  0
LINE
  5
80E
  8
TITLEBLOCK_NOTES
  6
CONTINUOUS
 62
     3
 10
46.123857563598868
 20
1.1994736920570821
 30
0.0
 11
45.7147538265789
 21
1.1994736920570821
 31
0.0
  0
LINE
  5
80F
  8
TITLEBLOCK_NOTES
  6
CONTINUOUS
 62
     3
 10
45.568001003328853
 20
0.8590071421170717
 30
0.0
 11
46.123857563598868
 21
0.868709691072059
 31
0.0
  0
LINE
  5
810
  8
TITLEBLOCK_NOTES
  6
CONTINUOUS
 62
     3
 10
45.576515475063893
 20
0.8787607635870705
 30
0.0
 11
46.123857563598868
 21
0.8883146313720651
 31
0.0
  0
LINE
  5
811
  8
TITLEBLOCK_NOTES
  6
CONTINUOUS
 62
     3
 10
45.585029995803929
 20
0.8985143850570798
 30
0.0
 11
46.123857563598868
 21
0.9079196206770843
 31
0.0
  0
LINE
  5
812
  8
TITLEBLOCK_NOTES
  6
CONTINUOUS
 62
     3
 10
45.593544467538891
 20
0.9182679575220758
 30
0.0
 11
46.123857563598868
 21
0.9275246099820758
 31
0.0
  0
LINE
  5
813
  8
TITLEBLOCK_NOTES
  6
CONTINUOUS
 62
     3
 10
45.602058939273952
 20
0.9380215789920749
 30
0.0
 11
46.123857563598868
 21
0.9471295992870699
 31
0.0
  0
LINE
  5
814
  8
TITLEBLOCK_NOTES
  6
CONTINUOUS
 62
     3
 10
45.610573460013903
 20
0.9577752004620697
 30
0.0
 11
46.123857563598868
 21
0.9667345885920751
 31
0.0
  0
LINE
  5
815
  8
TITLEBLOCK_NOTES
  6
CONTINUOUS
 62
     3
 10
45.61908793174895
 20
0.9775287729270656
 30
0.0
 11
46.123857563598868
 21
0.9863395778970698
 31
0.0
  0
LINE
  5
816
  8
TITLEBLOCK_NOTES
  6
CONTINUOUS
 62
     3
 10
45.627602403483898
 20
0.9972823943970643
 30
0.0
 11
46.123857563598868
 21
1.005944567202075
 31
0.0
  0
LINE
  5
817
  8
TITLEBLOCK_NOTES
  6
CONTINUOUS
 62
     3
 10
45.636116875218889
 20
1.017036015867063
 30
0.0
 11
46.123857563598868
 21
1.0255495565070649
 31
0.0
  0
LINE
  5
818
  8
TITLEBLOCK_NOTES
  6
CONTINUOUS
 62
     3
 10
45.644631395958889
 20
1.03678963733706
 30
0.0
 11
46.123857563598868
 21
1.0451545458120599
 31
0.0
  0
LINE
  5
819
  8
TITLEBLOCK_NOTES
  6
CONTINUOUS
 62
     3
 10
45.65314586769388
 20
1.0565432098020531
 30
0.0
 11
46.123857563598868
 21
1.0647595351170689
 31
0.0
  0
LINE
  5
81A
  8
TITLEBLOCK_NOTES
  6
CONTINUOUS
 62
     3
 10
45.704192415993937
 20
1.1749711920570609
 30
0.0
 11
46.123857563598868
 21
1.1749711920570609
 31
0.0
  0
LINE
  5
81B
  8
TITLEBLOCK_NOTES
  6
CONTINUOUS
 62
     3
 10
45.662612016528882
 20
1.078504653537069
 30
0.0
 11
46.123857563598868
 21
1.078504653537069
 31
0.0
  0
LINE
  5
81C
  8
TITLEBLOCK_NOTES
  6
CONTINUOUS
 62
     3
 10
45.364280063598883
 20
-0.3854483701829352
 30
0.0
 11
46.123857563598868
 21
-0.3721898714129388
 31
0.0
  0
LINE
  5
81D
  8
TITLEBLOCK_NOTES
  6
CONTINUOUS
 62
     3
 10
45.364280063598883
 20
-0.3658433808779264
 30
0.0
 11
46.123857563598868
 21
-0.3525848821079442
 31
0.0
  0
LINE
  5
81E
  8
TITLEBLOCK_NOTES
  6
CONTINUOUS
 62
     3
 10
45.364280063598883
 20
-0.3462383915729319
 30
0.0
 11
46.123857563598868
 21
-0.3329798928029248
 31
0.0
  0
LINE
  5
81F
  8
TITLEBLOCK_NOTES
  6
CONTINUOUS
 62
     3
 10
45.364280063598883
 20
-0.3266334022679231
 30
0.0
 11
46.123857563598868
 21
-0.3133749034979196
 31
0.0
  0
LINE
  5
820
  8
TITLEBLOCK_NOTES
  6
CONTINUOUS
 62
     3
 10
45.364280063598883
 20
-0.3070284129629321
 30
0.0
 11
46.123857563598868
 21
-0.2937699631979313
 31
0.0
  0
LINE
  5
821
  8
TITLEBLOCK_NOTES
  6
CONTINUOUS
 62
     3
 10
45.364280063598883
 20
-0.2874234236579376
 30
0.0
 11
46.123857563598868
 21
-0.2741649738929368
 31
0.0
  0
LINE
  5
822
  8
TITLEBLOCK_NOTES
  6
CONTINUOUS
 62
     3
 10
45.364280063598883
 20
-0.2678184343529324
 30
0.0
 11
46.123857563598868
 21
-0.2545599845879281
 31
0.0
  0
LINE
  5
823
  8
TITLEBLOCK_NOTES
  6
CONTINUOUS
 62
     3
 10
45.364280063598883
 20
-0.2482134450479414
 30
0.0
 11
46.123857563598868
 21
-0.2349549952829371
 31
0.0
  0
LINE
  5
824
  8
TITLEBLOCK_NOTES
  6
CONTINUOUS
 62
     3
 10
45.364280063598883
 20
-0.228608455742922
 30
0.0
 11
46.123857563598868
 21
-0.2153500059779319
 31
0.0
  0
LINE
  5
825
  8
TITLEBLOCK_NOTES
  6
CONTINUOUS
 62
     3
 10
45.364280063598883
 20
-0.2090034664379274
 30
0.0
 11
46.123857563598868
 21
-0.1957450166729373
 31
0.0
  0
LINE
  5
826
  8
TITLEBLOCK_NOTES
  6
CONTINUOUS
 62
     3
 10
45.364280063598883
 20
-0.1893984771329329
 30
0.0
 11
46.123857563598868
 21
-0.1761400273679463
 31
0.0
  0
LINE
  5
827
  8
TITLEBLOCK_NOTES
  6
CONTINUOUS
 62
     3
 10
45.364280063598883
 20
-0.1697935368329304
 30
0.0
 11
46.123857563598868
 21
-0.1565350380629269
 31
0.0
  0
LINE
  5
828
  8
TITLEBLOCK_NOTES
  6
CONTINUOUS
 62
     3
 10
45.364280063598883
 20
-0.1501885475279252
 30
0.0
 11
46.123857563598868
 21
-0.1369300487579181
 31
0.0
  0
LINE
  5
829
  8
TITLEBLOCK_NOTES
  6
CONTINUOUS
 62
     3
 10
45.364280063598883
 20
-0.1305835582229342
 30
0.0
 11
46.123857563598868
 21
-0.1173250594529236
 31
0.0
  0
LINE
  5
82A
  8
TITLEBLOCK_NOTES
  6
CONTINUOUS
 62
     3
 10
45.364280063598883
 20
-0.1109785689179361
 30
0.0
 11
46.123857563598868
 21
-0.0977200701479326
 31
0.0
  0
LINE
  5
82B
  8
TITLEBLOCK_NOTES
  6
CONTINUOUS
 62
     3
 10
46.086528298878918
 20
-0.706126211072917
 30
0.0
 11
48.061773764973907
 21
-0.6716482042679424
 31
0.0
  0
LINE
  5
82C
  8
TITLEBLOCK_NOTES
  6
CONTINUOUS
 62
     3
 10
44.963359426503892
 20
-0.706126211072917
 30
0.0
 11
48.061773764973907
 21
-0.6520432149629336
 31
0.0
  0
LINE
  5
82D
  8
TITLEBLOCK_NOTES
  6
CONTINUOUS
 62
     3
 10
43.840190505123907
 20
-0.706126211072917
 30
0.0
 11
48.061773764973907
 21
-0.6324382256579142
 31
0.0
  0
LINE
  5
82E
  8
TITLEBLOCK_NOTES
  6
CONTINUOUS
 62
     3
 10
42.717021632748889
 20
-0.706126211072917
 30
0.0
 11
48.061773764973907
 21
-0.6128332363529198
 31
0.0
  0
LINE
  5
82F
  8
TITLEBLOCK_NOTES
  6
CONTINUOUS
 62
     3
 10
41.593852760373949
 20
-0.706126211072917
 30
0.0
 11
48.061773764973907
 21
-0.5932282470479393
 31
0.0
  0
TEXT
  5
830
  8
TITLEBLOCK_NOTES
  6
CONTINUOUS
 62
     3
 10
43.792925917698909
 20
-1.5293357724779171
 30
0.0
 40
0.3430350000000001
  1
 HYDRAULICS
 41
0.8
 51
11.0
  0
LINE
  5
831
  8
TITLEBLOCK_NOTES
  6
CONTINUOUS
 62
     3
 10
45.364280063598883
 20
-0.0913735796129309
 30
0.0
 11
46.123857563598868
 21
-0.0781150808429239
 31
0.0
  0
TEXT
  5
832
  8
TITLEBLOCK_NOTES
  6
CONTINUOUS
 62
     3
 10
41.545834623063932
 20
-1.5293357724779171
 30
0.0
 40
0.3430350000000001
  1
 POWER
 41
0.8
 51
11.0
  0
TEXT
  5
833
  8
TITLEBLOCK_NOTES
  6
CONTINUOUS
 62
     3
 10
43.022721585438923
 20
-1.5293357724779171
 30
0.0
 40
0.3430350000000001
  1
 of
 41
0.8
 51
11.0
  0
LINE
  5
834
  8
TITLEBLOCK_NOTES
  6
CONTINUOUS
 62
     3
 10
43.376528080458947
 20
0.0895849296570717
 30
0.0
 11
43.593692022783891
 21
0.093375564417066
 31
0.0
  0
ARC
  5
835
  8
TITLEBLOCK_NOTES
  6
CONTINUOUS
 62
     3
 10
43.477587563598931
 20
0.9537205267620867
 30
0.0
 40
0.888418064655
 50
5.1553898200000701
 51
173.24994198000039
  0
ARC
  5
836
  8
TITLEBLOCK_NOTES
  6
CONTINUOUS
 62
     3
 10
43.477587563598931
 20
0.9537205267620867
 30
0.0
 40
0.4963732131600001
 50
12.133550420000089
 51
170.8448616600005
  0
ARC
  5
837
  8
TITLEBLOCK_NOTES
  6
CONTINUOUS
 62
     3
 10
43.477587563598931
 20
0.9537205267620867
 30
0.0
 40
0.9129205646549999
 50
3.4745823799999509
 51
173.24994198000039
  0
ARC
  5
838
  8
TITLEBLOCK_NOTES
  6
CONTINUOUS
 62
     3
 10
43.477587563598931
 20
0.9537205267620867
 30
0.0
 40
0.8639107131600001
 50
6.9364585199999942
 51
173.0635414800004
  0
ARC
  5
839
  8
TITLEBLOCK_NOTES
  6
CONTINUOUS
 62
     3
 10
43.477587563598931
 20
0.5224444284870664
 30
0.0
 40
0.4934956885650001
 50
186.77462791000039
 51
351.02898247000081
  0
ARC
  5
83A
  8
TITLEBLOCK_NOTES
  6
CONTINUOUS
 62
     3
 10
43.477587563598931
 20
0.9537205267620867
 30
0.0
 40
0.4736189665350003
 50
9.7037993200000479
 51
166.2342647900004
  0
ARC
  5
83B
  8
TITLEBLOCK_NOTES
  6
CONTINUOUS
 62
     3
 10
43.477587563598931
 20
0.9537205267620867
 30
0.0
 40
0.4491164665350003
 50
7.0764438599999098
 51
166.2342647900004
  0
LINE
  5
83C
  8
TITLEBLOCK_NOTES
  6
CONTINUOUS
 62
     3
 10
43.203426346818922
 20
0.8373383562420675
 30
0.0
 11
44.6931433572489
 21
0.8633414383470704
 31
0.0
  0
LINE
  5
83D
  8
TITLEBLOCK_NOTES
  6
CONTINUOUS
 62
     3
 10
43.039690938828869
 20
0.8540853249420763
 30
0.0
 11
44.684756053488897
 21
0.8828000497170727
 31
0.0
  0
LINE
  5
83E
  8
TITLEBLOCK_NOTES
  6
CONTINUOUS
 62
     3
 10
43.039850499108923
 20
0.8736930585270704
 30
0.0
 11
44.676368700723927
 21
0.902258612082072
 31
0.0
  0
LINE
  5
83F
  8
TITLEBLOCK_NOTES
  6
CONTINUOUS
 62
     3
 10
43.040010010383916
 20
0.8933008411170567
 30
0.0
 11
44.667981396963917
 21
0.9217172234520631
 31
0.0
  0
LINE
  5
840
  8
TITLEBLOCK_NOTES
  6
CONTINUOUS
 62
     3
 10
43.040169570663863
 20
0.9129086237070858
 30
0.0
 11
44.659594044198933
 21
0.9411757858170766
 31
0.0
  0
LINE
  5
841
  8
TITLEBLOCK_NOTES
  6
CONTINUOUS
 62
     3
 10
43.040329081938879
 20
0.9325164062970683
 30
0.0
 11
44.65120674043888
 21
0.9606343481820721
 31
0.0
  0
LINE
  5
842
  8
TITLEBLOCK_NOTES
  6
CONTINUOUS
 62
     3
 10
43.040488642218932
 20
0.952124188887069
 30
0.0
 11
44.64281943667892
 21
0.9800929595520742
 31
0.0
  0
LINE
  5
843
  8
TITLEBLOCK_NOTES
  6
CONTINUOUS
 62
     3
 10
43.04064815349394
 20
0.9717319224720666
 30
0.0
 11
44.634432083913907
 21
0.9995515219170627
 31
0.0
  0
LINE
  5
844
  8
TITLEBLOCK_NOTES
  6
CONTINUOUS
 62
     3
 10
43.036783913223907
 20
0.4967967306420853
 30
0.0
 11
44.837587995993928
 21
0.5282298607770706
 31
0.0
  0
LINE
  5
845
  8
TITLEBLOCK_NOTES
  6
CONTINUOUS
 62
     3
 10
43.036943473503889
 20
0.516404464227076
 30
0.0
 11
44.829200692233869
 21
0.547688423142084
 31
0.0
  0
LINE
  5
846
  8
TITLEBLOCK_NOTES
  6
CONTINUOUS
 62
     3
 10
43.037102984778898
 20
0.5360122468170661
 30
0.0
 11
44.820813339468891
 21
0.5671470345120753
 31
0.0
  0
LINE
  5
847
  8
TITLEBLOCK_NOTES
  6
CONTINUOUS
 62
     3
 10
43.03726254505893
 20
0.5556200294070665
 30
0.0
 11
44.812426035708903
 21
0.5866055968770711
 31
0.0
  0
LINE
  5
848
  8
TITLEBLOCK_NOTES
  6
CONTINUOUS
 62
     3
 10
43.037422056333952
 20
0.5752278119970669
 30
0.0
 11
44.8040387319489
 21
0.6060642082470729
 31
0.0
  0
LINE
  5
849
  8
TITLEBLOCK_NOTES
  6
CONTINUOUS
 62
     3
 10
43.037581616613913
 20
0.5948355455820753
 30
0.0
 11
44.795651379183901
 21
0.6255227706120614
 31
0.0
  0
LINE
  5
84A
  8
TITLEBLOCK_NOTES
  6
CONTINUOUS
 62
     3
 10
43.037741127888893
 20
0.6144433281720758
 30
0.0
 11
44.787264075423899
 21
0.6449813819820635
 31
0.0
  0
LINE
  5
84B
  8
TITLEBLOCK_NOTES
  6
CONTINUOUS
 62
     3
 10
43.037900688168968
 20
0.6340511107620764
 30
0.0
 11
44.778876771663889
 21
0.6644399443470768
 31
0.0
  0
LINE
  5
84C
  8
TITLEBLOCK_NOTES
  6
CONTINUOUS
 62
     3
 10
43.038060199443883
 20
0.6536588933520771
 30
0.0
 11
44.770489418898933
 21
0.6838985557170787
 31
0.0
  0
LINE
  5
84D
  8
TITLEBLOCK_NOTES
  6
CONTINUOUS
 62
     3
 10
43.038219759723923
 20
0.6732666269370569
 30
0.0
 11
44.762102115138859
 21
0.7033571180820637
 31
0.0
  0
LINE
  5
84E
  8
TITLEBLOCK_NOTES
  6
CONTINUOUS
 62
     3
 10
43.038379270998938
 20
0.6928744095270858
 30
0.0
 11
44.753714811378948
 21
0.7228157294520659
 31
0.0
  0
LINE
  5
84F
  8
TITLEBLOCK_NOTES
  6
CONTINUOUS
 62
     3
 10
43.038538831278878
 20
0.7124821921170579
 30
0.0
 11
44.664978860613893
 21
0.7408718177220628
 31
0.0
  0
LINE
  5
850
  8
TITLEBLOCK_NOTES
  6
CONTINUOUS
 62
     3
 10
43.039554704928896
 20
0.8373383562420675
 30
0.0
 11
44.704351584828942
 21
0.8373383562420675
 31
0.0
  0
LINE
  5
851
  8
TITLEBLOCK_NOTES
  6
CONTINUOUS
 62
     3
 10
43.038769791843933
 20
0.7408718177220628
 30
0.0
 11
44.74593198429389
 21
0.7408718177220628
 31
0.0
  0
ARC
  5
852
  8
TITLEBLOCK_NOTES
  6
CONTINUOUS
 62
     3
 10
43.477587563598931
 20
0.5224444284870664
 30
0.0
 40
0.4690026465300001
 50
187.1485089300005
 51
353.57892399000082
  0
LINE
  5
853
  8
TITLEBLOCK_NOTES
  6
CONTINUOUS
 62
     3
 10
43.056694056663957
 20
0.3795143382720738
 30
0.0
 11
43.903212846318922
 21
0.3942903748770767
 31
0.0
  0
ARC
  5
854
  8
TITLEBLOCK_NOTES
  6
CONTINUOUS
 62
     3
 10
43.477587563598931
 20
0.5224444284870664
 30
0.0
 40
0.4445001465300001
 50
187.1485089300005
 51
356.39512182000072
  0
LINE
  5
855
  8
TITLEBLOCK_NOTES
  6
CONTINUOUS
 62
     3
 10
43.063820559783878
 20
0.3600337236570681
 30
0.0
 11
43.896770551008892
 21
0.3745729190970621
 31
0.0
  0
LINE
  5
856
  8
TITLEBLOCK_NOTES
  6
CONTINUOUS
 62
     3
 10
43.316545274388922
 20
0.1081429271370631
 30
0.0
 11
43.652990621043912
 21
0.1140155883270744
 31
0.0
  0
LINE
  5
857
  8
TITLEBLOCK_NOTES
  6
CONTINUOUS
 62
     3
 10
43.27457004163891
 20
0.1270152426870545
 30
0.0
 11
43.694281645983928
 21
0.1343412941670685
 31
0.0
  0
LINE
  5
858
  8
TITLEBLOCK_NOTES
  6
CONTINUOUS
 62
     3
 10
43.241160294828859
 20
0.1460370234870822
 30
0.0
 11
43.727007184983883
 21
0.1545175347570797
 31
0.0
  0
LINE
  5
859
  8
TITLEBLOCK_NOTES
  6
CONTINUOUS
 62
     3
 10
43.213157269668883
 20
0.1651532369220696
 30
0.0
 11
43.75432600233389
 21
0.1745993917170807
 31
0.0
  0
LINE
  5
85A
  8
TITLEBLOCK_NOTES
  6
CONTINUOUS
 62
     3
 10
43.189032843243901
 20
0.1843371262620827
 30
0.0
 11
43.777766220948934
 21
0.194613523767071
 31
0.0
  0
LINE
  5
85B
  8
TITLEBLOCK_NOTES
  6
CONTINUOUS
 62
     3
 10
43.167907718838897
 20
0.2035733529420582
 30
0.0
 11
43.798207186548893
 21
0.2145752694720642
 31
0.0
  0
LINE
  5
85C
  8
TITLEBLOCK_NOTES
  6
CONTINUOUS
 62
     3
 10
43.149220593183927
 20
0.222852164967076
 30
0.0
 11
43.816210055388908
 21
0.2344945278420774
 31
0.0
  0
LINE
  5
85D
  8
TITLEBLOCK_NOTES
  6
CONTINUOUS
 62
     3
 10
43.132587806133913
 20
0.2421668486520652
 30
0.0
 11
43.832158683633921
 21
0.2543778655470703
 31
0.0
  0
LINE
  5
85E
  8
TITLEBLOCK_NOTES
  6
CONTINUOUS
 62
     3
 10
43.065829568763959
 20
0.3550056636420678
 30
0.0
 11
43.889345509428921
 21
0.3550056636420678
 31
0.0
  0
LINE
  5
85F
  8
TITLEBLOCK_NOTES
  6
CONTINUOUS
 62
     3
 10
43.119908448453948
 20
0.2585391251220805
 30
0.0
 11
43.835266678743913
 21
0.2585391251220805
 31
0.0
  0
LINE
  5
860
  8
TITLEBLOCK_NOTES
  6
CONTINUOUS
 62
     3
 10
43.100669477493923
 20
1.197930230577074
 30
0.0
 11
43.854505600698943
 21
1.197930230577074
 31
0.0
  0
LINE
  5
861
  8
TITLEBLOCK_NOTES
  6
CONTINUOUS
 62
     3
 10
43.117727333913919
 20
1.2224327305770719
 30
0.0
 11
43.83744774427889
 21
1.2224327305770719
 31
0.0
  0
LINE
  5
862
  8
TITLEBLOCK_NOTES
  6
CONTINUOUS
 62
     3
 10
43.040807713773923
 20
0.9913397050620671
 30
0.0
 11
44.055359355888889
 21
1.009048788927067
 31
0.0
  0
LINE
  5
863
  8
TITLEBLOCK_NOTES
  6
CONTINUOUS
 62
     3
 10
43.040967225048902
 20
1.0109474876520821
 30
0.0
 11
43.920799809723903
 21
1.02630501758707
 31
0.0
  0
LINE
  5
864
  8
TITLEBLOCK_NOTES
  6
CONTINUOUS
 62
     3
 10
43.041126785328863
 20
1.0305552702420531
 30
0.0
 11
43.917153739713882
 21
1.0458463493970691
 31
0.0
  0
LINE
  5
865
  8
TITLEBLOCK_NOTES
  6
CONTINUOUS
 62
     3
 10
43.041286296603928
 20
1.0501630038270611
 30
0.0
 11
43.912604311533897
 21
1.065371950602062
 31
0.0
  0
LINE
  5
866
  8
TITLEBLOCK_NOTES
  6
CONTINUOUS
 62
     3
 10
43.050568921713932
 20
0.3990123986670682
 30
0.0
 11
43.908653724453899
 21
0.4139903358720681
 31
0.0
  0
LINE
  5
867
  8
TITLEBLOCK_NOTES
  6
CONTINUOUS
 62
     3
 10
43.045405215858878
 20
0.418527267777055
 30
0.0
 11
43.913133271503924
 21
0.433673488152067
 31
0.0
  0
LINE
  5
868
  8
TITLEBLOCK_NOTES
  6
CONTINUOUS
 62
     3
 10
43.041171036843878
 20
0.4380583085370661
 30
0.0
 11
43.916683193703882
 21
0.4533404687820699
 31
0.0
  0
LINE
  5
869
  8
TITLEBLOCK_NOTES
  6
CONTINUOUS
 62
     3
 10
43.037841882168863
 20
0.4576052269170816
 30
0.0
 11
43.919328189573918
 21
0.4729916207970746
 31
0.0
  0
LINE
  5
86A
  8
TITLEBLOCK_NOTES
  6
CONTINUOUS
 62
     3
 10
43.036624401948913
 20
0.4771889480520671
 30
0.0
 11
43.921086488973863
 21
0.4926272872320574
 31
0.0
  0
LINE
  5
86B
  8
TITLEBLOCK_NOTES
  6
CONTINUOUS
 62
     3
 10
43.909020673893892
 20
1.078504653537069
 30
0.0
 11
43.046154404298889
 21
1.078504653537069
 31
0.0
  0
LINE
  5
86C
  8
TITLEBLOCK_NOTES
  6
CONTINUOUS
 62
     3
 10
43.086750293313877
 20
1.1749711920570609
 30
0.0
 11
43.868424784878911
 21
1.1749711920570609
 31
0.0
  0
LINE
  5
86D
  8
TITLEBLOCK_NOTES
  6
CONTINUOUS
 62
     3
 10
43.04373424336886
 20
1.0698107254920819
 30
0.0
 11
43.541809939233893
 21
1.078504653537069
 31
0.0
  0
LINE
  5
86E
  8
TITLEBLOCK_NOTES
  6
CONTINUOUS
 62
     3
 10
43.038698342553893
 20
0.7320899747070726
 30
0.0
 11
43.541809939233893
 21
0.7408718177220628
 31
0.0
  0
LINE
  5
86F
  8
TITLEBLOCK_NOTES
  6
CONTINUOUS
 62
     3
 10
43.137395294643937
 20
1.2469352305770789
 30
0.0
 11
43.817779783548907
 21
1.2469352305770789
 31
0.0
  0
LINE
  5
870
  8
TITLEBLOCK_NOTES
  6
CONTINUOUS
 62
     3
 10
43.160158166148918
 20
1.2714377305770621
 30
0.0
 11
43.795016912043877
 21
1.2714377305770621
 31
0.0
  0
ARC
  5
871
  8
TITLEBLOCK_NOTES
  6
CONTINUOUS
 62
     3
 10
43.477587563598931
 20
0.5224444284870664
 30
0.0
 40
0.885535688565
 50
184.9874829000004
 51
356.60435853000081
  0
ARC
  5
872
  8
TITLEBLOCK_NOTES
  6
CONTINUOUS
 62
     3
 10
43.477587563598931
 20
0.5224444284870664
 30
0.0
 40
0.910038188565
 50
184.9874829000004
 51
358.24011373000081
  0
ARC
  5
873
  8
TITLEBLOCK_NOTES
  6
CONTINUOUS
 62
     3
 10
43.477587563598931
 20
0.5224444284870664
 30
0.0
 40
0.8610331885650001
 50
185.12754042000051
 51
354.87245958000102
  0
LINE
  5
874
  8
TITLEBLOCK_NOTES
  6
CONTINUOUS
 62
     3
 10
41.113096313598902
 20
1.425591288927075
 30
0.0
 11
41.113096313598902
 21
-0.3630912110729412
 31
0.0
  0
LINE
  5
875
  8
TITLEBLOCK_NOTES
  6
CONTINUOUS
 62
     3
 10
41.860422563598917
 20
1.842133788927063
 30
0.0
 11
41.860422563598917
 21
-0.3630912110729412
 31
0.0
  0
LINE
  5
876
  8
TITLEBLOCK_NOTES
  6
CONTINUOUS
 62
     3
 10
42.276965063598887
 20
1.842133788927063
 30
0.0
 11
42.276965063598887
 21
-0.3630912110729412
 31
0.0
  0
LINE
  5
877
  8
TITLEBLOCK_NOTES
  6
CONTINUOUS
 62
     3
 10
42.301467563598877
 20
-0.3875937110729346
 30
0.0
 11
42.301467563598877
 21
1.8666362889270709
 31
0.0
  0
LINE
  5
878
  8
TITLEBLOCK_NOTES
  6
CONTINUOUS
 62
     3
 10
41.835920063598863
 20
1.8666362889270709
 30
0.0
 11
41.835920063598863
 21
-0.3875937110729346
 31
0.0
  0
LINE
  5
879
  8
TITLEBLOCK_NOTES
  6
CONTINUOUS
 62
     3
 10
41.137598813598892
 20
-0.3875937110729346
 30
0.0
 11
41.137598813598892
 21
1.4010887889270791
 31
0.0
  0
LINE
  5
87A
  8
TITLEBLOCK_NOTES
  6
CONTINUOUS
 62
     3
 10
42.252462563598897
 20
1.817631288927066
 30
0.0
 11
42.252462563598897
 21
-0.3385887110729442
 31
0.0
  0
LINE
  5
87B
  8
TITLEBLOCK_NOTES
  6
CONTINUOUS
 62
     3
 10
41.884925063598878
 20
1.817631288927066
 30
0.0
 11
41.884925063598878
 21
-0.3385887110729442
 31
0.0
  0
LINE
  5
87C
  8
TITLEBLOCK_NOTES
  6
CONTINUOUS
 62
     3
 10
41.088593813598941
 20
1.4500937889270651
 30
0.0
 11
41.088593813598941
 21
-0.3385887110729442
 31
0.0
  0
LINE
  5
87D
  8
TITLEBLOCK_NOTES
  6
CONTINUOUS
 62
     3
 10
41.860422563598917
 20
1.842133788927063
 30
0.0
 11
42.276965063598887
 21
1.842133788927063
 31
0.0
  0
LINE
  5
87E
  8
TITLEBLOCK_NOTES
  6
CONTINUOUS
 62
     3
 10
41.835920063598863
 20
1.8666362889270709
 30
0.0
 11
42.301467563598877
 21
1.8666362889270709
 31
0.0
  0
LINE
  5
87F
  8
TITLEBLOCK_NOTES
  6
CONTINUOUS
 62
     3
 10
41.884925063598878
 20
1.817631288927066
 30
0.0
 11
42.252462563598897
 21
1.817631288927066
 31
0.0
  0
LINE
  5
880
  8
TITLEBLOCK_NOTES
  6
CONTINUOUS
 62
     3
 10
41.688905063598881
 20
1.6098423461370639
 30
0.0
 11
41.835920063598863
 21
1.6098423461370639
 31
0.0
  0
LINE
  5
881
  8
TITLEBLOCK_NOTES
  6
CONTINUOUS
 62
     3
 10
41.688905063598881
 20
1.585339846137066
 30
0.0
 11
41.835920063598863
 21
1.585339846137066
 31
0.0
  0
LINE
  5
882
  8
TITLEBLOCK_NOTES
  6
CONTINUOUS
 62
     3
 10
41.688905063598881
 20
1.6343448461370811
 30
0.0
 11
41.835920063598863
 21
1.6343448461370811
 31
0.0
  0
LINE
  5
883
  8
TITLEBLOCK_NOTES
  6
CONTINUOUS
 62
     3
 10
41.688905063598881
 20
1.5608373461370699
 30
0.0
 11
41.835920063598863
 21
1.5608373461370699
 31
0.0
  0
LINE
  5
884
  8
TITLEBLOCK_NOTES
  6
CONTINUOUS
 62
     3
 10
41.664402563598898
 20
1.425591288927075
 30
0.0
 11
41.664402563598898
 21
1.842133788927063
 31
0.0
  0
LINE
  5
885
  8
TITLEBLOCK_NOTES
  6
CONTINUOUS
 62
     3
 10
41.688905063598881
 20
1.4010887889270791
 30
0.0
 11
41.688905063598881
 21
1.8666362889270709
 31
0.0
  0
LINE
  5
886
  8
TITLEBLOCK_NOTES
  6
CONTINUOUS
 62
     3
 10
41.639900063598901
 20
1.817631288927066
 30
0.0
 11
41.639900063598901
 21
1.4500937889270651
 31
0.0
  0
LINE
  5
887
  8
TITLEBLOCK_NOTES
  6
CONTINUOUS
 62
     3
 10
41.137598813598892
 20
1.197930230577074
 30
0.0
 11
41.835920063598863
 21
1.197930230577074
 31
0.0
  0
LINE
  5
888
  8
TITLEBLOCK_NOTES
  6
CONTINUOUS
 62
     3
 10
41.137598813598892
 20
1.2224327305770719
 30
0.0
 11
41.835920063598863
 21
1.2224327305770719
 31
0.0
  0
LINE
  5
889
  8
TITLEBLOCK_NOTES
  6
CONTINUOUS
 62
     3
 10
41.137598813598892
 20
1.1749711920570609
 30
0.0
 11
41.835920063598863
 21
1.1749711920570609
 31
0.0
  0
LINE
  5
88A
  8
TITLEBLOCK_NOTES
  6
CONTINUOUS
 62
     3
 10
41.137598813598892
 20
1.2469352305770789
 30
0.0
 11
41.835920063598863
 21
1.2469352305770789
 31
0.0
  0
LINE
  5
88B
  8
TITLEBLOCK_NOTES
  6
CONTINUOUS
 62
     3
 10
41.137598813598892
 20
1.2714377305770621
 30
0.0
 11
41.835920063598863
 21
1.2714377305770621
 31
0.0
  0
LINE
  5
88C
  8
TITLEBLOCK_NOTES
  6
CONTINUOUS
 62
     3
 10
41.639900063598901
 20
1.4500937889270651
 30
0.0
 11
41.088593813598941
 21
1.4500937889270651
 31
0.0
  0
LINE
  5
88D
  8
TITLEBLOCK_NOTES
  6
CONTINUOUS
 62
     3
 10
41.113096313598902
 20
1.425591288927075
 30
0.0
 11
41.664402563598898
 21
1.425591288927075
 31
0.0
  0
LINE
  5
88E
  8
TITLEBLOCK_NOTES
  6
CONTINUOUS
 62
     3
 10
41.137598813598892
 20
1.4010887889270791
 30
0.0
 11
41.688905063598881
 21
1.4010887889270791
 31
0.0
  0
LINE
  5
88F
  8
TITLEBLOCK_NOTES
  6
CONTINUOUS
 62
     3
 10
41.652593534718861
 20
0.3550056636420678
 30
0.0
 11
41.835920063598863
 21
0.3582056411370829
 31
0.0
  0
LINE
  5
890
  8
TITLEBLOCK_NOTES
  6
CONTINUOUS
 62
     3
 10
41.137598813598892
 20
1.0757490043770721
 30
0.0
 11
41.295472145478882
 21
1.078504653537069
 31
0.0
  0
LINE
  5
891
  8
TITLEBLOCK_NOTES
  6
CONTINUOUS
 62
     3
 10
41.137598813598892
 20
0.7381161195570769
 30
0.0
 11
41.295472145478882
 21
0.7408718177220628
 31
0.0
  0
LINE
  5
892
  8
TITLEBLOCK_NOTES
  6
CONTINUOUS
 62
     3
 10
41.137598813598892
 20
0.8404891327170743
 30
0.0
 11
41.835920063598863
 21
0.8526783913920644
 31
0.0
  0
LINE
  5
893
  8
TITLEBLOCK_NOTES
  6
CONTINUOUS
 62
     3
 10
41.137598813598892
 20
0.8600941220220795
 30
0.0
 11
41.835920063598863
 21
0.8722833806970805
 31
0.0
  0
LINE
  5
894
  8
TITLEBLOCK_NOTES
  6
CONTINUOUS
 62
     3
 10
41.137598813598892
 20
0.8796991113270742
 30
0.0
 11
41.835920063598863
 21
0.8918883700020714
 31
0.0
  0
LINE
  5
895
  8
TITLEBLOCK_NOTES
  6
CONTINUOUS
 62
     3
 10
41.137598813598892
 20
0.8993041006320686
 30
0.0
 11
41.835920063598863
 21
0.91149335930708
 31
0.0
  0
LINE
  5
896
  8
TITLEBLOCK_NOTES
  6
CONTINUOUS
 62
     3
 10
41.137598813598892
 20
0.9189090899370739
 30
0.0
 11
41.835920063598863
 21
0.9310983486120749
 31
0.0
  0
LINE
  5
897
  8
TITLEBLOCK_NOTES
  6
CONTINUOUS
 62
     3
 10
41.137598813598892
 20
0.9385140792420648
 30
0.0
 11
41.835920063598863
 21
0.9507033379170655
 31
0.0
  0
LINE
  5
898
  8
TITLEBLOCK_NOTES
  6
CONTINUOUS
 62
     3
 10
41.137598813598892
 20
0.9581190685470735
 30
0.0
 11
41.835920063598863
 21
0.9703083272220743
 31
0.0
  0
LINE
  5
899
  8
TITLEBLOCK_NOTES
  6
CONTINUOUS
 62
     3
 10
41.137598813598892
 20
0.9777240578520681
 30
0.0
 11
41.835920063598863
 21
0.9899133165270653
 31
0.0
  0
LINE
  5
89A
  8
TITLEBLOCK_NOTES
  6
CONTINUOUS
 62
     3
 10
41.137598813598892
 20
0.9973290471570591
 30
0.0
 11
41.835920063598863
 21
1.00951830583207
 31
0.0
  0
LINE
  5
89B
  8
TITLEBLOCK_NOTES
  6
CONTINUOUS
 62
     3
 10
41.137598813598892
 20
1.016934036462082
 30
0.0
 11
41.835920063598863
 21
1.0291232951370639
 31
0.0
  0
LINE
  5
89C
  8
TITLEBLOCK_NOTES
  6
CONTINUOUS
 62
     3
 10
41.137598813598892
 20
1.036539025767073
 30
0.0
 11
41.835920063598863
 21
1.0487282354370799
 31
0.0
  0
LINE
  5
89D
  8
TITLEBLOCK_NOTES
  6
CONTINUOUS
 62
     3
 10
41.137598813598892
 20
1.05614401507208
 30
0.0
 11
41.835920063598863
 21
1.068333224742072
 31
0.0
  0
LINE
  5
89E
  8
TITLEBLOCK_NOTES
  6
CONTINUOUS
 62
     3
 10
41.137598813598892
 20
0.3656213717670766
 30
0.0
 11
41.835920063598863
 21
0.3778106304420739
 31
0.0
  0
LINE
  5
89F
  8
TITLEBLOCK_NOTES
  6
CONTINUOUS
 62
     3
 10
41.137598813598892
 20
0.3852263610720712
 30
0.0
 11
41.835920063598863
 21
0.3974156197470719
 31
0.0
  0
LINE
  5
8A0
  8
TITLEBLOCK_NOTES
  6
CONTINUOUS
 62
     3
 10
41.137598813598892
 20
0.4048313503770764
 30
0.0
 11
41.835920063598863
 21
0.4170206090520773
 31
0.0
  0
LINE
  5
8A1
  8
TITLEBLOCK_NOTES
  6
CONTINUOUS
 62
     3
 10
41.137598813598892
 20
0.4244363396820711
 30
0.0
 11
41.835920063598863
 21
0.4366255983570683
 31
0.0
  0
LINE
  5
8A2
  8
TITLEBLOCK_NOTES
  6
CONTINUOUS
 62
     3
 10
41.137598813598892
 20
0.4440413289870621
 30
0.0
 11
41.835920063598863
 21
0.456230587662077
 31
0.0
  0
LINE
  5
8A3
  8
TITLEBLOCK_NOTES
  6
CONTINUOUS
 62
     3
 10
41.137598813598892
 20
0.4636463182920707
 30
0.0
 11
41.835920063598863
 21
0.4758355769670716
 31
0.0
  0
LINE
  5
8A4
  8
TITLEBLOCK_NOTES
  6
CONTINUOUS
 62
     3
 10
41.137598813598892
 20
0.4832513075970654
 30
0.0
 11
41.835920063598863
 21
0.4954405172670704
 31
0.0
  0
LINE
  5
8A5
  8
TITLEBLOCK_NOTES
  6
CONTINUOUS
 62
     3
 10
41.137598813598892
 20
0.5028562969020847
 30
0.0
 11
41.835920063598863
 21
0.5150455065720651
 31
0.0
  0
LINE
  5
8A6
  8
TITLEBLOCK_NOTES
  6
CONTINUOUS
 62
     3
 10
41.137598813598892
 20
0.522461286207065
 30
0.0
 11
41.835920063598863
 21
0.5346504958770844
 31
0.0
  0
LINE
  5
8A7
  8
TITLEBLOCK_NOTES
  6
CONTINUOUS
 62
     3
 10
41.137598813598892
 20
0.5420662755120561
 30
0.0
 11
41.835920063598863
 21
0.5542554851820647
 31
0.0
  0
LINE
  5
8A8
  8
TITLEBLOCK_NOTES
  6
CONTINUOUS
 62
     3
 10
41.137598813598892
 20
0.5616712158120693
 30
0.0
 11
41.835920063598863
 21
0.5738604744870594
 31
0.0
  0
LINE
  5
8A9
  8
TITLEBLOCK_NOTES
  6
CONTINUOUS
 62
     3
 10
41.137598813598892
 20
0.5812762051170779
 30
0.0
 11
41.835920063598863
 21
0.5934654637920787
 31
0.0
  0
LINE
  5
8AA
  8
TITLEBLOCK_NOTES
  6
CONTINUOUS
 62
     3
 10
41.137598813598892
 20
0.6008811944220726
 30
0.0
 11
41.835920063598863
 21
0.6130704530970697
 31
0.0
  0
LINE
  5
8AB
  8
TITLEBLOCK_NOTES
  6
CONTINUOUS
 62
     3
 10
41.137598813598892
 20
0.6204861837270635
 30
0.0
 11
41.835920063598863
 21
0.6326754424020749
 31
0.0
  0
LINE
  5
8AC
  8
TITLEBLOCK_NOTES
  6
CONTINUOUS
 62
     3
 10
41.137598813598892
 20
0.6400911730320688
 30
0.0
 11
41.835920063598863
 21
0.6522804317070694
 31
0.0
  0
LINE
  5
8AD
  8
TITLEBLOCK_NOTES
  6
CONTINUOUS
 62
     3
 10
41.137598813598892
 20
0.6596961623370669
 30
0.0
 11
41.835920063598863
 21
0.6718854210120641
 31
0.0
  0
LINE
  5
8AE
  8
TITLEBLOCK_NOTES
  6
CONTINUOUS
 62
     3
 10
41.137598813598892
 20
0.6793011516420721
 30
0.0
 11
41.835920063598863
 21
0.6914904103170692
 31
0.0
  0
LINE
  5
8AF
  8
TITLEBLOCK_NOTES
  6
CONTINUOUS
 62
     3
 10
41.137598813598892
 20
0.6989061409470631
 30
0.0
 11
41.835920063598863
 21
0.7110953996220637
 31
0.0
  0
LINE
  5
8B0
  8
TITLEBLOCK_NOTES
  6
CONTINUOUS
 62
     3
 10
41.137598813598892
 20
0.7185111302520575
 30
0.0
 11
41.835920063598863
 21
0.7307003889270725
 31
0.0
  0
LINE
  5
8B1
  8
TITLEBLOCK_NOTES
  6
CONTINUOUS
 62
     3
 10
41.137598813598892
 20
0.3550056636420678
 30
0.0
 11
41.835920063598863
 21
0.3550056636420678
 31
0.0
  0
LINE
  5
8B2
  8
TITLEBLOCK_NOTES
  6
CONTINUOUS
 62
     3
 10
41.137598813598892
 20
0.7408718177220628
 30
0.0
 11
41.835920063598863
 21
0.7408718177220628
 31
0.0
  0
LINE
  5
8B3
  8
TITLEBLOCK_NOTES
  6
CONTINUOUS
 62
     3
 10
41.137598813598892
 20
0.8373383562420675
 30
0.0
 11
41.835920063598863
 21
0.8373383562420675
 31
0.0
  0
LINE
  5
8B4
  8
TITLEBLOCK_NOTES
  6
CONTINUOUS
 62
     3
 10
41.137598813598892
 20
1.078504653537069
 30
0.0
 11
41.835920063598863
 21
1.078504653537069
 31
0.0
  0
LINE
  5
8B5
  8
TITLEBLOCK_NOTES
  6
CONTINUOUS
 62
     3
 10
42.301467563598877
 20
1.2224327305770719
 30
0.0
 11
42.605109649323921
 21
1.2224327305770719
 31
0.0
  0
LINE
  5
8B6
  8
TITLEBLOCK_NOTES
  6
CONTINUOUS
 62
     3
 10
42.301467563598877
 20
1.2469352305770789
 30
0.0
 11
42.613036159068947
 21
1.2469352305770789
 31
0.0
  0
LINE
  5
8B7
  8
TITLEBLOCK_NOTES
  6
CONTINUOUS
 62
     3
 10
42.301467563598877
 20
1.585339846137066
 30
0.0
 11
42.818435814078917
 21
1.585339846137066
 31
0.0
  0
LINE
  5
8B8
  8
TITLEBLOCK_NOTES
  6
CONTINUOUS
 62
     3
 10
42.301467563598877
 20
1.6098423461370639
 30
0.0
 11
42.84282133914391
 21
1.6098423461370639
 31
0.0
  0
LINE
  5
8B9
  8
TITLEBLOCK_NOTES
  6
CONTINUOUS
 62
     3
 10
42.301467563598877
 20
1.6343448461370811
 30
0.0
 11
42.869167897293877
 21
1.6343448461370811
 31
0.0
  0
LINE
  5
8BA
  8
TITLEBLOCK_NOTES
  6
CONTINUOUS
 62
     3
 10
42.301467563598877
 20
1.2714377305770621
 30
0.0
 11
42.621737241843881
 21
1.2714377305770621
 31
0.0
  0
LINE
  5
8BB
  8
TITLEBLOCK_NOTES
  6
CONTINUOUS
 62
     3
 10
42.301467563598877
 20
1.5608373461370699
 30
0.0
 11
42.79580084562393
 21
1.5608373461370699
 31
0.0
  0
LINE
  5
8BC
  8
TITLEBLOCK_NOTES
  6
CONTINUOUS
 62
     3
 10
42.301467563598877
 20
1.197930230577074
 30
0.0
 11
42.597936738468881
 21
1.197930230577074
 31
0.0
  0
LINE
  5
8BD
  8
TITLEBLOCK_NOTES
  6
CONTINUOUS
 62
     3
 10
42.301467563598877
 20
1.1749711920570609
 30
0.0
 11
42.591883248828928
 21
1.1749711920570609
 31
0.0
  0
LINE
  5
8BE
  8
TITLEBLOCK_NOTES
  6
CONTINUOUS
 62
     3
 10
42.595497563598897
 20
0.4433274241470714
 30
0.0
 11
42.595497563598897
 21
1.0610237859570739
 31
0.0
  0
LINE
  5
8BF
  8
TITLEBLOCK_NOTES
  6
CONTINUOUS
 62
     3
 10
42.98753756359892
 20
0.4642295758020687
 30
0.0
 11
42.98753756359892
 21
1.032697621827058
 31
0.0
  0
LINE
  5
8C0
  8
TITLEBLOCK_NOTES
  6
CONTINUOUS
 62
     3
 10
42.5709950635989
 20
0.4433274241470714
 30
0.0
 11
42.5709950635989
 21
1.0610237859570739
 31
0.0
  0
LINE
  5
8C1
  8
TITLEBLOCK_NOTES
  6
CONTINUOUS
 62
     3
 10
42.620000063598923
 20
0.4454912889270767
 30
0.0
 11
42.620000063598923
 21
1.058053788927072
 31
0.0
  0
LINE
  5
8C2
  8
TITLEBLOCK_NOTES
  6
CONTINUOUS
 62
     3
 10
43.016869457343951
 20
1.060788365937078
 30
0.0
 11
43.012040847678911
 21
0.467329485087074
 31
0.0
  0
LINE
  5
8C3
  8
TITLEBLOCK_NOTES
  6
CONTINUOUS
 62
     3
 10
43.041371124258902
 20
1.060589013597073
 30
0.0
 11
43.0365425635989
 21
0.467130132747066
 31
0.0
  0
LINE
  5
8C4
  8
TITLEBLOCK_NOTES
  6
CONTINUOUS
 62
     3
 10
42.301467563598877
 20
1.0764594298620691
 30
0.0
 11
42.418641066858953
 21
1.078504653537069
 31
0.0
  0
LINE
  5
8C5
  8
TITLEBLOCK_NOTES
  6
CONTINUOUS
 62
     3
 10
42.301467563598877
 20
0.7388265450420593
 30
0.0
 11
42.418641066858953
 21
0.7408718177220628
 31
0.0
  0
LINE
  5
8C6
  8
TITLEBLOCK_NOTES
  6
CONTINUOUS
 62
     3
 10
42.301467563598877
 20
0.3663317972520588
 30
0.0
 11
42.580205945388961
 21
0.3711972096720686
 31
0.0
  0
LINE
  5
8C7
  8
TITLEBLOCK_NOTES
  6
CONTINUOUS
 62
     3
 10
42.301467563598877
 20
0.3550056636420678
 30
0.0
 11
42.583085626203861
 21
0.3550056636420678
 31
0.0
  0
LINE
  5
8C8
  8
TITLEBLOCK_NOTES
  6
CONTINUOUS
 62
     3
 10
42.301467563598877
 20
0.8411995582020708
 30
0.0
 11
42.5709950635989
 21
0.8459041852170621
 31
0.0
  0
LINE
  5
8C9
  8
TITLEBLOCK_NOTES
  6
CONTINUOUS
 62
     3
 10
42.301467563598877
 20
0.8608045475070651
 30
0.0
 11
42.5709950635989
 21
0.8655091745220815
 31
0.0
  0
LINE
  5
8CA
  8
TITLEBLOCK_NOTES
  6
CONTINUOUS
 62
     3
 10
42.301467563598877
 20
0.8804095368120846
 30
0.0
 11
42.5709950635989
 21
0.8851141638270725
 31
0.0
  0
LINE
  5
8CB
  8
TITLEBLOCK_NOTES
  6
CONTINUOUS
 62
     3
 10
42.301467563598877
 20
0.9000145261170613
 30
0.0
 11
42.5709950635989
 21
0.9047191531320775
 31
0.0
  0
LINE
  5
8CC
  8
TITLEBLOCK_NOTES
  6
CONTINUOUS
 62
     3
 10
42.301467563598877
 20
0.9196195154220594
 30
0.0
 11
42.5709950635989
 21
0.9243241424370721
 31
0.0
  0
LINE
  5
8CD
  8
TITLEBLOCK_NOTES
  6
CONTINUOUS
 62
     3
 10
42.301467563598877
 20
0.939224504727079
 30
0.0
 11
42.5709950635989
 21
0.9439291317420668
 31
0.0
  0
LINE
  5
8CE
  8
TITLEBLOCK_NOTES
  6
CONTINUOUS
 62
     3
 10
42.301467563598877
 20
0.9588294940320699
 30
0.0
 11
42.5709950635989
 21
0.9635341210470718
 31
0.0
  0
LINE
  5
8CF
  8
TITLEBLOCK_NOTES
  6
CONTINUOUS
 62
     3
 10
42.301467563598877
 20
0.9784344833370751
 30
0.0
 11
42.5709950635989
 21
0.983139110352063
 31
0.0
  0
LINE
  5
8D0
  8
TITLEBLOCK_NOTES
  6
CONTINUOUS
 62
     3
 10
42.301467563598877
 20
0.9980394726420698
 30
0.0
 11
42.5709950635989
 21
1.00274409965707
 31
0.0
  0
LINE
  5
8D1
  8
TITLEBLOCK_NOTES
  6
CONTINUOUS
 62
     3
 10
42.301467563598877
 20
1.0176444619470599
 30
0.0
 11
42.5709950635989
 21
1.022349088962065
 31
0.0
  0
LINE
  5
8D2
  8
TITLEBLOCK_NOTES
  6
CONTINUOUS
 62
     3
 10
42.301467563598877
 20
1.0372494512520689
 30
0.0
 11
42.5709950635989
 21
1.041954078267056
 31
0.0
  0
LINE
  5
8D3
  8
TITLEBLOCK_NOTES
  6
CONTINUOUS
 62
     3
 10
42.301467563598877
 20
1.0568544405570739
 30
0.0
 11
42.571058672088938
 21
1.061560145682076
 31
0.0
  0
LINE
  5
8D4
  8
TITLEBLOCK_NOTES
  6
CONTINUOUS
 62
     3
 10
42.301467563598877
 20
0.3859367865570817
 30
0.0
 11
42.577128970443908
 21
0.3907484894970778
 31
0.0
  0
LINE
  5
8D5
  8
TITLEBLOCK_NOTES
  6
CONTINUOUS
 62
     3
 10
42.301467563598877
 20
0.4055417758620621
 30
0.0
 11
42.574484709648907
 21
0.4103073160920623
 31
0.0
  0
LINE
  5
8D6
  8
TITLEBLOCK_NOTES
  6
CONTINUOUS
 62
     3
 10
42.301467563598877
 20
0.425146765167078
 30
0.0
 11
42.57226987966888
 21
0.429873640452076
 31
0.0
  0
LINE
  5
8D7
  8
TITLEBLOCK_NOTES
  6
CONTINUOUS
 62
     3
 10
42.301467563598877
 20
0.4447517544720691
 30
0.0
 11
42.5709950635989
 21
0.4494563814870746
 31
0.0
  0
LINE
  5
8D8
  8
TITLEBLOCK_NOTES
  6
CONTINUOUS
 62
     3
 10
42.301467563598877
 20
0.4643567437770672
 30
0.0
 11
42.5709950635989
 21
0.469061370792069
 31
0.0
  0
LINE
  5
8D9
  8
TITLEBLOCK_NOTES
  6
CONTINUOUS
 62
     3
 10
42.301467563598877
 20
0.4839617330820724
 30
0.0
 11
42.5709950635989
 21
0.4886663110920681
 31
0.0
  0
LINE
  5
8DA
  8
TITLEBLOCK_NOTES
  6
CONTINUOUS
 62
     3
 10
42.301467563598877
 20
0.503566722387081
 30
0.0
 11
42.5709950635989
 21
0.5082713003970625
 31
0.0
  0
LINE
  5
8DB
  8
TITLEBLOCK_NOTES
  6
CONTINUOUS
 62
     3
 10
42.301467563598877
 20
0.5231716626870658
 30
0.0
 11
42.5709950635989
 21
0.5278762897020819
 31
0.0
  0
LINE
  5
8DC
  8
TITLEBLOCK_NOTES
  6
CONTINUOUS
 62
     3
 10
42.301467563598877
 20
0.5427766519920639
 30
0.0
 11
42.5709950635989
 21
0.5474812790070766
 31
0.0
  0
LINE
  5
8DD
  8
TITLEBLOCK_NOTES
  6
CONTINUOUS
 62
     3
 10
42.301467563598877
 20
0.5623816412970655
 30
0.0
 11
42.5709950635989
 21
0.5670862683120711
 31
0.0
  0
LINE
  5
8DE
  8
TITLEBLOCK_NOTES
  6
CONTINUOUS
 62
     3
 10
42.301467563598877
 20
0.5819866306020601
 30
0.0
 11
42.5709950635989
 21
0.5866912576170762
 31
0.0
  0
LINE
  5
8DF
  8
TITLEBLOCK_NOTES
  6
CONTINUOUS
 62
     3
 10
42.301467563598877
 20
0.6015916199070797
 30
0.0
 11
42.5709950635989
 21
0.6062962469220672
 31
0.0
  0
LINE
  5
8E0
  8
TITLEBLOCK_NOTES
  6
CONTINUOUS
 62
     3
 10
42.301467563598877
 20
0.621196609212074
 30
0.0
 11
42.5709950635989
 21
0.6259012362270761
 31
0.0
  0
LINE
  5
8E1
  8
TITLEBLOCK_NOTES
  6
CONTINUOUS
 62
     3
 10
42.301467563598877
 20
0.640801598517065
 30
0.0
 11
42.5709950635989
 21
0.6455062255320705
 31
0.0
  0
LINE
  5
8E2
  8
TITLEBLOCK_NOTES
  6
CONTINUOUS
 62
     3
 10
42.301467563598877
 20
0.660406587822074
 30
0.0
 11
42.5709950635989
 21
0.6651112148370615
 31
0.0
  0
LINE
  5
8E3
  8
TITLEBLOCK_NOTES
  6
CONTINUOUS
 62
     3
 10
42.301467563598877
 20
0.6800115771270791
 30
0.0
 11
42.5709950635989
 21
0.6847162041420667
 31
0.0
  0
LINE
  5
8E4
  8
TITLEBLOCK_NOTES
  6
CONTINUOUS
 62
     3
 10
42.301467563598877
 20
0.6996165664320735
 30
0.0
 11
42.5709950635989
 21
0.7043211934470648
 31
0.0
  0
LINE
  5
8E5
  8
TITLEBLOCK_NOTES
  6
CONTINUOUS
 62
     3
 10
42.301467563598877
 20
0.7192215557370683
 30
0.0
 11
42.5709950635989
 21
0.72392618275207
 31
0.0
  0
LINE
  5
8E6
  8
TITLEBLOCK_NOTES
  6
CONTINUOUS
 62
     3
 10
42.301467563598877
 20
0.7408718177220628
 30
0.0
 11
42.5709950635989
 21
0.7408718177220628
 31
0.0
  0
LINE
  5
8E7
  8
TITLEBLOCK_NOTES
  6
CONTINUOUS
 62
     3
 10
42.301467563598877
 20
0.8373383562420675
 30
0.0
 11
42.5709950635989
 21
0.8373383562420675
 31
0.0
  0
LINE
  5
8E8
  8
TITLEBLOCK_NOTES
  6
CONTINUOUS
 62
     3
 10
42.301467563598877
 20
1.078504653537069
 30
0.0
 11
42.573235376178907
 21
1.078504653537069
 31
0.0
  0
LINE
  5
8E9
  8
TITLEBLOCK_NOTES
  6
CONTINUOUS
 62
     3
 10
42.276965063598887
 20
-0.3630912110729412
 30
0.0
 11
41.860422563598917
 21
-0.3630912110729412
 31
0.0
  0
LINE
  5
8EA
  8
TITLEBLOCK_NOTES
  6
CONTINUOUS
 62
     3
 10
41.835920063598863
 20
-0.3875937110729346
 30
0.0
 11
42.301467563598877
 21
-0.3875937110729346
 31
0.0
  0
LINE
  5
8EB
  8
TITLEBLOCK_NOTES
  6
CONTINUOUS
 62
     3
 10
41.884925063598878
 20
-0.3385887110729442
 30
0.0
 11
42.252462563598897
 21
-0.3385887110729442
 31
0.0
  0
LINE
  5
8EC
  8
TITLEBLOCK_NOTES
  6
CONTINUOUS
 62
     3
 10
41.137598813598892
 20
-0.0867306008879254
 30
0.0
 11
41.835920063598863
 21
-0.0745413912179309
 31
0.0
  0
LINE
  5
8ED
  8
TITLEBLOCK_NOTES
  6
CONTINUOUS
 62
     3
 10
41.137598813598892
 20
-0.0671256115829344
 30
0.0
 11
41.835920063598863
 21
-0.0549364019129364
 31
0.0
  0
LINE
  5
8EE
  8
TITLEBLOCK_NOTES
  6
CONTINUOUS
 62
     3
 10
41.137598813598892
 20
-0.0475206712829426
 30
0.0
 11
41.835920063598863
 21
-0.0353314126079312
 31
0.0
  0
LINE
  5
8EF
  8
TITLEBLOCK_NOTES
  6
CONTINUOUS
 62
     3
 10
41.137598813598892
 20
-0.0279156819779232
 30
0.0
 11
41.835920063598863
 21
-0.0157264233029402
 31
0.0
  0
LINE
  5
8F0
  8
TITLEBLOCK_NOTES
  6
CONTINUOUS
 62
     3
 10
41.137598813598892
 20
-0.0083106926729322
 30
0.0
 11
41.835920063598863
 21
0.0038785660020579
 31
0.0
  0
LINE
  5
8F1
  8
TITLEBLOCK_NOTES
  6
CONTINUOUS
 62
     3
 10
41.137598813598892
 20
0.0112942966320766
 30
0.0
 11
41.835920063598863
 21
0.0234835553070774
 31
0.0
  0
LINE
  5
8F2
  8
TITLEBLOCK_NOTES
  6
CONTINUOUS
 62
     3
 10
41.137598813598892
 20
0.0308992859370712
 30
0.0
 11
41.835920063598863
 21
0.0430885446120826
 31
0.0
  0
LINE
  5
8F3
  8
TITLEBLOCK_NOTES
  6
CONTINUOUS
 62
     3
 10
41.137598813598892
 20
0.0505042752420621
 30
0.0
 11
41.835920063598863
 21
0.0626935339170736
 31
0.0
  0
LINE
  5
8F4
  8
TITLEBLOCK_NOTES
  6
CONTINUOUS
 62
     3
 10
41.137598813598892
 20
0.0701092645470674
 30
0.0
 11
41.835920063598863
 21
0.0822985232220681
 31
0.0
  0
LINE
  5
8F5
  8
TITLEBLOCK_NOTES
  6
CONTINUOUS
 62
     3
 10
41.137598813598892
 20
0.0897142538520761
 30
0.0
 11
41.835920063598863
 21
0.1019035125270769
 31
0.0
  0
LINE
  5
8F6
  8
TITLEBLOCK_NOTES
  6
CONTINUOUS
 62
     3
 10
41.137598813598892
 20
0.1093192431570706
 30
0.0
 11
41.835920063598863
 21
0.1215085018320678
 31
0.0
  0
LINE
  5
8F7
  8
TITLEBLOCK_NOTES
  6
CONTINUOUS
 62
     3
 10
41.137598813598892
 20
0.1289242324620616
 30
0.0
 11
41.835920063598863
 21
0.141113491137073
 31
0.0
  0
LINE
  5
8F8
  8
TITLEBLOCK_NOTES
  6
CONTINUOUS
 62
     3
 10
41.137598813598892
 20
0.148529221767081
 30
0.0
 11
41.835920063598863
 21
0.1607184314370613
 31
0.0
  0
LINE
  5
8F9
  8
TITLEBLOCK_NOTES
  6
CONTINUOUS
 62
     3
 10
41.137598813598892
 20
0.1681342110720756
 30
0.0
 11
41.835920063598863
 21
0.1803234207420559
 31
0.0
  0
LINE
  5
8FA
  8
TITLEBLOCK_NOTES
  6
CONTINUOUS
 62
     3
 10
41.137598813598892
 20
0.1877392003770808
 30
0.0
 11
41.835920063598863
 21
0.1999284100470753
 31
0.0
  0
LINE
  5
8FB
  8
TITLEBLOCK_NOTES
  6
CONTINUOUS
 62
     3
 10
41.137598813598892
 20
0.2073441896820753
 30
0.0
 11
41.835920063598863
 21
0.219533399352084
 31
0.0
  0
LINE
  5
8FC
  8
TITLEBLOCK_NOTES
  6
CONTINUOUS
 62
     3
 10
41.137598813598892
 20
0.2269491299820672
 30
0.0
 11
41.835920063598863
 21
0.239138388657075
 31
0.0
  0
LINE
  5
8FD
  8
TITLEBLOCK_NOTES
  6
CONTINUOUS
 62
     3
 10
41.137598813598892
 20
0.2465541192870688
 30
0.0
 11
41.824218159648851
 21
0.2585391251220805
 31
0.0
  0
LINE
  5
8FE
  8
TITLEBLOCK_NOTES
  6
CONTINUOUS
 62
     3
 10
41.137598813598892
 20
0.2585391251220805
 30
0.0
 11
41.835920063598863
 21
0.2585391251220805
 31
0.0
  0
LINE
  5
8FF
  8
TITLEBLOCK_NOTES
  6
CONTINUOUS
 62
     3
 10
41.137598813598892
 20
-0.3808053914579297
 30
0.0
 11
41.835920063598863
 21
-0.3686161817879316
 31
0.0
  0
LINE
  5
900
  8
TITLEBLOCK_NOTES
  6
CONTINUOUS
 62
     3
 10
41.137598813598892
 20
-0.3612004021529316
 30
0.0
 11
41.835920063598863
 21
-0.3490111924829229
 31
0.0
  0
LINE
  5
901
  8
TITLEBLOCK_NOTES
  6
CONTINUOUS
 62
     3
 10
41.137598813598892
 20
-0.3415954618529291
 30
0.0
 11
41.835920063598863
 21
-0.3294062031779319
 31
0.0
  0
LINE
  5
902
  8
TITLEBLOCK_NOTES
  6
CONTINUOUS
 62
     3
 10
41.137598813598892
 20
-0.3219904725479381
 30
0.0
 11
41.835920063598863
 21
-0.3098012138729267
 31
0.0
  0
LINE
  5
903
  8
TITLEBLOCK_NOTES
  6
CONTINUOUS
 62
     3
 10
41.137598813598892
 20
-0.3023854832429329
 30
0.0
 11
41.835920063598863
 21
-0.2901962245679321
 31
0.0
  0
LINE
  5
904
  8
TITLEBLOCK_NOTES
  6
CONTINUOUS
 62
     3
 10
41.137598813598892
 20
-0.2827804939379348
 30
0.0
 11
41.835920063598863
 21
-0.2705912352629376
 31
0.0
  0
LINE
  5
905
  8
TITLEBLOCK_NOTES
  6
CONTINUOUS
 62
     3
 10
41.137598813598892
 20
-0.2631755046329189
 30
0.0
 11
41.835920063598863
 21
-0.2509862459579324
 31
0.0
  0
LINE
  5
906
  8
TITLEBLOCK_NOTES
  6
CONTINUOUS
 62
     3
 10
41.137598813598892
 20
-0.2435705153279279
 30
0.0
 11
41.835920063598863
 21
-0.2313812566529378
 31
0.0
  0
LINE
  5
907
  8
TITLEBLOCK_NOTES
  6
CONTINUOUS
 62
     3
 10
41.137598813598892
 20
-0.2239655260229441
 30
0.0
 11
41.835920063598863
 21
-0.2117762673479184
 31
0.0
  0
LINE
  5
908
  8
TITLEBLOCK_NOTES
  6
CONTINUOUS
 62
     3
 10
41.137598813598892
 20
-0.2043605367179246
 30
0.0
 11
41.835920063598863
 21
-0.1921712780429381
 31
0.0
  0
LINE
  5
909
  8
TITLEBLOCK_NOTES
  6
CONTINUOUS
 62
     3
 10
41.137598813598892
 20
-0.1847555474129336
 30
0.0
 11
41.835920063598863
 21
-0.1725662887379435
 31
0.0
  0
LINE
  5
90A
  8
TITLEBLOCK_NOTES
  6
CONTINUOUS
 62
     3
 10
41.137598813598892
 20
-0.1651505581079249
 30
0.0
 11
41.835920063598863
 21
-0.1529612994329241
 31
0.0
  0
LINE
  5
90B
  8
TITLEBLOCK_NOTES
  6
CONTINUOUS
 62
     3
 10
41.137598813598892
 20
-0.1455455688029303
 30
0.0
 11
41.835920063598863
 21
-0.1333563591329252
 31
0.0
  0
LINE
  5
90C
  8
TITLEBLOCK_NOTES
  6
CONTINUOUS
 62
     3
 10
41.137598813598892
 20
-0.1259405794979393
 30
0.0
 11
41.835920063598863
 21
-0.1137513698279307
 31
0.0
  0
LINE
  5
90D
  8
TITLEBLOCK_NOTES
  6
CONTINUOUS
 62
     3
 10
41.137598813598892
 20
-0.1063355901929341
 30
0.0
 11
41.835920063598863
 21
-0.0941463805229397
 31
0.0
  0
LINE
  5
90E
  8
TITLEBLOCK_NOTES
  6
CONTINUOUS
 62
     3
 10
42.301467563598877
 20
-0.0860202244079211
 30
0.0
 11
42.793253663733928
 21
-0.0774360675629318
 31
0.0
  0
LINE
  5
90F
  8
TITLEBLOCK_NOTES
  6
CONTINUOUS
 62
     3
 10
42.301467563598877
 20
-0.0664152351029301
 30
0.0
 11
42.776790679008911
 21
-0.0581184435779179
 31
0.0
  0
LINE
  5
910
  8
TITLEBLOCK_NOTES
  6
CONTINUOUS
 62
     3
 10
42.301467563598877
 20
-0.0468102457979356
 30
0.0
 11
42.761214292743901
 21
-0.0387853340129354
 31
0.0
  0
LINE
  5
911
  8
TITLEBLOCK_NOTES
  6
CONTINUOUS
 62
     3
 10
42.301467563598877
 20
-0.0272052564929446
 30
0.0
 11
42.746469766353897
 21
-0.0194377189679216
 31
0.0
  0
LINE
  5
912
  8
TITLEBLOCK_NOTES
  6
CONTINUOUS
 62
     3
 10
42.301467563598877
 20
-0.0076002671879358
 30
0.0
 11
42.732509417973951
 21
-0.0000763825229342
 31
0.0
  0
LINE
  5
913
  8
TITLEBLOCK_NOTES
  6
CONTINUOUS
 62
     3
 10
42.301467563598877
 20
0.0120047221170872
 30
0.0
 11
42.719291446338943
 21
0.0192978912420685
 31
0.0
  0
LINE
  5
914
  8
TITLEBLOCK_NOTES
  6
CONTINUOUS
 62
     3
 10
42.301467563598877
 20
0.0316097114220781
 30
0.0
 11
42.706779048693903
 21
0.038684465262083
 31
0.0
  0
LINE
  5
915
  8
TITLEBLOCK_NOTES
  6
CONTINUOUS
 62
     3
 10
42.301467563598877
 20
0.0512147007270727
 30
0.0
 11
42.694939636713933
 21
0.0580828004820724
 31
0.0
  0
LINE
  5
916
  8
TITLEBLOCK_NOTES
  6
CONTINUOUS
 62
     3
 10
42.301467563598877
 20
0.0708196900320743
 30
0.0
 11
42.683744297448897
 21
0.077492357847067
 31
0.0
  0
LINE
  5
917
  8
TITLEBLOCK_NOTES
  6
CONTINUOUS
 62
     3
 10
42.301467563598877
 20
0.0904246793370725
 30
0.0
 11
42.673167107253917
 21
0.0969126963120708
 31
0.0
  0
LINE
  5
918
  8
TITLEBLOCK_NOTES
  6
CONTINUOUS
 62
     3
 10
42.301467563598877
 20
0.1100296686420776
 30
0.0
 11
42.663185033778888
 21
0.1163434728420754
 31
0.0
  0
LINE
  5
919
  8
TITLEBLOCK_NOTES
  6
CONTINUOUS
 62
     3
 10
42.301467563598877
 20
0.1296346579470686
 30
0.0
 11
42.653777298903883
 21
0.1357842463920669
 31
0.0
  0
LINE
  5
91A
  8
TITLEBLOCK_NOTES
  6
CONTINUOUS
 62
     3
 10
42.301467563598877
 20
0.1492396472520632
 30
0.0
 11
42.644925280728927
 21
0.1552347229320681
 31
0.0
  0
LINE
  5
91B
  8
TITLEBLOCK_NOTES
  6
CONTINUOUS
 62
     3
 10
42.301467563598877
 20
0.1688446365570719
 30
0.0
 11
42.636612219543892
 21
0.1746946084320733
 31
0.0
  0
LINE
  5
91C
  8
TITLEBLOCK_NOTES
  6
CONTINUOUS
 62
     3
 10
42.301467563598877
 20
0.1884495768570886
 30
0.0
 11
42.628823070813887
 21
0.1941636088620768
 31
0.0
  0
LINE
  5
91D
  8
TITLEBLOCK_NOTES
  6
CONTINUOUS
 62
     3
 10
42.301467563598877
 20
0.2080545661620654
 30
0.0
 11
42.621544162143927
 21
0.2136415282020678
 31
0.0
  0
LINE
  5
91E
  8
TITLEBLOCK_NOTES
  6
CONTINUOUS
 62
     3
 10
42.301467563598877
 20
0.2276595554670564
 30
0.0
 11
42.614763389298872
 21
0.2331281704320709
 31
0.0
  0
LINE
  5
91F
  8
TITLEBLOCK_NOTES
  6
CONTINUOUS
 62
     3
 10
42.301467563598877
 20
0.2472645447720794
 30
0.0
 11
42.608469579138898
 21
0.252623290527076
 31
0.0
  0
LINE
  5
920
  8
TITLEBLOCK_NOTES
  6
CONTINUOUS
 62
     3
 10
42.301467563598877
 20
0.2585391251220805
 30
0.0
 11
42.606655021998897
 21
0.2585391251220805
 31
0.0
  0
LINE
  5
921
  8
TITLEBLOCK_NOTES
  6
CONTINUOUS
 62
     3
 10
42.301467563598877
 20
-0.3800950149779218
 30
0.0
 11
43.268369635008888
 21
-0.3632176439729271
 31
0.0
  0
LINE
  5
922
  8
TITLEBLOCK_NOTES
  6
CONTINUOUS
 62
     3
 10
42.301467563598877
 20
-0.3604900256729415
 30
0.0
 11
43.201728225558881
 21
-0.3447758863529238
 31
0.0
  0
LINE
  5
923
  8
TITLEBLOCK_NOTES
  6
CONTINUOUS
 62
     3
 10
42.301467563598877
 20
-0.3408850363679221
 30
0.0
 11
43.148728092933922
 21
-0.3260960134379225
 31
0.0
  0
LINE
  5
924
  8
TITLEBLOCK_NOTES
  6
CONTINUOUS
 62
     3
 10
42.301467563598877
 20
-0.3212800470629276
 30
0.0
 11
43.103777423598963
 21
-0.307275643187932
 31
0.0
  0
LINE
  5
925
  8
TITLEBLOCK_NOTES
  6
CONTINUOUS
 62
     3
 10
42.301467563598877
 20
-0.3016750577579366
 30
0.0
 11
43.064347461543882
 21
-0.288358929107936
 31
0.0
  0
LINE
  5
926
  8
TITLEBLOCK_NOTES
  6
CONTINUOUS
 62
     3
 10
42.301467563598877
 20
-0.2820700684529278
 30
0.0
 11
43.02903558565886
 21
-0.269370324692936
 31
0.0
  0
LINE
  5
927
  8
TITLEBLOCK_NOTES
  6
CONTINUOUS
 62
     3
 10
42.301467563598877
 20
-0.2624650791479226
 30
0.0
 11
42.99696637062388
 21
-0.250325119502925
 31
0.0
  0
LINE
  5
928
  8
TITLEBLOCK_NOTES
  6
CONTINUOUS
 62
     3
 10
42.301467563598877
 20
-0.2428600898429316
 30
0.0
 11
42.96754940419892
 21
-0.2312336045879206
 31
0.0
  0
LINE
  5
929
  8
TITLEBLOCK_NOTES
  6
CONTINUOUS
 62
     3
 10
42.301467563598877
 20
-0.2232551005379371
 30
0.0
 11
42.940363831443861
 21
-0.2121031306979262
 31
0.0
  0
LINE
  5
92A
  8
TITLEBLOCK_NOTES
  6
CONTINUOUS
 62
     3
 10
42.301467563598877
 20
-0.2036501112329283
 30
0.0
 11
42.915096902448887
 21
-0.1929391863929304
 31
0.0
  0
LINE
  5
92B
  8
TITLEBLOCK_NOTES
  6
CONTINUOUS
 62
     3
 10
42.301467563598877
 20
-0.1840451219279373
 30
0.0
 11
42.891508688733921
 21
-0.1737459370979195
 31
0.0
  0
LINE
  5
92C
  8
TITLEBLOCK_NOTES
  6
CONTINUOUS
 62
     3
 10
42.301467563598877
 20
-0.1644401326229179
 30
0.0
 11
42.869410276023913
 21
-0.1545266661479374
 31
0.0
  0
LINE
  5
92D
  8
TITLEBLOCK_NOTES
  6
CONTINUOUS
 62
     3
 10
42.301467563598877
 20
-0.1448351433179233
 30
0.0
 11
42.848649797823903
 21
-0.1352840688179206
 31
0.0
  0
LINE
  5
92E
  8
TITLEBLOCK_NOTES
  6
CONTINUOUS
 62
     3
 10
42.301467563598877
 20
-0.1252301540129324
 30
0.0
 11
42.829102928448883
 21
-0.1160202523229188
 31
0.0
  0
LINE
  5
92F
  8
TITLEBLOCK_NOTES
  6
CONTINUOUS
 62
     3
 10
42.301467563598877
 20
-0.1056251647079236
 30
0.0
 11
42.810666463368889
 21
-0.0967370788529394
 31
0.0
  0
LINE
  5
930
  8
TITLEBLOCK_NOTES
  6
CONTINUOUS
 62
     3
 10
44.923235063598938
 20
-0.3630912110729412
 30
0.0
 11
44.923235063598938
 21
0.3914303940720742
 31
0.0
  0
LINE
  5
931
  8
TITLEBLOCK_NOTES
  6
CONTINUOUS
 62
     3
 10
45.339777563598872
 20
0.3914303940720742
 30
0.0
 11
45.339777563598872
 21
-0.3630912110729412
 31
0.0
  0
LINE
  5
932
  8
TITLEBLOCK_NOTES
  6
CONTINUOUS
 62
     3
 10
45.364280063598883
 20
-0.3875937110729346
 30
0.0
 11
45.364280063598883
 21
0.3863744992170765
 31
0.0
  0
LINE
  5
933
  8
TITLEBLOCK_NOTES
  6
CONTINUOUS
 62
     3
 10
44.898732563598891
 20
0.3863744992170765
 30
0.0
 11
44.898732563598891
 21
-0.3875937110729346
 31
0.0
  0
LINE
  5
934
  8
TITLEBLOCK_NOTES
  6
CONTINUOUS
 62
     3
 10
45.315275063598918
 20
-0.3385887110729442
 30
0.0
 11
45.315275063598918
 21
0.3964862889270719
 31
0.0
  0
LINE
  5
935
  8
TITLEBLOCK_NOTES
  6
CONTINUOUS
 62
     3
 10
44.947737563598899
 20
-0.3385887110729442
 30
0.0
 11
44.947737563598899
 21
0.3964862889270719
 31
0.0
  0
LINE
  5
936
  8
TITLEBLOCK_NOTES
  6
CONTINUOUS
 62
     3
 10
44.376871506903839
 20
0.3829531171320646
 30
0.0
 11
44.896299269328871
 21
0.3920197772070786
 31
0.0
  0
LINE
  5
937
  8
TITLEBLOCK_NOTES
  6
CONTINUOUS
 62
     3
 10
44.373600766188879
 20
0.3632910370020816
 30
0.0
 11
44.898732563598891
 21
0.3724572752370818
 31
0.0
  0
LINE
  5
938
  8
TITLEBLOCK_NOTES
  6
CONTINUOUS
 62
     3
 10
44.372089500993923
 20
0.3550056636420678
 30
0.0
 11
44.898732563598891
 21
0.3550056636420678
 31
0.0
  0
LINE
  5
939
  8
TITLEBLOCK_NOTES
  6
CONTINUOUS
 62
     3
 10
44.379700957593919
 20
0.4026075034770679
 30
0.0
 11
44.887911916563922
 21
0.4114783395720673
 31
0.0
  0
LINE
  5
93A
  8
TITLEBLOCK_NOTES
  6
CONTINUOUS
 62
     3
 10
44.382093675723887
 20
0.4222542450420585
 30
0.0
 11
44.87952461280392
 21
0.4309369509420691
 31
0.0
  0
LINE
  5
93B
  8
TITLEBLOCK_NOTES
  6
CONTINUOUS
 62
     3
 10
44.384053777713902
 20
0.4418934398370739
 30
0.0
 11
44.871137260038921
 21
0.4503955133070649
 31
0.0
  0
LINE
  5
93C
  8
TITLEBLOCK_NOTES
  6
CONTINUOUS
 62
     3
 10
44.385584399883911
 20
0.4615251368670778
 30
0.0
 11
44.862749956278918
 21
0.469854124677056
 31
0.0
  0
LINE
  5
93D
  8
TITLEBLOCK_NOTES
  6
CONTINUOUS
 62
     3
 10
44.386688286513902
 20
0.4811493851370657
 30
0.0
 11
44.854362652518937
 21
0.4893126870420696
 31
0.0
  0
LINE
  5
93E
  8
TITLEBLOCK_NOTES
  6
CONTINUOUS
 62
     3
 10
44.028160796808912
 20
0.494496288927067
 30
0.0
 11
44.845975299753881
 21
0.5087712984120714
 31
0.0
  0
LINE
  5
93F
  8
TITLEBLOCK_NOTES
  6
CONTINUOUS
 62
     3
 10
44.297931851658888
 20
1.842133788927063
 30
0.0
 11
44.923235063598938
 21
0.3914303940720742
 31
0.0
  0
LINE
  5
940
  8
TITLEBLOCK_NOTES
  6
CONTINUOUS
 62
     3
 10
44.26068868872386
 20
1.8666362889270709
 30
0.0
 11
44.898732563598891
 21
0.3863744992170765
 31
0.0
  0
LINE
  5
941
  8
TITLEBLOCK_NOTES
  6
CONTINUOUS
 62
     3
 10
44.947737563598899
 20
0.3964862889270719
 30
0.0
 11
44.335175063598911
 21
1.817631288927066
 31
0.0
  0
LINE
  5
942
  8
TITLEBLOCK_NOTES
  6
CONTINUOUS
 62
     3
 10
45.131506313598912
 20
0.9605695635720827
 30
0.0
 11
44.751521739618902
 21
1.842133788927063
 31
0.0
  0
LINE
  5
943
  8
TITLEBLOCK_NOTES
  6
CONTINUOUS
 62
     3
 10
45.131506313598912
 20
1.0224712584270801
 30
0.0
 11
44.767642081383919
 21
1.8666362889270709
 31
0.0
  0
LINE
  5
944
  8
TITLEBLOCK_NOTES
  6
CONTINUOUS
 62
     3
 10
45.131506313598912
 20
0.8986679177220684
 30
0.0
 11
44.73540139785387
 21
1.817631288927066
 31
0.0
  0
LINE
  5
945
  8
TITLEBLOCK_NOTES
  6
CONTINUOUS
 62
     3
 10
44.350065428868938
 20
1.2224327305770719
 30
0.0
 11
44.538362632908921
 21
1.2224327305770719
 31
0.0
  0
LINE
  5
946
  8
TITLEBLOCK_NOTES
  6
CONTINUOUS
 62
     3
 10
44.26068868872386
 20
1.8666362889270709
 30
0.0
 11
44.767642081383919
 21
1.8666362889270709
 31
0.0
  0
LINE
  5
947
  8
TITLEBLOCK_NOTES
  6
CONTINUOUS
 62
     3
 10
44.52780117331892
 20
1.2469352305770789
 30
0.0
 11
44.342138919123933
 21
1.2469352305770789
 31
0.0
  0
LINE
  5
948
  8
TITLEBLOCK_NOTES
  6
CONTINUOUS
 62
     3
 10
44.751521739618902
 20
1.842133788927063
 30
0.0
 11
44.297931851658888
 21
1.842133788927063
 31
0.0
  0
LINE
  5
949
  8
TITLEBLOCK_NOTES
  6
CONTINUOUS
 62
     3
 10
44.517239762733858
 20
1.2714377305770621
 30
0.0
 11
44.333437836348907
 21
1.2714377305770621
 31
0.0
  0
LINE
  5
94A
  8
TITLEBLOCK_NOTES
  6
CONTINUOUS
 62
     3
 10
44.335175063598911
 20
1.817631288927066
 30
0.0
 11
44.73540139785387
 21
1.817631288927066
 31
0.0
  0
LINE
  5
94B
  8
TITLEBLOCK_NOTES
  6
CONTINUOUS
 62
     3
 10
44.38193715375391
 20
1.585339846137066
 30
0.0
 11
44.136739264113899
 21
1.585339846137066
 31
0.0
  0
LINE
  5
94C
  8
TITLEBLOCK_NOTES
  6
CONTINUOUS
 62
     3
 10
44.371375694163888
 20
1.6098423461370639
 30
0.0
 11
44.112353739048878
 21
1.6098423461370639
 31
0.0
  0
LINE
  5
94D
  8
TITLEBLOCK_NOTES
  6
CONTINUOUS
 62
     3
 10
44.086007229903913
 20
1.6343448461370811
 30
0.0
 11
44.360814283578911
 21
1.6343448461370811
 31
0.0
  0
LINE
  5
94E
  8
TITLEBLOCK_NOTES
  6
CONTINUOUS
 62
     3
 10
44.392498564338851
 20
1.5608373461370699
 30
0.0
 11
44.159374281573889
 21
1.5608373461370699
 31
0.0
  0
LINE
  5
94F
  8
TITLEBLOCK_NOTES
  6
CONTINUOUS
 62
     3
 10
44.548924043493891
 20
1.197930230577074
 30
0.0
 11
44.357238339723899
 21
1.197930230577074
 31
0.0
  0
LINE
  5
950
  8
TITLEBLOCK_NOTES
  6
CONTINUOUS
 62
     3
 10
44.558820162198899
 20
1.1749711920570609
 30
0.0
 11
44.363291829363931
 21
1.1749711920570609
 31
0.0
  0
LINE
  5
951
  8
TITLEBLOCK_NOTES
  6
CONTINUOUS
 62
     3
 10
44.326595268198901
 20
0.8373383562420675
 30
0.0
 11
44.701530661008903
 21
0.8438828759820571
 31
0.0
  0
LINE
  5
952
  8
TITLEBLOCK_NOTES
  6
CONTINUOUS
 62
     3
 10
44.38845829810893
 20
1.014863036157065
 30
0.0
 11
44.626044780153883
 21
1.019010133287064
 31
0.0
  0
LINE
  5
953
  8
TITLEBLOCK_NOTES
  6
CONTINUOUS
 62
     3
 10
44.386932429423887
 20
1.0344413667420711
 30
0.0
 11
44.617657476393887
 21
1.0384686956520599
 31
0.0
  0
LINE
  5
954
  8
TITLEBLOCK_NOTES
  6
CONTINUOUS
 62
     3
 10
44.384982422463906
 20
1.0540123465770601
 30
0.0
 11
44.609270123628917
 21
1.0579273070220501
 31
0.0
  0
LINE
  5
955
  8
TITLEBLOCK_NOTES
  6
CONTINUOUS
 62
     3
 10
44.382606121008934
 20
1.0735758286470749
 30
0.0
 11
44.6008828198689
 21
1.0773858693870639
 31
0.0
  0
LINE
  5
956
  8
TITLEBLOCK_NOTES
  6
CONTINUOUS
 62
     3
 10
44.600400561663889
 20
1.078504653537069
 30
0.0
 11
44.381939702013923
 21
1.078504653537069
 31
0.0
  0
LINE
  5
957
  8
TITLEBLOCK_NOTES
  6
CONTINUOUS
 62
     3
 10
43.943648047938872
 20
0.46999378892707
 30
0.0
 11
44.361568519533897
 21
0.46999378892707
 31
0.0
  0
LINE
  5
958
  8
TITLEBLOCK_NOTES
  6
CONTINUOUS
 62
     3
 10
43.944430118733933
 20
1.0335512889270611
 30
0.0
 11
44.362411650558933
 21
1.0335512889270611
 31
0.0
  0
LINE
  5
959
  8
TITLEBLOCK_NOTES
  6
CONTINUOUS
 62
     3
 10
43.92120816838888
 20
0.494496288927067
 30
0.0
 11
44.387196468363953
 21
0.494496288927067
 31
0.0
  0
LINE
  5
95A
  8
TITLEBLOCK_NOTES
  6
CONTINUOUS
 62
     3
 10
44.388829952028892
 20
1.009048788927067
 30
0.0
 11
43.923282942078878
 21
1.009048788927067
 31
0.0
  0
LINE
  5
95B
  8
TITLEBLOCK_NOTES
  6
CONTINUOUS
 62
     3
 10
44.335175063598911
 20
0.4454912889270767
 30
0.0
 11
43.965046424223871
 21
0.4454912889270767
 31
0.0
  0
LINE
  5
95C
  8
TITLEBLOCK_NOTES
  6
CONTINUOUS
 62
     3
 10
43.962871974363921
 20
1.058053788927072
 30
0.0
 11
44.335175063598911
 21
1.058053788927072
 31
0.0
  0
LINE
  5
95D
  8
TITLEBLOCK_NOTES
  6
CONTINUOUS
 62
     3
 10
45.339777563598872
 20
0.3914303940720742
 30
0.0
 11
45.965080726533898
 21
1.842133788927063
 31
0.0
  0
LINE
  5
95E
  8
TITLEBLOCK_NOTES
  6
CONTINUOUS
 62
     3
 10
45.364280063598883
 20
0.3863744992170765
 30
0.0
 11
46.00232388946889
 21
1.8666362889270709
 31
0.0
  0
LINE
  5
95F
  8
TITLEBLOCK_NOTES
  6
CONTINUOUS
 62
     3
 10
45.315275063598918
 20
0.3964862889270719
 30
0.0
 11
45.927837563598906
 21
1.817631288927066
 31
0.0
  0
LINE
  5
960
  8
TITLEBLOCK_NOTES
  6
CONTINUOUS
 62
     3
 10
45.131506313598912
 20
0.9605695635720827
 30
0.0
 11
45.511490838573877
 21
1.842133788927063
 31
0.0
  0
LINE
  5
961
  8
TITLEBLOCK_NOTES
  6
CONTINUOUS
 62
     3
 10
45.495370545813898
 20
1.8666362889270709
 30
0.0
 11
45.131506313598912
 21
1.0224712584270801
 31
0.0
  0
LINE
  5
962
  8
TITLEBLOCK_NOTES
  6
CONTINUOUS
 62
     3
 10
45.131506313598912
 20
0.8986679177220684
 30
0.0
 11
45.527611180338909
 21
1.817631288927066
 31
0.0
  0
LINE
  5
963
  8
TITLEBLOCK_NOTES
  6
CONTINUOUS
 62
     3
 10
45.527611180338909
 20
1.817631288927066
 30
0.0
 11
45.927837563598906
 21
1.817631288927066
 31
0.0
  0
LINE
  5
964
  8
TITLEBLOCK_NOTES
  6
CONTINUOUS
 62
     3
 10
45.511490838573877
 20
1.842133788927063
 30
0.0
 11
45.965080726533898
 21
1.842133788927063
 31
0.0
  0
LINE
  5
965
  8
TITLEBLOCK_NOTES
  6
CONTINUOUS
 62
     3
 10
46.00232388946889
 20
1.8666362889270709
 30
0.0
 11
45.495370545813898
 21
1.8666362889270709
 31
0.0
  0
LINE
  5
966
  8
TITLEBLOCK_NOTES
  6
CONTINUOUS
 62
     3
 10
45.066438846738933
 20
1.1734277305770811
 30
0.0
 11
45.196573731453952
 21
1.1734277305770811
 31
0.0
  0
LINE
  5
967
  8
TITLEBLOCK_NOTES
  6
CONTINUOUS
 62
     3
 10
45.055877436153963
 20
1.197930230577074
 30
0.0
 11
45.207135191043932
 21
1.197930230577074
 31
0.0
  0
LINE
  5
968
  8
TITLEBLOCK_NOTES
  6
CONTINUOUS
 62
     3
 10
45.045315976563863
 20
1.2224327305770719
 30
0.0
 11
45.217696601628901
 21
1.2224327305770719
 31
0.0
  0
LINE
  5
969
  8
TITLEBLOCK_NOTES
  6
CONTINUOUS
 62
     3
 10
45.374122080783863
 20
1.585339846137066
 30
0.0
 11
44.888890497408923
 21
1.585339846137066
 31
0.0
  0
LINE
  5
96A
  8
TITLEBLOCK_NOTES
  6
CONTINUOUS
 62
     3
 10
45.384683491368897
 20
1.6098423461370639
 30
0.0
 11
44.878329086823953
 21
1.6098423461370639
 31
0.0
  0
LINE
  5
96B
  8
TITLEBLOCK_NOTES
  6
CONTINUOUS
 62
     3
 10
44.867767676238891
 20
1.6343448461370811
 30
0.0
 11
45.395244901953909
 21
1.6343448461370811
 31
0.0
  0
LINE
  5
96C
  8
TITLEBLOCK_NOTES
  6
CONTINUOUS
 62
     3
 10
44.899451956998909
 20
1.5608373461370699
 30
0.0
 11
45.363560621193919
 21
1.5608373461370699
 31
0.0
  0
LINE
  5
96D
  8
TITLEBLOCK_NOTES
  6
CONTINUOUS
 62
     3
 10
45.228258012213878
 20
1.2469352305770789
 30
0.0
 11
45.034754565978893
 21
1.2469352305770789
 31
0.0
  0
LINE
  5
96E
  8
TITLEBLOCK_NOTES
  6
CONTINUOUS
 62
     3
 10
45.024193155393888
 20
1.2714377305770621
 30
0.0
 11
45.238819422798919
 21
1.2714377305770621
 31
0.0
  0
LINE
  5
96F
  8
TITLEBLOCK_NOTES
  6
CONTINUOUS
 62
     3
 10
45.515025716238931
 20
0.7361044643070686
 30
0.0
 11
45.788147732988911
 21
0.7408718177220628
 31
0.0
  0
LINE
  5
970
  8
TITLEBLOCK_NOTES
  6
CONTINUOUS
 62
     3
 10
45.12921248755891
 20
1.0277929564020589
 30
0.0
 11
45.133834884183862
 21
1.0278736186320701
 31
0.0
  0
LINE
  5
971
  8
TITLEBLOCK_NOTES
  6
CONTINUOUS
 62
     3
 10
45.12082513479389
 20
1.047251518767069
 30
0.0
 11
45.142349404923898
 21
1.047627240102069
 31
0.0
  0
LINE
  5
972
  8
TITLEBLOCK_NOTES
  6
CONTINUOUS
 62
     3
 10
45.112437831033951
 20
1.0667101301370741
 30
0.0
 11
45.15086387665886
 21
1.0673808615720679
 31
0.0
  0
LINE
  5
973
  8
TITLEBLOCK_NOTES
  6
CONTINUOUS
 62
     3
 10
45.155658623868923
 20
1.078504653537069
 30
0.0
 11
45.107353954323941
 21
1.078504653537069
 31
0.0
  0
LINE
  5
974
  8
TITLEBLOCK_NOTES
  6
CONTINUOUS
 62
     3
 10
45.66166033942892
 20
1.076296831272052
 30
0.0
 11
45.788147732988911
 21
1.078504653537069
 31
0.0
  0
LINE
  5
975
  8
TITLEBLOCK_NOTES
  6
CONTINUOUS
 62
     3
 10
44.213111008353891
 20
-0.0134423492579288
 30
0.0
 11
44.898732563598891
 21
-0.0014747892029305
 31
0.0
  0
LINE
  5
976
  8
TITLEBLOCK_NOTES
  6
CONTINUOUS
 62
     3
 10
44.227171375938937
 20
0.0064080570870715
 30
0.0
 11
44.898732563598891
 21
0.0181302001020676
 31
0.0
  0
LINE
  5
977
  8
TITLEBLOCK_NOTES
  6
CONTINUOUS
 62
     3
 10
44.240447516508922
 20
0.0262447420320591
 30
0.0
 11
44.898732563598891
 21
0.0377351894070728
 31
0.0
  0
LINE
  5
978
  8
TITLEBLOCK_NOTES
  6
CONTINUOUS
 62
     3
 10
44.252981280333913
 20
0.0460685386620696
 30
0.0
 11
44.898732563598891
 21
0.0573401787120638
 31
0.0
  0
LINE
  5
979
  8
TITLEBLOCK_NOTES
  6
CONTINUOUS
 62
     3
 10
44.264809470168899
 20
0.0658799860320691
 30
0.0
 11
44.898732563598891
 21
0.0769451190120663
 31
0.0
  0
LINE
  5
97A
  8
TITLEBLOCK_NOTES
  6
CONTINUOUS
 62
     3
 10
44.275964625333913
 20
0.0856796722020796
 30
0.0
 11
44.898732563598891
 21
0.0965501083170608
 31
0.0
  0
LINE
  5
97B
  8
TITLEBLOCK_NOTES
  6
CONTINUOUS
 62
     3
 10
44.286475805793927
 20
0.1054681362270706
 30
0.0
 11
44.898732563598891
 21
0.1161550976220766
 31
0.0
  0
LINE
  5
97C
  8
TITLEBLOCK_NOTES
  6
CONTINUOUS
 62
     3
 10
44.296368788178889
 20
0.1252458191520809
 30
0.0
 11
44.898732563598891
 21
0.1357600869270712
 31
0.0
  0
LINE
  5
97D
  8
TITLEBLOCK_NOTES
  6
CONTINUOUS
 62
     3
 10
44.3056666538439
 20
0.1450130640120726
 30
0.0
 11
44.898732563598891
 21
0.15536507623208
 31
0.0
  0
LINE
  5
97E
  8
TITLEBLOCK_NOTES
  6
CONTINUOUS
 62
     3
 10
44.314390229913897
 20
0.164770360857073
 30
0.0
 11
44.898732563598891
 21
0.1749700655370709
 31
0.0
  0
LINE
  5
97F
  8
TITLEBLOCK_NOTES
  6
CONTINUOUS
 62
     3
 10
44.322558040278942
 20
0.1845179057070538
 30
0.0
 11
44.898732563598891
 21
0.1945750548420655
 31
0.0
  0
LINE
  5
980
  8
TITLEBLOCK_NOTES
  6
CONTINUOUS
 62
     3
 10
44.330186844648857
 20
0.2042560415970662
 30
0.0
 11
44.898732563598891
 21
0.2141800441470742
 31
0.0
  0
LINE
  5
981
  8
TITLEBLOCK_NOTES
  6
CONTINUOUS
 62
     3
 10
44.337291834573861
 20
0.2239850625570732
 30
0.0
 11
44.898732563598891
 21
0.2337850334520652
 31
0.0
  0
LINE
  5
982
  8
TITLEBLOCK_NOTES
  6
CONTINUOUS
 62
     3
 10
44.3438864864289
 20
0.2437051646070678
 30
0.0
 11
44.898732563598891
 21
0.2533900227570704
 31
0.0
  0
LINE
  5
983
  8
TITLEBLOCK_NOTES
  6
CONTINUOUS
 62
     3
 10
44.348520056193898
 20
0.2585391251220805
 30
0.0
 11
44.898732563598891
 21
0.2585391251220805
 31
0.0
  0
LINE
  5
984
  8
TITLEBLOCK_NOTES
  6
CONTINUOUS
 62
     3
 10
44.16571146115885
 20
-0.0730846685879278
 30
0.0
 11
44.898732563598891
 21
-0.0602897571179213
 31
0.0
  0
LINE
  5
985
  8
TITLEBLOCK_NOTES
  6
CONTINUOUS
 62
     3
 10
44.182440101988888
 20
-0.0531877074929241
 30
0.0
 11
44.898732563598891
 21
-0.0406847678129267
 31
0.0
  0
LINE
  5
986
  8
TITLEBLOCK_NOTES
  6
CONTINUOUS
 62
     3
 10
44.198218829898877
 20
-0.0333073100879347
 30
0.0
 11
44.898732563598891
 21
-0.0210797785079215
 31
0.0
  0
LINE
  5
987
  8
TITLEBLOCK_NOTES
  6
CONTINUOUS
 62
     3
 10
43.617829288518877
 20
-0.3767227849079404
 30
0.0
 11
44.898732563598891
 21
-0.3543645476879327
 31
0.0
  0
LINE
  5
988
  8
TITLEBLOCK_NOTES
  6
CONTINUOUS
 62
     3
 10
43.717587149853877
 20
-0.3553765499429282
 30
0.0
 11
44.898732563598891
 21
-0.334759558382931
 31
0.0
  0
LINE
  5
989
  8
TITLEBLOCK_NOTES
  6
CONTINUOUS
 62
     3
 10
43.783544351493902
 20
-0.3346202371679396
 30
0.0
 11
44.898732563598891
 21
-0.3151545690779365
 31
0.0
  0
LINE
  5
98A
  8
TITLEBLOCK_NOTES
  6
CONTINUOUS
 62
     3
 10
43.835860276308878
 20
-0.3141020886929269
 30
0.0
 11
44.898732563598891
 21
-0.2955495797729277
 31
0.0
  0
LINE
  5
98B
  8
TITLEBLOCK_NOTES
  6
CONTINUOUS
 62
     3
 10
43.880126786838943
 20
-0.2937244375529246
 30
0.0
 11
44.898732563598891
 21
-0.2759445904679367
 31
0.0
  0
LINE
  5
98C
  8
TITLEBLOCK_NOTES
  6
CONTINUOUS
 62
     3
 10
43.9188725410839
 20
-0.2734431302429314
 30
0.0
 11
44.898732563598891
 21
-0.2563396011629422
 31
0.0
  0
LINE
  5
98D
  8
TITLEBLOCK_NOTES
  6
CONTINUOUS
 62
     3
 10
43.953500209158904
 20
-0.2532337132679281
 30
0.0
 11
44.898732563598891
 21
-0.2367346118579228
 31
0.0
  0
LINE
  5
98E
  8
TITLEBLOCK_NOTES
  6
CONTINUOUS
 62
     3
 10
43.984885216383937
 20
-0.2330808970679286
 30
0.0
 11
44.898732563598891
 21
-0.2171296225529282
 31
0.0
  0
LINE
  5
98F
  8
TITLEBLOCK_NOTES
  6
CONTINUOUS
 62
     3
 10
44.01361797499888
 20
-0.2129743905929224
 30
0.0
 11
44.898732563598891
 21
-0.1975246822529293
 31
0.0
  0
LINE
  5
990
  8
TITLEBLOCK_NOTES
  6
CONTINUOUS
 62
     3
 10
44.040119339943949
 20
-0.1929068430929313
 30
0.0
 11
44.898732563598891
 21
-0.1779196929479347
 31
0.0
  0
LINE
  5
991
  8
TITLEBLOCK_NOTES
  6
CONTINUOUS
 62
     3
 10
44.064702061128898
 20
-0.1728727660079272
 30
0.0
 11
44.898732563598891
 21
-0.158314703642926
 31
0.0
  0
LINE
  5
992
  8
TITLEBLOCK_NOTES
  6
CONTINUOUS
 62
     3
 10
44.087606067033903
 20
-0.152867944907932
 30
0.0
 11
44.898732563598891
 21
-0.138709714337935
 31
0.0
  0
LINE
  5
993
  8
TITLEBLOCK_NOTES
  6
CONTINUOUS
 62
     3
 10
44.109020271933879
 20
-0.1328891944679178
 30
0.0
 11
44.898732563598891
 21
-0.1191047250329262
 31
0.0
  0
LINE
  5
994
  8
TITLEBLOCK_NOTES
  6
CONTINUOUS
 62
     3
 10
44.129096542323957
 20
-0.1129337704079454
 30
0.0
 11
44.898732563598891
 21
-0.0994997357279317
 31
0.0
  0
LINE
  5
995
  8
TITLEBLOCK_NOTES
  6
CONTINUOUS
 62
     3
 10
44.147959203888902
 20
-0.0929995655129332
 30
0.0
 11
44.898732563598891
 21
-0.0798947464229407
 31
0.0
  0
LINE
  5
996
  8
TITLEBLOCK_NOTES
  6
CONTINUOUS
 62
     3
 10
45.339777563598872
 20
-0.3630912110729412
 30
0.0
 11
44.923235063598938
 21
-0.3630912110729412
 31
0.0
  0
LINE
  5
997
  8
TITLEBLOCK_NOTES
  6
CONTINUOUS
 62
     3
 10
44.898732563598891
 20
-0.3875937110729346
 30
0.0
 11
45.364280063598883
 21
-0.3875937110729346
 31
0.0
  0
LINE
  5
998
  8
TITLEBLOCK_NOTES
  6
CONTINUOUS
 62
     3
 10
44.947737563598899
 20
-0.3385887110729442
 30
0.0
 11
45.315275063598918
 21
-0.3385887110729442
 31
0.0
  0
LINE
  5
999
  8
TITLEBLOCK_NOTES
  6
CONTINUOUS
 62
     3
 10
46.56490256359892
 20
0.0534512889270644
 30
0.0
 11
46.56490256359892
 21
1.842133788927063
 31
0.0
  0
LINE
  5
99A
  8
TITLEBLOCK_NOTES
  6
CONTINUOUS
 62
     3
 10
46.589405063598889
 20
0.0779537889270614
 30
0.0
 11
46.589405063598889
 21
1.8666362889270709
 31
0.0
  0
LINE
  5
99B
  8
TITLEBLOCK_NOTES
  6
CONTINUOUS
 62
     3
 10
46.540400063598909
 20
1.817631288927066
 30
0.0
 11
46.540400063598909
 21
0.028948788927071
 31
0.0
  0
LINE
  5
99C
  8
TITLEBLOCK_NOTES
  6
CONTINUOUS
 62
     3
 10
46.148360063598929
 20
1.842133788927063
 30
0.0
 11
46.148360063598929
 21
-0.3630912110729412
 31
0.0
  0
LINE
  5
99D
  8
TITLEBLOCK_NOTES
  6
CONTINUOUS
 62
     3
 10
46.123857563598868
 20
1.8666362889270709
 30
0.0
 11
46.123857563598868
 21
-0.3875937110729346
 31
0.0
  0
LINE
  5
99E
  8
TITLEBLOCK_NOTES
  6
CONTINUOUS
 62
     3
 10
46.172862563598883
 20
-0.3385887110729442
 30
0.0
 11
46.172862563598883
 21
1.817631288927066
 31
0.0
  0
LINE
  5
99F
  8
TITLEBLOCK_NOTES
  6
CONTINUOUS
 62
     3
 10
48.061773764973907
 20
1.2224327305770719
 30
0.0
 11
47.306639303298923
 21
1.2224327305770719
 31
0.0
  0
LINE
  5
9A0
  8
TITLEBLOCK_NOTES
  6
CONTINUOUS
 62
     3
 10
48.061773764973907
 20
1.2469352305770789
 30
0.0
 11
47.349090374598859
 21
1.2469352305770789
 31
0.0
  0
LINE
  5
9A1
  8
TITLEBLOCK_NOTES
  6
CONTINUOUS
 62
     3
 10
48.061773764973907
 20
1.2714377305770621
 30
0.0
 11
47.380133277918901
 21
1.2714377305770621
 31
0.0
  0
LINE
  5
9A2
  8
TITLEBLOCK_NOTES
  6
CONTINUOUS
 62
     3
 10
47.268437994603921
 20
0.3550056636420678
 30
0.0
 11
48.061773764973907
 21
0.3688533985320816
 31
0.0
  0
LINE
  5
9A3
  8
TITLEBLOCK_NOTES
  6
CONTINUOUS
 62
     3
 10
48.061773764973907
 20
1.197930230577074
 30
0.0
 11
47.230975338273872
 21
1.197930230577074
 31
0.0
  0
CIRCLE
  5
9A4
  8
TITLEBLOCK_NOTES
  6
CONTINUOUS
 62
     3
 10
47.175246313218892
 20
1.4990987889270559
 30
0.0
 40
0.30628125
  0
LINE
  5
9A5
  8
TITLEBLOCK_NOTES
  6
CONTINUOUS
 62
     3
 10
46.589405063598889
 20
0.8376258685770635
 30
0.0
 11
48.061773764973907
 21
0.8633261487870811
 31
0.0
  0
LINE
  5
9A6
  8
TITLEBLOCK_NOTES
  6
CONTINUOUS
 62
     3
 10
46.589405063598889
 20
0.8572308578820687
 30
0.0
 11
48.061773764973907
 21
0.8829311380920792
 31
0.0
  0
LINE
  5
9A7
  8
TITLEBLOCK_NOTES
  6
CONTINUOUS
 62
     3
 10
46.589405063598889
 20
0.8768358471870634
 30
0.0
 11
48.061773764973907
 21
0.9025361273970702
 31
0.0
  0
LINE
  5
9A8
  8
TITLEBLOCK_NOTES
  6
CONTINUOUS
 62
     3
 10
46.589405063598889
 20
0.8964408364920686
 30
0.0
 11
48.061773764973907
 21
0.9221411167020754
 31
0.0
  0
LINE
  5
9A9
  8
TITLEBLOCK_NOTES
  6
CONTINUOUS
 62
     3
 10
46.589405063598889
 20
0.9160458257970631
 30
0.0
 11
48.061773764973907
 21
0.9417461060070699
 31
0.0
  0
LINE
  5
9AA
  8
TITLEBLOCK_NOTES
  6
CONTINUOUS
 62
     3
 10
46.589405063598889
 20
0.9356507660970764
 30
0.0
 11
48.061773764973907
 21
0.9613510953120789
 31
0.0
  0
LINE
  5
9AB
  8
TITLEBLOCK_NOTES
  6
CONTINUOUS
 62
     3
 10
46.589405063598889
 20
0.9552557554020706
 30
0.0
 11
48.061773764973907
 21
0.9809560846170695
 31
0.0
  0
LINE
  5
9AC
  8
TITLEBLOCK_NOTES
  6
CONTINUOUS
 62
     3
 10
46.589405063598889
 20
0.9748607447070796
 30
0.0
 11
48.061773764973907
 21
1.0005610739220641
 31
0.0
  0
LINE
  5
9AD
  8
TITLEBLOCK_NOTES
  6
CONTINUOUS
 62
     3
 10
46.589405063598889
 20
0.9944657340120706
 30
0.0
 11
48.061773764973907
 21
1.0201660142220621
 31
0.0
  0
LINE
  5
9AE
  8
TITLEBLOCK_NOTES
  6
CONTINUOUS
 62
     3
 10
46.589405063598889
 20
1.014070723317064
 30
0.0
 11
48.061773764973907
 21
1.0397710035270851
 31
0.0
  0
LINE
  5
9AF
  8
TITLEBLOCK_NOTES
  6
CONTINUOUS
 62
     3
 10
46.589405063598889
 20
1.033675712622069
 30
0.0
 11
48.061773764973907
 21
1.0593759928320761
 31
0.0
  0
LINE
  5
9B0
  8
TITLEBLOCK_NOTES
  6
CONTINUOUS
 62
     3
 10
46.589405063598889
 20
1.053280701927074
 30
0.0
 11
48.03448552674385
 21
1.078504653537069
 31
0.0
  0
LINE
  5
9B1
  8
TITLEBLOCK_NOTES
  6
CONTINUOUS
 62
     3
 10
46.589405063598889
 20
0.3627580586220596
 30
0.0
 11
48.061773764973907
 21
0.3884583878370762
 31
0.0
  0
LINE
  5
9B2
  8
TITLEBLOCK_NOTES
  6
CONTINUOUS
 62
     3
 10
46.589405063598889
 20
0.3823630479270683
 30
0.0
 11
48.061773764973907
 21
0.408063377142078
 31
0.0
  0
LINE
  5
9B3
  8
TITLEBLOCK_NOTES
  6
CONTINUOUS
 62
     3
 10
46.589405063598889
 20
0.4019680372320594
 30
0.0
 11
48.061773764973907
 21
0.4276683664470724
 31
0.0
  0
LINE
  5
9B4
  8
TITLEBLOCK_NOTES
  6
CONTINUOUS
 62
     3
 10
46.589405063598889
 20
0.4215730265370823
 30
0.0
 11
48.061773764973907
 21
0.4472733557520634
 31
0.0
  0
LINE
  5
9B5
  8
TITLEBLOCK_NOTES
  6
CONTINUOUS
 62
     3
 10
46.589405063598889
 20
0.4411780158420733
 30
0.0
 11
48.061773764973907
 21
0.4668782960520696
 31
0.0
  0
LINE
  5
9B6
  8
TITLEBLOCK_NOTES
  6
CONTINUOUS
 62
     3
 10
46.589405063598889
 20
0.460783005147068
 30
0.0
 11
48.061773764973907
 21
0.4864832853570748
 31
0.0
  0
LINE
  5
9B7
  8
TITLEBLOCK_NOTES
  6
CONTINUOUS
 62
     3
 10
46.589405063598889
 20
0.4803879944520732
 30
0.0
 11
48.061773764973907
 21
0.5060882746620692
 31
0.0
  0
LINE
  5
9B8
  8
TITLEBLOCK_NOTES
  6
CONTINUOUS
 62
     3
 10
46.589405063598889
 20
0.4999929837570784
 30
0.0
 11
48.061773764973907
 21
0.5256932639670602
 31
0.0
  0
LINE
  5
9B9
  8
TITLEBLOCK_NOTES
  6
CONTINUOUS
 62
     3
 10
46.589405063598889
 20
0.5195979730620728
 30
0.0
 11
48.061773764973907
 21
0.5452982532720796
 31
0.0
  0
LINE
  5
9BA
  8
TITLEBLOCK_NOTES
  6
CONTINUOUS
 62
     3
 10
46.589405063598889
 20
0.5392029623670676
 30
0.0
 11
48.061773764973907
 21
0.5649032425770602
 31
0.0
  0
LINE
  5
9BB
  8
TITLEBLOCK_NOTES
  6
CONTINUOUS
 62
     3
 10
46.589405063598889
 20
0.5588079516720619
 30
0.0
 11
48.061773764973907
 21
0.5845082318820829
 31
0.0
  0
LINE
  5
9BC
  8
TITLEBLOCK_NOTES
  6
CONTINUOUS
 62
     3
 10
46.589405063598889
 20
0.5784129409770671
 30
0.0
 11
48.061773764973907
 21
0.6041132211870739
 31
0.0
  0
LINE
  5
9BD
  8
TITLEBLOCK_NOTES
  6
CONTINUOUS
 62
     3
 10
46.589405063598889
 20
0.5980179302820865
 30
0.0
 11
48.061773764973907
 21
0.6237182104920686
 31
0.0
  0
LINE
  5
9BE
  8
TITLEBLOCK_NOTES
  6
CONTINUOUS
 62
     3
 10
46.589405063598889
 20
0.6176229195870671
 30
0.0
 11
48.061773764973907
 21
0.6433231997970772
 31
0.0
  0
LINE
  5
9BF
  8
TITLEBLOCK_NOTES
  6
CONTINUOUS
 62
     3
 10
46.589405063598889
 20
0.6372279088920614
 30
0.0
 11
48.061773764973907
 21
0.6629281891020682
 31
0.0
  0
LINE
  5
9C0
  8
TITLEBLOCK_NOTES
  6
CONTINUOUS
 62
     3
 10
46.589405063598889
 20
0.6568328491920746
 30
0.0
 11
48.061773764973907
 21
0.6825331784070734
 31
0.0
  0
LINE
  5
9C1
  8
TITLEBLOCK_NOTES
  6
CONTINUOUS
 62
     3
 10
46.589405063598889
 20
0.6764378384970691
 30
0.0
 11
48.061773764973907
 21
0.7021381677120644
 31
0.0
  0
LINE
  5
9C2
  8
TITLEBLOCK_NOTES
  6
CONTINUOUS
 62
     3
 10
46.589405063598889
 20
0.6960428278020743
 30
0.0
 11
48.061773764973907
 21
0.7217431570170625
 31
0.0
  0
LINE
  5
9C3
  8
TITLEBLOCK_NOTES
  6
CONTINUOUS
 62
     3
 10
46.589405063598889
 20
0.7156478171070653
 30
0.0
 11
48.03448552674385
 21
0.7408718177220628
 31
0.0
  0
LINE
  5
9C4
  8
TITLEBLOCK_NOTES
  6
CONTINUOUS
 62
     3
 10
48.061773764973907
 20
0.3550056636420678
 30
0.0
 11
46.589405063598889
 21
0.3550056636420678
 31
0.0
  0
LINE
  5
9C5
  8
TITLEBLOCK_NOTES
  6
CONTINUOUS
 62
     3
 10
48.061773764973907
 20
0.7408718177220628
 30
0.0
 11
46.589405063598889
 21
0.7408718177220628
 31
0.0
  0
LINE
  5
9C6
  8
TITLEBLOCK_NOTES
  6
CONTINUOUS
 62
     3
 10
48.061773764973907
 20
0.8373383562420675
 30
0.0
 11
46.589405063598889
 21
0.8373383562420675
 31
0.0
  0
LINE
  5
9C7
  8
TITLEBLOCK_NOTES
  6
CONTINUOUS
 62
     3
 10
48.061773764973907
 20
1.078504653537069
 30
0.0
 11
46.589405063598889
 21
1.078504653537069
 31
0.0
  0
LINE
  5
9C8
  8
TITLEBLOCK_NOTES
  6
CONTINUOUS
 62
     3
 10
48.061773764973907
 20
1.1749711920570609
 30
0.0
 11
46.589405063598889
 21
1.1749711920570609
 31
0.0
  0
TEXT
  5
9C9
  8
TITLEBLOCK_NOTES
  6
CONTINUOUS
 62
     3
 10
47.022202326078947
 20
1.3092188704020651
 30
0.0
 40
0.3675375
  1
R
 41
1.1965812
  0
LINE
  5
9CA
  8
TITLEBLOCK_NOTES
  6
CONTINUOUS
 62
     3
 10
46.148360063598929
 20
1.842133788927063
 30
0.0
 11
46.56490256359892
 21
1.842133788927063
 31
0.0
  0
LINE
  5
9CB
  8
TITLEBLOCK_NOTES
  6
CONTINUOUS
 62
     3
 10
46.123857563598868
 20
1.8666362889270709
 30
0.0
 11
46.589405063598889
 21
1.8666362889270709
 31
0.0
  0
LINE
  5
9CC
  8
TITLEBLOCK_NOTES
  6
CONTINUOUS
 62
     3
 10
46.172862563598883
 20
1.817631288927066
 30
0.0
 11
46.540400063598909
 21
1.817631288927066
 31
0.0
  0
LINE
  5
9CD
  8
TITLEBLOCK_NOTES
  6
CONTINUOUS
 62
     3
 10
46.589405063598889
 20
1.197930230577074
 30
0.0
 11
47.119517288163927
 21
1.197930230577074
 31
0.0
  0
LINE
  5
9CE
  8
TITLEBLOCK_NOTES
  6
CONTINUOUS
 62
     3
 10
46.589405063598889
 20
1.2224327305770719
 30
0.0
 11
47.043853323138933
 21
1.2224327305770719
 31
0.0
  0
LINE
  5
9CF
  8
TITLEBLOCK_NOTES
  6
CONTINUOUS
 62
     3
 10
46.589405063598889
 20
1.2469352305770789
 30
0.0
 11
47.001402251838883
 21
1.2469352305770789
 31
0.0
  0
LINE
  5
9D0
  8
TITLEBLOCK_NOTES
  6
CONTINUOUS
 62
     3
 10
46.589405063598889
 20
1.585339846137066
 30
0.0
 11
46.881357398613879
 21
1.585339846137066
 31
0.0
  0
LINE
  5
9D1
  8
TITLEBLOCK_NOTES
  6
CONTINUOUS
 62
     3
 10
46.589405063598889
 20
1.6098423461370639
 30
0.0
 11
46.889687121498909
 21
1.6098423461370639
 31
0.0
  0
LINE
  5
9D2
  8
TITLEBLOCK_NOTES
  6
CONTINUOUS
 62
     3
 10
46.589405063598889
 20
1.6343448461370811
 30
0.0
 11
46.900443277953897
 21
1.6343448461370811
 31
0.0
  0
LINE
  5
9D3
  8
TITLEBLOCK_NOTES
  6
CONTINUOUS
 62
     3
 10
46.589405063598889
 20
1.5608373461370699
 30
0.0
 11
46.875252061683888
 21
1.5608373461370699
 31
0.0
  0
LINE
  5
9D4
  8
TITLEBLOCK_NOTES
  6
CONTINUOUS
 62
     3
 10
46.589405063598889
 20
1.2714377305770621
 30
0.0
 11
46.970359348518933
 21
1.2714377305770621
 31
0.0
  0
LINE
  5
9D5
  8
TITLEBLOCK_NOTES
  6
CONTINUOUS
 62
     3
 10
46.589405063598889
 20
1.072885691232069
 30
0.0
 11
46.911316605363929
 21
1.078504653537069
 31
0.0
  0
LINE
  5
9D6
  8
TITLEBLOCK_NOTES
  6
CONTINUOUS
 62
     3
 10
46.589405063598889
 20
0.7352528064120599
 30
0.0
 11
46.911316605363929
 21
0.7408718177220628
 31
0.0
  0
LINE
  5
9D7
  8
TITLEBLOCK_NOTES
  6
CONTINUOUS
 62
     3
 10
48.061773764973907
 20
1.585339846137066
 30
0.0
 11
47.469135227823877
 21
1.585339846137066
 31
0.0
  0
LINE
  5
9D8
  8
TITLEBLOCK_NOTES
  6
CONTINUOUS
 62
     3
 10
48.061773764973907
 20
1.6098423461370639
 30
0.0
 11
47.460805504938861
 21
1.6098423461370639
 31
0.0
  0
LINE
  5
9D9
  8
TITLEBLOCK_NOTES
  6
CONTINUOUS
 62
     3
 10
48.061773764973907
 20
1.6343448461370811
 30
0.0
 11
47.450049348483937
 21
1.6343448461370811
 31
0.0
  0
LINE
  5
9DA
  8
TITLEBLOCK_NOTES
  6
CONTINUOUS
 62
     3
 10
48.061773764973907
 20
1.5608373461370699
 30
0.0
 11
47.475240564753868
 21
1.5608373461370699
 31
0.0
  0
TEXT
  5
9DB
  8
TITLEBLOCK_NOTES
  6
CONTINUOUS
 62
     3
 10
47.580013205748926
 20
1.349396256717073
 30
0.0
 40
0.1225125
  1
INC.
 41
1.282051279999999
  0
LINE
  5
9DC
  8
TITLEBLOCK_NOTES
  6
CONTINUOUS
 62
     3
 10
47.696101934328908
 20
0.8373383562420675
 30
0.0
 11
48.061773764973907
 21
0.8437211594820651
 31
0.0
  0
LINE
  5
9DD
  8
TITLEBLOCK_NOTES
  6
CONTINUOUS
 62
     3
 10
47.202854652108947
 20
0.0779537889270614
 30
0.0
 11
48.061773764973907
 21
0.0929462806170776
 31
0.0
  0
LINE
  5
9DE
  8
TITLEBLOCK_NOTES
  6
CONTINUOUS
 62
     3
 10
47.495997563598898
 20
0.0534512889270644
 30
0.0
 11
46.56490256359892
 21
0.0534512889270644
 31
0.0
  0
LINE
  5
9DF
  8
TITLEBLOCK_NOTES
  6
CONTINUOUS
 62
     3
 10
46.589405063598889
 20
0.0868509407070732
 30
0.0
 11
48.061773764973907
 21
0.1125512699220721
 31
0.0
  0
LINE
  5
9E0
  8
TITLEBLOCK_NOTES
  6
CONTINUOUS
 62
     3
 10
46.589405063598889
 20
0.1064559300120784
 30
0.0
 11
48.061773764973907
 21
0.1321562102220604
 31
0.0
  0
LINE
  5
9E1
  8
TITLEBLOCK_NOTES
  6
CONTINUOUS
 62
     3
 10
46.589405063598889
 20
0.126060919317073
 30
0.0
 11
48.061773764973907
 21
0.1517611995270656
 31
0.0
  0
LINE
  5
9E2
  8
TITLEBLOCK_NOTES
  6
CONTINUOUS
 62
     3
 10
46.589405063598889
 20
0.145665908622064
 30
0.0
 11
48.061773764973907
 21
0.1713661888320601
 31
0.0
  0
LINE
  5
9E3
  8
TITLEBLOCK_NOTES
  6
CONTINUOUS
 62
     3
 10
46.589405063598889
 20
0.1652708979270727
 30
0.0
 11
48.061773764973907
 21
0.1909711781370795
 31
0.0
  0
LINE
  5
9E4
  8
TITLEBLOCK_NOTES
  6
CONTINUOUS
 62
     3
 10
46.589405063598889
 20
0.1848758872320673
 30
0.0
 11
48.061773764973907
 21
0.2105761674420741
 31
0.0
  0
LINE
  5
9E5
  8
TITLEBLOCK_NOTES
  6
CONTINUOUS
 62
     3
 10
46.589405063598889
 20
0.2044808765370725
 30
0.0
 11
48.061773764973907
 21
0.2301811567470686
 31
0.0
  0
LINE
  5
9E6
  8
TITLEBLOCK_NOTES
  6
CONTINUOUS
 62
     3
 10
46.589405063598889
 20
0.2240858658420635
 30
0.0
 11
48.061773764973907
 21
0.2497861460520738
 31
0.0
  0
LINE
  5
9E7
  8
TITLEBLOCK_NOTES
  6
CONTINUOUS
 62
     3
 10
46.589405063598889
 20
0.2436908551470581
 30
0.0
 11
47.440062619533933
 21
0.2585391251220628
 31
0.0
  0
LINE
  5
9E8
  8
TITLEBLOCK_NOTES
  6
CONTINUOUS
 62
     3
 10
48.061773764973907
 20
0.2585391251220628
 30
0.0
 11
46.589405063598889
 21
0.2585391251220805
 31
0.0
  0
LINE
  5
9E9
  8
TITLEBLOCK_NOTES
  6
CONTINUOUS
 62
     3
 10
47.520500063598931
 20
0.0779537889270614
 30
0.0
 11
46.589405063598889
 21
0.0779537889270614
 31
0.0
  0
LINE
  5
9EA
  8
TITLEBLOCK_NOTES
  6
CONTINUOUS
 62
     3
 10
46.540400063598909
 20
0.028948788927071
 30
0.0
 11
47.471495063598908
 21
0.028948788927071
 31
0.0
  0
LINE
  5
9EB
  8
TITLEBLOCK_NOTES
  6
CONTINUOUS
 62
     3
 10
47.209697220258903
 20
-0.706126211072917
 30
0.0
 11
48.061773764973907
 21
-0.6912531935729334
 31
0.0
  0
LINE
  5
9EC
  8
TITLEBLOCK_NOTES
  6
CONTINUOUS
 62
     3
 10
46.148360063598929
 20
-0.3630912110729412
 30
0.0
 11
47.495997563598898
 21
-0.3630912110729412
 31
0.0
  0
LINE
  5
9ED
  8
TITLEBLOCK_NOTES
  6
CONTINUOUS
 62
     3
 10
46.123857563598868
 20
-0.3875937110729346
 30
0.0
 11
47.520500063598931
 21
-0.3875937110729346
 31
0.0
  0
LINE
  5
9EE
  8
TITLEBLOCK_NOTES
  6
CONTINUOUS
 62
     3
 10
46.172862563598883
 20
-0.3385887110729442
 30
0.0
 11
47.471495063598908
 21
-0.3385887110729442
 31
0.0
  0
LINE
  5
9EF
  8
TITLEBLOCK_NOTES
  6
CONTINUOUS
 62
     3
 10
47.520500063598931
 20
-0.0733416018029232
 30
0.0
 11
48.061773764973907
 21
-0.0638936338229321
 31
0.0
  0
LINE
  5
9F0
  8
TITLEBLOCK_NOTES
  6
CONTINUOUS
 62
     3
 10
47.520500063598931
 20
-0.0537366124979144
 30
0.0
 11
48.061773764973907
 21
-0.0442886445179411
 31
0.0
  0
LINE
  5
9F1
  8
TITLEBLOCK_NOTES
  6
CONTINUOUS
 62
     3
 10
47.520500063598931
 20
-0.0341316231929234
 30
0.0
 11
48.061773764973907
 21
-0.0246836552129324
 31
0.0
  0
LINE
  5
9F2
  8
TITLEBLOCK_NOTES
  6
CONTINUOUS
 62
     3
 10
47.520500063598931
 20
-0.0145266338879289
 30
0.0
 11
48.061773764973907
 21
-0.0050786659079414
 31
0.0
  0
LINE
  5
9F3
  8
TITLEBLOCK_NOTES
  6
CONTINUOUS
 62
     3
 10
47.520500063598931
 20
0.0050783554170621
 30
0.0
 11
48.061773764973907
 21
0.0145263233970816
 31
0.0
  0
LINE
  5
9F4
  8
TITLEBLOCK_NOTES
  6
CONTINUOUS
 62
     3
 10
47.520500063598931
 20
0.0246833447220709
 30
0.0
 11
48.061773764973907
 21
0.0341313127020726
 31
0.0
  0
LINE
  5
9F5
  8
TITLEBLOCK_NOTES
  6
CONTINUOUS
 62
     3
 10
47.520500063598931
 20
0.0442883340270761
 30
0.0
 11
48.061773764973907
 21
0.0537363020070672
 31
0.0
  0
LINE
  5
9F6
  8
TITLEBLOCK_NOTES
  6
CONTINUOUS
 62
     3
 10
47.520500063598931
 20
0.0638933233320671
 30
0.0
 11
48.061773764973907
 21
0.0733412913120688
 31
0.0
  0
LINE
  5
9F7
  8
TITLEBLOCK_NOTES
  6
CONTINUOUS
 62
     3
 10
47.520500063598931
 20
-0.3870213816779326
 30
0.0
 11
48.061773764973907
 21
-0.3775734136979274
 31
0.0
  0
LINE
  5
9F8
  8
TITLEBLOCK_NOTES
  6
CONTINUOUS
 62
     3
 10
47.520500063598931
 20
-0.3674163923729381
 30
0.0
 11
48.061773764973907
 21
-0.3579684243929186
 31
0.0
  0
LINE
  5
9F9
  8
TITLEBLOCK_NOTES
  6
CONTINUOUS
 62
     3
 10
47.520500063598931
 20
-0.3478114030679293
 30
0.0
 11
48.061773764973907
 21
-0.3383634350879276
 31
0.0
  0
LINE
  5
9FA
  8
TITLEBLOCK_NOTES
  6
CONTINUOUS
 62
     3
 10
47.520500063598931
 20
-0.3282064137629383
 30
0.0
 11
48.061773764973907
 21
-0.3187584457829331
 31
0.0
  0
LINE
  5
9FB
  8
TITLEBLOCK_NOTES
  6
CONTINUOUS
 62
     3
 10
47.520500063598931
 20
-0.3086014244579331
 30
0.0
 11
48.061773764973907
 21
-0.2991534564779243
 31
0.0
  0
LINE
  5
9FC
  8
TITLEBLOCK_NOTES
  6
CONTINUOUS
 62
     3
 10
47.520500063598931
 20
-0.2889964351529386
 30
0.0
 11
48.061773764973907
 21
-0.2795484671729334
 31
0.0
  0
LINE
  5
9FD
  8
TITLEBLOCK_NOTES
  6
CONTINUOUS
 62
     3
 10
47.520500063598931
 20
-0.269391445847944
 30
0.0
 11
48.061773764973907
 21
-0.2599434778679281
 31
0.0
  0
LINE
  5
9FE
  8
TITLEBLOCK_NOTES
  6
CONTINUOUS
 62
     3
 10
47.520500063598931
 20
-0.2497864565429211
 30
0.0
 11
48.061773764973907
 21
-0.2403384885629372
 31
0.0
  0
LINE
  5
9FF
  8
TITLEBLOCK_NOTES
  6
CONTINUOUS
 62
     3
 10
47.520500063598931
 20
-0.2301814672379194
 30
0.0
 11
48.061773764973907
 21
-0.2207334992579426
 31
0.0
  0
LINE
  5
A00
  8
TITLEBLOCK_NOTES
  6
CONTINUOUS
 62
     3
 10
47.520500063598931
 20
-0.2105764779329249
 30
0.0
 11
48.061773764973907
 21
-0.2011285099529232
 31
0.0
  0
LINE
  5
A01
  8
TITLEBLOCK_NOTES
  6
CONTINUOUS
 62
     3
 10
47.520500063598931
 20
-0.1909714886279339
 30
0.0
 11
48.061773764973907
 21
-0.1815235206479428
 31
0.0
  0
LINE
  5
A02
  8
TITLEBLOCK_NOTES
  6
CONTINUOUS
 62
     3
 10
47.520500063598931
 20
-0.1713665483279279
 30
0.0
 11
48.061773764973907
 21
-0.1619185803479262
 31
0.0
  0
LINE
  5
A03
  8
TITLEBLOCK_NOTES
  6
CONTINUOUS
 62
     3
 10
47.520500063598931
 20
-0.1517615590229333
 30
0.0
 11
48.061773764973907
 21
-0.1423135910429316
 31
0.0
  0
LINE
  5
A04
  8
TITLEBLOCK_NOTES
  6
CONTINUOUS
 62
     3
 10
47.520500063598931
 20
-0.1321565697179317
 30
0.0
 11
48.061773764973907
 21
-0.1227086017379264
 31
0.0
  0
LINE
  5
A05
  8
TITLEBLOCK_NOTES
  6
CONTINUOUS
 62
     3
 10
47.520500063598931
 20
-0.1125515804129371
 30
0.0
 11
48.061773764973907
 21
-0.1031036124329354
 31
0.0
  0
LINE
  5
A06
  8
TITLEBLOCK_NOTES
  6
CONTINUOUS
 62
     3
 10
47.471495063598908
 20
-0.3385887110729442
 30
0.0
 11
47.471495063598908
 21
0.028948788927071
 31
0.0
  0
LINE
  5
A07
  8
TITLEBLOCK_NOTES
  6
CONTINUOUS
 62
     3
 10
47.495997563598898
 20
-0.3630912110729412
 30
0.0
 11
47.495997563598898
 21
0.0534512889270644
 31
0.0
  0
LINE
  5
A08
  8
TITLEBLOCK_NOTES
  6
CONTINUOUS
 62
     3
 10
47.520500063598931
 20
-0.0929465911079461
 30
0.0
 11
48.061773764973907
 21
-0.0834986231279267
 31
0.0
  0
LINE
  5
A09
  8
TITLEBLOCK_NOTES
  6
CONTINUOUS
 62
     3
 10
47.520500063598931
 20
-0.3875937110729346
 30
0.0
 11
47.520500063598931
 21
0.0779537889270614
 31
0.0
  0
TEXT
  5
A0C
  8
TITLEBLOCK_NOTES
  6
CONTINUOUS
 62
     3
 10
54.414116831586419
 20
2.2612619991870511
 30
0.0
 40
0.2695275
  1
R
 41
1.165501169999998
  0
CIRCLE
  5
A0D
  8
TITLEBLOCK_NOTES
  6
CONTINUOUS
 62
     3
 10
54.516510916896422
 20
2.395414558827051
 30
0.0
 40
0.2205225
  0
TEXT
  5
A0E
  8
TITLEBLOCK_NOTES
  6
CONTINUOUS
 62
     3
 10
51.085650397183457
 20
0.5619242612935267
 30
0.0
 40
0.3920400000000001
  1
 Bolton, Ontario
 41
0.7000000000000001
  0
LINE
  5
AEF
  8
4496BASEPLATE
 10
14.313050777091201
 20
18.627902676152711
 30
0.0
 11
19.313050777091199
 21
18.627902676152711
 31
0.0
  0
LINE
  5
AF0
  8
4496BASEPLATE
 10
14.313050777091201
 20
19.127902676152711
 30
0.0
 11
19.313050777091199
 21
19.127902676152711
 31
0.0
  0
LINE
  5
AF1
  8
5828MOUNTPLATE
 10
14.313050777091201
 20
35.002902676152708
 30
0.0
 11
19.313050777091199
 21
35.002902676152708
 31
0.0
  0
LINE
  5
AF2
  8
5828MOUNTPLATE
 10
14.313050777091201
 20
36.252902676152708
 30
0.0
 11
19.313050777091199
 21
36.252902676152708
 31
0.0
  0
LINE
  5
AF3
  8
6071PLATESUPPORT
 10
14.313050777091201
 20
22.377902676152711
 30
0.0
 11
15.313050777091201
 21
22.377902676152711
 31
0.0
  0
LINE
  5
AF4
  8
6071PLATESUPPORT
 10
15.313050777091201
 20
21.127902676152711
 30
0.0
 11
14.313050777091201
 21
21.127902676152711
 31
0.0
  0
LINE
  5
AF5
  8
6071PLATESUPPORT
 10
14.313050777091201
 20
21.127902676152711
 30
0.0
 11
14.313050777091201
 21
22.377902676152711
 31
0.0
  0
LINE
  5
AF6
  8
6071PLATESUPPORT
  6
HIDDEN
 10
15.000550777091201
 20
22.377902676152711
 30
0.0
 11
15.000550777091201
 21
21.127902676152711
 31
0.0
  0
LINE
  5
AF7
  8
6071PLATESUPPORT
  6
HIDDEN
 10
14.969300777091201
 20
22.377902676152711
 30
0.0
 11
14.969300777091201
 21
21.127902676152711
 31
0.0
  0
LINE
  5
AF8
  8
6071PLATESUPPORT
  6
HIDDEN
 10
14.656800777091201
 20
22.377902676152711
 30
0.0
 11
14.65680077709122
 21
21.127902676152711
 31
0.0
  0
LINE
  5
AF9
  8
6071PLATESUPPORT
  6
HIDDEN
 10
14.625550777091201
 20
22.377902676152711
 30
0.0
 11
14.625550777091201
 21
21.127902676152711
 31
0.0
  0
LINE
  5
AFA
  8
CENTRE
  6
CENTER2
 10
14.813050777091229
 20
24.223640108047011
 30
0.0
 11
14.813050777091201
 21
20.761131376312029
 31
0.0
  0
LINE
  5
AFC
  8
6083FLAMECUT
 10
14.313050777091201
 20
37.252902676152708
 30
0.0
 11
14.313050777091201
 21
23.877902676152701
 31
0.0
  0
LINE
  5
AFD
  8
6083FLAMECUT
 10
12.813050777091201
 20
18.752902676152711
 30
0.0
 11
14.313050777091201
 21
18.752902676152711
 31
0.0
  0
LINE
  5
AFE
  8
4496BASEPLATE
 10
14.313050777091201
 20
18.627902676152711
 30
0.0
 11
14.313050777091201
 21
19.127902676152711
 31
0.0
  0
LINE
  5
AFF
  8
6083FLAMECUT
 10
14.313050777091201
 20
18.627902676152711
 30
0.0
 11
14.188050777091201
 21
18.752902676152711
 31
0.0
  0
LINE
  5
B00
  8
4496BASEPLATE
 10
14.313050777091201
 20
18.752902676152711
 30
0.0
 11
14.313050777091201
 21
18.627902676152711
 31
0.0
  0
LINE
  5
B01
  8
6083FLAMECUT
 10
14.313050777091201
 20
20.877902676152711
 30
0.0
 11
14.563050777091201
 21
21.127902676152711
 31
0.0
  0
LINE
  5
B02
  8
6083FLAMECUT
  6
HIDDEN
 10
14.313050777091201
 20
23.252902676152711
 30
0.0
 11
12.813050777091201
 21
23.252902676152711
 31
0.0
  0
LINE
  5
B03
  8
6083FLAMECUT
 10
14.313050777091201
 20
22.252902676152711
 30
0.0
 11
12.813050777091201
 21
22.252902676152711
 31
0.0
  0
LINE
  5
B04
  8
6083FLAMECUT
 10
14.313050777091201
 20
24.252902676152711
 30
0.0
 11
12.813050777091201
 21
24.252902676152711
 31
0.0
  0
LINE
  5
B05
  8
6083FLAMECUT
 10
14.313050777091201
 20
33.877902676152708
 30
0.0
 11
12.813050777091201
 21
33.877902676152708
 31
0.0
  0
LINE
  5
B06
  8
6083FLAMECUT
 10
12.813050777091201
 20
32.877902676152708
 30
0.0
 11
14.313050777091201
 21
32.877902676152708
 31
0.0
  0
LINE
  5
B07
  8
6083FLAMECUT
 10
14.563050777091201
 20
36.252902676152708
 30
0.0
 11
14.313050777091201
 21
36.502902676152708
 31
0.0
  0
LINE
  5
B08
  8
6083FLAMECUT
 10
14.313050777091201
 20
36.252902676152708
 30
0.0
 11
12.813050777091201
 21
36.252902676152708
 31
0.0
  0
LINE
  5
B09
  8
6083FLAMECUT
 10
14.313050777091201
 20
34.752902676152708
 30
0.0
 11
14.563050777091201
 21
35.002902676152708
 31
0.0
  0
LINE
  5
B0A
  8
6083FLAMECUT
 10
12.813050777091201
 20
37.252902676152708
 30
0.0
 11
14.313050777091201
 21
37.252902676152708
 31
0.0
  0
LINE
  5
B0B
  8
CENTRE
  6
CENTER
 10
16.813050777091199
 20
39.144562859758551
 30
0.0
 11
16.813050777091199
 21
16.933628637942601
 31
0.0
  0
LINE
  5
B0C
  8
CENTRE
  6
CENTER
 10
31.708086499316831
 20
16.933628637942601
 30
0.0
 11
31.708086499316831
 21
39.144562859758551
 31
0.0
  0
LINE
  5
B0D
  8
6083FLAMECUT
 10
31.708086499316831
 20
37.252902676152708
 30
0.0
 11
43.208086499316842
 21
37.252902676152708
 31
0.0
  0
LINE
  5
B0E
  8
6083FLAMECUT
 10
31.708086499316831
 20
18.752902676152711
 30
0.0
 11
43.208086499316842
 21
18.752902676152711
 31
0.0
  0
LINE
  5
B10
  8
6071PLATESUPPORT
  6
HIDDEN
 10
34.333086499316821
 20
21.127902676152711
 30
0.0
 11
34.333086499316821
 21
22.377902676152711
 31
0.0
  0
LINE
  5
B11
  8
6071PLATESUPPORT
  6
HIDDEN
 10
34.364336499316821
 20
21.127902676152711
 30
0.0
 11
34.364336499316821
 21
22.377902676152711
 31
0.0
  0
LINE
  5
B12
  8
6071PLATESUPPORT
  6
HIDDEN
 10
34.676836499316821
 20
21.127902676152711
 30
0.0
 11
34.676836499316799
 21
22.377902676152711
 31
0.0
  0
LINE
  5
B13
  8
6071PLATESUPPORT
  6
HIDDEN
 10
34.708086499316821
 20
21.127902676152711
 30
0.0
 11
34.708086499316821
 21
22.377902676152711
 31
0.0
  0
LINE
  5
B14
  8
CENTRE
  6
CENTER2
 10
34.520586499316828
 20
20.915691044216072
 30
0.0
 11
34.520586499316821
 21
22.61943027781178
 31
0.0
  0
LINE
  5
B15
  8
6071PLATESUPPORT
  6
HIDDEN
 10
38.270586499316821
 20
21.127902676152711
 30
0.0
 11
38.270586499316821
 21
22.377902676152711
 31
0.0
  0
LINE
  5
B16
  8
6083FLAMECUT
 10
30.708086499316831
 20
22.252902676152711
 30
0.0
 11
31.708086499316831
 21
18.752902676152711
 31
0.0
  0
LINE
  5
B17
  8
6071PLATESUPPORT
  6
HIDDEN
 10
30.114336499316821
 20
21.127902676152711
 30
0.0
 11
30.114336499316821
 21
22.377902676152711
 31
0.0
  0
LINE
  5
B18
  8
6071PLATESUPPORT
  6
HIDDEN
 10
30.083086499316821
 20
21.127902676152711
 30
0.0
 11
30.083086499316821
 21
22.377902676152711
 31
0.0
  0
LINE
  5
B19
  8
6071PLATESUPPORT
  6
HIDDEN
 10
30.458086499316821
 20
21.127902676152711
 30
0.0
 11
30.458086499316821
 21
22.377902676152711
 31
0.0
  0
LINE
  5
B1A
  8
6071PLATESUPPORT
  6
HIDDEN
 10
30.426836499316821
 20
21.127902676152711
 30
0.0
 11
30.426836499316799
 21
22.377902676152711
 31
0.0
  0
LINE
  5
B1B
  8
CENTRE
  6
CENTER2
 10
30.270586499316821
 20
20.915691044216072
 30
0.0
 11
30.270586499316821
 21
22.61943027781178
 31
0.0
  0
LINE
  5
B1C
  8
6071PLATESUPPORT
 10
29.270586499316821
 20
21.127902676152711
 30
0.0
 11
29.270586499316821
 21
22.377902676152711
 31
0.0
  0
LINE
  5
B1D
  8
6071PLATESUPPORT
 10
15.313050777091201
 20
21.127902676152711
 30
0.0
 11
15.313050777091201
 21
22.377902676152711
 31
0.0
  0
LINE
  5
B1E
  8
6083FLAMECUT
 10
19.313050777091199
 20
20.877902676152711
 30
0.0
 11
19.313050777091199
 21
22.127902676152711
 31
0.0
  0
LINE
  5
B1F
  8
6071PLATESUPPORT
 10
18.313050777091199
 20
21.127902676152711
 30
0.0
 11
18.313050777091199
 21
22.377902676152711
 31
0.0
  0
LINE
  5
B20
  8
6071PLATESUPPORT
  6
HIDDEN
 10
18.625550777091199
 20
22.377902676152711
 30
0.0
 11
18.625550777091199
 21
21.127902676152711
 31
0.0
  0
LINE
  5
B21
  8
6071PLATESUPPORT
  6
HIDDEN
 10
18.656800777091199
 20
22.377902676152711
 30
0.0
 11
18.65680077709122
 21
21.127902676152711
 31
0.0
  0
LINE
  5
B22
  8
6071PLATESUPPORT
  6
HIDDEN
 10
18.969300777091199
 20
22.377902676152711
 30
0.0
 11
18.969300777091199
 21
21.127902676152711
 31
0.0
  0
LINE
  5
B23
  8
6071PLATESUPPORT
  6
HIDDEN
 10
19.000550777091199
 20
22.377902676152711
 30
0.0
 11
19.000550777091199
 21
21.127902676152711
 31
0.0
  0
LINE
  5
B24
  8
CENTRE
  6
CENTER2
 10
18.81305077709122
 20
24.223640108047011
 30
0.0
 11
18.813050777091199
 21
20.761131376312029
 31
0.0
  0
LINE
  5
B25
  8
6083FLAMECUT
 10
19.313050777091199
 20
37.252902676152708
 30
0.0
 11
19.313050777091199
 21
23.877902676152701
 31
0.0
  0
LINE
  5
B27
  8
4496BASEPLATE
  6
CONTINUOUS
 10
30.208086499316821
 20
19.127902676152711
 30
0.0
 11
31.600943642173981
 21
19.127902676152711
 31
0.0
  0
LINE
  5
B28
  8
4496BASEPLATE
  6
CONTINUOUS
 10
30.208086499316821
 20
18.627902676152711
 30
0.0
 11
39.708086499316828
 21
18.627902676152711
 31
0.0
  0
LINE
  5
B29
  8
6071PLATESUPPORT
 10
31.065229356459689
 20
21.127902676152711
 30
0.0
 11
29.270586499316821
 21
21.127902676152711
 31
0.0
  0
LINE
  5
B2B
  8
4496BASEPLATE
  6
HIDDEN2
 10
16.563050777091188
 20
19.127902676152711
 30
0.0
 11
16.563050777091188
 21
18.627902676152701
 31
0.0
  0
LINE
  5
B2C
  8
4496BASEPLATE
  6
HIDDEN2
 10
17.063050777091199
 20
19.127902676152711
 30
0.0
 11
17.063050777091199
 21
18.627902676152701
 31
0.0
  0
LINE
  5
B2E
  8
6083FLAMECUT
 10
19.313050777091199
 20
18.752902676152711
 30
0.0
 11
20.813050777091199
 21
18.752902676152711
 31
0.0
  0
LINE
  5
B2F
  8
4496BASEPLATE
 10
19.313050777091199
 20
19.127902676152711
 30
0.0
 11
19.313050777091199
 21
18.627902676152711
 31
0.0
  0
LINE
  5
B30
  8
6083FLAMECUT
 10
19.313050777091199
 20
18.627902676152711
 30
0.0
 11
19.438050777091199
 21
18.752902676152711
 31
0.0
  0
LINE
  5
B31
  8
6083FLAMECUT
 10
19.313050777091199
 20
20.877902676152711
 30
0.0
 11
19.063050777091199
 21
21.127902676152711
 31
0.0
  0
LINE
  5
B32
  8
6071PLATESUPPORT
 10
19.313050777091199
 20
21.127902676152711
 30
0.0
 11
18.313050777091199
 21
21.127902676152711
 31
0.0
  0
LINE
  5
B33
  8
4496BASEPLATE
  6
CONTINUOUS
 10
30.208086499316821
 20
19.127902676152711
 30
0.0
 11
30.208086499316821
 21
18.627902676152711
 31
0.0
  0
LINE
  5
B34
  8
4496BASEPLATE
  6
HIDDEN
 10
39.708086499316821
 20
19.127902676152711
 30
0.0
 11
31.600943642173981
 21
19.127902676152711
 31
0.0
  0
LINE
  5
B35
  8
6071PLATESUPPORT
  6
HIDDEN
 10
38.270586499316821
 20
21.127902676152711
 30
0.0
 11
31.065229356459689
 21
21.127902676152711
 31
0.0
  0
LINE
  5
B36
  8
4496BASEPLATE
  6
HIDDEN2
 10
30.504961499316821
 20
19.127902676152711
 30
0.0
 11
30.504961499316821
 21
18.627902676152711
 31
0.0
  0
LINE
  5
B37
  8
4496BASEPLATE
  6
HIDDEN2
 10
30.911211499316821
 20
19.127902676152711
 30
0.0
 11
30.911211499316821
 21
18.627902676152711
 31
0.0
  0
LINE
  5
B38
  8
4496BASEPLATE
  6
HIDDEN2
 10
31.45808649931681
 20
19.127902676152711
 30
0.0
 11
31.45808649931681
 21
18.627902676152711
 31
0.0
  0
LINE
  5
B39
  8
CENTRE
  6
CENTER2
 10
30.708086499316821
 20
19.502902676152711
 30
0.0
 11
30.708086499316821
 21
18.252902676152711
 31
0.0
  0
LINE
  5
B3A
  8
4496BASEPLATE
  6
HIDDEN2
 10
31.958086499316821
 20
19.127902676152711
 30
0.0
 11
31.958086499316821
 21
18.627902676152711
 31
0.0
  0
LINE
  5
B3C
  8
4496BASEPLATE
  6
HIDDEN
 10
39.708086499316821
 20
19.127902676152711
 30
0.0
 11
39.708086499316821
 21
18.627902676152711
 31
0.0
  0
LINE
  5
B3D
  8
4496BASEPLATE
  6
HIDDEN2
 10
39.004961499316821
 20
19.127902676152711
 30
0.0
 11
39.004961499316821
 21
18.627902676152711
 31
0.0
  0
LINE
  5
B3E
  8
4496BASEPLATE
  6
HIDDEN2
 10
39.411211499316821
 20
19.127902676152711
 30
0.0
 11
39.411211499316821
 21
18.627902676152711
 31
0.0
  0
LINE
  5
B3F
  8
CENTRE
  6
CENTER2
 10
39.208086499316799
 20
19.502902676152711
 30
0.0
 11
39.208086499316821
 21
18.252902676152711
 31
0.0
  0
LINE
  5
B41
  8
6071PLATESUPPORT
 10
29.270586499316821
 20
22.377902676152711
 30
0.0
 11
37.708086499316828
 21
22.377902676152711
 31
0.0
  0
LINE
  5
B42
  8
5828MOUNTPLATE
 10
28.708086499316821
 20
35.002902676152708
 30
0.0
 11
30.708086499316831
 21
35.002902676152708
 31
0.0
  0
LINE
  5
B43
  8
5828MOUNTPLATE
 10
28.708086499316821
 20
36.252902676152708
 30
0.0
 11
30.708086499316831
 21
36.252902676152708
 31
0.0
  0
LINE
  5
B45
  8
6083FLAMECUT
  6
HIDDEN
 10
20.813050777091199
 20
23.252902676152701
 30
0.0
 11
19.313050777091199
 21
23.252902676152711
 31
0.0
  0
LINE
  5
B46
  8
6083FLAMECUT
 10
20.813050777091199
 20
22.252902676152711
 30
0.0
 11
19.313050777091199
 21
22.252902676152711
 31
0.0
  0
LINE
  5
B47
  8
6071PLATESUPPORT
 10
18.313050777091199
 20
22.377902676152711
 30
0.0
 11
19.313050777091199
 21
22.377902676152711
 31
0.0
  0
LINE
  5
B48
  8
6083FLAMECUT
 10
20.813050777091199
 20
24.252902676152711
 30
0.0
 11
19.313050777091199
 21
24.252902676152711
 31
0.0
  0
LINE
  5
B49
  8
6083FLAMECUT
 10
20.813050777091199
 20
33.877902676152708
 30
0.0
 11
19.313050777091199
 21
33.877902676152708
 31
0.0
  0
LINE
  5
B4A
  8
6083FLAMECUT
 10
19.313050777091199
 20
32.877902676152708
 30
0.0
 11
20.813050777091199
 21
32.877902676152708
 31
0.0
  0
LINE
  5
B4D
  8
6083FLAMECUT
 10
19.063050777091199
 20
36.252902676152708
 30
0.0
 11
19.313050777091199
 21
36.502902676152708
 31
0.0
  0
LINE
  5
B4E
  8
6083FLAMECUT
 10
20.813050777091199
 20
36.252902676152708
 30
0.0
 11
19.313050777091199
 21
36.252902676152708
 31
0.0
  0
LINE
  5
B51
  8
6083FLAMECUT
 10
19.063050777091199
 20
35.002902676152708
 30
0.0
 11
19.313050777091199
 21
34.752902676152708
 31
0.0
  0
LINE
  5
B52
  8
6083FLAMECUT
 10
19.313050777091199
 20
37.252902676152708
 30
0.0
 11
20.813050777091199
 21
37.252902676152708
 31
0.0
  0
LINE
  5
B53
  8
5828MOUNTPLATE
 10
28.708086499316821
 20
35.002902676152708
 30
0.0
 11
28.708086499316821
 21
36.252902676152708
 31
0.0
  0
LINE
  5
B55
  8
6083FLAMECUT
 10
39.208086499316828
 20
24.252902676152711
 30
0.0
 11
39.208086499316828
 21
31.877902676152711
 31
0.0
  0
LINE
  5
B57
  8
6083FLAMECUT
 10
30.708086499316831
 20
22.252902676152711
 30
0.0
 11
37.708086499316828
 21
22.252902676152711
 31
0.0
  0
ARC
  5
B58
  8
6083FLAMECUT
 10
38.208086499316828
 20
24.252902676152711
 30
0.0
 40
1.0
 50
270.0
 51
0.0
  0
LINE
  5
B59
  8
6083FLAMECUT
 10
37.708086499316828
 20
23.252902676152711
 30
0.0
 11
37.708086499316828
 21
22.252902676152711
 31
0.0
  0
LINE
  5
B5A
  8
6071PLATESUPPORT
  6
HIDDEN
 10
38.270586499316821
 20
22.377902676152711
 30
0.0
 11
37.708086499316828
 21
22.377902676152711
 31
0.0
  0
LINE
  5
B5B
  8
6083FLAMECUT
 10
38.208086499316828
 20
23.252902676152711
 30
0.0
 11
37.708086499316828
 21
23.252902676152711
 31
0.0
  0
LINE
  5
B5C
  8
6083FLAMECUT
 10
31.708086499316831
 20
32.877902676152708
 30
0.0
 11
38.208086499316828
 21
32.877902676152708
 31
0.0
  0
LINE
  5
B5D
  8
6083FLAMECUT
 10
30.708086499316831
 20
36.252902676152708
 30
0.0
 11
30.708086499316831
 21
33.877902676152708
 31
0.0
  0
ARC
  5
B5E
  8
6083FLAMECUT
 10
31.708086499316831
 20
33.877902676152708
 30
0.0
 40
1.0
 50
180.0
 51
270.0
  0
LINE
  5
B5F
  8
5828MOUNTPLATE
  6
HIDDEN
 10
30.708086499316831
 20
36.252902676152708
 30
0.0
 11
34.708086499316828
 21
36.252902676152708
 31
0.0
  0
LINE
  5
B60
  8
5828MOUNTPLATE
  6
HIDDEN
 10
34.708086499316828
 20
35.002902676152708
 30
0.0
 11
30.708086499316831
 21
35.002902676152708
 31
0.0
  0
ARC
  5
B61
  8
6083FLAMECUT
 10
31.708086499316831
 20
36.252902676152708
 30
0.0
 40
1.0
 50
90.0
 51
180.0
  0
LINE
  5
B65
  8
5828MOUNTPLATE
  6
HIDDEN
 10
34.708086499316828
 20
35.002902676152708
 30
0.0
 11
34.708086499316828
 21
36.252902676152708
 31
0.0
  0
ARC
  5
B66
  8
6083FLAMECUT
 10
38.208086499316828
 20
31.877902676152711
 30
0.0
 40
1.0
 50
0.0
 51
90.0
  0
LINE
  5
B67
  8
6083FLAMECUT
 10
45.708086499316842
 20
21.252902676152711
 30
0.0
 11
45.708086499316842
 21
34.752902676152708
 31
0.0
  0
ARC
  5
B68
  8
6083FLAMECUT
 10
43.208086499316842
 20
21.252902676152711
 30
0.0
 40
2.5
 50
270.0
 51
0.0
  0
ARC
  5
B69
  8
6083FLAMECUT
 10
43.208086499316842
 20
34.752902676152708
 30
0.0
 40
2.5
 50
0.0
 51
90.0
  0
LINE
  5
EC3
  8
5829SUBPLATE
  6
HIDDEN
 10
18.524050777091219
 20
23.377902676152711
 30
0.0
 11
19.102050777091211
 21
23.377902676152711
 31
0.0
  0
LINE
  5
EC4
  8
5829SUBPLATE
  6
CONTINUOUS
 10
11.81305077709119
 20
23.877902676152711
 30
0.0
 11
21.81305077709121
 21
23.877902676152711
 31
0.0
  0
LINE
  5
EC5
  8
5829SUBPLATE
  6
CONTINUOUS
 10
11.81305077709119
 20
22.377902676152711
 30
0.0
 11
21.81305077709121
 21
22.377902676152711
 31
0.0
  0
LINE
  5
EC6
  8
5829SUBPLATE
  6
HIDDEN
 10
14.52405077709119
 20
23.877902676152711
 30
0.0
 11
14.52405077709121
 21
23.377902676152711
 31
0.0
  0
LINE
  5
EC7
  8
5829SUBPLATE
  6
HIDDEN
 10
15.1020507770912
 20
23.877902676152701
 30
0.0
 11
15.1020507770912
 21
23.377902676152711
 31
0.0
  0
LINE
  5
EC8
  8
5829SUBPLATE
  6
HIDDEN
 10
18.52405077709119
 20
23.877902676152711
 30
0.0
 11
18.524050777091212
 21
23.377902676152711
 31
0.0
  0
LINE
  5
EC9
  8
5829SUBPLATE
  6
HIDDEN
 10
16.656800777091199
 20
23.877902676152711
 30
0.0
 11
16.656800777091199
 21
22.377902676152711
 31
0.0
  0
LINE
  5
ECA
  8
5829SUBPLATE
  6
HIDDEN
 10
16.969300777091181
 20
23.877902676152711
 30
0.0
 11
16.969300777091199
 21
22.377902676152711
 31
0.0
  0
LINE
  5
ECB
  8
5829SUBPLATE
  6
HIDDEN
 10
16.625550777091199
 20
23.877902676152711
 30
0.0
 11
16.625550777091199
 21
22.377902676152711
 31
0.0
  0
LINE
  5
ECC
  8
5829SUBPLATE
  6
HIDDEN
 10
17.000550777091188
 20
23.877902676152711
 30
0.0
 11
17.000550777091188
 21
22.377902676152711
 31
0.0
  0
LINE
  5
ECD
  8
5829SUBPLATE
  6
HIDDEN
 10
16.594300777091188
 20
23.877902676152711
 30
0.0
 11
16.594300777091188
 21
22.377902676152701
 31
0.0
  0
LINE
  5
ECE
  8
5829SUBPLATE
  6
HIDDEN
 10
17.031800777091188
 20
23.877902676152711
 30
0.0
 11
17.031800777091188
 21
22.377902676152711
 31
0.0
  0
LINE
  5
ECF
  8
5829SUBPLATE
  6
HIDDEN
 10
17.063050777091188
 20
23.877902676152711
 30
0.0
 11
17.063050777091171
 21
22.377902676152711
 31
0.0
  0
LINE
  5
ED0
  8
5829SUBPLATE
  6
HIDDEN
 10
16.563050777091188
 20
23.877902676152711
 30
0.0
 11
16.563050777091181
 21
22.377902676152711
 31
0.0
  0
LINE
  5
ED2
  8
5829SUBPLATE
  6
CONTINUOUS
 10
12.31305077709119
 20
23.877902676152701
 30
0.0
 11
12.31305077709119
 21
22.377902676152711
 31
0.0
  0
LINE
  5
ED3
  8
CENTRE
  6
CENTER2
 10
12.81305077709119
 20
24.223640108047
 30
0.0
 11
12.81305077709119
 21
22.011131376312029
 31
0.0
  0
LINE
  5
ED4
  8
5829SUBPLATE
  6
CONTINUOUS
 10
11.81305077709119
 20
23.877902676152711
 30
0.0
 11
11.81305077709119
 21
22.377902676152711
 31
0.0
  0
LINE
  5
ED5
  8
5829SUBPLATE
  6
HIDDEN
 10
14.325550777091181
 20
23.877902676152711
 30
0.0
 11
14.325550777091181
 21
22.377902676152711
 31
0.0
  0
LINE
  5
ED6
  8
5829SUBPLATE
  6
HIDDEN
 10
14.37555077709119
 20
23.877902676152711
 30
0.0
 11
14.37555077709121
 21
22.377902676152711
 31
0.0
  0
LINE
  5
ED7
  8
5829SUBPLATE
  6
HIDDEN
 10
13.87555077709119
 20
23.877902676152711
 30
0.0
 11
13.87555077709119
 21
22.377902676152711
 31
0.0
  0
LINE
  5
ED8
  8
5829SUBPLATE
  6
HIDDEN
 10
13.925550777091191
 20
23.877902676152711
 30
0.0
 11
13.925550777091191
 21
22.377902676152711
 31
0.0
  0
LINE
  5
ED9
  8
CENTRE
  6
CENTER2
 10
14.125550777091201
 20
24.223640108047
 30
0.0
 11
14.125550777091201
 21
22.011131376312029
 31
0.0
  0
LINE
  5
EDA
  8
5829SUBPLATE
  6
HIDDEN
 10
13.063050777091179
 20
23.877902676152711
 30
0.0
 11
13.06305077709121
 21
22.377902676152711
 31
0.0
  0
LINE
  5
EDB
  8
5829SUBPLATE
  6
HIDDEN
 10
13.0130507770912
 20
23.877902676152711
 30
0.0
 11
13.0130507770912
 21
22.377902676152711
 31
0.0
  0
LINE
  5
EDC
  8
5829SUBPLATE
  6
HIDDEN
 10
12.613050777091191
 20
23.877902676152711
 30
0.0
 11
12.613050777091191
 21
22.377902676152711
 31
0.0
  0
LINE
  5
EDD
  8
5829SUBPLATE
  6
HIDDEN
 10
12.563050777091201
 20
23.877902676152711
 30
0.0
 11
12.563050777091201
 21
22.377902676152711
 31
0.0
  0
LINE
  5
EDE
  8
5829SUBPLATE
  6
HIDDEN
 10
14.610050777091191
 20
23.377902676152711
 30
0.0
 11
14.610050777091191
 21
22.377902676152701
 31
0.0
  0
LINE
  5
EDF
  8
5829SUBPLATE
  6
HIDDEN
 10
15.0160507770912
 20
23.377902676152711
 30
0.0
 11
15.0160507770912
 21
22.377902676152711
 31
0.0
  0
LINE
  5
EE0
  8
5829SUBPLATE
  6
HIDDEN
 10
14.52405077709121
 20
23.377902676152711
 30
0.0
 11
15.1020507770912
 21
23.377902676152711
 31
0.0
  0
LINE
  5
EE1
  8
5829SUBPLATE
  6
HIDDEN
 10
18.610050777091189
 20
23.377902676152711
 30
0.0
 11
18.610050777091189
 21
22.377902676152711
 31
0.0
  0
LINE
  5
EE3
  8
5829SUBPLATE
  6
HIDDEN
 10
19.1020507770912
 20
23.877902676152711
 30
0.0
 11
19.102050777091211
 21
23.377902676152711
 31
0.0
  0
LINE
  5
EE4
  8
5829SUBPLATE
  6
CONTINUOUS
 10
21.313050777091188
 20
23.877902676152711
 30
0.0
 11
21.313050777091188
 21
22.377902676152711
 31
0.0
  0
LINE
  5
EE5
  8
5829SUBPLATE
  6
CONTINUOUS
 10
21.81305077709122
 20
23.877902676152711
 30
0.0
 11
21.81305077709121
 21
22.377902676152711
 31
0.0
  0
LINE
  5
EE6
  8
5829SUBPLATE
  6
HIDDEN
 10
20.563050777091199
 20
23.877902676152711
 30
0.0
 11
20.563050777091199
 21
22.377902676152711
 31
0.0
  0
LINE
  5
EE7
  8
5829SUBPLATE
  6
HIDDEN
 10
20.613050777091189
 20
23.877902676152711
 30
0.0
 11
20.613050777091189
 21
22.377902676152711
 31
0.0
  0
LINE
  5
EE8
  8
5829SUBPLATE
  6
HIDDEN
 10
21.013050777091198
 20
23.877902676152711
 30
0.0
 11
21.013050777091209
 21
22.377902676152711
 31
0.0
  0
LINE
  5
EE9
  8
5829SUBPLATE
  6
HIDDEN
 10
21.063050777091188
 20
23.877902676152711
 30
0.0
 11
21.06305077709121
 21
22.377902676152711
 31
0.0
  0
LINE
  5
EEA
  8
5829SUBPLATE
  6
HIDDEN
 10
19.300550777091189
 20
23.877902676152711
 30
0.0
 11
19.300550777091189
 21
22.377902676152711
 31
0.0
  0
LINE
  5
EEB
  8
5829SUBPLATE
  6
HIDDEN
 10
19.250550777091188
 20
23.877902676152711
 30
0.0
 11
19.250550777091171
 21
22.377902676152711
 31
0.0
  0
LINE
  5
EEC
  8
5829SUBPLATE
  6
HIDDEN
 10
19.750550777091199
 20
23.877902676152711
 30
0.0
 11
19.75055077709121
 21
22.377902676152711
 31
0.0
  0
LINE
  5
EED
  8
5829SUBPLATE
  6
HIDDEN
 10
19.700550777091198
 20
23.877902676152711
 30
0.0
 11
19.700550777091198
 21
22.377902676152711
 31
0.0
  0
LINE
  5
EEE
  8
CENTRE
  6
CENTER2
 10
20.81305077709121
 20
24.223640108047
 30
0.0
 11
20.813050777091188
 21
22.011131376312029
 31
0.0
  0
LINE
  5
EEF
  8
CENTRE
  6
CENTER2
 10
19.500550777091188
 20
24.223640108047
 30
0.0
 11
19.500550777091188
 21
22.011131376312029
 31
0.0
  0
LINE
  5
EF0
  8
5829SUBPLATE
  6
HIDDEN
 10
19.016050777091198
 20
23.377902676152711
 30
0.0
 11
19.016050777091209
 21
22.377902676152701
 31
0.0
  0
LINE
  5
F3C
  8
5829SUBPLATE
  6
HIDDEN2
 10
29.98158649931683
 20
23.377902676152711
 30
0.0
 11
30.559586499316818
 21
23.377902676152711
 31
0.0
  0
LINE
  5
F3D
  8
5829SUBPLATE
 10
27.958086499316831
 20
23.877902676152711
 30
0.0
 11
37.458086499316828
 21
23.877902676152711
 31
0.0
  0
LINE
  5
F3E
  8
5829SUBPLATE
  6
HIDDEN
 10
29.958086499316821
 20
22.377902676152711
 30
0.0
 11
29.958086499316821
 21
23.877902676152711
 31
0.0
  0
LINE
  5
F3F
  8
5829SUBPLATE
  6
HIDDEN
 10
30.020586499316821
 20
23.377902676152711
 30
0.0
 11
30.020586499316821
 21
22.377902676152711
 31
0.0
  0
LINE
  5
F40
  8
5829SUBPLATE
  6
HIDDEN
 10
30.070586499316821
 20
23.877902676152711
 30
0.0
 11
30.070586499316821
 21
22.377902676152711
 31
0.0
  0
LINE
  5
F41
  8
5829SUBPLATE
  6
HIDDEN
 10
29.208086499316821
 20
23.877902676152711
 30
0.0
 11
29.208086499316821
 21
22.377902676152711
 31
0.0
  0
LINE
  5
F42
  8
5829SUBPLATE
  6
HIDDEN
 10
29.258086499316811
 20
23.877902676152711
 30
0.0
 11
29.258086499316811
 21
22.377902676152711
 31
0.0
  0
LINE
  5
F43
  8
5829SUBPLATE
  6
HIDDEN
 10
29.65808649931682
 20
23.877902676152711
 30
0.0
 11
29.658086499316841
 21
22.377902676152711
 31
0.0
  0
LINE
  5
F44
  8
5829SUBPLATE
  6
HIDDEN
 10
29.708086499316821
 20
23.877902676152711
 30
0.0
 11
29.708086499316831
 21
22.377902676152711
 31
0.0
  0
LINE
  5
F45
  8
CENTRE
  6
CENTER
 10
29.458086499316831
 20
24.223640108047
 30
0.0
 11
29.458086499316821
 21
22.011131376312029
 31
0.0
  0
LINE
  5
F46
  8
CENTRE
  6
CENTER
 10
30.208086499316821
 20
22.011131376312029
 30
0.0
 11
30.208086499316821
 21
24.223640108047
 31
0.0
  0
LINE
  5
F47
  8
CENTRE
  6
CENTER
 10
29.458086499316831
 20
22.011131376312029
 30
0.0
 11
29.458086499316831
 21
24.223640108047
 31
0.0
  0
LINE
  5
F48
  8
5829SUBPLATE
 10
27.958086499316831
 20
22.377902676152711
 30
0.0
 11
27.958086499316831
 21
23.877902676152711
 31
0.0
  0
LINE
  5
F49
  8
5829SUBPLATE
  6
HIDDEN2
 10
29.981586499316801
 20
23.877902676152711
 30
0.0
 11
29.981586499316808
 21
23.377902676152711
 31
0.0
  0
LINE
  5
F4A
  8
5829SUBPLATE
  6
HIDDEN
 10
30.458086499316831
 20
22.377902676152711
 30
0.0
 11
30.458086499316831
 21
23.877902676152711
 31
0.0
  0
LINE
  5
F4B
  8
5829SUBPLATE
  6
HIDDEN
 10
32.489336499316828
 20
22.377902676152711
 30
0.0
 11
32.489336499316828
 21
23.877902676152711
 31
0.0
  0
LINE
  5
F4C
  8
5829SUBPLATE
  6
HIDDEN
 10
32.926836499316828
 20
22.377902676152711
 30
0.0
 11
32.926836499316828
 21
23.877902676152711
 31
0.0
  0
LINE
  5
F4D
  8
5829SUBPLATE
  6
HIDDEN
 10
31.958086499316831
 20
22.377902676152711
 30
0.0
 11
31.958086499316831
 21
23.877902676152711
 31
0.0
  0
LINE
  5
F4E
  8
5829SUBPLATE
  6
HIDDEN
 10
31.458086499316821
 20
22.377902676152711
 30
0.0
 11
31.458086499316821
 21
23.877902676152711
 31
0.0
  0
LINE
  5
F4F
  8
CENTRE
  6
CENTER
 10
30.270586499316821
 20
24.223640108047
 30
0.0
 11
30.270586499316821
 21
22.011131376312029
 31
0.0
  0
LINE
  5
F50
  8
5829SUBPLATE
  6
HIDDEN
 10
30.47058649931683
 20
23.377902676152711
 30
0.0
 11
30.47058649931683
 21
22.377902676152711
 31
0.0
  0
LINE
  5
F51
  8
5829SUBPLATE
  6
HIDDEN
 10
30.520586499316821
 20
23.877902676152711
 30
0.0
 11
30.520586499316821
 21
22.377902676152711
 31
0.0
  0
LINE
  5
F52
  8
CENTRE
  6
CENTER
 10
32.708086499316828
 20
22.011131376312029
 30
0.0
 11
32.708086499316828
 21
24.223640108047
 31
0.0
  0
LINE
  5
F53
  8
CENTRE
  6
CENTER
 10
30.270586499316821
 20
22.011131376312029
 30
0.0
 11
30.270586499316821
 21
24.223640108047
 31
0.0
  0
LINE
  5
F54
  8
5829SUBPLATE
  6
HIDDEN2
 10
30.559586499316801
 20
23.877902676152711
 30
0.0
 11
30.559586499316818
 21
23.377902676152711
 31
0.0
  0
LINE
  5
F55
  8
5829SUBPLATE
  6
HIDDEN
 10
33.520586499316842
 20
22.377902676152711
 30
0.0
 11
33.520586499316828
 21
23.877902676152711
 31
0.0
  0
LINE
  5
F56
  8
5829SUBPLATE
  6
HIDDEN
 10
33.895586499316828
 20
22.377902676152711
 30
0.0
 11
33.895586499316821
 21
23.877902676152711
 31
0.0
  0
LINE
  5
F57
  8
5829SUBPLATE
  6
HIDDEN
 10
34.270586499316821
 20
23.877902676152711
 30
0.0
 11
34.270586499316821
 21
22.377902676152711
 31
0.0
  0
LINE
  5
F58
  8
5829SUBPLATE
  6
HIDDEN
 10
34.320586499316803
 20
23.377902676152711
 30
0.0
 11
34.320586499316803
 21
22.377902676152711
 31
0.0
  0
LINE
  5
F59
  8
5829SUBPLATE
  6
HIDDEN
 10
34.720586499316823
 20
23.377902676152711
 30
0.0
 11
34.720586499316838
 21
22.377902676152711
 31
0.0
  0
LINE
  5
F5A
  8
5829SUBPLATE
  6
HIDDEN
 10
34.770586499316821
 20
23.877902676152711
 30
0.0
 11
34.770586499316828
 21
22.377902676152711
 31
0.0
  0
LINE
  5
F5B
  8
CENTRE
  6
CENTER
 10
34.520586499316828
 20
24.223640108047
 30
0.0
 11
34.520586499316821
 21
22.011131376312029
 31
0.0
  0
LINE
  5
F5C
  8
5829SUBPLATE
  6
HIDDEN
 10
33.583086499316821
 20
23.877902676152711
 30
0.0
 11
33.583086499316821
 21
22.377902676152711
 31
0.0
  0
LINE
  5
F5D
  8
5829SUBPLATE
  6
HIDDEN
 10
33.633086499316803
 20
23.877902676152711
 30
0.0
 11
33.633086499316803
 21
22.377902676152711
 31
0.0
  0
LINE
  5
F5E
  8
5829SUBPLATE
  6
HIDDEN
 10
34.03308649931683
 20
23.877902676152711
 30
0.0
 11
34.033086499316838
 21
22.377902676152711
 31
0.0
  0
LINE
  5
F5F
  8
5829SUBPLATE
  6
HIDDEN
 10
34.083086499316821
 20
23.877902676152711
 30
0.0
 11
34.083086499316828
 21
22.377902676152711
 31
0.0
  0
LINE
  5
F60
  8
CENTRE
  6
CENTER
 10
33.833086499316828
 20
24.223640108047
 30
0.0
 11
33.833086499316821
 21
22.011131376312029
 31
0.0
  0
LINE
  5
F61
  8
CENTRE
  6
CENTER
 10
34.520586499316828
 20
22.011131376312029
 30
0.0
 11
34.520586499316828
 21
24.223640108047
 31
0.0
  0
LINE
  5
F62
  8
CENTRE
  6
CENTER
 10
33.708086499316828
 20
22.011131376312029
 30
0.0
 11
33.708086499316828
 21
24.223640108047
 31
0.0
  0
LINE
  5
F63
  8
CENTRE
  6
CENTER
 10
33.833086499316828
 20
22.011131376312029
 30
0.0
 11
33.833086499316828
 21
24.223640108047
 31
0.0
  0
LINE
  5
F64
  8
5829SUBPLATE
  6
HIDDEN2
 10
34.231586499316833
 20
23.377902676152711
 30
0.0
 11
34.809586499316822
 21
23.377902676152711
 31
0.0
  0
LINE
  5
F65
  8
5829SUBPLATE
  6
HIDDEN2
 10
34.231586499316812
 20
23.877902676152711
 30
0.0
 11
34.231586499316819
 21
23.377902676152711
 31
0.0
  0
LINE
  5
F66
  8
5829SUBPLATE
  6
HIDDEN2
 10
34.809586499316808
 20
23.877902676152711
 30
0.0
 11
34.809586499316822
 21
23.377902676152711
 31
0.0
  0
LINE
  5
F67
  8
5829SUBPLATE
 10
37.458086499316828
 20
22.377902676152711
 30
0.0
 11
37.458086499316828
 21
23.877902676152711
 31
0.0
  0
LINE
  5
F68
  8
5829SUBPLATE
 10
27.958086499316831
 20
22.377902676152711
 30
0.0
 11
37.458086499316828
 21
22.377902676152711
 31
0.0
  0
DIMENSION
  5
FA2
  8
DIMENSIONS
  2
*D1
 10
39.208086499316828
 20
27.868108860615369
 30
0.0
 11
35.458086499316828
 21
27.868108860615369
 31
0.0
 70
     0
 13
31.708086499316831
 23
28.039095748850571
 33
0.0
 14
39.208086499316828
 24
28.002902676152711
 34
0.0
1001
ACAD
1000
DSTYLE
1002
{
1070
   270
1070
     5
1070
    41
1040
0.36
1070
    42
1040
0.125
1070
    43
1040
0.5
1070
    44
1040
0.36
1070
   140
1040
0.3135
1070
   141
1040
0.18
1070
   147
1040
0.18
1070
   277
1070
     5
1002
}
  0
DIMENSION
  5
FCC
  8
DIMENSIONS
  2
*D2
 10
47.530959279462451
 20
37.252902676152708
 30
0.0
 11
47.530959279462436
 21
28.002902676152718
 31
0.0
 70
     0
 13
43.208086499316842
 23
18.752902676152711
 33
0.0
 14
43.208086499316842
 24
37.252902676152708
 34
0.0
 50
90.0
1001
ACAD
1000
DSTYLE
1002
{
1070
   270
1070
     5
1070
    41
1040
0.36
1070
    42
1040
0.125
1070
    43
1040
0.5
1070
    44
1040
0.36
1070
   140
1040
0.3135
1070
   141
1040
0.18
1070
   147
1040
0.18
1070
   277
1070
     5
1002
}
  0
DIMENSION
  5
FE8
  8
DIMENSIONS
  2
*D3
 10
26.661661867810441
 20
23.877902676152711
 30
0.0
 11
26.661661867810441
 21
21.252902676152718
 31
0.0
 70
     0
 13
30.208086499316821
 23
18.627902676152711
 33
0.0
 14
27.958086499316831
 24
23.877902676152711
 34
0.0
 50
90.0
1001
ACAD
1000
DSTYLE
1002
{
1070
   270
1070
     5
1070
    41
1040
0.36
1070
    42
1040
0.125
1070
    43
1040
0.5
1070
    44
1040
0.36
1070
   140
1040
0.3135
1070
   141
1040
0.18
1070
   147
1040
0.18
1070
   277
1070
     5
1002
}
  0
SOLID
  5
1019
  8
DIMENSIONS
 10
31.950526899836589
 20
36.525707830421858
 30
0.0
 11
31.848944665991478
 21
36.58959092495428
 31
0.0
 12
31.708086499316831
 22
36.252902676152708
 32
0.0
 13
31.708086499316831
 23
36.252902676152708
 33
0.0
  0
LINE
  5
101A
  8
DIMENSIONS
 10
31.899735782914028
 20
36.557649377688072
 30
0.0
 11
33.966864104959988
 21
39.844645947515161
 31
0.0
  0
LINE
  5
101B
  8
DIMENSIONS
 10
33.966864104959988
 20
39.844645947515161
 30
0.0
 11
34.326864104959988
 21
39.844645947515161
 31
0.0
  0
INSERT
  5
101C
  8
DIMENSIONS
  2
*U27
 10
0.0
 20
0.0
 30
0.0
  0
DIMENSION
  5
1071
  8
DIMENSIONS
  2
*D4
 10
14.313050777091201
 20
40.176279350773477
 30
0.0
 11
16.818398093881171
 21
40.176279350773477
 31
0.0
 70
   128
 13
19.313050777091199
 23
37.252902676152708
 33
0.0
 14
14.313050777091201
 24
37.252902676152708
 34
0.0
1001
ACAD
1000
DSTYLE
1002
{
1070
   270
1070
     5
1070
    41
1040
0.36
1070
    42
1040
0.125
1070
    43
1040
0.5
1070
    44
1040
0.36
1070
   140
1040
0.3135
1070
   141
1040
0.18
1070
   147
1040
0.18
1070
   277
1070
     5
1070
   288
1070
     1
1002
}
  0
INSERT
  5
108B
  8
DIMENSIONS
  2
*U28
 10
0.0
 20
0.0
 30
0.0
  0
LINE
  5
10BA
  8
6083FLAMECUT
 10
19.313050777091199
 20
22.377902676152711
 30
0.0
 11
19.313050777091199
 21
18.752902676152711
 31
0.0
  0
LINE
  5
10BB
  8
6083FLAMECUT
 10
14.313050777091201
 20
22.377902676152711
 30
0.0
 11
14.313050777091201
 21
18.752902676152711
 31
0.0
  0
LINE
  5
10C0
  8
6083FLAMECUT
  6
HIDDEN
 10
14.313050777091201
 20
23.877902676152711
 30
0.0
 11
14.313050777091201
 21
22.377902676152711
 31
0.0
  0
LINE
  5
10C1
  8
6083FLAMECUT
  6
HIDDEN
 10
19.313050777091199
 20
23.877902676152701
 30
0.0
 11
19.313050777091199
 21
22.377902676152711
 31
0.0
  0
CIRCLE
  5
12EF
  8
5829SUBPLATE
  6
HIDDEN2
 10
18.813050777091199
 20
10.34193675269246
 30
0.0
 40
0.289
  0
CIRCLE
  5
12F0
  8
5829SUBPLATE
  6
HIDDEN2
 10
18.813050777091199
 20
6.091936752692467
 30
0.0
 40
0.289
  0
CIRCLE
  5
12F1
  8
5829SUBPLATE
  6
CONTINUOUS
 10
18.813050777091199
 20
10.34193675269246
 30
0.0
 40
0.203
  0
CIRCLE
  5
12F2
  8
5829SUBPLATE
  6
CONTINUOUS
 10
18.813050777091199
 20
6.091936752692467
 30
0.0
 40
0.203
  0
LINE
  5
12F3
  8
CENTRE
  6
CENTER2
 10
19.304361075348979
 20
10.34193675269246
 30
0.0
 11
18.321740478833409
 21
10.34193675269246
 31
0.0
  0
LINE
  5
12F4
  8
CENTRE
  6
CENTER2
 10
19.304361075348979
 20
6.091936752692467
 30
0.0
 11
18.321740478833409
 21
6.091936752692467
 31
0.0
  0
LINE
  5
12F5
  8
5829SUBPLATE
  6
CONTINUOUS
 10
21.313050777091188
 20
3.7794367526924679
 30
0.0
 11
12.31305077709119
 21
3.7794367526924679
 31
0.0
  0
LINE
  5
12F6
  8
5829SUBPLATE
  6
CONTINUOUS
 10
11.81305077709119
 20
13.279436752692471
 30
0.0
 11
21.813050777091199
 21
13.279436752692471
 31
0.0
  0
LINE
  5
12F9
  8
CENTRE
  6
CENTER
 10
16.813050777091199
 20
13.804162099209391
 30
0.0
 11
16.813050777091199
 21
3.266236997074468
 31
0.0
  0
LINE
  5
12FA
  8
5829SUBPLATE
  6
CONTINUOUS
 10
11.81305077709119
 20
13.279436752692471
 30
0.0
 11
11.81305077709119
 21
4.279436752692467
 31
0.0
  0
LINE
  5
12FE
  8
CENTRE
  6
CENTER2
 10
14.125550777091201
 20
5.7233953820097474
 30
0.0
 11
14.125550777091201
 21
4.8354781233751876
 31
0.0
  0
CIRCLE
  5
12FF
  8
5829SUBPLATE
  6
HIDDEN2
 10
14.125550777091201
 20
5.279436752692467
 30
0.0
 40
0.25
  0
LINE
  5
1301
  8
CENTRE
  6
CENTER2
 10
14.56950940640847
 20
5.279436752692467
 30
0.0
 11
13.681592147773911
 21
5.279436752692467
 31
0.0
  0
LINE
  5
1304
  8
5829SUBPLATE
  6
CONTINUOUS
 10
11.81305077709119
 20
4.279436752692467
 30
0.0
 11
12.31305077709119
 21
3.7794367526924679
 31
0.0
  0
CIRCLE
  5
1305
  8
5829SUBPLATE
  6
CONTINUOUS
 10
14.125550777091201
 20
5.279436752692467
 30
0.0
 40
0.2
  0
LINE
  5
1308
  8
CENTRE
  6
CENTER2
 10
15.30436107534898
 20
6.091936752692467
 30
0.0
 11
14.32174047883341
 21
6.091936752692467
 31
0.0
  0
CIRCLE
  5
1313
  8
5829SUBPLATE
  6
CONTINUOUS
 10
16.813050777091199
 20
6.029436752692467
 30
0.0
 40
0.25
  0
LINE
  5
1314
  8
CENTRE
  6
CENTER2
 10
17.257009406408471
 20
6.029436752692467
 30
0.0
 11
16.36909214777392
 21
6.029436752692467
 31
0.0
  0
LINE
  5
1316
  8
CENTRE
  6
CENTER2
 10
14.81305077709119
 20
6.5832470509502548
 30
0.0
 11
14.81305077709119
 21
5.6006264544346811
 31
0.0
  0
CIRCLE
  5
1317
  8
5829SUBPLATE
  6
HIDDEN2
 10
14.81305077709119
 20
6.091936752692467
 30
0.0
 40
0.289
  0
CIRCLE
  5
1318
  8
5829SUBPLATE
  6
CONTINUOUS
 10
14.81305077709119
 20
6.091936752692467
 30
0.0
 40
0.203
  0
LINE
  5
131A
  8
CENTRE
  6
CONTINUOUS
 10
18.813050777091199
 20
6.5832470509502548
 30
0.0
 11
18.813050777091199
 21
5.6006264544346811
 31
0.0
  0
CIRCLE
  5
131B
  8
5829SUBPLATE
  6
CONTINUOUS
 10
16.813050777091199
 20
8.5294367526924688
 30
0.0
 40
0.21875
  0
CIRCLE
  5
131C
  8
5829SUBPLATE
  6
CONTINUOUS
 10
16.813050777091199
 20
7.529436752692467
 30
0.0
 40
0.25
  0
LINE
  5
131D
  8
CENTRE
  6
CENTER2
 10
17.257009406408471
 20
8.5294367526924688
 30
0.0
 11
16.36909214777392
 21
8.5294367526924688
 31
0.0
  0
LINE
  5
131E
  8
CENTRE
  6
CENTER2
 10
17.257009406408471
 20
7.529436752692467
 30
0.0
 11
16.36909214777392
 21
7.529436752692467
 31
0.0
  0
LINE
  5
1325
  8
CENTRE
  6
CENTER2
 10
15.30436107534898
 20
10.34193675269246
 30
0.0
 11
14.32174047883341
 21
10.34193675269246
 31
0.0
  0
CIRCLE
  5
1328
  8
5829SUBPLATE
  6
HIDDEN2
 10
12.81305077709119
 20
9.654436752692467
 30
0.0
 40
0.25
  0
LINE
  5
1329
  8
CENTRE
  6
CENTER2
 10
12.81305077709119
 20
10.098395382009739
 30
0.0
 11
12.81305077709119
 21
9.2104781233751876
 31
0.0
  0
LINE
  5
132A
  8
CENTRE
  6
CENTER2
 10
13.25700940640847
 20
9.654436752692467
 30
0.0
 11
12.36909214777392
 21
9.654436752692467
 31
0.0
  0
CIRCLE
  5
132B
  8
5829SUBPLATE
  6
CONTINUOUS
 10
12.81305077709119
 20
9.654436752692467
 30
0.0
 40
0.2
  0
LINE
  5
132C
  8
CENTRE
  6
CENTER2
 10
14.81305077709119
 20
10.83324705095025
 30
0.0
 11
14.813050777091179
 21
9.8506264544346802
 31
0.0
  0
LINE
  5
132D
  8
CENTRE
  6
CENTER2
 10
18.813050777091199
 20
10.83324705095025
 30
0.0
 11
18.813050777091199
 21
9.8506264544346802
 31
0.0
  0
CIRCLE
  5
132E
  8
5829SUBPLATE
  6
CONTINUOUS
 10
16.813050777091199
 20
9.529436752692467
 30
0.0
 40
0.15625
  0
CIRCLE
  5
132F
  8
5829SUBPLATE
  6
HIDDEN2
 10
16.813050777091199
 20
9.529436752692467
 30
0.0
 40
0.1875
  0
LINE
  5
1330
  8
CENTRE
  6
CENTER2
 10
17.257009406408471
 20
9.529436752692467
 30
0.0
 11
16.36909214777392
 21
9.529436752692467
 31
0.0
  0
CIRCLE
  5
1332
  8
5829SUBPLATE
  6
HIDDEN2
 10
14.81305077709119
 20
10.34193675269246
 30
0.0
 40
0.289
  0
CIRCLE
  5
1333
  8
5829SUBPLATE
  6
CONTINUOUS
 10
14.81305077709119
 20
10.34193675269246
 30
0.0
 40
0.203
  0
LINE
  5
1337
  8
5829SUBPLATE
  6
CONTINUOUS
 10
21.813050777091199
 20
13.279436752692471
 30
0.0
 11
21.813050777091199
 21
4.2794367526924528
 31
0.0
  0
LINE
  5
1339
  8
CENTRE
  6
CENTER2
 10
19.500550777091188
 20
5.7233953820097474
 30
0.0
 11
19.500550777091188
 21
4.8354781233751876
 31
0.0
  0
CIRCLE
  5
133A
  8
5829SUBPLATE
  6
HIDDEN2
 10
19.500550777091188
 20
5.279436752692467
 30
0.0
 40
0.25
  0
LINE
  5
133C
  8
5829SUBPLATE
  6
CONTINUOUS
 10
21.313050777091188
 20
3.7794367526924679
 30
0.0
 11
21.813050777091199
 21
4.279436752692467
 31
0.0
  0
CIRCLE
  5
133D
  8
5829SUBPLATE
  6
CONTINUOUS
 10
19.500550777091188
 20
5.279436752692467
 30
0.0
 40
0.2
  0
LINE
  5
133E
  8
CENTRE
  6
CENTER2
 10
19.944509406408471
 20
5.279436752692467
 30
0.0
 11
19.05659214777392
 21
5.279436752692467
 31
0.0
  0
LINE
  5
133F
  8
CENTRE
  6
CENTER2
 10
20.813050777091188
 20
10.098395382009739
 30
0.0
 11
20.813050777091188
 21
9.2104781233751876
 31
0.0
  0
CIRCLE
  5
1340
  8
5829SUBPLATE
  6
HIDDEN2
 10
20.813050777091188
 20
9.654436752692467
 30
0.0
 40
0.25
  0
LINE
  5
1341
  8
CENTRE
  6
CENTER2
 10
21.257009406408478
 20
9.654436752692467
 30
0.0
 11
20.369092147773909
 21
9.654436752692467
 31
0.0
  0
CIRCLE
  5
1342
  8
5829SUBPLATE
  6
CONTINUOUS
 10
20.813050777091188
 20
9.654436752692467
 30
0.0
 40
0.2
  0
DIMENSION
  5
14FE
  8
DIMENSIONS
  2
*D5
 10
20.813050777091188
 20
13.601833473927201
 30
0.0
 11
18.929338914018071
 21
13.601833473927201
 31
0.0
 70
   128
 13
16.813050777091199
 23
13.804162099209391
 33
0.0
 14
20.813050777091188
 24
10.098395382009739
 34
0.0
1001
ACAD
1000
DSTYLE
1002
{
1070
   270
1070
     5
1070
    41
1040
0.36
1070
    42
1040
0.125
1070
    43
1040
0.5
1070
    44
1040
0.36
1070
   140
1040
0.3135
1070
   141
1040
0.18
1070
   147
1040
0.18
1070
   277
1070
     5
1070
   288
1070
     1
1002
}
  0
DIMENSION
  5
150C
  8
DIMENSIONS
  2
*D6
 10
16.813050777091199
 20
13.601833473927201
 30
0.0
 11
14.92808179685076
 21
13.601833473927201
 31
0.0
 70
   128
 13
12.81305077709119
 23
10.098395382009739
 33
0.0
 14
16.813050777091199
 24
13.679162099209391
 34
0.0
1001
ACAD
1000
DSTYLE
1002
{
1070
   270
1070
     5
1070
    41
1040
0.36
1070
    42
1040
0.125
1070
    43
1040
0.5
1070
    44
1040
0.36
1070
   140
1040
0.3135
1070
   141
1040
0.18
1070
   147
1040
0.18
1070
   277
1070
     5
1070
   288
1070
     1
1002
}
  0
DIMENSION
  5
151A
  8
DIMENSIONS
  2
*D7
 10
17.337946029121952
 20
7.529436752692467
 30
0.0
 11
17.337946029121952
 21
6.7382437431805169
 31
0.0
 70
   128
 13
17.257009406408471
 23
6.029436752692467
 33
0.0
 14
17.257009406408471
 24
7.529436752692467
 34
0.0
 50
90.0
1001
ACAD
1000
DSTYLE
1002
{
1070
   270
1070
     5
1070
    41
1040
0.36
1070
    42
1040
0.125
1070
    43
1040
0.5
1070
    44
1040
0.36
1070
   140
1040
0.3135
1070
   141
1040
0.18
1070
   147
1040
0.18
1070
   277
1070
     5
1070
   288
1070
     1
1002
}
  0
DIMENSION
  5
1528
  8
DIMENSIONS
  2
*D8
 10
15.86864934956253
 20
8.5294367526924688
 30
0.0
 11
15.86864934956253
 21
8.0294367526924706
 31
0.0
 70
   128
 13
16.36909214777392
 23
7.529436752692467
 33
0.0
 14
16.36909214777392
 24
8.5294367526924688
 34
0.0
 50
90.0
1001
ACAD
1000
DSTYLE
1002
{
1070
   270
1070
     5
1070
    41
1040
0.36
1070
    42
1040
0.125
1070
    43
1040
0.5
1070
    44
1040
0.36
1070
   140
1040
0.3135
1070
   141
1040
0.18
1070
   147
1040
0.18
1070
   277
1070
     5
1070
   288
1070
     1
1002
}
  0
DIMENSION
  5
1536
  8
DIMENSIONS
  2
*D9
 10
17.337946029121952
 20
9.529436752692467
 30
0.0
 11
17.337946029121952
 21
9.0294367526924706
 31
0.0
 70
   128
 13
17.257009406408471
 23
8.5294367526924688
 33
0.0
 14
17.257009406408471
 24
9.529436752692467
 34
0.0
 50
90.0
1001
ACAD
1000
DSTYLE
1002
{
1070
   270
1070
     5
1070
    41
1040
0.36
1070
    42
1040
0.125
1070
    43
1040
0.5
1070
    44
1040
0.36
1070
   140
1040
0.3135
1070
   141
1040
0.18
1070
   147
1040
0.18
1070
   277
1070
     5
1070
   288
1070
     1
1002
}
  0
DIMENSION
  5
1544
  8
DIMENSIONS
  2
*D10
 10
14.125550777091201
 20
3.291428095286093
 30
0.0
 11
15.26893641913011
 21
3.291428095286093
 31
0.0
 70
   128
 13
16.813050777091199
 23
3.266236997074468
 33
0.0
 14
14.125550777091201
 24
4.8354781233751876
 34
0.0
1001
ACAD
1000
DSTYLE
1002
{
1070
   270
1070
     5
1070
    41
1040
0.36
1070
    42
1040
0.125
1070
    43
1040
0.5
1070
    44
1040
0.36
1070
   140
1040
0.3135
1070
   141
1040
0.18
1070
   147
1040
0.18
1070
   277
1070
     5
1070
   288
1070
     1
1002
}
  0
DIMENSION
  5
1552
  8
DIMENSIONS
  2
*D11
 10
19.500550777091188
 20
3.321400393082043
 30
0.0
 11
18.1475584852057
 21
3.321400393082043
 31
0.0
 70
   128
 13
16.813050777091199
 23
3.266236997074468
 33
0.0
 14
19.500550777091188
 24
4.8354781233751876
 34
0.0
1001
ACAD
1000
DSTYLE
1002
{
1070
   270
1070
     5
1070
    41
1040
0.36
1070
    42
1040
0.125
1070
    43
1040
0.5
1070
    44
1040
0.36
1070
   140
1040
0.3135
1070
   141
1040
0.18
1070
   147
1040
0.18
1070
   277
1070
     5
1070
   288
1070
     1
1002
}
  0
DIMENSION
  5
1560
  8
DIMENSIONS
  2
*D12
 10
14.81305077709119
 20
4.849988181258424
 30
0.0
 11
15.838663703040901
 21
4.849988181258424
 31
0.0
 70
   128
 13
16.813050777091199
 23
3.7794367526924679
 33
0.0
 14
14.81305077709119
 24
5.6006264544346811
 34
0.0
1001
ACAD
1000
DSTYLE
1002
{
1070
   270
1070
     5
1070
    75
1070
     1
1070
    41
1040
0.36
1070
    42
1040
0.125
1070
    43
1040
0.5
1070
    44
1040
0.36
1070
   140
1040
0.3135
1070
   141
1040
0.18
1070
   147
1040
0.18
1070
   277
1070
     5
1070
   288
1070
     1
1002
}
  0
DIMENSION
  5
156E
  8
DIMENSIONS
  2
*D13
 10
16.813050777091199
 20
4.8799604790543754
 30
0.0
 11
17.547845554773279
 21
4.8799604790543754
 31
0.0
 70
   128
 13
18.813050777091199
 23
5.6006264544346811
 33
0.0
 14
16.813050777091199
 24
3.7794367526924679
 34
0.0
1001
ACAD
1000
DSTYLE
1002
{
1070
   270
1070
     5
1070
    76
1070
     1
1070
    75
1070
     0
1070
    41
1040
0.36
1070
    42
1040
0.125
1070
    43
1040
0.5
1070
    44
1040
0.36
1070
   140
1040
0.3135
1070
   141
1040
0.18
1070
   147
1040
0.18
1070
   277
1070
     5
1070
   288
1070
     1
1002
}
  0
DIMENSION
  5
157C
  8
DIMENSIONS
  2
*D14
 10
10.921017846838589
 20
5.279436752692467
 30
0.0
 11
10.921017846838589
 21
4.5502651032017658
 31
0.0
 70
   128
 13
12.31305077709119
 23
3.7794367526924679
 33
0.0
 14
13.681592147773911
 24
5.279436752692467
 34
0.0
 50
90.0
1001
ACAD
1000
DSTYLE
1002
{
1070
   270
1070
     5
1070
    41
1040
0.36
1070
    42
1040
0.125
1070
    43
1040
0.5
1070
    44
1040
0.36
1070
   140
1040
0.3135
1070
   141
1040
0.18
1070
   147
1040
0.18
1070
   277
1070
     5
1070
   288
1070
     1
1002
}
  0
DIMENSION
  5
15B4
  8
DIMENSIONS
  2
*D15
 10
9.8115490988820984
 20
6.0294367526924688
 30
0.0
 11
9.8115490988820966
 21
5.1197389615191309
 31
0.0
 70
   128
 13
12.31305077709119
 23
3.7794367526924679
 33
0.0
 14
16.36909214777392
 24
6.029436752692467
 34
0.0
 50
90.0
1001
ACAD
1000
DSTYLE
1002
{
1070
   270
1070
     5
1070
    41
1040
0.36
1070
    42
1040
0.125
1070
    43
1040
0.5
1070
    44
1040
0.36
1070
   140
1040
0.3135
1070
   141
1040
0.18
1070
   147
1040
0.18
1070
   277
1070
     5
1070
   288
1070
     1
1002
}
  0
DIMENSION
  5
15C2
  8
DIMENSIONS
  2
*D16
 10
8.6121232380172916
 20
6.0919367526924688
 30
0.0
 11
8.6121232380172899
 21
5.1796836572082006
 31
0.0
 70
   128
 13
12.31305077709119
 23
3.7794367526924679
 33
0.0
 14
14.32174047883341
 24
6.091936752692467
 34
0.0
 50
90.0
1001
ACAD
1000
DSTYLE
1002
{
1070
   270
1070
     5
1070
    41
1040
0.36
1070
    42
1040
0.125
1070
    43
1040
0.5
1070
    44
1040
0.36
1070
   140
1040
0.3135
1070
   141
1040
0.18
1070
   147
1040
0.18
1070
   277
1070
     5
1070
   288
1070
     1
1002
}
  0
DIMENSION
  5
15D0
  8
DIMENSIONS
  2
*D17
 10
7.8324964284551593
 20
9.6544367526924688
 30
0.0
 11
7.8324964284551566
 21
6.9480499278493379
 31
0.0
 70
   128
 13
12.31305077709119
 23
3.7794367526924679
 33
0.0
 14
12.36909214777392
 24
9.654436752692467
 34
0.0
 50
90.0
1001
ACAD
1000
DSTYLE
1002
{
1070
   270
1070
     5
1070
    41
1040
0.36
1070
    42
1040
0.125
1070
    43
1040
0.5
1070
    44
1040
0.36
1070
   140
1040
0.3135
1070
   141
1040
0.18
1070
   147
1040
0.18
1070
   277
1070
     5
1070
   288
1070
     1
1002
}
  0
DIMENSION
  5
15DE
  8
DIMENSIONS
  2
*D18
 10
6.7230275071551953
 20
10.34193675269246
 30
0.0
 11
6.7230275071551926
 21
7.847219262116468
 31
0.0
 70
   128
 13
12.31305077709119
 23
3.7794367526924679
 33
0.0
 14
14.32174047883341
 24
10.34193675269246
 34
0.0
 50
90.0
1001
ACAD
1000
DSTYLE
1002
{
1070
   270
1070
     5
1070
    41
1040
0.36
1070
    42
1040
0.125
1070
    43
1040
0.5
1070
    44
1040
0.36
1070
   140
1040
0.3135
1070
   141
1040
0.18
1070
   147
1040
0.18
1070
   277
1070
     5
1070
   288
1070
     1
1002
}
  0
DIMENSION
  5
15EC
  8
DIMENSIONS
  2
*D19
 10
21.813050777091199
 20
14.351210686558
 30
0.0
 11
16.798204391732781
 21
14.351210686558
 31
0.0
 70
   128
 13
11.81305077709119
 23
13.279436752692471
 33
0.0
 14
21.813050777091199
 24
13.279436752692471
 34
0.0
1001
ACAD
1000
DSTYLE
1002
{
1070
   270
1070
     5
1070
    41
1040
0.36
1070
    42
1040
0.125
1070
    43
1040
0.5
1070
    44
1040
0.36
1070
   140
1040
0.3135
1070
   141
1040
0.18
1070
   147
1040
0.18
1070
   277
1070
     5
1070
   288
1070
     1
1002
}
  0
LINE
  5
160A
  8
0
 10
11.73100784499632
 20
1.901704719874985
 30
0.0
 11
22.231592655480618
 21
1.901704719874985
 31
0.0
  0
LINE
  5
1721
  8
0
 10
22.91374199375808
 20
41.882349237571631
 30
0.0
 11
31.676432290320491
 21
41.882349237571631
 31
0.0
  0
TEXT
  5
1722
  8
0
 10
23.03903963422011
 20
42.132826674586227
 30
0.0
 40
0.5
  1
UNX5 C-FRAME CAGE
  0
DIMENSION
  5
1748
  8
DIMENSIONS
  2
*D20
 10
5.7344027313203592
 20
13.279436752692471
 30
0.0
 11
5.7344027313203574
 21
8.6562735105860042
 31
0.0
 70
   128
 13
12.31305077709119
 23
3.7794367526924679
 33
0.0
 14
11.81305077709119
 24
13.279436752692471
 34
0.0
 50
90.0
1001
ACAD
1000
DSTYLE
1002
{
1070
   270
1070
     5
1070
    41
1040
0.36
1070
    42
1040
0.125
1070
    43
1040
0.5
1070
    44
1040
0.36
1070
   140
1040
0.3135
1070
   141
1040
0.18
1070
   147
1040
0.18
1070
   277
1070
     5
1070
   288
1070
     1
1002
}
  0
SOLID
  5
1756
  8
DIMENSIONS
 10
19.976922345916829
 20
5.0410699010858417
 30
0.0
 11
20.03929151028516
 21
5.1435886180891108
 31
0.0
 12
19.700550777091191
 22
5.279436752692467
 32
0.0
 13
19.700550777091191
 23
5.279436752692467
 33
0.0
  0
LINE
  5
1757
  8
DIMENSIONS
 10
20.00810692810099
 20
5.0923292595874772
 30
0.0
 11
22.707487559905609
 21
3.4501109482488479
 31
0.0
  0
LINE
  5
1758
  8
DIMENSIONS
 10
22.707487559905609
 20
3.4501109482488479
 30
0.0
 11
23.067487559905612
 21
3.4501109482488479
 31
0.0
  0
INSERT
  5
1759
  8
DIMENSIONS
  2
*U29
 10
0.0
 20
0.0
 30
0.0
  0
SOLID
  5
175A
  8
DIMENSIONS
 10
19.417978657648732
 20
5.909208609577008
 30
0.0
 11
19.460164656466851
 21
6.0215489028992071
 31
0.0
 12
19.1020507770912
 22
6.091936752692467
 32
0.0
 13
19.1020507770912
 23
6.091936752692467
 33
0.0
  0
LINE
  5
175B
  8
DIMENSIONS
 10
19.439071657057791
 20
5.9653787562381071
 30
0.0
 11
22.743910489466291
 21
4.7243465054302609
 31
0.0
  0
LINE
  5
175C
  8
DIMENSIONS
 10
22.743910489466291
 20
4.7243465054302609
 30
0.0
 11
23.10391048946628
 21
4.7243465054302609
 31
0.0
  0
INSERT
  5
175D
  8
DIMENSIONS
  2
*U30
 10
0.0
 20
0.0
 30
0.0
  0
SOLID
  5
17FC
  8
DIMENSIONS
 10
17.425378048509589
 20
6.0732425558069139
 30
0.0
 11
17.391585503098501
 21
6.1883862220445316
 31
0.0
 12
17.063050777091188
 22
6.029436752692467
 32
0.0
 13
17.063050777091188
 23
6.029436752692467
 33
0.0
  0
LINE
  5
17FD
  8
DIMENSIONS
 10
17.408481775804049
 20
6.1308143889257218
 30
0.0
 11
22.663101751441321
 21
7.672948576126954
 31
0.0
  0
LINE
  5
17FE
  8
DIMENSIONS
 10
22.663101751441321
 20
7.672948576126954
 30
0.0
 11
23.023101751441331
 21
7.672948576126954
 31
0.0
  0
INSERT
  5
17FF
  8
DIMENSIONS
  2
*U31
 10
0.0
 20
0.0
 30
0.0
  0
SOLID
  5
1800
  8
DIMENSIONS
 10
17.396766058107112
 20
8.5288505334699192
 30
0.0
 11
17.37722833023248
 21
8.6472493391627854
 31
0.0
 12
17.031800777091188
 22
8.5294367526924688
 32
0.0
 13
17.031800777091188
 23
8.5294367526924688
 33
0.0
  0
LINE
  5
1801
  8
DIMENSIONS
 10
17.386997194169791
 20
8.5880499363163523
 30
0.0
 11
22.995581804079841
 21
9.5135575816764355
 31
0.0
  0
INSERT
  5
1802
  8
DIMENSIONS
  2
*U32
 10
0.0
 20
0.0
 30
0.0
  0
SOLID
  5
1803
  8
DIMENSIONS
 10
17.362883658021211
 20
9.5731961333662738
 30
0.0
 11
17.329105865319981
 21
9.688344128226074
 31
0.0
 12
17.000550777091188
 22
9.529436752692467
 32
0.0
 13
17.000550777091188
 23
9.529436752692467
 33
0.0
  0
LINE
  5
1804
  8
DIMENSIONS
 10
17.345994761670589
 20
9.6307701307961722
 30
0.0
 11
23.046732688081761
 21
11.303038450855389
 31
0.0
  0
LINE
  5
1805
  8
DIMENSIONS
 10
23.046732688081761
 20
11.303038450855389
 30
0.0
 11
23.40673268808175
 21
11.303038450855389
 31
0.0
  0
INSERT
  5
1806
  8
DIMENSIONS
  2
*U33
 10
0.0
 20
0.0
 30
0.0
  0
DIMENSION
  5
1935
  8
DIMENSIONS
  2
*D21
 10
26.63850313931361
 20
35.002902676152708
 30
0.0
 11
26.638503139313599
 21
27.73819026000573
 31
0.0
 70
   128
 13
27.958086499316831
 23
23.877902676152711
 33
0.0
 14
28.708086499316821
 24
35.002902676152708
 34
0.0
 50
90.0
1001
ACAD
1000
DSTYLE
1002
{
1070
   270
1070
     5
1070
    41
1040
0.36
1070
    42
1040
0.125
1070
    43
1040
0.5
1070
    44
1040
0.36
1070
   140
1040
0.3135
1070
   141
1040
0.18
1070
   147
1040
0.18
1070
   277
1070
     5
1070
   288
1070
     1
1002
}
  0
DIMENSION
  5
1943
  8
DIMENSIONS
  2
*D22
 10
45.708086499316842
 20
16.52107087002026
 30
0.0
 11
37.980675401882031
 21
16.52107087002026
 31
0.0
 70
   128
 13
30.208086499316821
 23
18.627902676152711
 33
0.0
 14
45.708086499316842
 24
21.252902676152711
 34
0.0
1001
ACAD
1000
DSTYLE
1002
{
1070
   270
1070
     5
1070
    41
1040
0.36
1070
    42
1040
0.125
1070
    43
1040
0.5
1070
    44
1040
0.36
1070
   140
1040
0.3135
1070
   141
1040
0.18
1070
   147
1040
0.18
1070
   277
1070
     5
1070
   288
1070
     1
1002
}
  0
DIMENSION
  5
1951
  8
DIMENSIONS
  2
*D23
 10
45.708086499316842
 20
15.062036787050159
 30
0.0
 11
36.575288221199777
 21
15.062036787050159
 31
0.0
 70
   128
 13
27.958086499316831
 23
22.377902676152711
 33
0.0
 14
45.708086499316842
 24
21.252902676152711
 34
0.0
1001
ACAD
1000
DSTYLE
1002
{
1070
   270
1070
     5
1070
    41
1040
0.36
1070
    42
1040
0.125
1070
    43
1040
0.5
1070
    44
1040
0.36
1070
   140
1040
0.3135
1070
   141
1040
0.18
1070
   147
1040
0.18
1070
   277
1070
     5
1070
   288
1070
     1
1002
}
  0
LINE
  5
196C
  8
6083FLAMECUT
 10
12.813050777091201
 20
37.252902676152708
 30
0.0
 11
12.813050777091201
 21
23.877902676152701
 31
0.0
  0
LINE
  5
196D
  8
6083FLAMECUT
 10
12.813050777091201
 20
22.377902676152711
 30
0.0
 11
12.813050777091201
 21
18.752902676152711
 31
0.0
  0
LINE
  5
196E
  8
6083FLAMECUT
 10
20.813050777091199
 20
37.252902676152708
 30
0.0
 11
20.813050777091199
 21
23.877902676152701
 31
0.0
  0
LINE
  5
196F
  8
6083FLAMECUT
 10
20.813050777091199
 20
22.377902676152711
 30
0.0
 11
20.813050777091199
 21
18.752902676152711
 31
0.0
  0
LINE
  5
1970
  8
6083FLAMECUT
  6
HIDDEN
 10
20.813050777091199
 20
23.877902676152701
 30
0.0
 11
20.813050777091199
 21
22.377902676152711
 31
0.0
  0
LINE
  5
1971
  8
6083FLAMECUT
  6
HIDDEN
 10
12.813050777091201
 20
23.877902676152701
 30
0.0
 11
12.813050777091201
 21
22.377902676152711
 31
0.0
  0
DIMENSION
  5
1973
  8
DIMENSIONS
  2
*D24
 10
12.813050777091201
 20
16.125368931262241
 30
0.0
 11
16.79829881107522
 21
16.125368931262241
 31
0.0
 70
   128
 13
20.813050777091199
 23
18.752902676152711
 33
0.0
 14
12.813050777091201
 24
18.752902676152711
 34
0.0
1001
ACAD
1000
DSTYLE
1002
{
1070
   270
1070
     5
1070
    41
1040
0.36
1070
    42
1040
0.125
1070
    43
1040
0.5
1070
    44
1040
0.36
1070
   140
1040
0.3135
1070
   141
1040
0.18
1070
   147
1040
0.18
1070
   277
1070
     5
1070
   288
1070
     1
1002
}
  0
LINE
  5
1992
  8
0
  6
HIDDEN
 10
15.33665077709122
 20
35.002902676152708
 30
0.0
 11
15.33665077709121
 21
36.252902676152708
 31
0.0
  0
LINE
  5
1993
  8
0
  6
HIDDEN
 10
15.27415077709122
 20
35.002902676152708
 30
0.0
 11
15.27415077709121
 21
36.252902676152708
 31
0.0
  0
LINE
  5
1994
  8
0
  6
HIDDEN
 10
18.351950777091211
 20
35.002902676152708
 30
0.0
 11
18.351950777091211
 21
36.252902676152708
 31
0.0
  0
LINE
  5
1995
  8
0
  6
HIDDEN
 10
18.289450777091211
 20
35.002902676152708
 30
0.0
 11
18.289450777091211
 21
36.252902676152708
 31
0.0
  0
LINE
  5
1996
  8
0
  6
HIDDEN
 10
30.231686499316851
 20
35.002902676152708
 30
0.0
 11
30.23168649931684
 21
36.252902676152708
 31
0.0
  0
LINE
  5
1997
  8
0
  6
HIDDEN
 10
30.169186499316851
 20
35.002902676152708
 30
0.0
 11
30.16918649931684
 21
36.252902676152708
 31
0.0
  0
LINE
  5
1998
  8
0
  6
HIDDEN
 10
33.24698649931684
 20
35.002902676152708
 30
0.0
 11
33.24698649931684
 21
36.252902676152708
 31
0.0
  0
LINE
  5
1999
  8
0
  6
HIDDEN
 10
33.18448649931684
 20
35.002902676152708
 30
0.0
 11
33.18448649931684
 21
36.252902676152708
 31
0.0
  0
DIMENSION
  5
1ACC
  8
DIMENSIONS
  2
*D25
 10
30.708086499316821
 20
17.936324258796141
 30
0.0
 11
29.194882672090731
 21
17.936324258796141
 31
0.0
 70
   128
 13
31.708086499316831
 23
16.933628637942601
 33
0.0
 14
30.708086499316821
 24
18.252902676152711
 34
0.0
1001
ACAD
1000
DSTYLE
1002
{
1070
   270
1070
     5
1070
    41
1040
0.36
1070
    42
1040
0.125
1070
    43
1040
0.5
1070
    44
1040
0.36
1070
   140
1040
0.3135
1070
   141
1040
0.18
1070
   147
1040
0.18
1070
   277
1070
     5
1070
   288
1070
     1
1002
}
  0
DIMENSION
  5
1ADA
  8
DIMENSIONS
  2
*D26
 10
31.708086499316831
 20
16.964190579068131
 30
0.0
 11
29.063431780242858
 21
16.964190579068131
 31
0.0
 70
   128
 13
39.208086499316821
 23
18.252902676152711
 33
0.0
 14
31.708086499316831
 24
17.058628637942601
 34
0.0
1001
ACAD
1000
DSTYLE
1002
{
1070
   270
1070
     5
1070
    41
1040
0.36
1070
    42
1040
0.125
1070
    43
1040
0.5
1070
    44
1040
0.36
1070
   140
1040
0.3135
1070
   141
1040
0.18
1070
   147
1040
0.18
1070
   277
1070
     5
1070
   288
1070
     1
1002
}
  0
SOLID
  5
1AE8
  8
DIMENSIONS
 10
31.968568381180649
 20
18.37226780133966
 30
0.0
 11
32.03739688750575
 21
18.470566513015122
 31
0.0
 12
31.708086499316831
 22
18.627902676152711
 32
0.0
 13
31.708086499316831
 23
18.627902676152711
 33
0.0
  0
LINE
  5
1AE9
  8
DIMENSIONS
 10
32.002982634343198
 20
18.421417157177391
 30
0.0
 11
33.296153608241021
 21
17.515942151052851
 31
0.0
  0
LINE
  5
1AEA
  8
DIMENSIONS
 10
33.296153608241021
 20
17.515942151052851
 30
0.0
 11
33.656153608241013
 21
17.515942151052851
 31
0.0
  0
INSERT
  5
1AEB
  8
DIMENSIONS
  2
*U34
 10
0.0
 20
0.0
 30
0.0
  0
SOLID
  5
1AEC
  8
DIMENSIONS
 10
39.451686056742702
 20
18.356132082412479
 30
0.0
 11
39.52666032728407
 21
18.449827646644671
 31
0.0
 12
39.208086499316813
 22
18.627902676152711
 32
0.0
 13
39.208086499316813
 23
18.627902676152711
 33
0.0
  0
LINE
  5
1AED
  8
DIMENSIONS
 10
39.489173192013382
 20
18.402979864528579
 30
0.0
 11
40.120520165333481
 21
17.897782215407439
 31
0.0
  0
LINE
  5
1AEE
  8
DIMENSIONS
 10
40.120520165333481
 20
17.897782215407439
 30
0.0
 11
40.480520165333488
 21
17.897782215407439
 31
0.0
  0
INSERT
  5
1AEF
  8
DIMENSIONS
  2
*U35
 10
0.0
 20
0.0
 30
0.0
  0
ENDSEC
  0
EOF
