  0
SECTION
  2
HEADER
  9
$ACADVER
  1
AC1015
  9
$ACADMAINTVER
 70
     6
  9
$DWGCODEPAGE
  3
ANSI_1252
  9
$INSBASE
 10
0.0
 20
0.0
 30
0.0
  9
$EXTMIN
 10
-24.30086731229092
 20
-8.007843745338075
 30
0.0
  9
$EXTMAX
 10
30.09704196927035
 20
34.03094013916248
 30
0.0
  9
$LIMMIN
 10
0.0
 20
0.0
  9
$LIMMAX
 10
17.0
 20
11.0
  9
$ORTHOMODE
 70
     1
  9
$REGENMODE
 70
     1
  9
$FILLMODE
 70
     1
  9
$QTEXTMODE
 70
     0
  9
$MIRRTEXT
 70
     1
  9
$LTSCALE
 40
1.0
  9
$ATTMODE
 70
     1
  9
$TEXTSIZE
 40
0.25
  9
$TRACEWID
 40
0.05
  9
$TEXTSTYLE
  7
STANDARD
  9
$CLAYER
  8
0
  9
$CELTYPE
  6
CONTINUOUS
  9
$CECOLOR
 62
     7
  9
$CELTSCALE
 40
1.0
  9
$DISPSILH
 70
     0
  9
$DIMSCALE
 40
1.0
  9
$DIMASZ
 40
0.25
  9
$DIMEXO
 40
0.1
  9
$DIMDLI
 40
0.3
  9
$DIMRND
 40
0.000001
  9
$DIMDLE
 40
0.0
  9
$DIMEXE
 40
0.1
  9
$DIMTP
 40
0.0
  9
$DIMTM
 40
0.0
  9
$DIMTXT
 40
0.25
  9
$DIMCEN
 40
0.09
  9
$DIMTSZ
 40
0.0
  9
$DIMTOL
 70
     0
  9
$DIMLIM
 70
     0
  9
$DIMTIH
 70
     1
  9
$DIMTOH
 70
     1
  9
$DIMSE1
 70
     0
  9
$DIMSE2
 70
     0
  9
$DIMTAD
 70
     0
  9
$DIMZIN
 70
     0
  9
$DIMBLK
  1

  9
$DIMASO
 70
     1
  9
$DIMSHO
 70
     1
  9
$DIMPOST
  1

  9
$DIMAPOST
  1

  9
$DIMALT
 70
     0
  9
$DIMALTD
 70
     6
  9
$DIMALTF
 40
25.4
  9
$DIMLFAC
 40
1.0
  9
$DIMTOFL
 70
     0
  9
$DIMTVP
 40
0.0
  9
$DIMTIX
 70
     0
  9
$DIMSOXD
 70
     0
  9
$DIMSAH
 70
     0
  9
$DIMBLK1
  1

  9
$DIMBLK2
  1

  9
$DIMSTYLE
  2
STANDARD
  9
$DIMCLRD
 70
     1
  9
$DIMCLRE
 70
     1
  9
$DIMCLRT
 70
     1
  9
$DIMTFAC
 40
1.0
  9
$DIMGAP
 40
0.09
  9
$DIMJUST
 70
     0
  9
$DIMSD1
 70
     0
  9
$DIMSD2
 70
     0
  9
$DIMTOLJ
 70
     1
  9
$DIMTZIN
 70
     0
  9
$DIMALTZ
 70
     0
  9
$DIMALTTZ
 70
     0
  9
$DIMUPT
 70
     0
  9
$DIMDEC
 70
     1
  9
$DIMTDEC
 70
     1
  9
$DIMALTU
 70
     2
  9
$DIMALTTD
 70
     6
  9
$DIMTXSTY
  7
STANDARD
  9
$DIMAUNIT
 70
     0
  9
$DIMADEC
 70
     0
  9
$DIMALTRND
 40
0.0
  9
$DIMAZIN
 70
     0
  9
$DIMDSEP
 70
    46
  9
$DIMATFIT
 70
     3
  9
$DIMFRAC
 70
     0
  9
$DIMLDRBLK
  1

  9
$DIMLUNIT
 70
     5
  9
$DIMLWD
 70
    -2
  9
$DIMLWE
 70
    -2
  9
$DIMTMOVE
 70
     0
  9
$LUNITS
 70
     2
  9
$LUPREC
 70
     6
  9
$SKETCHINC
 40
0.1
  9
$FILLETRAD
 40
1.0
  9
$AUNITS
 70
     0
  9
$AUPREC
 70
     2
  9
$MENU
  1
.
  9
$ELEVATION
 40
0.0
  9
$PELEVATION
 40
0.0
  9
$THICKNESS
 40
0.0
  9
$LIMCHECK
 70
     0
  9
$CHAMFERA
 40
1.0
  9
$CHAMFERB
 40
1.0
  9
$CHAMFERC
 40
0.0
  9
$CHAMFERD
 40
0.0
  9
$SKPOLY
 70
     1
  9
$TDCREATE
 40
2444971.791666666
  9
$TDUCREATE
 40
2444972.000000000
  9
$TDUPDATE
 40
2452345.643106944
  9
$TDUUPDATE
 40
2452345.851440278
  9
$TDINDWG
 40
0.0650320602
  9
$TDUSRTIMER
 40
0.0650320602
  9
$USRTIMER
 70
     1
  9
$ANGBASE
 50
0.0
  9
$ANGDIR
 70
     0
  9
$PDMODE
 70
     2
  9
$PDSIZE
 40
-1.0
  9
$PLINEWID
 40
0.0
  9
$SPLFRAME
 70
     0
  9
$SPLINETYPE
 70
     6
  9
$SPLINESEGS
 70
     8
  9
$HANDSEED
  5
E4E
  9
$SURFTAB1
 70
     6
  9
$SURFTAB2
 70
     6
  9
$SURFTYPE
 70
     6
  9
$SURFU
 70
     6
  9
$SURFV
 70
     6
  9
$UCSBASE
  2

  9
$UCSNAME
  2

  9
$UCSORG
 10
0.0
 20
0.0
 30
0.0
  9
$UCSXDIR
 10
1.0
 20
0.0
 30
0.0
  9
$UCSYDIR
 10
0.0
 20
1.0
 30
0.0
  9
$UCSORTHOREF
  2

  9
$UCSORTHOVIEW
 70
     0
  9
$UCSORGTOP
 10
0.0
 20
0.0
 30
0.0
  9
$UCSORGBOTTOM
 10
0.0
 20
0.0
 30
0.0
  9
$UCSORGLEFT
 10
0.0
 20
0.0
 30
0.0
  9
$UCSORGRIGHT
 10
0.0
 20
0.0
 30
0.0
  9
$UCSORGFRONT
 10
0.0
 20
0.0
 30
0.0
  9
$UCSORGBACK
 10
0.0
 20
0.0
 30
0.0
  9
$PUCSBASE
  2

  9
$PUCSNAME
  2

  9
$PUCSORG
 10
0.0
 20
0.0
 30
0.0
  9
$PUCSXDIR
 10
1.0
 20
0.0
 30
0.0
  9
$PUCSYDIR
 10
0.0
 20
1.0
 30
0.0
  9
$PUCSORTHOREF
  2

  9
$PUCSORTHOVIEW
 70
     0
  9
$PUCSORGTOP
 10
0.0
 20
0.0
 30
0.0
  9
$PUCSORGBOTTOM
 10
0.0
 20
0.0
 30
0.0
  9
$PUCSORGLEFT
 10
0.0
 20
0.0
 30
0.0
  9
$PUCSORGRIGHT
 10
0.0
 20
0.0
 30
0.0
  9
$PUCSORGFRONT
 10
0.0
 20
0.0
 30
0.0
  9
$PUCSORGBACK
 10
0.0
 20
0.0
 30
0.0
  9
$USERI1
 70
     0
  9
$USERI2
 70
     0
  9
$USERI3
 70
     0
  9
$USERI4
 70
     0
  9
$USERI5
 70
     0
  9
$USERR1
 40
0.0
  9
$USERR2
 40
0.0
  9
$USERR3
 40
0.0
  9
$USERR4
 40
0.0
  9
$USERR5
 40
0.0
  9
$WORLDVIEW
 70
     1
  9
$SHADEDGE
 70
     3
  9
$SHADEDIF
 70
    70
  9
$TILEMODE
 70
     1
  9
$MAXACTVP
 70
    16
  9
$PINSBASE
 10
0.0
 20
0.0
 30
0.0
  9
$PLIMCHECK
 70
     0
  9
$PEXTMIN
 10
1.000000000000000E+20
 20
1.000000000000000E+20
 30
1.000000000000000E+20
  9
$PEXTMAX
 10
-1.000000000000000E+20
 20
-1.000000000000000E+20
 30
-1.000000000000000E+20
  9
$PLIMMIN
 10
0.0
 20
0.0
  9
$PLIMMAX
 10
12.0
 20
9.0
  9
$UNITMODE
 70
     1
  9
$VISRETAIN
 70
     0
  9
$PLINEGEN
 70
     1
  9
$PSLTSCALE
 70
     1
  9
$TREEDEPTH
 70
  3020
  9
$CMLSTYLE
  2
STANDARD
  9
$CMLJUST
 70
     0
  9
$CMLSCALE
 40
1.0
  9
$PROXYGRAPHICS
 70
     1
  9
$MEASUREMENT
 70
     0
  9
$CELWEIGHT
370
    -1
  9
$ENDCAPS
280
     0
  9
$JOINSTYLE
280
     0
  9
$LWDISPLAY
290
     0
  9
$INSUNITS
 70
     0
  9
$HYPERLINKBASE
  1

  9
$STYLESHEET
  1

  9
$XEDIT
290
     1
  9
$CEPSNTYPE
380
     0
  9
$PSTYLEMODE
290
     1
  9
$FINGERPRINTGUID
  2
{A2C9094A-42CD-11D4-8360-004F4908EF25}
  9
$VERSIONGUID
  2
{EFCA0AE8-4D13-11D4-8360-004F4908EF25}
  9
$EXTNAMES
290
     1
  9
$PSVPSCALE
 40
0.0
  9
$OLESTARTUP
290
     0
  0
ENDSEC
  0
SECTION
  2
CLASSES
  0
CLASS
  1
ACDBDICTIONARYWDFLT
  2
AcDbDictionaryWithDefault
  3
AutoCAD 2000
 90
        0
280
     0
281
     0
  0
CLASS
  1
ACDBPLACEHOLDER
  2
AcDbPlaceHolder
  3
AutoCAD 2000
 90
        0
280
     0
281
     0
  0
CLASS
  1
LAYOUT
  2
AcDbLayout
  3
AutoCAD 2000
 90
        0
280
     0
281
     0
  0
ENDSEC
  0
SECTION
  2
TABLES
  0
TABLE
  2
VPORT
  5
8
330
0
100
AcDbSymbolTable
 70
     2
  0
VPORT
  5
E4D
330
8
100
AcDbSymbolTableRecord
100
AcDbViewportTableRecord
  2
*Active
 70
     0
 10
0.0
 20
0.0
 11
1.0
 21
1.0
 12
3.079091955604212
 22
13.01201552505086
 13
0.0
 23
0.0
 14
1.0
 24
1.0
 15
0.0
 25
0.0
 16
0.0
 26
0.0
 36
1.0
 17
0.0
 27
0.0
 37
0.0
 40
42.51762301497418
 41
1.378947368421052
 42
50.0
 43
0.0
 44
0.0
 50
0.0
 51
0.0
 71
     0
 72
   100
 73
     1
 74
     1
 75
     0
 76
     0
 77
     0
 78
     0
281
     0
 65
     1
110
0.0
120
0.0
130
0.0
111
1.0
121
0.0
131
0.0
112
0.0
122
1.0
132
0.0
 79
     0
146
0.0
  0
ENDTAB
  0
TABLE
  2
LTYPE
  5
5
330
0
100
AcDbSymbolTable
 70
     6
  0
LTYPE
  5
13
330
5
100
AcDbSymbolTableRecord
100
AcDbLinetypeTableRecord
  2
BYBLOCK
 70
     0
  3

 72
    65
 73
     0
 40
0.0
  0
LTYPE
  5
14
330
5
100
AcDbSymbolTableRecord
100
AcDbLinetypeTableRecord
  2
BYLAYER
 70
     0
  3

 72
    65
 73
     0
 40
0.0
  0
LTYPE
  5
15
330
5
100
AcDbSymbolTableRecord
100
AcDbLinetypeTableRecord
  2
CONTINUOUS
 70
     0
  3
Solid line
 72
    65
 73
     0
 40
0.0
  0
LTYPE
  5
1E
330
5
100
AcDbSymbolTableRecord
100
AcDbLinetypeTableRecord
  2
HIDDEN
 70
     0
  3
_____________________                     _____________________
 72
    65
 73
     2
 40
0.2
 49
0.133333
 74
     0
 49
-0.066667
 74
     0
  0
LTYPE
  5
1F
330
5
100
AcDbSymbolTableRecord
100
AcDbLinetypeTableRecord
  2
CENTER
 70
     0
  3
__________________________  _____  __________________________
 72
    65
 73
     4
 40
1.25
 49
1.065574
 74
     0
 49
-0.040984
 74
     0
 49
0.102459
 74
     0
 49
-0.040984
 74
     0
  0
LTYPE
  5
20
330
5
100
AcDbSymbolTableRecord
100
AcDbLinetypeTableRecord
  2
PHANTOM
 70
     0
  3
_____________________  _____  _____  _____________________
 72
    65
 73
     6
 40
1.25
 49
0.9051719999999999
 74
     0
 49
-0.043103
 74
     0
 49
0.107759
 74
     0
 49
-0.043103
 74
     0
 49
0.107759
 74
     0
 49
-0.043103
 74
     0
  0
LTYPE
  5
21
330
5
100
AcDbSymbolTableRecord
100
AcDbLinetypeTableRecord
  2
STITCH
 70
     0
  3
___    ______    ______    ______    ___
 72
    65
 73
     8
 40
0.5
 49
0.075
 74
     0
 49
-0.05
 74
     0
 49
0.075
 74
     0
 49
-0.05
 74
     0
 49
0.075
 74
     0
 49
-0.05
 74
     0
 49
0.075
 74
     0
 49
-0.05
 74
     0
  0
LTYPE
  5
22
330
5
100
AcDbSymbolTableRecord
100
AcDbLinetypeTableRecord
  2
DASHED
 70
     0
  3
______    ______    ____________    ______    ______
 72
    65
 73
     8
 40
1.0
 49
0.230769
 74
     0
 49
-0.076923
 74
     0
 49
0.115385
 74
     0
 49
-0.076923
 74
     0
 49
0.230769
 74
     0
 49
-0.076923
 74
     0
 49
0.115385
 74
     0
 49
-0.076923
 74
     0
  0
ENDTAB
  0
TABLE
  2
LAYER
  5
2
330
0
100
AcDbSymbolTable
 70
     3
  0
LAYER
  5
F
330
2
100
AcDbSymbolTableRecord
100
AcDbLayerTableRecord
  2
0
 70
     0
 62
   255
  6
CONTINUOUS
370
    -3
390
397
  0
LAYER
  5
3BA
330
2
100
AcDbSymbolTableRecord
100
AcDbLayerTableRecord
  2
TitleBlock&Notes
 70
     0
 62
     3
  6
CONTINUOUS
370
    -3
390
397
  0
LAYER
  5
D49
330
2
100
AcDbSymbolTableRecord
100
AcDbLayerTableRecord
  2
Defpoints
 70
     0
 62
     7
  6
CONTINUOUS
290
     0
370
    -3
390
397
  0
ENDTAB
  0
TABLE
  2
STYLE
  5
3
330
0
100
AcDbSymbolTable
 70
     2
  0
STYLE
  5
10
330
3
100
AcDbSymbolTableRecord
100
AcDbTextStyleTableRecord
  2
STANDARD
 70
     0
 40
0.0
 41
1.0
 50
0.0
 71
     0
 42
0.25
  3
simplex.shx
  4

  0
STYLE
  5
23
330
3
100
AcDbSymbolTableRecord
100
AcDbTextStyleTableRecord
  2
SAS_____
 70
     0
 40
0.0
 41
1.0
 50
0.0
 71
     0
 42
0.25
  3
SAS_____
  4

  0
ENDTAB
  0
TABLE
  2
VIEW
  5
6
330
0
100
AcDbSymbolTable
 70
     0
  0
ENDTAB
  0
TABLE
  2
UCS
  5
7
330
0
100
AcDbSymbolTable
 70
     0
  0
ENDTAB
  0
TABLE
  2
APPID
  5
9
330
0
100
AcDbSymbolTable
 70
     2
  0
APPID
  5
11
330
9
100
AcDbSymbolTableRecord
100
AcDbRegAppTableRecord
  2
ACAD
 70
     0
  0
APPID
  5
3A8
330
9
100
AcDbSymbolTableRecord
100
AcDbRegAppTableRecord
  2
DCO15
 70
     0
  0
ENDTAB
  0
TABLE
  2
DIMSTYLE
  5
A
330
0
100
AcDbSymbolTable
 70
     1
100
AcDbDimStyleTable
 71
     1
340
393
  0
DIMSTYLE
105
393
102
{ACAD_REACTORS
330
D69
330
D6A
330
DCB
330
E22
102
}
330
A
100
AcDbSymbolTableRecord
100
AcDbDimStyleTableRecord
  2
STANDARD
 70
     0
340
10
  0
ENDTAB
  0
TABLE
  2
BLOCK_RECORD
  5
1
330
0
100
AcDbSymbolTable
 70
    19
  0
BLOCK_RECORD
  5
19
330
1
100
AcDbSymbolTableRecord
100
AcDbBlockTableRecord
  2
*MODEL_SPACE
340
39A
  0
BLOCK_RECORD
  5
16
330
1
100
AcDbSymbolTableRecord
100
AcDbBlockTableRecord
  2
*PAPER_SPACE
340
39B
  0
BLOCK_RECORD
  5
26
330
1
100
AcDbSymbolTableRecord
100
AcDbBlockTableRecord
  2
DCDIM23399
340
0
  0
BLOCK_RECORD
  5
30
330
1
100
AcDbSymbolTableRecord
100
AcDbBlockTableRecord
  2
DCDIM23400
340
0
  0
BLOCK_RECORD
  5
3A
330
1
100
AcDbSymbolTableRecord
100
AcDbBlockTableRecord
  2
DCDIM23402
340
0
  0
BLOCK_RECORD
  5
44
330
1
100
AcDbSymbolTableRecord
100
AcDbBlockTableRecord
  2
DCDIM23403
340
0
  0
BLOCK_RECORD
  5
4E
330
1
100
AcDbSymbolTableRecord
100
AcDbBlockTableRecord
  2
DCDIM23404
340
0
  0
BLOCK_RECORD
  5
5A
330
1
100
AcDbSymbolTableRecord
100
AcDbBlockTableRecord
  2
DCDIM23405
340
0
  0
BLOCK_RECORD
  5
66
330
1
100
AcDbSymbolTableRecord
100
AcDbBlockTableRecord
  2
DCDIM23406
340
0
  0
BLOCK_RECORD
  5
70
330
1
100
AcDbSymbolTableRecord
100
AcDbBlockTableRecord
  2
DCDIM23407
340
0
  0
BLOCK_RECORD
  5
77
330
1
100
AcDbSymbolTableRecord
100
AcDbBlockTableRecord
  2
DCDIM23409
340
0
  0
BLOCK_RECORD
  5
82
330
1
100
AcDbSymbolTableRecord
100
AcDbBlockTableRecord
  2
DCDIM23410
340
0
  0
BLOCK_RECORD
  5
89
330
1
100
AcDbSymbolTableRecord
100
AcDbBlockTableRecord
  2
DCDIM23411
340
0
  0
BLOCK_RECORD
  5
93
330
1
100
AcDbSymbolTableRecord
100
AcDbBlockTableRecord
  2
DCDIM23412
340
0
  0
BLOCK_RECORD
  5
D7E
330
1
100
AcDbSymbolTableRecord
100
AcDbBlockTableRecord
  2
*D14
340
0
  0
BLOCK_RECORD
  5
D8B
330
1
100
AcDbSymbolTableRecord
100
AcDbBlockTableRecord
  2
*D15
340
0
  0
BLOCK_RECORD
  5
DD7
330
1
100
AcDbSymbolTableRecord
100
AcDbBlockTableRecord
  2
*D17
340
0
  0
BLOCK_RECORD
  5
E23
330
1
100
AcDbSymbolTableRecord
100
AcDbBlockTableRecord
  2
*D18
340
0
  0
ENDTAB
  0
ENDSEC
  0
SECTION
  2
BLOCKS
  0
BLOCK
  5
1A
330
19
100
AcDbEntity
  8
0
100
AcDbBlockBegin
  2
*MODEL_SPACE
 70
     0
 10
0.0
 20
0.0
 30
0.0
  3
*MODEL_SPACE
  1

  0
ENDBLK
  5
1B
330
19
100
AcDbEntity
  8
0
100
AcDbBlockEnd
  0
BLOCK
  5
17
330
16
100
AcDbEntity
 67
     1
  8
0
100
AcDbBlockBegin
  2
*PAPER_SPACE
 70
     0
 10
0.0
 20
0.0
 30
0.0
  3
*PAPER_SPACE
  1

  0
ENDBLK
  5
18
330
16
100
AcDbEntity
 67
     1
  8
0
100
AcDbBlockEnd
  0
BLOCK
  5
27
330
26
100
AcDbEntity
  8
0
100
AcDbBlockBegin
  2
DCDIM23399
 70
     0
 10
0.0
 20
0.0
 30
0.0
  3
DCDIM23399
  1

  0
LINE
  5
28
330
26
100
AcDbEntity
  8
0
  6
Continuous
 62
     5
100
AcDbLine
 10
0.01
 20
26.831234
 30
0.0
 11
0.01
 21
28.26367299999999
 31
0.0
  0
LINE
  5
29
330
26
100
AcDbEntity
  8
0
  6
Continuous
 62
     5
100
AcDbLine
 10
5.009999999999999
 20
26.831234
 30
0.0
 11
5.009999999999999
 21
28.26367299999999
 31
0.0
  0
LINE
  5
2A
330
26
100
AcDbEntity
  8
0
  6
Continuous
 62
     5
100
AcDbLine
 10
0.01
 20
28.16367299999999
 30
0.0
 11
2.077252
 21
28.16367299999999
 31
0.0
  0
LINE
  5
2B
330
26
100
AcDbEntity
  8
0
  6
Continuous
 62
     5
100
AcDbLine
 10
5.009999999999999
 20
28.16367299999999
 30
0.0
 11
2.942747999999999
 21
28.16367299999999
 31
0.0
  0
SOLID
  5
2C
330
26
100
AcDbEntity
  8
0
  6
Continuous
 62
     5
100
AcDbTrace
 10
0.01
 20
28.16367299999999
 30
0.0
 11
0.26
 21
28.20534
 31
0.0
 12
0.01
 22
28.16367299999999
 32
0.0
 13
0.26
 23
28.122006
 33
0.0
  0
SOLID
  5
2D
330
26
100
AcDbEntity
  8
0
  6
Continuous
 62
     5
100
AcDbTrace
 10
5.009999999999999
 20
28.16367299999999
 30
0.0
 11
4.759999999999999
 21
28.122006
 31
0.0
 12
5.009999999999999
 22
28.16367299999999
 32
0.0
 13
4.759999999999999
 23
28.20534
 33
0.0
  0
TEXT
  5
2E
330
26
100
AcDbEntity
  8
0
  6
Continuous
 62
     5
100
AcDbText
 10
2.202252
 20
28.070287
 30
0.0
 40
0.2221555652844434
  1
4.75
 41
0.9090909999999999
 72
     3
 11
2.817747999999999
 21
28.070287
 31
0.0
100
AcDbText
  0
ENDBLK
  5
2F
330
26
100
AcDbEntity
  8
0
100
AcDbBlockEnd
  0
BLOCK
  5
31
330
30
100
AcDbEntity
  8
0
100
AcDbBlockBegin
  2
DCDIM23400
 70
     0
 10
0.0
 20
0.0
 30
0.0
  3
DCDIM23400
  1

  0
SOLID
  5
32
330
30
100
AcDbEntity
  8
0
  6
Continuous
 62
     5
100
AcDbTrace
 10
2.509999999999999
 20
26.731234
 30
0.0
 11
2.726661999999999
 21
26.86274
 31
0.0
 12
2.509999999999999
 22
26.731234
 32
0.0
 13
2.757600999999999
 23
26.785363
 33
0.0
  0
LWPOLYLINE
  5
33
330
30
100
AcDbEntity
  8
0
  6
Continuous
 62
     5
100
AcDbPolyline
 90
        3
 70
     0
 43
0.01
 10
2.509999999999999
 20
26.731234
 10
5.670797
 20
27.995076
 10
5.920797
 20
27.995076
  0
TEXT
  5
38
330
30
100
AcDbEntity
  8
0
  6
Continuous
 62
     5
100
AcDbText
 10
6.045797
 20
27.870076
 30
0.0
 40
0.2031980796801919
  1
3/8 N P T
 41
0.9090909999999999
 72
     3
 11
7.593972999999999
 21
27.870076
 31
0.0
100
AcDbText
  0
ENDBLK
  5
39
330
30
100
AcDbEntity
  8
0
100
AcDbBlockEnd
  0
BLOCK
  5
3B
330
3A
100
AcDbEntity
  8
0
100
AcDbBlockBegin
  2
DCDIM23402
 70
     0
 10
0.0
 20
0.0
 30
0.0
  3
DCDIM23402
  1

  0
LINE
  5
3C
330
3A
100
AcDbEntity
  8
0
  6
Continuous
 62
     5
100
AcDbLine
 10
-0.09
 20
26.731234
 30
0.0
 11
-2.297833
 21
26.731234
 31
0.0
  0
LINE
  5
3D
330
3A
100
AcDbEntity
  8
0
  6
Continuous
 62
     5
100
AcDbLine
 10
-0.07
 20
13.856234
 30
0.0
 11
-2.297833
 21
13.856234
 31
0.0
  0
LINE
  5
3E
330
3A
100
AcDbEntity
  8
0
  6
Continuous
 62
     5
100
AcDbLine
 10
-2.197833
 20
26.731234
 30
0.0
 11
-2.197833
 21
20.623754
 31
0.0
  0
LINE
  5
3F
330
3A
100
AcDbEntity
  8
0
  6
Continuous
 62
     5
100
AcDbLine
 10
-2.197833
 20
13.856234
 30
0.0
 11
-2.197833
 21
19.696766
 31
0.0
  0
SOLID
  5
40
330
3A
100
AcDbEntity
  8
0
  6
Continuous
 62
     5
100
AcDbTrace
 10
-2.197833
 20
26.731234
 30
0.0
 11
-2.156165999999999
 21
26.481234
 31
0.0
 12
-2.197833
 22
26.731234
 32
0.0
 13
-2.239499
 23
26.481234
 33
0.0
  0
SOLID
  5
41
330
3A
100
AcDbEntity
  8
0
  6
Continuous
 62
     5
100
AcDbTrace
 10
-2.197833
 20
13.856234
 30
0.0
 11
-2.239499
 21
14.10623399999999
 31
0.0
 12
-2.197833
 22
13.856234
 32
0.0
 13
-2.156165999999999
 23
14.10623399999999
 33
0.0
  0
TEXT
  5
42
330
3A
100
AcDbEntity
  8
0
  6
Continuous
 62
     5
100
AcDbText
 10
-2.104446999999999
 20
19.821766
 30
0.0
 40
0.1954802654519738
  1
14.00
 50
90.0
 41
0.9090909999999999
 72
     3
 11
-2.104446999999999
 21
20.498754
 31
0.0
100
AcDbText
  0
ENDBLK
  5
43
330
3A
100
AcDbEntity
  8
0
100
AcDbBlockEnd
  0
BLOCK
  5
45
330
44
100
AcDbEntity
  8
0
100
AcDbBlockBegin
  2
DCDIM23403
 70
     0
 10
0.0
 20
0.0
 30
0.0
  3
DCDIM23403
  1

  0
LINE
  5
46
330
44
100
AcDbEntity
  8
0
  6
Continuous
 62
     5
100
AcDbLine
 10
-0.09
 20
26.731234
 30
0.0
 11
-3.980834999999999
 21
26.731234
 31
0.0
  0
LINE
  5
47
330
44
100
AcDbEntity
  8
0
  6
Continuous
 62
     5
100
AcDbLine
 10
1.561347
 20
0.01
 30
0.0
 11
-3.980834999999999
 21
0.01
 31
0.0
  0
LINE
  5
48
330
44
100
AcDbEntity
  8
0
  6
Continuous
 62
     5
100
AcDbLine
 10
-3.880834999999999
 20
26.731234
 30
0.0
 11
-3.880834999999999
 21
14.691916
 31
0.0
  0
LINE
  5
49
330
44
100
AcDbEntity
  8
0
  6
Continuous
 62
     5
100
AcDbLine
 10
-3.880834999999999
 20
0.01
 30
0.0
 11
-3.880834999999999
 21
13.592287
 31
0.0
  0
SOLID
  5
4A
330
44
100
AcDbEntity
  8
0
  6
Continuous
 62
     5
100
AcDbTrace
 10
-3.880834999999999
 20
26.731234
 30
0.0
 11
-3.839169
 21
26.481234
 31
0.0
 12
-3.880834999999999
 22
26.731234
 32
0.0
 13
-3.922501999999999
 23
26.481234
 33
0.0
  0
SOLID
  5
4B
330
44
100
AcDbEntity
  8
0
  6
Continuous
 62
     5
100
AcDbTrace
 10
-3.880834999999999
 20
0.01
 30
0.0
 11
-3.922501999999999
 21
0.26
 31
0.0
 12
-3.880834999999999
 22
0.01
 32
0.0
 13
-3.839169
 23
0.26
 33
0.0
  0
TEXT
  5
4C
330
44
100
AcDbEntity
  8
0
  6
Continuous
 62
     5
100
AcDbText
 10
-3.78745
 20
13.717287
 30
0.0
 40
0.2336479516352053
  1
26.00
 50
90.0
 41
0.9090909999999999
 72
     3
 11
-3.78745
 21
14.566916
 31
0.0
100
AcDbText
  0
ENDBLK
  5
4D
330
44
100
AcDbEntity
  8
0
100
AcDbBlockEnd
  0
BLOCK
  5
4F
330
4E
100
AcDbEntity
  8
0
100
AcDbBlockBegin
  2
DCDIM23404
 70
     0
 10
0.0
 20
0.0
 30
0.0
  3
DCDIM23404
  1

  0
LINE
  5
50
330
4E
100
AcDbEntity
  8
0
  6
Continuous
 62
     5
100
AcDbLine
 10
1.561347
 20
0.01
 30
0.0
 11
-0.9730409999999999
 21
0.01
 31
0.0
  0
LINE
  5
51
330
4E
100
AcDbEntity
  8
0
  6
Continuous
 62
     5
100
AcDbLine
 10
1.511346999999999
 20
0.8849999999999999
 30
0.0
 11
-0.9730409999999999
 21
0.8849999999999999
 31
0.0
  0
LINE
  5
52
330
4E
100
AcDbEntity
  8
0
  6
Continuous
 62
     5
100
AcDbLine
 10
-0.8730409999999999
 20
0.01
 30
0.0
 11
-0.8730409999999999
 21
0.8849999999999999
 31
0.0
  0
LINE
  5
53
330
4E
100
AcDbEntity
  8
0
  6
Continuous
 62
     5
100
AcDbLine
 10
-0.8730409999999999
 20
0.01
 30
0.0
 11
-0.8730409999999999
 21
-0.4900000000000001
 31
0.0
  0
LINE
  5
54
330
4E
100
AcDbEntity
  8
0
  6
Continuous
 62
     5
100
AcDbLine
 10
-0.8730409999999999
 20
0.8849999999999999
 30
0.0
 11
-0.8730409999999999
 21
1.385
 31
0.0
  0
LINE
  5
55
330
4E
100
AcDbEntity
  8
0
  6
Continuous
 62
     5
100
AcDbLine
 10
-0.8730409999999999
 20
-0.4900000000000001
 30
0.0
 11
-0.8730409999999999
 21
-0.4900000000000001
 31
0.0
  0
SOLID
  5
56
330
4E
100
AcDbEntity
  8
0
  6
Continuous
 62
     5
100
AcDbTrace
 10
-0.8730409999999999
 20
0.01
 30
0.0
 11
-0.8313749999999998
 21
-0.24
 31
0.0
 12
-0.8730409999999999
 22
0.01
 32
0.0
 13
-0.9147079999999998
 23
-0.24
 33
0.0
  0
SOLID
  5
57
330
4E
100
AcDbEntity
  8
0
  6
Continuous
 62
     5
100
AcDbTrace
 10
-0.8730409999999999
 20
0.8849999999999999
 30
0.0
 11
-0.9147079999999998
 21
1.135
 31
0.0
 12
-0.8730409999999999
 22
0.8849999999999999
 32
0.0
 13
-0.8313749999999998
 23
1.135
 33
0.0
  0
TEXT
  5
58
330
4E
100
AcDbEntity
  8
0
  6
Continuous
 62
     5
100
AcDbText
 10
-0.748041
 20
-1.224266
 30
0.0
 40
0.2199069248843076
  1
.875
 50
90.0
 41
0.9090909999999999
 72
     3
 11
-0.748041
 21
-0.6150000000000001
 31
0.0
100
AcDbText
  0
ENDBLK
  5
59
330
4E
100
AcDbEntity
  8
0
100
AcDbBlockEnd
  0
BLOCK
  5
5B
330
5A
100
AcDbEntity
  8
0
100
AcDbBlockBegin
  2
DCDIM23405
 70
     0
 10
0.0
 20
0.0
 30
0.0
  3
DCDIM23405
  1

  0
LINE
  5
5C
330
5A
100
AcDbEntity
  8
0
  6
Continuous
 62
     5
100
AcDbLine
 10
1.228847
 20
0.8849999999999999
 30
0.0
 11
-0.97397
 21
0.8849999999999999
 31
0.0
  0
LINE
  5
5D
330
5A
100
AcDbEntity
  8
0
  6
Continuous
 62
     5
100
AcDbLine
 10
0.919214
 20
1.135
 30
0.0
 11
-0.97397
 21
1.135
 31
0.0
  0
LINE
  5
5E
330
5A
100
AcDbEntity
  8
0
  6
Continuous
 62
     5
100
AcDbLine
 10
-0.87397
 20
0.8849999999999999
 30
0.0
 11
-0.87397
 21
1.135
 31
0.0
  0
LINE
  5
5F
330
5A
100
AcDbEntity
  8
0
  6
Continuous
 62
     5
100
AcDbLine
 10
-0.87397
 20
0.8849999999999999
 30
0.0
 11
-0.87397
 21
0.385
 31
0.0
  0
LINE
  5
60
330
5A
100
AcDbEntity
  8
0
  6
Continuous
 62
     5
100
AcDbLine
 10
-0.87397
 20
1.135
 30
0.0
 11
-0.87397
 21
1.634999999999999
 31
0.0
  0
LINE
  5
61
330
5A
100
AcDbEntity
  8
0
  6
Continuous
 62
     5
100
AcDbLine
 10
-0.87397
 20
1.634999999999999
 30
0.0
 11
-0.87397
 21
1.634999999999999
 31
0.0
  0
SOLID
  5
62
330
5A
100
AcDbEntity
  8
0
  6
Continuous
 62
     5
100
AcDbTrace
 10
-0.87397
 20
0.8849999999999999
 30
0.0
 11
-0.8323029999999999
 21
0.635
 31
0.0
 12
-0.87397
 22
0.8849999999999999
 32
0.0
 13
-0.9156359999999999
 23
0.635
 33
0.0
  0
SOLID
  5
63
330
5A
100
AcDbEntity
  8
0
  6
Continuous
 62
     5
100
AcDbTrace
 10
-0.87397
 20
1.135
 30
0.0
 11
-0.9156359999999999
 21
1.385
 31
0.0
 12
-0.87397
 22
1.135
 32
0.0
 13
-0.8323029999999999
 23
1.385
 33
0.0
  0
TEXT
  5
64
330
5A
100
AcDbEntity
  8
0
  6
Continuous
 62
     5
100
AcDbText
 10
-0.74897
 20
1.759999999999999
 30
0.0
 40
0.2317965658828433
  1
0.25
 50
90.0
 41
0.9090909999999999
 72
     3
 11
-0.74897
 21
2.402206999999999
 31
0.0
100
AcDbText
  0
ENDBLK
  5
65
330
5A
100
AcDbEntity
  8
0
100
AcDbBlockEnd
  0
BLOCK
  5
67
330
66
100
AcDbEntity
  8
0
100
AcDbBlockBegin
  2
DCDIM23406
 70
     0
 10
0.0
 20
0.0
 30
0.0
  3
DCDIM23406
  1

  0
LINE
  5
68
330
66
100
AcDbEntity
  8
0
  6
Continuous
 62
     5
100
AcDbLine
 10
0.8567069999999999
 20
1.135
 30
0.0
 11
-1.597433
 21
1.135
 31
0.0
  0
LINE
  5
69
330
66
100
AcDbEntity
  8
0
  6
Continuous
 62
     5
100
AcDbLine
 10
0.93
 20
6.106233999999999
 30
0.0
 11
-1.597433
 21
6.106233999999999
 31
0.0
  0
LINE
  5
6A
330
66
100
AcDbEntity
  8
0
  6
Continuous
 62
     5
100
AcDbLine
 10
-1.497433
 20
1.135
 30
0.0
 11
-1.497433
 21
3.319612
 31
0.0
  0
LINE
  5
6B
330
66
100
AcDbEntity
  8
0
  6
Continuous
 62
     5
100
AcDbLine
 10
-1.497433
 20
6.106233999999999
 30
0.0
 11
-1.497433
 21
4.219992999999999
 31
0.0
  0
SOLID
  5
6C
330
66
100
AcDbEntity
  8
0
  6
Continuous
 62
     5
100
AcDbTrace
 10
-1.497433
 20
1.135
 30
0.0
 11
-1.539099999999999
 21
1.385
 31
0.0
 12
-1.497433
 22
1.135
 32
0.0
 13
-1.455766999999999
 23
1.385
 33
0.0
  0
SOLID
  5
6D
330
66
100
AcDbEntity
  8
0
  6
Continuous
 62
     5
100
AcDbTrace
 10
-1.497433
 20
6.106233999999999
 30
0.0
 11
-1.455766999999999
 21
5.856233999999999
 31
0.0
 12
-1.497433
 22
6.106233999999999
 32
0.0
 13
-1.539099999999999
 23
5.856233999999999
 33
0.0
  0
TEXT
  5
6E
330
66
100
AcDbEntity
  8
0
  6
Continuous
 62
     5
100
AcDbText
 10
-1.404047999999999
 20
3.444612
 30
0.0
 40
0.234746868712813
  1
5.00
 50
90.0
 41
0.9090909999999999
 72
     3
 11
-1.404047999999999
 21
4.094992999999999
 31
0.0
100
AcDbText
  0
ENDBLK
  5
6F
330
66
100
AcDbEntity
  8
0
100
AcDbBlockEnd
  0
BLOCK
  5
71
330
70
100
AcDbEntity
  8
0
100
AcDbBlockBegin
  2
DCDIM23407
 70
     0
 10
0.0
 20
0.0
 30
0.0
  3
DCDIM23407
  1

  0
LWPOLYLINE
  5
72
330
70
100
AcDbEntity
  8
0
  6
Continuous
 62
     5
100
AcDbPolyline
 90
        2
 70
     0
 43
0.0
 10
4.024344999999999
 20
3.731875
 10
4.274344999999999
 20
3.731875
  0
ENDBLK
  5
76
330
70
100
AcDbEntity
  8
0
100
AcDbBlockEnd
  0
BLOCK
  5
78
330
77
100
AcDbEntity
  8
0
100
AcDbBlockBegin
  2
DCDIM23409
 70
     0
 10
0.0
 20
0.0
 30
0.0
  3
DCDIM23409
  1

  0
SOLID
  5
79
330
77
100
AcDbEntity
  8
0
  6
Continuous
 62
     5
100
AcDbTrace
 10
3.962724999999999
 20
3.480962999999999
 30
0.0
 11
4.151623999999999
 21
3.649939999999999
 31
0.0
 12
3.962724999999999
 22
3.480962999999999
 32
0.0
 13
4.196216
 23
3.579542
 33
0.0
  0
LWPOLYLINE
  5
7A
330
77
100
AcDbEntity
  8
0
  6
Continuous
 62
     5
100
AcDbPolyline
 90
        3
 70
     0
 43
0.01
 10
3.962724999999999
 20
3.480962999999999
 10
5.118094999999999
 20
4.212811
 10
5.368094999999999
 20
4.212811
  0
TEXT
  5
7F
330
77
100
AcDbEntity
  8
0
  6
Continuous
 62
     5
100
AcDbText
 10
5.493094999999999
 20
4.087811
 30
0.0
 40
0.22357996108795
  1
CLASS 2A THREAD
 41
0.9090909999999999
 72
     3
 11
8.358016000000001
 21
4.087811
 31
0.0
100
AcDbText
  0
TEXT
  5
80
330
77
100
AcDbEntity
  8
0
  6
Continuous
 62
     5
100
AcDbText
 10
5.493094999999999
 20
3.774310999999999
 30
0.0
 40
0.1763068533127111
  1
75 mm, 1.5 mm
 41
0.9090909999999999
 72
     3
 11
7.515663
 21
3.774310999999999
 31
0.0
100
AcDbText
  0
ENDBLK
  5
81
330
77
100
AcDbEntity
  8
0
100
AcDbBlockEnd
  0
BLOCK
  5
83
330
82
100
AcDbEntity
  8
0
100
AcDbBlockBegin
  2
DCDIM23410
 70
     0
 10
0.0
 20
0.0
 30
0.0
  3
DCDIM23410
  1

  0
LWPOLYLINE
  5
84
330
82
100
AcDbEntity
  8
0
  6
Continuous
 62
     5
100
AcDbPolyline
 90
        2
 70
     0
 43
0.0
 10
4.498044999999999
 20
2.390156999999999
 10
4.748044999999999
 20
2.390156999999999
  0
ENDBLK
  5
88
330
82
100
AcDbEntity
  8
0
100
AcDbBlockEnd
  0
BLOCK
  5
8A
330
89
100
AcDbEntity
  8
0
100
AcDbBlockBegin
  2
DCDIM23411
 70
     0
 10
0.0
 20
0.0
 30
0.0
  3
DCDIM23411
  1

  0
SOLID
  5
8B
330
89
100
AcDbEntity
  8
0
  6
Continuous
 62
     5
100
AcDbTrace
 10
4.379502999999999
 20
2.437988
 30
0.0
 11
4.578446999999999
 21
2.595015
 31
0.0
 12
4.379502999999999
 22
2.437988
 32
0.0
 13
4.618621
 23
2.522003999999999
 33
0.0
  0
LWPOLYLINE
  5
8C
330
89
100
AcDbEntity
  8
0
  6
Continuous
 62
     5
100
AcDbPolyline
 90
        3
 70
     0
 43
0.01
 10
4.379502999999999
 20
2.437988
 10
5.685355999999999
 20
3.156531
 10
5.935355999999999
 20
3.156531
  0
TEXT
  5
91
330
89
100
AcDbEntity
  8
0
  6
Continuous
 62
     5
100
AcDbText
 10
6.060355999999999
 20
3.031531
 30
0.0
 40
0.1872746771769691
  1
LOCK I NG R I NG
 41
0.9090909999999999
 72
     3
 11
8.435744999999998
 21
3.031531
 31
0.0
100
AcDbText
  0
ENDBLK
  5
92
330
89
100
AcDbEntity
  8
0
100
AcDbBlockEnd
  0
BLOCK
  5
94
330
93
100
AcDbEntity
  8
0
100
AcDbBlockBegin
  2
DCDIM23412
 70
     0
 10
0.0
 20
0.0
 30
0.0
  3
DCDIM23412
  1

  0
SOLID
  5
95
330
93
100
AcDbEntity
  8
0
  6
Continuous
 62
     5
100
AcDbTrace
 10
3.361347
 20
0.4725
 30
0.0
 11
3.572389999999999
 21
0.612845
 31
0.0
 12
3.361347
 22
0.4725
 32
0.0
 13
3.6065
 23
0.536813
 33
0.0
  0
LWPOLYLINE
  5
96
330
93
100
AcDbEntity
  8
0
  6
Continuous
 62
     5
100
AcDbPolyline
 90
        3
 70
     0
 43
0.01
 10
3.361347
 20
0.4725
 10
4.766001999999999
 20
1.102654
 10
5.016001999999999
 20
1.102654
  0
TEXT
  5
9B
330
93
100
AcDbEntity
  8
0
  6
Continuous
 62
     5
100
AcDbText
 10
5.141001999999999
 20
0.977654
 30
0.0
 40
0.2071105701980341
  1
STR I KER CAP
 41
0.9090909999999999
 72
     3
 11
7.310732
 21
0.977654
 31
0.0
100
AcDbText
  0
ENDBLK
  5
9C
330
93
100
AcDbEntity
  8
0
100
AcDbBlockEnd
  0
BLOCK
  5
D89
330
D7E
100
AcDbEntity
  8
0
 62
     7
100
AcDbBlockBegin
  2
*D14
 70
     1
 10
0.0
 20
0.0
 30
0.0
  3
*D14
  1

  0
LINE
  5
E03
330
D7E
100
AcDbEntity
  8
0
  6
Continuous
 62
     1
370
    -2
100
AcDbLine
 10
0.9336000000000016
 20
2.134999999999998
 30
0.0
 11
-0.1012553729661556
 21
2.134999999999998
 31
0.0
  0
LINE
  5
E04
330
D7E
100
AcDbEntity
  8
0
  6
Continuous
 62
     1
370
    -2
100
AcDbLine
 10
0.9300000000000029
 20
7.106234
 30
0.0
 11
-0.1012553729661545
 21
7.106234
 31
0.0
  0
LINE
  5
E05
330
D7E
100
AcDbEntity
  8
0
  6
Continuous
 62
     1
370
    -2
100
AcDbLine
 10
-0.0012553729661555
 20
2.384999999999998
 30
0.0
 11
-0.001255372966155
 21
4.405616999999999
 31
0.0
  0
LINE
  5
E06
330
D7E
100
AcDbEntity
  8
0
  6
Continuous
 62
     1
370
    -2
100
AcDbLine
 10
-0.0012553729661545
 20
6.856234
 30
0.0
 11
-0.0012553729661549
 21
4.835616999999999
 31
0.0
  0
SOLID
  5
E07
330
D7E
100
AcDbEntity
  8
0
  6
Continuous
 62
     1
100
AcDbTrace
 10
-0.0429220396328221
 20
2.384999999999998
 30
0.0
 11
0.0404112937005112
 21
2.384999999999998
 31
0.0
 12
-0.0012553729661555
 22
2.134999999999998
 32
0.0
 13
-0.0012553729661555
 23
2.134999999999998
 33
0.0
  0
SOLID
  5
E08
330
D7E
100
AcDbEntity
  8
0
  6
Continuous
 62
     1
100
AcDbTrace
 10
-0.0429220396328211
 20
6.856234
 30
0.0
 11
0.0404112937005122
 21
6.856234
 31
0.0
 12
-0.0012553729661544
 22
7.106234
 32
0.0
 13
-0.0012553729661544
 23
7.106234
 33
0.0
  0
MTEXT
  5
E09
330
D7E
100
AcDbEntity
  8
0
  6
Continuous
 62
     1
100
AcDbMText
 10
-0.0012553729661557
 20
4.620616999999999
 30
0.0
 40
0.25
 41
0.0
 71
     5
 72
     1
  1
\A1;5
 73
     1
 44
1.0
  0
POINT
  5
E0A
330
D7E
100
AcDbEntity
  8
Defpoints
  6
Continuous
 62
     0
100
AcDbPoint
 10
1.033600000000001
 20
2.134999999999998
 30
0.0
  0
POINT
  5
E0B
330
D7E
100
AcDbEntity
  8
Defpoints
  6
Continuous
 62
     0
100
AcDbPoint
 10
1.030000000000002
 20
7.106234
 30
0.0
  0
POINT
  5
E0C
330
D7E
100
AcDbEntity
  8
Defpoints
  6
Continuous
 62
     0
100
AcDbPoint
 10
-0.0012553729661544
 20
7.106234
 30
0.0
  0
ENDBLK
  5
D8A
330
D7E
100
AcDbEntity
  8
0
 62
     7
100
AcDbBlockEnd
  0
BLOCK
  5
D96
330
D8B
100
AcDbEntity
  8
0
 62
     7
100
AcDbBlockBegin
  2
*D15
 70
     1
 10
0.0
 20
0.0
 30
0.0
  3
*D15
  1

  0
LINE
  5
E0D
330
D8B
100
AcDbEntity
  8
0
  6
Continuous
 62
     1
370
    -2
100
AcDbLine
 10
1.585
 20
1.009999999999999
 30
0.0
 11
0.2787944164167542
 21
1.01
 31
0.0
  0
LINE
  5
E0E
330
D8B
100
AcDbEntity
  8
0
  6
Continuous
 62
     1
370
    -2
100
AcDbLine
 10
0.9336000000000016
 20
2.134999999999998
 30
0.0
 11
0.2787944164167546
 21
2.134999999999998
 31
0.0
  0
LINE
  5
E0F
330
D8B
100
AcDbEntity
  8
0
  6
Continuous
 62
     1
370
    -2
100
AcDbLine
 10
0.3787944164167541
 20
0.7600000000000002
 30
0.0
 11
0.3787944164167541
 21
0.5100000000000002
 31
0.0
  0
LINE
  5
E10
330
D8B
100
AcDbEntity
  8
0
  6
Continuous
 62
     1
370
    -2
100
AcDbLine
 10
0.3787944164167545
 20
2.384999999999998
 30
0.0
 11
0.3787944164167546
 21
2.634999999999998
 31
0.0
  0
SOLID
  5
E11
330
D8B
100
AcDbEntity
  8
0
  6
Continuous
 62
     1
100
AcDbTrace
 10
0.3371277497500875
 20
0.7600000000000002
 30
0.0
 11
0.4204610830834209
 21
0.7600000000000002
 31
0.0
 12
0.3787944164167542
 22
1.01
 32
0.0
 13
0.3787944164167542
 23
1.01
 33
0.0
  0
SOLID
  5
E12
330
D8B
100
AcDbEntity
  8
0
  6
Continuous
 62
     1
100
AcDbTrace
 10
0.3371277497500879
 20
2.384999999999998
 30
0.0
 11
0.4204610830834213
 21
2.384999999999998
 31
0.0
 12
0.3787944164167545
 22
2.134999999999998
 32
0.0
 13
0.3787944164167545
 23
2.134999999999998
 33
0.0
  0
MTEXT
  5
E13
330
D8B
100
AcDbEntity
  8
0
  6
Continuous
 62
     1
100
AcDbMText
 10
0.3787944164167541
 20
1.572499999999999
 30
0.0
 40
0.25
 41
0.0
 71
     5
 72
     1
  1
\A1;1{\H1.000000x;\S1/8;}
 73
     1
 44
1.0
  0
POINT
  5
E14
330
D8B
100
AcDbEntity
  8
Defpoints
  6
Continuous
 62
     0
100
AcDbPoint
 10
1.685
 20
1.009999999999999
 30
0.0
  0
POINT
  5
E15
330
D8B
100
AcDbEntity
  8
Defpoints
  6
Continuous
 62
     0
100
AcDbPoint
 10
1.033600000000001
 20
2.134999999999998
 30
0.0
  0
POINT
  5
E16
330
D8B
100
AcDbEntity
  8
Defpoints
  6
Continuous
 62
     0
100
AcDbPoint
 10
0.3787944164167545
 20
2.134999999999998
 30
0.0
  0
ENDBLK
  5
D97
330
D8B
100
AcDbEntity
  8
0
 62
     7
100
AcDbBlockEnd
  0
BLOCK
  5
DE2
330
DD7
100
AcDbEntity
  8
0
 62
     7
100
AcDbBlockBegin
  2
*D17
 70
     1
 10
0.0
 20
0.0
 30
0.0
  3
*D17
  1

  0
LINE
  5
E3E
330
DD7
100
AcDbEntity
  8
0
  6
Continuous
 62
     1
370
    -2
100
AcDbLine
 10
0.135
 20
26.831234
 30
0.0
 11
0.1350000000000001
 21
27.85876627581667
 31
0.0
  0
LINE
  5
E3F
330
DD7
100
AcDbEntity
  8
0
  6
Continuous
 62
     1
370
    -2
100
AcDbLine
 10
4.884999999999999
 20
26.831234
 30
0.0
 11
4.884999999999999
 21
27.85876627581667
 31
0.0
  0
LINE
  5
E40
330
DD7
100
AcDbEntity
  8
0
  6
Continuous
 62
     1
370
    -2
100
AcDbLine
 10
0.3850000000000001
 20
27.75876627581666
 30
0.0
 11
2.211666666666666
 21
27.75876627581666
 31
0.0
  0
LINE
  5
E41
330
DD7
100
AcDbEntity
  8
0
  6
Continuous
 62
     1
370
    -2
100
AcDbLine
 10
4.634999999999999
 20
27.75876627581666
 30
0.0
 11
2.808333333333333
 21
27.75876627581666
 31
0.0
  0
SOLID
  5
E42
330
DD7
100
AcDbEntity
  8
0
  6
Continuous
 62
     1
100
AcDbTrace
 10
0.3850000000000001
 20
27.80043294248333
 30
0.0
 11
0.3850000000000001
 21
27.71709960915
 31
0.0
 12
0.1350000000000001
 22
27.75876627581666
 32
0.0
 13
0.1350000000000001
 23
27.75876627581666
 33
0.0
  0
SOLID
  5
E43
330
DD7
100
AcDbEntity
  8
0
  6
Continuous
 62
     1
100
AcDbTrace
 10
4.634999999999999
 20
27.80043294248333
 30
0.0
 11
4.634999999999999
 21
27.71709960915
 31
0.0
 12
4.884999999999999
 22
27.75876627581666
 32
0.0
 13
4.884999999999999
 23
27.75876627581666
 33
0.0
  0
MTEXT
  5
E44
330
DD7
100
AcDbEntity
  8
0
  6
Continuous
 62
     1
100
AcDbMText
 10
2.509999999999999
 20
27.75876627581666
 30
0.0
 40
0.25
 41
0.0
 71
     5
 72
     1
  1
\A1;4{\H1.000000x;\S3/4;}
 73
     1
 44
1.0
  0
POINT
  5
E45
330
DD7
100
AcDbEntity
  8
Defpoints
  6
Continuous
 62
     0
100
AcDbPoint
 10
0.135
 20
26.731234
 30
0.0
  0
POINT
  5
E46
330
DD7
100
AcDbEntity
  8
Defpoints
  6
Continuous
 62
     0
100
AcDbPoint
 10
4.884999999999999
 20
26.731234
 30
0.0
  0
POINT
  5
E47
330
DD7
100
AcDbEntity
  8
Defpoints
  6
Continuous
 62
     0
100
AcDbPoint
 10
4.884999999999999
 20
27.75876627581666
 30
0.0
  0
ENDBLK
  5
DE3
330
DD7
100
AcDbEntity
  8
0
 62
     7
100
AcDbBlockEnd
  0
BLOCK
  5
E2E
330
E23
100
AcDbEntity
  8
0
 62
     7
100
AcDbBlockBegin
  2
*D18
 70
     1
 10
0.0
 20
0.0
 30
0.0
  3
*D18
  1

  0
LINE
  5
E24
330
E23
100
AcDbEntity
  8
0
  6
Continuous
 62
     1
370
    -2
100
AcDbLine
 10
1.585
 20
1.009999999999999
 30
0.0
 11
-1.817579030012106
 21
1.01
 31
0.0
  0
LINE
  5
E25
330
E23
100
AcDbEntity
  8
0
  6
Continuous
 62
     1
370
    -2
100
AcDbLine
 10
0.2425
 20
27.166234
 30
0.0
 11
-1.8175790300121
 21
27.166234
 31
0.0
  0
LINE
  5
E26
330
E23
100
AcDbEntity
  8
0
  6
Continuous
 62
     1
370
    -2
100
AcDbLine
 10
-1.717579030012106
 20
1.26
 30
0.0
 11
-1.717579030012103
 21
13.873117
 31
0.0
  0
LINE
  5
E27
330
E23
100
AcDbEntity
  8
0
  6
Continuous
 62
     1
370
    -2
100
AcDbLine
 10
-1.7175790300121
 20
26.916234
 30
0.0
 11
-1.717579030012103
 21
14.303117
 31
0.0
  0
SOLID
  5
E28
330
E23
100
AcDbEntity
  8
0
  6
Continuous
 62
     1
100
AcDbTrace
 10
-1.759245696678773
 20
1.26
 30
0.0
 11
-1.675912363345439
 21
1.26
 31
0.0
 12
-1.717579030012106
 22
1.01
 32
0.0
 13
-1.717579030012106
 23
1.01
 33
0.0
  0
SOLID
  5
E29
330
E23
100
AcDbEntity
  8
0
  6
Continuous
 62
     1
100
AcDbTrace
 10
-1.759245696678767
 20
26.916234
 30
0.0
 11
-1.675912363345434
 21
26.916234
 31
0.0
 12
-1.7175790300121
 22
27.166234
 32
0.0
 13
-1.7175790300121
 23
27.166234
 33
0.0
  0
MTEXT
  5
E2A
330
E23
100
AcDbEntity
  8
0
  6
Continuous
 62
     1
100
AcDbMText
 10
-1.717579030012105
 20
14.088117
 30
0.0
 40
0.25
 41
0.0
 71
     5
 72
     1
  1
\A1;26
 73
     1
 44
1.0
  0
POINT
  5
E2B
330
E23
100
AcDbEntity
  8
Defpoints
  6
Continuous
 62
     0
100
AcDbPoint
 10
1.685
 20
1.009999999999999
 30
0.0
  0
POINT
  5
E2C
330
E23
100
AcDbEntity
  8
Defpoints
  6
Continuous
 62
     0
100
AcDbPoint
 10
0.3425
 20
27.166234
 30
0.0
  0
POINT
  5
E2D
330
E23
100
AcDbEntity
  8
Defpoints
  6
Continuous
 62
     0
100
AcDbPoint
 10
-1.7175790300121
 20
27.166234
 30
0.0
  0
ENDBLK
  5
E2F
330
E23
100
AcDbEntity
  8
0
 62
     7
100
AcDbBlockEnd
  0
ENDSEC
  0
SECTION
  2
ENTITIES
  0
LINE
  5
9F
330
19
100
AcDbEntity
  8
0
  6
Continuous
 62
   255
100
AcDbLine
 10
0.135
 20
13.85623399999999
 30
0.0
 11
4.884999999999998
 21
13.856234
 31
0.0
  0
LINE
  5
A0
330
19
100
AcDbEntity
  8
0
  6
Continuous
 62
   255
100
AcDbLine
 10
0.135
 20
14.98123399999999
 30
0.0
 11
4.884999999999998
 21
14.981234
 31
0.0
  0
LINE
  5
A3
330
19
100
AcDbEntity
  8
0
  6
Continuous
 62
   255
100
AcDbLine
 10
0.135
 20
15.35623399999999
 30
0.0
 11
4.884999999999998
 21
15.356234
 31
0.0
  0
LINE
  5
A8
330
19
100
AcDbEntity
  8
0
  6
Continuous
 62
   255
100
AcDbLine
 10
0.135
 20
26.356234
 30
0.0
 11
4.884999999999999
 21
26.356234
 31
0.0
  0
LINE
  5
AB
330
19
100
AcDbEntity
  8
0
  6
Continuous
 62
   255
100
AcDbLine
 10
0.135
 20
26.73123400000001
 30
0.0
 11
4.884999999999999
 21
26.73123400000001
 31
0.0
  0
LINE
  5
AC
330
19
100
AcDbEntity
  8
0
  6
Continuous
 62
   255
100
AcDbLine
 10
1.01
 20
14.98123399999999
 30
0.0
 11
1.01
 21
15.35623399999999
 31
0.0
  0
LINE
  5
AD
330
19
100
AcDbEntity
  8
0
  6
Continuous
 62
   255
100
AcDbLine
 10
4.009999999999999
 20
14.98123399999999
 30
0.0
 11
4.009999999999999
 21
15.35623399999999
 31
0.0
  0
LINE
  5
AE
330
19
100
AcDbEntity
  8
0
  6
Continuous
 62
   255
100
AcDbLine
 10
4.009999999999999
 20
26.356234
 30
0.0
 11
4.009999999999999
 21
26.731234
 31
0.0
  0
LINE
  5
AF
330
19
100
AcDbEntity
  8
0
  6
Continuous
 62
   255
100
AcDbLine
 10
1.01
 20
26.356234
 30
0.0
 11
1.01
 21
26.731234
 31
0.0
  0
LINE
  5
B0
330
19
100
AcDbEntity
  8
0
  6
Continuous
 62
   255
100
AcDbLine
 10
0.135
 20
19.85623399999999
 30
0.0
 11
0.3225
 21
19.856234
 31
0.0
  0
LINE
  5
B1
330
19
100
AcDbEntity
  8
0
  6
Continuous
 62
   255
100
AcDbLine
 10
0.135
 20
19.73123399999999
 30
0.0
 11
0.3225
 21
19.731234
 31
0.0
  0
LINE
  5
B2
330
19
100
AcDbEntity
  8
0
  6
Continuous
 62
   255
100
AcDbLine
 10
0.6975
 20
19.856234
 30
0.0
 11
4.322499999999999
 21
19.856234
 31
0.0
  0
LINE
  5
B3
330
19
100
AcDbEntity
  8
0
  6
Continuous
 62
   255
100
AcDbLine
 10
4.697499999999999
 20
19.856234
 30
0.0
 11
4.884999999999999
 21
19.85623399999999
 31
0.0
  0
LINE
  5
B4
330
19
100
AcDbEntity
  8
0
  6
Continuous
 62
   255
100
AcDbLine
 10
0.6975
 20
19.731234
 30
0.0
 11
4.322499999999999
 21
19.731234
 31
0.0
  0
LINE
  5
B5
330
19
100
AcDbEntity
  8
0
  6
Continuous
 62
   255
100
AcDbLine
 10
4.697499999999999
 20
19.731234
 30
0.0
 11
4.884999999999999
 21
19.73123399999999
 31
0.0
  0
LINE
  5
B6
330
19
100
AcDbEntity
  8
0
  6
Continuous
 62
   255
100
AcDbLine
 10
0.3225
 20
14.98123399999999
 30
0.0
 11
0.3225
 21
14.97123399999999
 31
0.0
  0
LINE
  5
B7
330
19
100
AcDbEntity
  8
0
  6
Continuous
 62
   255
100
AcDbLine
 10
0.3225
 20
14.97123399999999
 30
0.0
 11
0.3425
 21
14.95123399999999
 31
0.0
  0
LINE
  5
B8
330
19
100
AcDbEntity
  8
0
  6
Continuous
 62
   255
100
AcDbLine
 10
0.6975
 20
14.97123399999999
 30
0.0
 11
0.6775000000000001
 21
14.95123399999999
 31
0.0
  0
LINE
  5
B9
330
19
100
AcDbEntity
  8
0
  6
Continuous
 62
   255
100
AcDbLine
 10
0.3425
 20
14.95123399999999
 30
0.0
 11
0.6775000000000001
 21
14.95123399999999
 31
0.0
  0
LINE
  5
BA
330
19
100
AcDbEntity
  8
0
  6
Continuous
 62
   255
100
AcDbLine
 10
0.6975
 20
14.98123399999999
 30
0.0
 11
0.6975
 21
14.97123399999999
 31
0.0
  0
LINE
  5
BB
330
19
100
AcDbEntity
  8
0
  6
Continuous
 62
   255
100
AcDbLine
 10
4.697499999999999
 20
14.98123399999999
 30
0.0
 11
4.697499999999999
 21
14.97123399999999
 31
0.0
  0
LINE
  5
BC
330
19
100
AcDbEntity
  8
0
  6
Continuous
 62
   255
100
AcDbLine
 10
4.697499999999999
 20
14.97123399999999
 30
0.0
 11
4.6775
 21
14.95123399999999
 31
0.0
  0
LINE
  5
BD
330
19
100
AcDbEntity
  8
0
  6
Continuous
 62
   255
100
AcDbLine
 10
4.322499999999999
 20
14.97123399999999
 30
0.0
 11
4.3425
 21
14.95123399999999
 31
0.0
  0
LINE
  5
BE
330
19
100
AcDbEntity
  8
0
  6
Continuous
 62
   255
100
AcDbLine
 10
4.6775
 20
14.95123399999999
 30
0.0
 11
4.3425
 21
14.95123399999999
 31
0.0
  0
LINE
  5
BF
330
19
100
AcDbEntity
  8
0
  6
Continuous
 62
   255
100
AcDbLine
 10
4.322499999999999
 20
14.98123399999999
 30
0.0
 11
4.322499999999999
 21
14.97123399999999
 31
0.0
  0
LINE
  5
C0
330
19
100
AcDbEntity
  8
0
  6
Continuous
 62
   255
100
AcDbLine
 10
0.2175
 20
27.106234
 30
0.0
 11
0.8025
 21
27.106234
 31
0.0
  0
ARC
  5
C1
330
19
100
AcDbEntity
  8
0
  6
Continuous
 62
   255
100
AcDbCircle
 10
0.2175
 20
27.086234
 30
0.0
 40
0.02
100
AcDbArc
 50
90.0
 51
180.0
  0
ARC
  5
C2
330
19
100
AcDbEntity
  8
0
  6
Continuous
 62
   255
100
AcDbCircle
 10
0.8025
 20
27.086234
 30
0.0
 40
0.02
100
AcDbArc
 50
0.0
 51
90.0
  0
ARC
  5
C3
330
19
100
AcDbEntity
  8
0
  6
Continuous
 62
   255
100
AcDbCircle
 10
0.2475
 20
27.116234
 30
0.0
 40
0.02
100
AcDbArc
 50
90.0
 51
180.0
  0
LINE
  5
C4
330
19
100
AcDbEntity
  8
0
  6
Continuous
 62
   255
100
AcDbLine
 10
0.2275
 20
27.116234
 30
0.0
 11
0.2275
 21
27.106234
 31
0.0
  0
LINE
  5
C5
330
19
100
AcDbEntity
  8
0
  6
Continuous
 62
   255
100
AcDbLine
 10
0.479941
 20
27.136234
 30
0.0
 11
0.5300000000000001
 21
27.136234
 31
0.0
  0
ARC
  5
C6
330
19
100
AcDbEntity
  8
0
  6
Continuous
 62
   255
100
AcDbCircle
 10
0.7725
 20
27.116234
 30
0.0
 40
0.02
100
AcDbArc
 50
0.0
 51
90.0
  0
LINE
  5
C7
330
19
100
AcDbEntity
  8
0
  6
Continuous
 62
   255
100
AcDbLine
 10
0.7925
 20
27.116234
 30
0.0
 11
0.7925
 21
27.106234
 31
0.0
  0
LINE
  5
C8
330
19
100
AcDbEntity
  8
0
  6
Continuous
 62
   255
100
AcDbLine
 10
0.2475
 20
27.136234
 30
0.0
 11
0.7725
 21
27.136234
 31
0.0
  0
LINE
  5
C9
330
19
100
AcDbEntity
  8
0
  6
Continuous
 62
   255
100
AcDbLine
 10
0.1975
 20
26.751234
 30
0.0
 11
0.1975
 21
27.086234
 31
0.0
  0
ARC
  5
CA
330
19
100
AcDbEntity
  8
0
  6
Continuous
 62
   255
100
AcDbCircle
 10
0.2175
 20
26.751234
 30
0.0
 40
0.02
100
AcDbArc
 50
180.0
 51
270.0
  0
ARC
  5
CB
330
19
100
AcDbEntity
  8
0
  6
Continuous
 62
   255
100
AcDbCircle
 10
0.28
 20
26.751234
 30
0.0
 40
0.02
100
AcDbArc
 50
180.0
 51
270.0
  0
ARC
  5
CC
330
19
100
AcDbEntity
  8
0
  6
Continuous
 62
   255
100
AcDbCircle
 10
0.7400000000000001
 20
26.751234
 30
0.0
 40
0.02
100
AcDbArc
 50
270.0
 51
0.0
  0
LINE
  5
CD
330
19
100
AcDbEntity
  8
0
  6
Continuous
 62
   255
100
AcDbLine
 10
0.8224999999999999
 20
26.751234
 30
0.0
 11
0.8224999999999999
 21
27.086234
 31
0.0
  0
ARC
  5
CE
330
19
100
AcDbEntity
  8
0
  6
Continuous
 62
   255
100
AcDbCircle
 10
0.8025
 20
26.751234
 30
0.0
 40
0.02
100
AcDbArc
 50
270.0
 51
0.0
  0
ARC
  5
CF
330
19
100
AcDbEntity
  8
0
  6
Continuous
 62
   255
100
AcDbCircle
 10
0.28
 20
27.086234
 30
0.0
 40
0.02
100
AcDbArc
 50
90.0
 51
180.0
  0
ARC
  5
D0
330
19
100
AcDbEntity
  8
0
  6
Continuous
 62
   255
100
AcDbCircle
 10
0.7400000000000001
 20
27.086234
 30
0.0
 40
0.02
100
AcDbArc
 50
0.0
 51
90.0
  0
LINE
  5
D1
330
19
100
AcDbEntity
  8
0
  6
Continuous
 62
   255
100
AcDbLine
 10
0.76
 20
27.086234
 30
0.0
 11
0.76
 21
26.751234
 31
0.0
  0
LINE
  5
D2
330
19
100
AcDbEntity
  8
0
  6
Continuous
 62
   255
100
AcDbLine
 10
0.26
 20
27.086234
 30
0.0
 11
0.26
 21
26.751234
 31
0.0
  0
LINE
  5
D3
330
19
100
AcDbEntity
  8
0
  6
Continuous
 62
   255
100
AcDbLine
 10
0.3225
 20
27.146234
 30
0.0
 11
0.3225
 21
27.136234
 31
0.0
  0
LINE
  5
D4
330
19
100
AcDbEntity
  8
0
  6
Continuous
 62
   255
100
AcDbLine
 10
0.6975
 20
27.146234
 30
0.0
 11
0.6975
 21
27.136234
 31
0.0
  0
LINE
  5
D5
330
19
100
AcDbEntity
  8
0
  6
Continuous
 62
   255
100
AcDbLine
 10
0.3425
 20
27.166234
 30
0.0
 11
0.6775000000000001
 21
27.166234
 31
0.0
  0
LINE
  5
D6
330
19
100
AcDbEntity
  8
0
  6
Continuous
 62
   255
100
AcDbLine
 10
0.6975
 20
27.146234
 30
0.0
 11
0.6775000000000001
 21
27.166234
 31
0.0
  0
LINE
  5
D7
330
19
100
AcDbEntity
  8
0
  6
Continuous
 62
   255
100
AcDbLine
 10
0.3225
 20
27.146234
 30
0.0
 11
0.3425
 21
27.166234
 31
0.0
  0
LINE
  5
D8
330
19
100
AcDbEntity
  8
0
  6
Continuous
 62
   255
100
AcDbLine
 10
4.8025
 20
27.106234
 30
0.0
 11
4.2175
 21
27.106234
 31
0.0
  0
ARC
  5
D9
330
19
100
AcDbEntity
  8
0
  6
Continuous
 62
   255
100
AcDbCircle
 10
4.8025
 20
27.086234
 30
0.0
 40
0.02
100
AcDbArc
 50
0.0
 51
90.0
  0
ARC
  5
DA
330
19
100
AcDbEntity
  8
0
  6
Continuous
 62
   255
100
AcDbCircle
 10
4.2175
 20
27.086234
 30
0.0
 40
0.02
100
AcDbArc
 50
90.0
 51
180.0
  0
ARC
  5
DB
330
19
100
AcDbEntity
  8
0
  6
Continuous
 62
   255
100
AcDbCircle
 10
4.772499999999999
 20
27.116234
 30
0.0
 40
0.02
100
AcDbArc
 50
0.0
 51
90.0
  0
LINE
  5
DC
330
19
100
AcDbEntity
  8
0
  6
Continuous
 62
   255
100
AcDbLine
 10
4.7925
 20
27.116234
 30
0.0
 11
4.7925
 21
27.106234
 31
0.0
  0
LINE
  5
DD
330
19
100
AcDbEntity
  8
0
  6
Continuous
 62
   255
100
AcDbLine
 10
4.540058999999999
 20
27.136234
 30
0.0
 11
4.49
 21
27.136234
 31
0.0
  0
ARC
  5
DE
330
19
100
AcDbEntity
  8
0
  6
Continuous
 62
   255
100
AcDbCircle
 10
4.247499999999999
 20
27.116234
 30
0.0
 40
0.02
100
AcDbArc
 50
90.0
 51
180.0
  0
LINE
  5
DF
330
19
100
AcDbEntity
  8
0
  6
Continuous
 62
   255
100
AcDbLine
 10
4.2275
 20
27.116234
 30
0.0
 11
4.2275
 21
27.106234
 31
0.0
  0
LINE
  5
E0
330
19
100
AcDbEntity
  8
0
  6
Continuous
 62
   255
100
AcDbLine
 10
4.772499999999999
 20
27.136234
 30
0.0
 11
4.247499999999999
 21
27.136234
 31
0.0
  0
LINE
  5
E1
330
19
100
AcDbEntity
  8
0
  6
Continuous
 62
   255
100
AcDbLine
 10
4.822499999999999
 20
26.751234
 30
0.0
 11
4.822499999999999
 21
27.086234
 31
0.0
  0
ARC
  5
E2
330
19
100
AcDbEntity
  8
0
  6
Continuous
 62
   255
100
AcDbCircle
 10
4.8025
 20
26.751234
 30
0.0
 40
0.02
100
AcDbArc
 50
270.0
 51
0.0
  0
ARC
  5
E3
330
19
100
AcDbEntity
  8
0
  6
Continuous
 62
   255
100
AcDbCircle
 10
4.74
 20
26.751234
 30
0.0
 40
0.02
100
AcDbArc
 50
270.0
 51
0.0
  0
ARC
  5
E4
330
19
100
AcDbEntity
  8
0
  6
Continuous
 62
   255
100
AcDbCircle
 10
4.28
 20
26.751234
 30
0.0
 40
0.02
100
AcDbArc
 50
180.0
 51
270.0
  0
LINE
  5
E5
330
19
100
AcDbEntity
  8
0
  6
Continuous
 62
   255
100
AcDbLine
 10
4.197499999999999
 20
26.751234
 30
0.0
 11
4.197499999999999
 21
27.086234
 31
0.0
  0
ARC
  5
E6
330
19
100
AcDbEntity
  8
0
  6
Continuous
 62
   255
100
AcDbCircle
 10
4.2175
 20
26.751234
 30
0.0
 40
0.02
100
AcDbArc
 50
180.0
 51
270.0
  0
ARC
  5
E7
330
19
100
AcDbEntity
  8
0
  6
Continuous
 62
   255
100
AcDbCircle
 10
4.74
 20
27.086234
 30
0.0
 40
0.02
100
AcDbArc
 50
0.0
 51
90.0
  0
ARC
  5
E8
330
19
100
AcDbEntity
  8
0
  6
Continuous
 62
   255
100
AcDbCircle
 10
4.28
 20
27.086234
 30
0.0
 40
0.02
100
AcDbArc
 50
90.0
 51
180.0
  0
LINE
  5
E9
330
19
100
AcDbEntity
  8
0
  6
Continuous
 62
   255
100
AcDbLine
 10
4.259999999999999
 20
27.086234
 30
0.0
 11
4.259999999999999
 21
26.751234
 31
0.0
  0
LINE
  5
EA
330
19
100
AcDbEntity
  8
0
  6
Continuous
 62
   255
100
AcDbLine
 10
4.759999999999999
 20
27.086234
 30
0.0
 11
4.759999999999999
 21
26.751234
 31
0.0
  0
LINE
  5
EB
330
19
100
AcDbEntity
  8
0
  6
Continuous
 62
   255
100
AcDbLine
 10
4.697499999999999
 20
27.146234
 30
0.0
 11
4.697499999999999
 21
27.136234
 31
0.0
  0
LINE
  5
EC
330
19
100
AcDbEntity
  8
0
  6
Continuous
 62
   255
100
AcDbLine
 10
4.322499999999999
 20
27.146234
 30
0.0
 11
4.322499999999999
 21
27.136234
 31
0.0
  0
LINE
  5
ED
330
19
100
AcDbEntity
  8
0
  6
Continuous
 62
   255
100
AcDbLine
 10
4.6775
 20
27.166234
 30
0.0
 11
4.3425
 21
27.166234
 31
0.0
  0
LINE
  5
EE
330
19
100
AcDbEntity
  8
0
  6
Continuous
 62
   255
100
AcDbLine
 10
4.322499999999999
 20
27.146234
 30
0.0
 11
4.3425
 21
27.166234
 31
0.0
  0
LINE
  5
EF
330
19
100
AcDbEntity
  8
0
  6
Continuous
 62
   255
100
AcDbLine
 10
4.697499999999999
 20
27.146234
 30
0.0
 11
4.6775
 21
27.166234
 31
0.0
  0
CIRCLE
  5
F0
330
19
100
AcDbEntity
  8
0
  6
Continuous
 62
   255
100
AcDbCircle
 10
2.509999999999999
 20
18.606234
 30
0.0
 40
0.1875
  0
LINE
  5
F1
330
19
100
AcDbEntity
  8
0
  6
Continuous
 62
   255
100
AcDbLine
 10
1.385
 20
18.918734
 30
0.0
 11
1.385
 21
18.293734
 31
0.0
  0
LINE
  5
F2
330
19
100
AcDbEntity
  8
0
  6
Continuous
 62
   255
100
AcDbLine
 10
3.634999999999999
 20
18.918734
 30
0.0
 11
3.634999999999999
 21
18.293734
 31
0.0
  0
LINE
  5
F3
330
19
100
AcDbEntity
  8
0
  6
Continuous
 62
   255
100
AcDbLine
 10
1.447499999999999
 20
18.231234
 30
0.0
 11
3.572499999999999
 21
18.231234
 31
0.0
  0
LINE
  5
F4
330
19
100
AcDbEntity
  8
0
  6
Continuous
 62
   255
100
AcDbLine
 10
1.447499999999999
 20
18.981234
 30
0.0
 11
3.572499999999999
 21
18.981234
 31
0.0
  0
ARC
  5
F5
330
19
100
AcDbEntity
  8
0
  6
Continuous
 62
   255
100
AcDbCircle
 10
3.572499999999999
 20
18.918734
 30
0.0
 40
0.0625
100
AcDbArc
 50
0.0
 51
90.0
  0
ARC
  5
F6
330
19
100
AcDbEntity
  8
0
  6
Continuous
 62
   255
100
AcDbCircle
 10
3.572499999999999
 20
18.293734
 30
0.0
 40
0.0625
100
AcDbArc
 50
270.0
 51
0.0
  0
ARC
  5
F7
330
19
100
AcDbEntity
  8
0
  6
Continuous
 62
   255
100
AcDbCircle
 10
1.447499999999999
 20
18.293734
 30
0.0
 40
0.0625
100
AcDbArc
 50
180.0
 51
270.0
  0
ARC
  5
F8
330
19
100
AcDbEntity
  8
0
  6
Continuous
 62
   255
100
AcDbCircle
 10
1.447499999999999
 20
18.918734
 30
0.0
 40
0.0625
100
AcDbArc
 50
90.0
 51
180.0
  0
TEXT
  5
F9
330
19
100
AcDbEntity
  8
0
  6
Continuous
 62
   255
100
AcDbText
 10
2.632749
 20
18.320004
 30
0.0
 40
0.0520014063383209
  1
O I L  L E V E L
 41
0.9090909999999999
 72
     3
 11
3.276575999999999
 21
18.320004
 31
0.0
100
AcDbText
  0
LINE
  5
FA
330
19
100
AcDbEntity
  8
0
  6
Continuous
 62
   255
100
AcDbLine
 10
3.317558
 20
18.350153
 30
0.0
 11
3.634999999999999
 21
18.350153
 31
0.0
  0
LINE
  5
FB
330
19
100
AcDbEntity
  8
0
  6
Continuous
 62
   255
100
AcDbLine
 10
1.385
 20
24.043734
 30
0.0
 11
1.385
 21
23.418734
 31
0.0
  0
LINE
  5
FC
330
19
100
AcDbEntity
  8
0
  6
Continuous
 62
   255
100
AcDbLine
 10
3.634999999999999
 20
24.043734
 30
0.0
 11
3.634999999999999
 21
23.418734
 31
0.0
  0
LINE
  5
FD
330
19
100
AcDbEntity
  8
0
  6
Continuous
 62
   255
100
AcDbLine
 10
1.447499999999999
 20
23.356234
 30
0.0
 11
3.572499999999999
 21
23.356234
 31
0.0
  0
LINE
  5
FE
330
19
100
AcDbEntity
  8
0
  6
Continuous
 62
   255
100
AcDbLine
 10
1.447499999999999
 20
24.106234
 30
0.0
 11
3.572499999999999
 21
24.106234
 31
0.0
  0
ARC
  5
FF
330
19
100
AcDbEntity
  8
0
  6
Continuous
 62
   255
100
AcDbCircle
 10
3.572499999999999
 20
24.043734
 30
0.0
 40
0.0625
100
AcDbArc
 50
0.0
 51
90.0
  0
ARC
  5
100
330
19
100
AcDbEntity
  8
0
  6
Continuous
 62
   255
100
AcDbCircle
 10
3.572499999999999
 20
23.418734
 30
0.0
 40
0.0625
100
AcDbArc
 50
270.0
 51
0.0
  0
ARC
  5
101
330
19
100
AcDbEntity
  8
0
  6
Continuous
 62
   255
100
AcDbCircle
 10
1.447499999999999
 20
23.418734
 30
0.0
 40
0.0625
100
AcDbArc
 50
180.0
 51
270.0
  0
ARC
  5
102
330
19
100
AcDbEntity
  8
0
  6
Continuous
 62
   255
100
AcDbCircle
 10
1.447499999999999
 20
24.043734
 30
0.0
 40
0.0625
100
AcDbArc
 50
90.0
 51
180.0
  0
TEXT
  5
103
330
19
100
AcDbEntity
  8
0
  6
Continuous
 62
   255
100
AcDbText
 10
1.602459
 20
23.571957
 30
0.0
 40
0.3225611352540914
  1
MULTICYL
 41
0.8474579999999999
  7
SAS_____
 72
     3
 11
3.456712
 21
23.571957
 31
0.0
100
AcDbText
  0
TEXT
  5
104
330
19
100
AcDbEntity
  8
0
  6
Continuous
 62
   255
100
AcDbText
 10
1.467104
 20
18.798497
 30
0.0
 40
0.075352780464722
  1
M U L T I C Y L
 41
0.9090909999999999
 72
     3
 11
2.364161
 21
18.798497
 31
0.0
100
AcDbText
  0
LWPOLYLINE
  5
105
330
19
100
AcDbEntity
  8
0
  6
Continuous
 62
   255
100
AcDbPolyline
 90
        8
 70
     1
 43
0.02
 10
2.572499999999999
 20
18.606234
 10
2.554193999999999
 20
18.650429
 10
2.509999999999999
 20
18.668734
 10
2.465806
 20
18.650429
 10
2.447499999999999
 20
18.606234
 10
2.465806
 20
18.56203999999999
 10
2.509999999999999
 20
18.543734
 10
2.554193999999999
 20
18.56203999999999
  0
LINE
  5
10F
330
19
100
AcDbEntity
  8
0
  6
Continuous
 62
   255
100
AcDbLine
 10
0.135
 20
26.356234
 30
0.0
 11
4.884999999999999
 21
26.356234
 31
0.0
  0
LINE
  5
112
330
19
100
AcDbEntity
  8
0
  6
Continuous
 62
   255
100
AcDbLine
 10
4.322499999999999
 20
15.35623399999999
 30
0.0
 11
4.322499999999999
 21
26.356234
 31
0.0
  0
LINE
  5
113
330
19
100
AcDbEntity
  8
0
  6
Continuous
 62
   255
100
AcDbLine
 10
4.697499999999999
 20
15.35623399999999
 30
0.0
 11
4.697499999999999
 21
26.356234
 31
0.0
  0
LINE
  5
114
330
19
100
AcDbEntity
  8
0
  6
Continuous
 62
   255
100
AcDbLine
 10
0.6975
 20
15.35623399999999
 30
0.0
 11
0.6975
 21
26.356234
 31
0.0
  0
LINE
  5
115
330
19
100
AcDbEntity
  8
0
  6
Continuous
 62
   255
100
AcDbLine
 10
0.3225
 20
15.35623399999999
 30
0.0
 11
0.3225
 21
26.356234
 31
0.0
  0
LWPOLYLINE
  5
876
330
19
100
AcDbEntity
  8
TitleBlock&Notes
100
AcDbPolyline
 90
        4
 70
     1
 43
0.0
 10
-24.30086731229092
 20
-8.003807942043941
 10
30.09704196927033
 20
-8.003807942043948
 10
30.09704196927035
 20
34.03094013916247
 10
-24.30086731229091
 20
34.03094013916248
  0
ARC
  5
877
330
19
100
AcDbEntity
  8
TitleBlock&Notes
  6
Continuous
 62
     3
100
AcDbCircle
 10
16.94973925697093
 20
-5.145339970074122
 30
0.0
 40
0.791160548852636
100
AcDbArc
 50
6.936458519999997
 51
173.0635414800004
  0
LINE
  5
878
330
19
100
AcDbEntity
  8
TitleBlock&Notes
  6
Continuous
 62
     3
100
AcDbLine
 10
16.65904067842232
 20
-4.85437782141556
 30
0.0
 11
17.2404377906412
 21
-4.85437782141556
 31
0.0
  0
LINE
  5
879
330
19
100
AcDbEntity
  8
TitleBlock&Notes
  6
Continuous
 62
     3
100
AcDbLine
 10
16.63819467473353
 20
-4.87681695899419
 30
0.0
 11
17.26128379433007
 21
-4.87681695899419
 31
0.0
  0
LINE
  5
87A
330
19
100
AcDbEntity
  8
TitleBlock&Notes
  6
Continuous
 62
     3
100
AcDbLine
 10
16.55242084694771
 20
-5.039025759653362
 30
0.0
 11
17.00855344827795
 21
-5.031063949735997
 31
0.0
  0
LINE
  5
87B
330
19
100
AcDbEntity
  8
TitleBlock&Notes
  6
Continuous
 62
     3
100
AcDbLine
 10
16.59181450321979
 20
-4.942720885575788
 30
0.0
 11
17.30766396584377
 21
-4.942720885575788
 31
0.0
  0
LINE
  5
87C
330
19
100
AcDbEntity
  8
TitleBlock&Notes
  6
Continuous
 62
     3
100
AcDbLine
 10
17.34484126361887
 20
-5.031063949735997
 30
0.0
 11
16.55463720544466
 21
-5.031063949735997
 31
0.0
  0
LINE
  5
87D
330
19
100
AcDbEntity
  8
TitleBlock&Notes
  6
Continuous
 62
     3
100
AcDbLine
 10
16.62018295851221
 20
-4.899256096572841
 30
0.0
 11
17.27929551055132
 21
-4.899256096572841
 31
0.0
  0
LINE
  5
87E
330
19
100
AcDbEntity
  8
TitleBlock&Notes
  6
Continuous
 62
     3
100
AcDbLine
 10
16.60456154898239
 20
-4.921695234151478
 30
0.0
 11
17.29491692008121
 21
-4.921695234151478
 31
0.0
  0
LINE
  5
87F
330
19
100
AcDbEntity
  8
TitleBlock&Notes
  6
Continuous
 62
     3
100
AcDbLine
 10
16.73322159504768
 20
-5.88500821821162
 30
0.0
 11
17.17815518183861
 21
-5.877241853182546
 31
0.0
  0
LINE
  5
880
330
19
100
AcDbEntity
  8
TitleBlock&Notes
  6
Continuous
 62
     3
100
AcDbLine
 10
15.87266065319596
 20
-6.366834529634882
 30
0.0
 11
16.75813962903296
 21
-6.351378406792445
 31
0.0
  0
ARC
  5
881
330
19
100
AcDbEntity
  8
TitleBlock&Notes
  6
Continuous
 62
     3
100
AcDbCircle
 10
16.94973925697093
 20
-5.540298186728502
 30
0.0
 40
0.7885253414136752
100
AcDbArc
 50
185.1275404200005
 51
354.872459580001
  0
ARC
  5
882
330
19
100
AcDbEntity
  8
TitleBlock&Notes
  6
Continuous
 62
     3
100
AcDbCircle
 10
16.94973925697093
 20
-5.540298186728502
 30
0.0
 40
0.8109644789923189
100
AcDbArc
 50
184.9874829000004
 51
356.6043585300008
  0
LINE
  5
883
330
19
100
AcDbEntity
  8
TitleBlock&Notes
  6
Continuous
 62
     3
100
AcDbLine
 10
16.55003296368315
 20
-5.074975501968136
 30
0.0
 11
17.35228944167706
 21
-5.060972088892516
 31
0.0
  0
LINE
  5
884
330
19
100
AcDbEntity
  8
TitleBlock&Notes
  6
Continuous
 62
     3
100
AcDbLine
 10
16.54780902075776
 20
-5.348306950961507
 30
0.0
 11
17.00855344827795
 21
-5.340264629418506
 31
0.0
  0
LINE
  5
885
330
19
100
AcDbEntity
  8
TitleBlock&Notes
  6
Continuous
 62
     3
100
AcDbLine
 10
16.54590972727484
 20
-5.581742690418675
 30
0.0
 11
17.35589101301498
 21
-5.567604418126233
 31
0.0
  0
LINE
  5
886
330
19
100
AcDbEntity
  8
TitleBlock&Notes
  6
Continuous
 62
     3
100
AcDbLine
 10
16.54702468314282
 20
-5.599677260884945
 30
0.0
 11
17.35428078050238
 21
-5.58558655956417
 31
0.0
  0
LINE
  5
887
330
19
100
AcDbEntity
  8
TitleBlock&Notes
  6
Continuous
 62
     3
100
AcDbLine
 10
16.55007348876564
 20
-5.617578127766599
 30
0.0
 11
17.35185852047901
 21
-5.603582882537068
 31
0.0
  0
LINE
  5
888
330
19
100
AcDbEntity
  8
TitleBlock&Notes
  6
Continuous
 62
     3
100
AcDbLine
 10
16.55395110637405
 20
-5.635464454087092
 30
0.0
 11
17.34860753822665
 21
-5.621593701192846
 31
0.0
  0
LINE
  5
889
330
19
100
AcDbEntity
  8
TitleBlock&Notes
  6
Continuous
 62
     3
100
AcDbLine
 10
16.55867997510569
 20
-5.653335970576769
 30
0.0
 11
17.3445052150945
 21
-5.639619329679419
 31
0.0
  0
LINE
  5
88A
330
19
100
AcDbEntity
  8
TitleBlock&Notes
  6
Continuous
 62
     3
100
AcDbLine
 10
16.54988684001927
 20
-5.092932107667497
 30
0.0
 11
17.35562847510531
 21
-5.07886783965079
 31
0.0
  0
LINE
  5
88B
330
19
100
AcDbEntity
  8
TitleBlock&Notes
  6
Continuous
 62
     3
100
AcDbLine
 10
16.54974076123362
 20
-5.110888713366893
 30
0.0
 11
17.47885672401528
 21
-5.094670916438477
 31
0.0
  0
LINE
  5
88C
330
19
100
AcDbEntity
  8
TitleBlock&Notes
  6
Continuous
 62
     3
100
AcDbLine
 10
16.62218040078294
 20
-5.781979950219604
 30
0.0
 11
17.27729811315891
 21
-5.781979950219604
 31
0.0
  0
LINE
  5
88D
330
19
100
AcDbEntity
  8
TitleBlock&Notes
  6
Continuous
 62
     3
100
AcDbLine
 10
16.57265551877243
 20
-5.69363688605939
 30
0.0
 11
17.32682295029116
 21
-5.69363688605939
 31
0.0
  0
LINE
  5
88E
330
19
100
AcDbEntity
  8
TitleBlock&Notes
  6
Continuous
 62
     3
100
AcDbLine
 10
16.63379202618399
 20
-5.796973512680015
 30
0.0
 11
17.2744518431919
 21
-5.785790788954592
 31
0.0
  0
LINE
  5
88F
330
19
100
AcDbEntity
  8
TitleBlock&Notes
  6
Continuous
 62
     3
100
AcDbLine
 10
16.64902416155517
 20
-5.814661701415673
 30
0.0
 11
17.25984625342022
 21
-5.803999745195181
 31
0.0
  0
LINE
  5
890
330
19
100
AcDbEntity
  8
TitleBlock&Notes
  6
Continuous
 62
     3
100
AcDbLine
 10
16.66613763909916
 20
-5.83231703925394
 30
0.0
 11
17.2433594112322
 21
-5.822241597211476
 31
0.0
  0
LINE
  5
891
330
19
100
AcDbEntity
  8
TitleBlock&Notes
  6
Continuous
 62
     3
100
AcDbLine
 10
16.68548381083222
 20
-5.84993337787106
 30
0.0
 11
17.22463978509866
 21
-5.840522358692314
 31
0.0
  0
LINE
  5
892
330
19
100
AcDbEntity
  8
TitleBlock&Notes
  6
Continuous
 62
     3
100
AcDbLine
 10
16.70757671251803
 20
-5.867501786490343
 30
0.0
 11
17.20317347389053
 21
-5.858851095049288
 31
0.0
  0
LINE
  5
893
330
19
100
AcDbEntity
  8
TitleBlock&Notes
  6
Continuous
 62
     3
100
AcDbLine
 10
16.57081568900403
 20
-5.689032240393423
 30
0.0
 11
17.33362272702989
 21
-5.675717394693563
 31
0.0
  0
ARC
  5
894
330
19
100
AcDbEntity
  8
TitleBlock&Notes
  6
Continuous
 62
     3
100
AcDbCircle
 10
16.94973925697093
 20
-5.540298186728502
 30
0.0
 40
0.4070686640838322
100
AcDbArc
 50
187.1485089300004
 51
356.3951218200007
  0
LINE
  5
895
330
19
100
AcDbEntity
  8
TitleBlock&Notes
  6
Continuous
 62
     3
100
AcDbLine
 10
16.56428931071762
 20
-5.671192093818071
 30
0.0
 11
17.33952251483861
 21
-5.657660351414367
 31
0.0
  0
ARC
  5
896
330
19
100
AcDbEntity
  8
TitleBlock&Notes
  6
Continuous
 62
     3
100
AcDbCircle
 10
16.94973925697093
 20
-5.540298186728502
 30
0.0
 40
0.4295078016624761
100
AcDbArc
 50
187.1485089300004
 51
353.5789239900008
  0
ARC
  5
897
330
19
100
AcDbEntity
  8
TitleBlock&Notes
  6
Continuous
 62
     3
100
AcDbCircle
 10
16.94973925697093
 20
-5.540298186728502
 30
0.0
 40
0.4519382777340148
100
AcDbArc
 50
186.7746279100004
 51
351.0289824700008
  0
ARC
  5
898
330
19
100
AcDbEntity
  8
TitleBlock&Notes
  6
Continuous
 62
     3
100
AcDbCircle
 10
16.94973925697093
 20
-5.145339970074122
 30
0.0
 40
0.8136041293805204
100
AcDbArc
 50
5.155389820000086
 51
173.2499419800004
  0
ARC
  5
899
330
19
100
AcDbEntity
  8
TitleBlock&Notes
  6
Continuous
 62
     3
100
AcDbCircle
 10
16.94973925697093
 20
-5.145339970074122
 30
0.0
 40
0.4112962424819238
100
AcDbArc
 50
7.076443859999923
 51
166.2342647900004
  0
LINE
  5
89A
330
19
100
AcDbEntity
  8
TitleBlock&Notes
  6
Continuous
 62
     3
100
AcDbLine
 10
16.55017904246884
 20
-5.05701894114702
 30
0.0
 11
17.34812312212456
 21
-5.043090744060577
 31
0.0
  0
ARC
  5
89B
330
19
100
AcDbEntity
  8
TitleBlock&Notes
  6
Continuous
 62
     3
100
AcDbCircle
 10
16.94973925697093
 20
-5.145339970074122
 30
0.0
 40
0.4337353800605678
100
AcDbArc
 50
9.703799320000051
 51
166.2342647900004
  0
ARC
  5
89C
330
19
100
AcDbEntity
  8
TitleBlock&Notes
  6
Continuous
 62
     3
100
AcDbCircle
 10
16.94973925697093
 20
-5.145339970074122
 30
0.0
 40
0.4545734851729757
100
AcDbArc
 50
12.13355042000011
 51
170.8448616600005
  0
ARC
  5
89D
330
19
100
AcDbEntity
  8
TitleBlock&Notes
  6
Continuous
 62
     3
100
AcDbCircle
 10
16.94973925697093
 20
-5.540298186728502
 30
0.0
 40
0.833403616570963
100
AcDbArc
 50
184.9874829000004
 51
358.2401137300008
  0
LINE
  5
89E
330
19
100
AcDbEntity
  8
TitleBlock&Notes
  6
Continuous
 62
     3
100
AcDbLine
 10
16.54787445328298
 20
-5.340264629418506
 30
0.0
 11
18.11127603701706
 21
-5.340264629418506
 31
0.0
  0
LINE
  5
89F
330
19
100
AcDbEntity
  8
TitleBlock&Notes
  6
Continuous
 62
     3
100
AcDbLine
 10
16.54859326861613
 20
-5.251921565258278
 30
0.0
 11
18.07319713469406
 21
-5.251921565258278
 31
0.0
  0
LINE
  5
8A0
330
19
100
AcDbEntity
  8
TitleBlock&Notes
  6
Continuous
 62
     3
100
AcDbLine
 10
16.54766294197211
 20
-5.366263556660907
 30
0.0
 11
18.03713999866681
 21
-5.340264629418506
 31
0.0
  0
LINE
  5
8A1
330
19
100
AcDbEntity
  8
TitleBlock&Notes
  6
Continuous
 62
     3
100
AcDbLine
 10
16.54751681830823
 20
-5.384220162360264
 30
0.0
 11
18.11840347004276
 21
-5.356800209413307
 31
0.0
  0
LINE
  5
8A2
330
19
100
AcDbEntity
  8
TitleBlock&Notes
  6
Continuous
 62
     3
100
AcDbLine
 10
16.54737073952258
 20
-5.402176768059675
 30
0.0
 11
18.12608447659239
 21
-5.374620205643115
 31
0.0
  0
LINE
  5
8A3
330
19
100
AcDbEntity
  8
TitleBlock&Notes
  6
Continuous
 62
     3
100
AcDbLine
 10
16.54722461585864
 20
-5.420133328880769
 30
0.0
 11
18.13376548314218
 21
-5.392440156994631
 31
0.0
  0
LINE
  5
8A4
330
19
100
AcDbEntity
  8
TitleBlock&Notes
  6
Continuous
 62
     3
100
AcDbLine
 10
16.54707853707306
 20
-5.438089934580151
 30
0.0
 11
18.14144653457015
 21
-5.410260153224438
 31
0.0
  0
LINE
  5
8A5
330
19
100
AcDbEntity
  8
TitleBlock&Notes
  6
Continuous
 62
     3
100
AcDbLine
 10
16.54693241340912
 20
-5.456046540279537
 30
0.0
 11
18.14912754111988
 21
-5.428080104575979
 31
0.0
  0
LINE
  5
8A6
330
19
100
AcDbEntity
  8
TitleBlock&Notes
  6
Continuous
 62
     3
100
AcDbLine
 10
16.54678633462347
 20
-5.474003145978919
 30
0.0
 11
18.1568085476696
 21
-5.445900100805786
 31
0.0
  0
LINE
  5
8A7
330
19
100
AcDbEntity
  8
TitleBlock&Notes
  6
Continuous
 62
     3
100
AcDbLine
 10
16.5466402109596
 20
-5.491959706800034
 30
0.0
 11
18.16448959909756
 21
-5.463720052157302
 31
0.0
  0
LINE
  5
8A8
330
19
100
AcDbEntity
  8
TitleBlock&Notes
  6
Continuous
 62
     3
100
AcDbLine
 10
16.54649413217395
 20
-5.50991631249942
 30
0.0
 11
18.17217060564731
 21
-5.48154004838711
 31
0.0
  0
LINE
  5
8A9
330
19
100
AcDbEntity
  8
TitleBlock&Notes
  6
Continuous
 62
     3
100
AcDbLine
 10
16.54634800851001
 20
-5.527872918198802
 30
0.0
 11
18.17985161219701
 21
-5.499359999738643
 31
0.0
  0
LINE
  5
8AA
330
19
100
AcDbEntity
  8
TitleBlock&Notes
  6
Continuous
 62
     3
100
AcDbLine
 10
16.54620192972436
 20
-5.545829523898174
 30
0.0
 11
18.18753266362499
 21
-5.517179995968437
 31
0.0
  0
LINE
  5
8AB
330
19
100
AcDbEntity
  8
TitleBlock&Notes
  6
Continuous
 62
     3
100
AcDbLine
 10
16.54605580606049
 20
-5.563786084719282
 30
0.0
 11
18.19521367017478
 21
-5.534999947319978
 31
0.0
  0
LINE
  5
8AC
330
19
100
AcDbEntity
  8
TitleBlock&Notes
  6
Continuous
 62
     3
100
AcDbLine
 10
16.54959463756975
 20
-5.128845319066279
 30
0.0
 11
18.00916557463028
 21
-5.103368415920517
 31
0.0
  0
LINE
  5
8AD
330
19
100
AcDbEntity
  8
TitleBlock&Notes
  6
Continuous
 62
     3
100
AcDbLine
 10
16.5494485587841
 20
-5.14680187988738
 30
0.0
 11
18.01684662605831
 21
-5.121188367272033
 31
0.0
  0
LINE
  5
8AE
330
19
100
AcDbEntity
  8
TitleBlock&Notes
  6
Continuous
 62
     3
100
AcDbLine
 10
16.54930243512017
 20
-5.164758485586766
 30
0.0
 11
18.02452763260797
 21
-5.13900836350184
 31
0.0
  0
LINE
  5
8AF
330
19
100
AcDbEntity
  8
TitleBlock&Notes
  6
Continuous
 62
     3
100
AcDbLine
 10
16.54915635633452
 20
-5.182715091286137
 30
0.0
 11
18.03220863915775
 21
-5.15682831485337
 31
0.0
  0
LINE
  5
8B0
330
19
100
AcDbEntity
  8
TitleBlock&Notes
  6
Continuous
 62
     3
100
AcDbLine
 10
16.54901023267064
 20
-5.200671696985544
 30
0.0
 11
18.03988969058572
 21
-5.174648266204911
 31
0.0
  0
LINE
  5
8B1
330
19
100
AcDbEntity
  8
TitleBlock&Notes
  6
Continuous
 62
     3
100
AcDbLine
 10
16.54886415388499
 20
-5.218628302684916
 30
0.0
 11
18.04757069713546
 21
-5.192468262434704
 31
0.0
  0
LINE
  5
8B2
330
19
100
AcDbEntity
  8
TitleBlock&Notes
  6
Continuous
 62
     3
100
AcDbLine
 10
16.54871803022105
 20
-5.236584863506024
 30
0.0
 11
18.05525174856343
 21
-5.210288213786235
 31
0.0
  0
LINE
  5
8B3
330
19
100
AcDbEntity
  8
TitleBlock&Notes
  6
Continuous
 62
     3
100
AcDbLine
 10
16.69866523342006
 20
-5.251921565258278
 30
0.0
 11
18.06293275511313
 21
-5.228108210016042
 31
0.0
  0
ARC
  5
8B4
330
19
100
AcDbEntity
  8
TitleBlock&Notes
  6
Continuous
 62
     3
100
AcDbCircle
 10
16.94973925697093
 20
-5.145339970074122
 30
0.0
 40
0.8360432669591643
100
AcDbArc
 50
3.474582379999962
 51
173.2499419800004
  0
LINE
  5
8B5
330
19
100
AcDbEntity
  8
TitleBlock&Notes
  6
Continuous
 62
     3
100
AcDbLine
 10
8.779861269558509
 20
-6.508593826166258
 30
0.0
 11
16.85012344326531
 21
-6.367726889258118
 31
0.0
  0
LINE
  5
8B6
330
19
100
AcDbEntity
  8
TitleBlock&Notes
  6
Continuous
 62
     3
100
AcDbLine
 10
8.779861269558509
 20
-6.526547873803949
 30
0.0
 11
18.25120923653224
 21
-6.361224879875056
 31
0.0
  0
LINE
  5
8B7
330
19
100
AcDbEntity
  8
TitleBlock&Notes
  6
Continuous
 62
     3
100
AcDbLine
 10
8.779861269558509
 20
-6.544501921441657
 30
0.0
 11
18.56499477056135
 21
-6.373701758421191
 31
0.0
  0
LINE
  5
8B8
330
19
100
AcDbEntity
  8
TitleBlock&Notes
  6
Continuous
 62
     3
100
AcDbLine
 10
8.779861269558509
 20
-6.562455969079348
 30
0.0
 11
19.59358127607195
 21
-6.373701758421191
 31
0.0
  0
LINE
  5
8B9
330
19
100
AcDbEntity
  8
TitleBlock&Notes
  6
Continuous
 62
     3
100
AcDbLine
 10
15.22463429171248
 20
-6.665410546943547
 30
0.0
 11
21.1478898480851
 21
-6.562019752244832
 31
0.0
  0
LINE
  5
8BA
330
19
100
AcDbEntity
  8
TitleBlock&Notes
  6
Continuous
 62
     3
100
AcDbLine
 10
21.1478898480851
 20
-3.750089519412778
 30
0.0
 11
8.779861269558509
 21
-3.750089519412778
 31
0.0
  0
LINE
  5
8BB
330
19
100
AcDbEntity
  8
TitleBlock&Notes
  6
Continuous
 62
     3
100
AcDbLine
 10
21.1478898480851
 20
-4.191804840213887
 30
0.0
 11
8.779861269558509
 21
-4.191804840213887
 31
0.0
  0
LINE
  5
8BC
330
19
100
AcDbEntity
  8
TitleBlock&Notes
  6
Continuous
 62
     3
100
AcDbLine
 10
8.779861269558509
 20
-6.665410546943547
 30
0.0
 11
21.1478898480851
 21
-6.665410546943547
 31
0.0
  0
LINE
  5
8BD
330
19
100
AcDbEntity
  8
TitleBlock&Notes
  6
Continuous
 62
     3
100
AcDbLine
 10
8.779861269558509
 20
-6.580410016717042
 30
0.0
 11
20.62216782646082
 21
-6.373701758421191
 31
0.0
  0
LINE
  5
8BE
330
19
100
AcDbEntity
  8
TitleBlock&Notes
  6
Continuous
 62
     3
100
AcDbLine
 10
8.779861269558509
 20
-6.59836406435475
 30
0.0
 11
21.1478898480851
 21
-6.382479320746089
 31
0.0
  0
LINE
  5
8BF
330
19
100
AcDbEntity
  8
TitleBlock&Notes
  6
Continuous
 62
     3
100
AcDbLine
 10
8.779861269558509
 20
-6.616318111992445
 30
0.0
 11
21.1478898480851
 21
-6.400433368383804
 31
0.0
  0
LINE
  5
8C0
330
19
100
AcDbEntity
  8
TitleBlock&Notes
  6
Continuous
 62
     3
100
AcDbLine
 10
8.779861269558509
 20
-6.63427215963015
 30
0.0
 11
21.1478898480851
 21
-6.418387416021502
 31
0.0
  0
LINE
  5
8C1
330
19
100
AcDbEntity
  8
TitleBlock&Notes
  6
Continuous
 62
     3
100
AcDbLine
 10
8.779861269558509
 20
-6.65222616238956
 30
0.0
 11
21.1478898480851
 21
-6.436341418780926
 31
0.0
  0
LINE
  5
8C2
330
19
100
AcDbEntity
  8
TitleBlock&Notes
  6
Continuous
 62
     3
100
AcDbLine
 10
9.053115124014141
 20
-6.665410546943547
 30
0.0
 11
21.1478898480851
 21
-6.454295466418624
 31
0.0
  0
LINE
  5
8C3
330
19
100
AcDbEntity
  8
TitleBlock&Notes
  6
Continuous
 62
     3
100
AcDbLine
 10
10.08170167440293
 20
-6.665410546943547
 30
0.0
 11
21.1478898480851
 21
-6.472249514056326
 31
0.0
  0
LINE
  5
8C4
330
19
100
AcDbEntity
  8
TitleBlock&Notes
  6
Continuous
 62
     3
100
AcDbLine
 10
11.11028817991353
 20
-6.665410546943547
 30
0.0
 11
21.1478898480851
 21
-6.490203561694023
 31
0.0
  0
LINE
  5
8C5
330
19
100
AcDbEntity
  8
TitleBlock&Notes
  6
Continuous
 62
     3
100
AcDbLine
 10
12.13887468542415
 20
-6.665410546943547
 30
0.0
 11
21.1478898480851
 21
-6.508157609331714
 31
0.0
  0
LINE
  5
8C6
330
19
100
AcDbEntity
  8
TitleBlock&Notes
  6
Continuous
 62
     3
100
AcDbLine
 10
13.16746123581301
 20
-6.665410546943547
 30
0.0
 11
21.1478898480851
 21
-6.526111656969419
 31
0.0
  0
LINE
  5
8C7
330
19
100
AcDbEntity
  8
TitleBlock&Notes
  6
Continuous
 62
     3
100
AcDbLine
 10
14.19604774132354
 20
-6.665410546943547
 30
0.0
 11
21.1478898480851
 21
-6.544065704607113
 31
0.0
  0
LINE
  5
8C8
330
19
100
AcDbEntity
  8
TitleBlock&Notes
  6
Continuous
 62
     3
100
AcDbLine
 10
8.779861269558509
 20
-2.955001986849048
 30
0.0
 11
30.09704196927033
 21
-2.955001986849048
 31
0.0
  0
LINE
  5
8C9
330
19
100
AcDbEntity
  8
TitleBlock&Notes
 62
     3
100
AcDbLine
 10
8.779861269558509
 20
-8.003807942043962
 30
0.0
 11
30.09704196927033
 21
-8.003807942043948
 31
0.0
  0
LINE
  5
8CA
330
19
100
AcDbEntity
  8
TitleBlock&Notes
  6
Continuous
 62
     3
100
AcDbLine
 10
16.25322079722302
 20
-6.665410546943547
 30
0.0
 11
21.1478898480851
 21
-6.579973799882516
 31
0.0
  0
LINE
  5
8CB
330
19
100
AcDbEntity
  8
TitleBlock&Notes
  6
Continuous
 62
     3
100
AcDbLine
 10
9.701897819068868
 20
-6.205234906682704
 30
0.0
 11
9.901746926668025
 21
-6.20174651835471
 31
0.0
  0
LINE
  5
8CC
330
19
100
AcDbEntity
  8
TitleBlock&Notes
  6
Continuous
 62
     3
100
AcDbLine
 10
9.701897819068868
 20
-6.223188954320395
 30
0.0
 11
9.9079720819716
 21
-6.219591915688265
 31
0.0
  0
LINE
  5
8CD
330
19
100
AcDbEntity
  8
TitleBlock&Notes
  6
Continuous
 62
     3
100
AcDbLine
 10
9.701897819068868
 20
-6.241143001958107
 30
0.0
 11
9.914197192396997
 21
-6.237437313021803
 31
0.0
  0
LINE
  5
8CE
330
19
100
AcDbEntity
  8
TitleBlock&Notes
  6
Continuous
 62
     3
100
AcDbLine
 10
9.701897819068868
 20
-6.259097049595798
 30
0.0
 11
9.920422347700579
 21
-6.255282665477082
 31
0.0
  0
LINE
  5
8CF
330
19
100
AcDbEntity
  8
TitleBlock&Notes
  6
Continuous
 62
     3
100
AcDbLine
 10
9.701897819068868
 20
-6.277051097233503
 30
0.0
 11
9.926647503004204
 21
-6.273128062810627
 31
0.0
  0
LINE
  5
8D0
330
19
100
AcDbEntity
  8
TitleBlock&Notes
  6
Continuous
 62
     3
100
AcDbLine
 10
9.701897819068868
 20
-6.295005144871197
 30
0.0
 11
9.93287261342953
 21
-6.290973460144165
 31
0.0
  0
LINE
  5
8D1
330
19
100
AcDbEntity
  8
TitleBlock&Notes
  6
Continuous
 62
     3
100
AcDbLine
 10
9.701897819068868
 20
-6.312959192508888
 30
0.0
 11
9.939097768733155
 21
-6.308818812599433
 31
0.0
  0
LINE
  5
8D2
330
19
100
AcDbEntity
  8
TitleBlock&Notes
  6
Continuous
 62
     3
100
AcDbLine
 10
9.701897819068868
 20
-6.330913195268319
 30
0.0
 11
9.945322879158482
 21
-6.326664209932975
 31
0.0
  0
LINE
  5
8D3
330
19
100
AcDbEntity
  8
TitleBlock&Notes
  6
Continuous
 62
     3
100
AcDbLine
 10
9.701897819068868
 20
-6.348867242906038
 30
0.0
 11
9.951548034462135
 21
-6.344509607266523
 31
0.0
  0
LINE
  5
8D4
330
19
100
AcDbEntity
  8
TitleBlock&Notes
  6
Continuous
 62
     3
100
AcDbLine
 10
9.701897819068868
 20
-6.366821290543729
 30
0.0
 11
9.957773144887454
 21
-6.362355004600068
 31
0.0
  0
LINE
  5
8D5
330
19
100
AcDbEntity
  8
TitleBlock&Notes
  6
Continuous
 62
     3
100
AcDbLine
 10
9.701897819068868
 20
-6.133418716131892
 30
0.0
 11
9.876846395210122
 21
-6.130364973898824
 31
0.0
  0
LINE
  5
8D6
330
19
100
AcDbEntity
  8
TitleBlock&Notes
  6
Continuous
 62
     3
100
AcDbLine
 10
9.701897819068868
 20
-6.151372763769586
 30
0.0
 11
9.883071550513676
 21
-6.148210371232369
 31
0.0
  0
LINE
  5
8D7
330
19
100
AcDbEntity
  8
TitleBlock&Notes
  6
Continuous
 62
     3
100
AcDbLine
 10
9.701897819068868
 20
-6.169326811407291
 30
0.0
 11
9.889296660939074
 21
-6.166055768565904
 31
0.0
  0
LINE
  5
8D8
330
19
100
AcDbEntity
  8
TitleBlock&Notes
  6
Continuous
 62
     3
100
AcDbLine
 10
9.701897819068868
 20
-6.18728085904501
 30
0.0
 11
9.895521816242656
 21
-6.183901121021172
 31
0.0
  0
LINE
  5
8D9
330
19
100
AcDbEntity
  8
TitleBlock&Notes
  6
Continuous
 62
     3
100
AcDbLine
 10
9.657019543911616
 20
-5.363940567382194
 30
0.0
 11
9.993606607591289
 21
-6.32882348326391
 31
0.0
  0
LINE
  5
8DA
330
19
100
AcDbEntity
  8
TitleBlock&Notes
  6
Continuous
 62
     3
100
AcDbLine
 10
9.961731318999774
 20
-6.373701758421191
 30
0.0
 11
9.701897819068868
 21
-5.62884562655379
 31
0.0
  0
LINE
  5
8DB
330
19
100
AcDbEntity
  8
TitleBlock&Notes
  6
Continuous
 62
     3
100
AcDbLine
 10
9.679458681490231
 20
-5.496393096967999
 30
0.0
 11
9.977668940856382
 21
-6.351262620842547
 31
0.0
  0
LINE
  5
8DC
330
19
100
AcDbEntity
  8
TitleBlock&Notes
  6
Continuous
 62
     3
100
AcDbLine
 10
10.16190013943109
 20
-5.58638059088653
 30
0.0
 11
9.872375486804052
 21
-4.30930110118593
 31
0.0
  0
LINE
  5
8DD
330
19
100
AcDbEntity
  8
TitleBlock&Notes
  6
Continuous
 62
     3
100
AcDbLine
 10
10.16190013943109
 20
-5.687870252093045
 30
0.0
 11
9.854454065672427
 21
-4.331740238764584
 31
0.0
  0
LINE
  5
8DE
330
19
100
AcDbEntity
  8
TitleBlock&Notes
  6
Continuous
 62
     3
100
AcDbLine
 10
10.16190013943109
 20
-5.789359913299573
 30
0.0
 11
9.836532644540739
 21
-4.354179376343221
 31
0.0
  0
LINE
  5
8DF
330
19
100
AcDbEntity
  8
TitleBlock&Notes
  6
Continuous
 62
     3
100
AcDbLine
 10
8.779861269558509
 20
-6.400869540340046
 30
0.0
 11
10.33630259184189
 21
-6.373701758421191
 31
0.0
  0
LINE
  5
8E0
330
19
100
AcDbEntity
  8
TitleBlock&Notes
 62
     3
100
AcDbLine
 10
14.59363782402536
 20
-8.003807942043959
 30
0.0
 11
3.097578008583663
 21
-8.007843745338075
 31
0.0
  0
LINE
  5
8E1
330
19
100
AcDbEntity
  8
TitleBlock&Notes
  6
Continuous
 62
     3
100
AcDbLine
 10
8.779861269558509
 20
-6.436777635615449
 30
0.0
 11
12.91069449281497
 21
-6.364673685564348
 31
0.0
  0
LINE
  5
8E2
330
19
100
AcDbEntity
  8
TitleBlock&Notes
  6
Continuous
 62
     3
100
AcDbLine
 10
8.779861269558509
 20
-6.454731683253161
 30
0.0
 11
13.42206215325195
 21
-6.373701758421191
 31
0.0
  0
LINE
  5
8E3
330
19
100
AcDbEntity
  8
TitleBlock&Notes
  6
Continuous
 62
     3
100
AcDbLine
 10
8.779861269558509
 20
-6.472685730890859
 30
0.0
 11
14.45064865876249
 21
-6.373701758421191
 31
0.0
  0
LINE
  5
8E4
330
19
100
AcDbEntity
  8
TitleBlock&Notes
  6
Continuous
 62
     3
100
AcDbLine
 10
8.779861269558509
 20
-6.418823587977751
 30
0.0
 11
11.8038491613286
 21
-6.366039690503576
 31
0.0
  0
LINE
  5
8E5
330
19
100
AcDbEntity
  8
TitleBlock&Notes
  6
Continuous
 62
     3
100
AcDbLine
 10
8.779861269558509
 20
-6.490639778528553
 30
0.0
 11
15.47923520915135
 21
-6.373701758421191
 31
0.0
  0
LINE
  5
8E6
330
19
100
AcDbEntity
  8
TitleBlock&Notes
  6
Continuous
 62
     3
100
AcDbLine
 10
9.657019543911616
 20
-6.32882348326391
 30
0.0
 11
9.657019543911616
 21
-5.363940567382194
 31
0.0
  0
LINE
  5
8E7
330
19
100
AcDbEntity
  8
TitleBlock&Notes
  6
Continuous
 62
     3
100
AcDbLine
 10
9.275554205074641
 20
-6.373701758421191
 30
0.0
 11
9.275554205074641
 21
-4.30930110118593
 31
0.0
  0
LINE
  5
8E8
330
19
100
AcDbEntity
  8
TitleBlock&Notes
  6
Continuous
 62
     3
100
AcDbLine
 10
9.320432480231943
 20
-6.32882348326391
 30
0.0
 11
9.320432480231943
 21
-4.354179376343221
 31
0.0
  0
LINE
  5
8E9
330
19
100
AcDbEntity
  8
TitleBlock&Notes
  6
Continuous
 62
     3
100
AcDbLine
 10
9.297993342653327
 20
-6.351262620842547
 30
0.0
 11
9.297993342653327
 21
-4.331740238764584
 31
0.0
  0
LINE
  5
8EA
330
19
100
AcDbEntity
  8
TitleBlock&Notes
  6
Continuous
 62
     3
100
AcDbLine
 10
8.779861269558509
 20
-8.003807942043962
 30
0.0
 11
8.779861269558509
 21
-2.955001986849048
 31
0.0
  0
TEXT
  5
8EB
330
19
100
AcDbEntity
  8
TitleBlock&Notes
  6
Continuous
 62
     3
100
AcDbText
 10
8.828601230536477
 20
-7.419297399486019
 30
0.0
 40
0.3141479261010163
  1
The
 41
0.8
 51
11.0
100
AcDbText
  0
LINE
  5
8EC
330
19
100
AcDbEntity
  8
TitleBlock&Notes
  6
Continuous
 62
     3
100
AcDbLine
 10
8.779861269558509
 20
-5.790432055293084
 30
0.0
 11
9.264081433056908
 21
-5.781979950219604
 31
0.0
  0
LINE
  5
8ED
330
19
100
AcDbEntity
  8
TitleBlock&Notes
  6
Continuous
 62
     3
100
AcDbLine
 10
8.779861269558509
 20
-6.382915492702352
 30
0.0
 11
9.307716086331296
 21
-6.373701758421191
 31
0.0
  0
LINE
  5
8EE
330
19
100
AcDbEntity
  8
TitleBlock&Notes
  6
Continuous
 62
     3
100
AcDbLine
 10
8.779861269558509
 20
-6.221329108841327
 30
0.0
 11
9.275554205074641
 21
-6.212676756904112
 31
0.0
  0
LINE
  5
8EF
330
19
100
AcDbEntity
  8
TitleBlock&Notes
  6
Continuous
 62
     3
100
AcDbLine
 10
8.779861269558509
 20
-6.239283156479022
 30
0.0
 11
9.275554205074641
 21
-6.230630804541792
 31
0.0
  0
LINE
  5
8F0
330
19
100
AcDbEntity
  8
TitleBlock&Notes
  6
Continuous
 62
     3
100
AcDbLine
 10
8.779861269558509
 20
-6.25723720411673
 30
0.0
 11
9.275554205074641
 21
-6.248584852179511
 31
0.0
  0
LINE
  5
8F1
330
19
100
AcDbEntity
  8
TitleBlock&Notes
  6
Continuous
 62
     3
100
AcDbLine
 10
8.779861269558509
 20
-6.275191251754421
 30
0.0
 11
9.275554205074641
 21
-6.266538899817206
 31
0.0
  0
LINE
  5
8F2
330
19
100
AcDbEntity
  8
TitleBlock&Notes
  6
Continuous
 62
     3
100
AcDbLine
 10
8.779861269558509
 20
-6.29314529939214
 30
0.0
 11
9.275554205074641
 21
-6.2844929474549
 31
0.0
  0
LINE
  5
8F3
330
19
100
AcDbEntity
  8
TitleBlock&Notes
  6
Continuous
 62
     3
100
AcDbLine
 10
8.779861269558509
 20
-6.311099347029834
 30
0.0
 11
9.275554205074641
 21
-6.302446995092608
 31
0.0
  0
LINE
  5
8F4
330
19
100
AcDbEntity
  8
TitleBlock&Notes
  6
Continuous
 62
     3
100
AcDbLine
 10
8.779861269558509
 20
-6.329053394667525
 30
0.0
 11
9.275554205074641
 21
-6.320401042730299
 31
0.0
  0
LINE
  5
8F5
330
19
100
AcDbEntity
  8
TitleBlock&Notes
  6
Continuous
 62
     3
100
AcDbLine
 10
8.779861269558509
 20
-6.34700744230523
 30
0.0
 11
9.275554205074641
 21
-6.338355090368004
 31
0.0
  0
LINE
  5
8F6
330
19
100
AcDbEntity
  8
TitleBlock&Notes
  6
Continuous
 62
     3
100
AcDbLine
 10
8.779861269558509
 20
-6.364961489942928
 30
0.0
 11
9.275554205074641
 21
-6.356309138005698
 31
0.0
  0
LINE
  5
8F7
330
19
100
AcDbEntity
  8
TitleBlock&Notes
  6
Continuous
 62
     3
100
AcDbLine
 10
8.779861269558509
 20
-5.781979950219604
 30
0.0
 11
9.275554205074641
 21
-5.781979950219604
 31
0.0
  0
LINE
  5
8F8
330
19
100
AcDbEntity
  8
TitleBlock&Notes
  6
Continuous
 62
     3
100
AcDbLine
 10
8.779861269558509
 20
-5.808386102930789
 30
0.0
 11
9.275554205074641
 21
-5.79973375099356
 31
0.0
  0
LINE
  5
8F9
330
19
100
AcDbEntity
  8
TitleBlock&Notes
  6
Continuous
 62
     3
100
AcDbLine
 10
8.779861269558509
 20
-5.82634015056848
 30
0.0
 11
9.275554205074641
 21
-5.817687798631254
 31
0.0
  0
LINE
  5
8FA
330
19
100
AcDbEntity
  8
TitleBlock&Notes
  6
Continuous
 62
     3
100
AcDbLine
 10
8.779861269558509
 20
-5.844294198206174
 30
0.0
 11
9.275554205074641
 21
-5.835641846268963
 31
0.0
  0
LINE
  5
8FB
330
19
100
AcDbEntity
  8
TitleBlock&Notes
  6
Continuous
 62
     3
100
AcDbLine
 10
8.779861269558509
 20
-5.862248200965602
 30
0.0
 11
9.275554205074641
 21
-5.853595849028376
 31
0.0
  0
LINE
  5
8FC
330
19
100
AcDbEntity
  8
TitleBlock&Notes
  6
Continuous
 62
     3
100
AcDbLine
 10
8.779861269558509
 20
-5.88020224860331
 30
0.0
 11
9.275554205074641
 21
-5.871549896666071
 31
0.0
  0
LINE
  5
8FD
330
19
100
AcDbEntity
  8
TitleBlock&Notes
  6
Continuous
 62
     3
100
AcDbLine
 10
8.779861269558509
 20
-5.898156296241001
 30
0.0
 11
9.275554205074641
 21
-5.889503944303786
 31
0.0
  0
LINE
  5
8FE
330
19
100
AcDbEntity
  8
TitleBlock&Notes
  6
Continuous
 62
     3
100
AcDbLine
 10
8.779861269558509
 20
-5.916110343878695
 30
0.0
 11
9.275554205074641
 21
-5.907457991941491
 31
0.0
  0
LINE
  5
8FF
330
19
100
AcDbEntity
  8
TitleBlock&Notes
  6
Continuous
 62
     3
100
AcDbLine
 10
8.779861269558509
 20
-5.934064391516411
 30
0.0
 11
9.275554205074641
 21
-5.925412039579185
 31
0.0
  0
LINE
  5
900
330
19
100
AcDbEntity
  8
TitleBlock&Notes
  6
Continuous
 62
     3
100
AcDbLine
 10
8.779861269558509
 20
-5.952018439154105
 30
0.0
 11
9.275554205074641
 21
-5.94336608721688
 31
0.0
  0
LINE
  5
901
330
19
100
AcDbEntity
  8
TitleBlock&Notes
  6
Continuous
 62
     3
100
AcDbLine
 10
8.779861269558509
 20
-5.96997248679181
 30
0.0
 11
9.275554205074641
 21
-5.961320134854585
 31
0.0
  0
LINE
  5
902
330
19
100
AcDbEntity
  8
TitleBlock&Notes
  6
Continuous
 62
     3
100
AcDbLine
 10
8.779861269558509
 20
-5.987926534429504
 30
0.0
 11
9.275554205074641
 21
-5.979274182492279
 31
0.0
  0
LINE
  5
903
330
19
100
AcDbEntity
  8
TitleBlock&Notes
  6
Continuous
 62
     3
100
AcDbLine
 10
8.779861269558509
 20
-6.005880582067199
 30
0.0
 11
9.275554205074641
 21
-5.997228230129984
 31
0.0
  0
LINE
  5
904
330
19
100
AcDbEntity
  8
TitleBlock&Notes
  6
Continuous
 62
     3
100
AcDbLine
 10
8.779861269558509
 20
-6.023834629704907
 30
0.0
 11
9.275554205074641
 21
-6.015182277767678
 31
0.0
  0
LINE
  5
905
330
19
100
AcDbEntity
  8
TitleBlock&Notes
  6
Continuous
 62
     3
100
AcDbLine
 10
8.779861269558509
 20
-6.041788677342612
 30
0.0
 11
9.275554205074641
 21
-6.033136325405372
 31
0.0
  0
LINE
  5
906
330
19
100
AcDbEntity
  8
TitleBlock&Notes
  6
Continuous
 62
     3
100
AcDbLine
 10
8.779861269558509
 20
-6.059742724980303
 30
0.0
 11
9.275554205074641
 21
-6.051090373043088
 31
0.0
  0
LINE
  5
907
330
19
100
AcDbEntity
  8
TitleBlock&Notes
  6
Continuous
 62
     3
100
AcDbLine
 10
8.779861269558509
 20
-6.077696772617997
 30
0.0
 11
9.275554205074641
 21
-6.069044420680786
 31
0.0
  0
LINE
  5
908
330
19
100
AcDbEntity
  8
TitleBlock&Notes
  6
Continuous
 62
     3
100
AcDbLine
 10
8.779861269558509
 20
-6.095650820255716
 30
0.0
 11
9.275554205074641
 21
-6.086998468318491
 31
0.0
  0
LINE
  5
909
330
19
100
AcDbEntity
  8
TitleBlock&Notes
  6
Continuous
 62
     3
100
AcDbLine
 10
8.779861269558509
 20
-6.113604867893396
 30
0.0
 11
9.275554205074641
 21
-6.104952515956181
 31
0.0
  0
LINE
  5
90A
330
19
100
AcDbEntity
  8
TitleBlock&Notes
  6
Continuous
 62
     3
100
AcDbLine
 10
8.779861269558509
 20
-6.131558870652838
 30
0.0
 11
9.275554205074641
 21
-6.122906518715613
 31
0.0
  0
LINE
  5
90B
330
19
100
AcDbEntity
  8
TitleBlock&Notes
  6
Continuous
 62
     3
100
AcDbLine
 10
8.779861269558509
 20
-6.149512918290529
 30
0.0
 11
9.275554205074641
 21
-6.140860566353303
 31
0.0
  0
LINE
  5
90C
330
19
100
AcDbEntity
  8
TitleBlock&Notes
  6
Continuous
 62
     3
100
AcDbLine
 10
8.779861269558509
 20
-6.167466965928223
 30
0.0
 11
9.275554205074641
 21
-6.158814613991008
 31
0.0
  0
LINE
  5
90D
330
19
100
AcDbEntity
  8
TitleBlock&Notes
  6
Continuous
 62
     3
100
AcDbLine
 10
8.779861269558509
 20
-6.185421013565928
 30
0.0
 11
9.275554205074641
 21
-6.176768661628702
 31
0.0
  0
LINE
  5
90E
330
19
100
AcDbEntity
  8
TitleBlock&Notes
  6
Continuous
 62
     3
100
AcDbLine
 10
8.779861269558509
 20
-6.203375061203633
 30
0.0
 11
9.275554205074641
 21
-6.194722709266393
 31
0.0
  0
LINE
  5
90F
330
19
100
AcDbEntity
  8
TitleBlock&Notes
  6
Continuous
 62
     3
100
AcDbLine
 10
8.779861269558509
 20
-5.465942962882397
 30
0.0
 11
9.275554205074641
 21
-5.457290610945172
 31
0.0
  0
LINE
  5
910
330
19
100
AcDbEntity
  8
TitleBlock&Notes
  6
Continuous
 62
     3
100
AcDbLine
 10
8.779861269558509
 20
-5.483897010520102
 30
0.0
 11
9.275554205074641
 21
-5.475244658582877
 31
0.0
  0
LINE
  5
911
330
19
100
AcDbEntity
  8
TitleBlock&Notes
  6
Continuous
 62
     3
100
AcDbLine
 10
8.779861269558509
 20
-5.501851058157793
 30
0.0
 11
9.275554205074641
 21
-5.493198706220567
 31
0.0
  0
LINE
  5
912
330
19
100
AcDbEntity
  8
TitleBlock&Notes
  6
Continuous
 62
     3
100
AcDbLine
 10
8.779861269558509
 20
-5.519805105795501
 30
0.0
 11
9.275554205074641
 21
-5.511152753858262
 31
0.0
  0
LINE
  5
913
330
19
100
AcDbEntity
  8
TitleBlock&Notes
  6
Continuous
 62
     3
100
AcDbLine
 10
8.779861269558509
 20
-5.537759153433196
 30
0.0
 11
9.275554205074641
 21
-5.529106801495981
 31
0.0
  0
LINE
  5
914
330
19
100
AcDbEntity
  8
TitleBlock&Notes
  6
Continuous
 62
     3
100
AcDbLine
 10
8.779861269558509
 20
-5.55571315619262
 30
0.0
 11
9.275554205074641
 21
-5.547060804255405
 31
0.0
  0
LINE
  5
915
330
19
100
AcDbEntity
  8
TitleBlock&Notes
  6
Continuous
 62
     3
100
AcDbLine
 10
8.779861269558509
 20
-5.573667203830314
 30
0.0
 11
9.275554205074641
 21
-5.565014851893103
 31
0.0
  0
LINE
  5
916
330
19
100
AcDbEntity
  8
TitleBlock&Notes
  6
Continuous
 62
     3
100
AcDbLine
 10
8.779861269558509
 20
-5.591621251468033
 30
0.0
 11
9.275554205074641
 21
-5.582968899530794
 31
0.0
  0
LINE
  5
917
330
19
100
AcDbEntity
  8
TitleBlock&Notes
  6
Continuous
 62
     3
100
AcDbLine
 10
8.779861269558509
 20
-5.609575299105724
 30
0.0
 11
9.275554205074641
 21
-5.600922947168498
 31
0.0
  0
LINE
  5
918
330
19
100
AcDbEntity
  8
TitleBlock&Notes
  6
Continuous
 62
     3
100
AcDbLine
 10
8.779861269558509
 20
-5.627529346743422
 30
0.0
 11
9.275554205074641
 21
-5.618876994806193
 31
0.0
  0
LINE
  5
919
330
19
100
AcDbEntity
  8
TitleBlock&Notes
  6
Continuous
 62
     3
100
AcDbLine
 10
8.779861269558509
 20
-5.645483394381127
 30
0.0
 11
9.275554205074641
 21
-5.636831042443898
 31
0.0
  0
LINE
  5
91A
330
19
100
AcDbEntity
  8
TitleBlock&Notes
  6
Continuous
 62
     3
100
AcDbLine
 10
8.779861269558509
 20
-5.663437442018821
 30
0.0
 11
9.275554205074641
 21
-5.654785090081592
 31
0.0
  0
LINE
  5
91B
330
19
100
AcDbEntity
  8
TitleBlock&Notes
  6
Continuous
 62
     3
100
AcDbLine
 10
8.779861269558509
 20
-5.69363688605939
 30
0.0
 11
9.275554205074641
 21
-5.69363688605939
 31
0.0
  0
LINE
  5
91C
330
19
100
AcDbEntity
  8
TitleBlock&Notes
  6
Continuous
 62
     3
100
AcDbLine
 10
8.779861269558509
 20
-5.681391489656526
 30
0.0
 11
9.275554205074641
 21
-5.672739137719286
 31
0.0
  0
LINE
  5
91D
330
19
100
AcDbEntity
  8
TitleBlock&Notes
  6
Continuous
 62
     3
100
AcDbLine
 10
9.701897819068868
 20
-6.115464668494201
 30
0.0
 11
9.870621284784732
 21
-6.112519621443556
 31
0.0
  0
LINE
  5
91E
330
19
100
AcDbEntity
  8
TitleBlock&Notes
  6
Continuous
 62
     3
100
AcDbLine
 10
9.701897819068868
 20
-6.373701758421191
 30
0.0
 11
9.701897819068868
 21
-5.62884562655379
 31
0.0
  0
LINE
  5
91F
330
19
100
AcDbEntity
  8
TitleBlock&Notes
  6
Continuous
 62
     3
100
AcDbLine
 10
9.679458681490231
 20
-5.496393096967999
 30
0.0
 11
9.679458681490231
 21
-6.351262620842547
 31
0.0
  0
LINE
  5
920
330
19
100
AcDbEntity
  8
TitleBlock&Notes
  6
Continuous
 62
     3
100
AcDbLine
 10
9.275554205074641
 20
-6.373701758421191
 30
0.0
 11
9.701897819068868
 21
-6.373701758421191
 31
0.0
  0
LINE
  5
921
330
19
100
AcDbEntity
  8
TitleBlock&Notes
  6
Continuous
 62
     3
100
AcDbLine
 10
9.320432480231943
 20
-6.32882348326391
 30
0.0
 11
9.657019543911616
 21
-6.32882348326391
 31
0.0
  0
LINE
  5
922
330
19
100
AcDbEntity
  8
TitleBlock&Notes
  6
Continuous
 62
     3
100
AcDbLine
 10
9.297993342653327
 20
-6.351262620842547
 30
0.0
 11
9.679458681490231
 21
-6.351262620842547
 31
0.0
  0
LINE
  5
923
330
19
100
AcDbEntity
  8
TitleBlock&Notes
  6
Continuous
 62
     3
100
AcDbLine
 10
9.106909366096914
 20
-5.69363688605939
 30
0.0
 11
9.275554205074641
 21
-5.690693185356995
 31
0.0
  0
LINE
  5
924
330
19
100
AcDbEntity
  8
TitleBlock&Notes
  6
Continuous
 62
     3
100
AcDbLine
 10
9.701897819068868
 20
-5.774337853134447
 30
0.0
 11
9.752343737920526
 21
-5.773457296497586
 31
0.0
  0
LINE
  5
925
330
19
100
AcDbEntity
  8
TitleBlock&Notes
  6
Continuous
 62
     3
100
AcDbLine
 10
9.701897819068868
 20
-5.792291900772152
 30
0.0
 11
9.758568848345845
 21
-5.791302693831134
 31
0.0
  0
LINE
  5
926
330
19
100
AcDbEntity
  8
TitleBlock&Notes
  6
Continuous
 62
     3
100
AcDbLine
 10
9.701897819068868
 20
-5.810245903531566
 30
0.0
 11
9.76479400364947
 21
-5.809148046286413
 31
0.0
  0
LINE
  5
927
330
19
100
AcDbEntity
  8
TitleBlock&Notes
  6
Continuous
 62
     3
100
AcDbLine
 10
9.701897819068868
 20
-5.828199951169281
 30
0.0
 11
9.771019114074789
 21
-5.826993443619947
 31
0.0
  0
LINE
  5
928
330
19
100
AcDbEntity
  8
TitleBlock&Notes
  6
Continuous
 62
     3
100
AcDbLine
 10
9.701897819068868
 20
-5.846153998806979
 30
0.0
 11
9.777244269378421
 21
-5.844838840953496
 31
0.0
  0
LINE
  5
929
330
19
100
AcDbEntity
  8
TitleBlock&Notes
  6
Continuous
 62
     3
100
AcDbLine
 10
9.701897819068868
 20
-5.864108046444684
 30
0.0
 11
9.783469379803769
 21
-5.86268423828703
 31
0.0
  0
LINE
  5
92A
330
19
100
AcDbEntity
  8
TitleBlock&Notes
  6
Continuous
 62
     3
100
AcDbLine
 10
9.701897819068868
 20
-5.63070547203285
 30
0.0
 11
9.702542675004671
 21
-5.630694207585783
 31
0.0
  0
LINE
  5
92B
330
19
100
AcDbEntity
  8
TitleBlock&Notes
  6
Continuous
 62
     3
100
AcDbLine
 10
9.701897819068868
 20
-5.648659519670541
 30
0.0
 11
9.708767785429991
 21
-5.648539604919339
 31
0.0
  0
LINE
  5
92C
330
19
100
AcDbEntity
  8
TitleBlock&Notes
  6
Continuous
 62
     3
100
AcDbLine
 10
9.701897819068868
 20
-5.66661356730826
 30
0.0
 11
9.714992940733623
 21
-5.666385002252877
 31
0.0
  0
LINE
  5
92D
330
19
100
AcDbEntity
  8
TitleBlock&Notes
  6
Continuous
 62
     3
100
AcDbLine
 10
9.701897819068868
 20
-5.684567614945954
 30
0.0
 11
9.72121805115897
 21
-5.684230399586422
 31
0.0
  0
LINE
  5
92E
330
19
100
AcDbEntity
  8
TitleBlock&Notes
  6
Continuous
 62
     3
100
AcDbLine
 10
9.701897819068868
 20
-5.702521662583659
 30
0.0
 11
9.727443206462595
 21
-5.70207575204169
 31
0.0
  0
LINE
  5
92F
330
19
100
AcDbEntity
  8
TitleBlock&Notes
  6
Continuous
 62
     3
100
AcDbLine
 10
9.701897819068868
 20
-5.72047571022135
 30
0.0
 11
9.733668316887921
 21
-5.719921149375238
 31
0.0
  0
LINE
  5
930
330
19
100
AcDbEntity
  8
TitleBlock&Notes
  6
Continuous
 62
     3
100
AcDbLine
 10
9.701897819068868
 20
-5.738429757859048
 30
0.0
 11
9.739893472191546
 21
-5.737766546708773
 31
0.0
  0
LINE
  5
931
330
19
100
AcDbEntity
  8
TitleBlock&Notes
  6
Continuous
 62
     3
100
AcDbLine
 10
9.701897819068868
 20
-5.756383805496753
 30
0.0
 11
9.746118582616873
 21
-5.755611899164051
 31
0.0
  0
LINE
  5
932
330
19
100
AcDbEntity
  8
TitleBlock&Notes
  6
Continuous
 62
     3
100
AcDbLine
 10
9.701897819068868
 20
-5.882062094082378
 30
0.0
 11
9.7896945351074
 21
-5.880529590742309
 31
0.0
  0
LINE
  5
933
330
19
100
AcDbEntity
  8
TitleBlock&Notes
  6
Continuous
 62
     3
100
AcDbLine
 10
9.701897819068868
 20
-5.900016141720069
 30
0.0
 11
9.79591964553272
 21
-5.898374988075843
 31
0.0
  0
LINE
  5
934
330
19
100
AcDbEntity
  8
TitleBlock&Notes
  6
Continuous
 62
     3
100
AcDbLine
 10
9.701897819068868
 20
-5.917970189357777
 30
0.0
 11
9.802144800836344
 21
-5.916220385409403
 31
0.0
  0
LINE
  5
935
330
19
100
AcDbEntity
  8
TitleBlock&Notes
  6
Continuous
 62
     3
100
AcDbLine
 10
9.701897819068868
 20
-5.935924236995468
 30
0.0
 11
9.808369956139927
 21
-5.934065737864656
 31
0.0
  0
LINE
  5
936
330
19
100
AcDbEntity
  8
TitleBlock&Notes
  6
Continuous
 62
     3
100
AcDbLine
 10
9.701897819068868
 20
-5.953878284633173
 30
0.0
 11
9.814595066565324
 21
-5.951911135198205
 31
0.0
  0
LINE
  5
937
330
19
100
AcDbEntity
  8
TitleBlock&Notes
  6
Continuous
 62
     3
100
AcDbLine
 10
9.701897819068868
 20
-5.971832332270871
 30
0.0
 11
9.820820221868878
 21
-5.969756532531739
 31
0.0
  0
LINE
  5
938
330
19
100
AcDbEntity
  8
TitleBlock&Notes
  6
Continuous
 62
     3
100
AcDbLine
 10
9.701897819068868
 20
-5.989786379908565
 30
0.0
 11
9.827045332294275
 21
-5.987601929865299
 31
0.0
  0
LINE
  5
939
330
19
100
AcDbEntity
  8
TitleBlock&Notes
  6
Continuous
 62
     3
100
AcDbLine
 10
9.701897819068868
 20
-6.00774042754627
 30
0.0
 11
9.833270487597857
 21
-6.005447282320552
 31
0.0
  0
LINE
  5
93A
330
19
100
AcDbEntity
  8
TitleBlock&Notes
  6
Continuous
 62
     3
100
AcDbLine
 10
9.701897819068868
 20
-6.025694475183986
 30
0.0
 11
9.839495598023219
 21
-6.023292679654112
 31
0.0
  0
LINE
  5
93B
330
19
100
AcDbEntity
  8
TitleBlock&Notes
  6
Continuous
 62
     3
100
AcDbLine
 10
9.701897819068868
 20
-6.04364852282168
 30
0.0
 11
9.845720753326801
 21
-6.04113807698766
 31
0.0
  0
LINE
  5
93C
330
19
100
AcDbEntity
  8
TitleBlock&Notes
  6
Continuous
 62
     3
100
AcDbLine
 10
9.701897819068868
 20
-6.061602570459374
 30
0.0
 11
9.851945863752199
 21
-6.058983429442914
 31
0.0
  0
LINE
  5
93D
330
19
100
AcDbEntity
  8
TitleBlock&Notes
  6
Continuous
 62
     3
100
AcDbLine
 10
9.701897819068868
 20
-6.079556573218802
 30
0.0
 11
9.858171019055774
 21
-6.076828826776463
 31
0.0
  0
LINE
  5
93E
330
19
100
AcDbEntity
  8
TitleBlock&Notes
  6
Continuous
 62
     3
100
AcDbLine
 10
9.701897819068868
 20
-6.097510620856496
 30
0.0
 11
9.86439612948115
 21
-6.094674224110008
 31
0.0
  0
LINE
  5
93F
330
19
100
AcDbEntity
  8
TitleBlock&Notes
  6
Continuous
 62
     3
100
AcDbLine
 10
8.779861269558509
 20
-5.340264629418506
 30
0.0
 11
9.275554205074641
 21
-5.340264629418506
 31
0.0
  0
LINE
  5
940
330
19
100
AcDbEntity
  8
TitleBlock&Notes
  6
Continuous
 62
     3
100
AcDbLine
 10
8.779861269558509
 20
-5.251921565258278
 30
0.0
 11
9.275554205074641
 21
-5.251921565258278
 31
0.0
  0
LINE
  5
941
330
19
100
AcDbEntity
  8
TitleBlock&Notes
  6
Continuous
 62
     3
100
AcDbLine
 10
8.779861269558509
 20
-5.358218677056196
 30
0.0
 11
9.275554205074641
 21
-5.349566325118985
 31
0.0
  0
LINE
  5
942
330
19
100
AcDbEntity
  8
TitleBlock&Notes
  6
Continuous
 62
     3
100
AcDbLine
 10
8.779861269558509
 20
-5.376172724693891
 30
0.0
 11
9.275554205074641
 21
-5.367520372756676
 31
0.0
  0
LINE
  5
943
330
19
100
AcDbEntity
  8
TitleBlock&Notes
  6
Continuous
 62
     3
100
AcDbLine
 10
8.779861269558509
 20
-5.39412677233161
 30
0.0
 11
9.275554205074641
 21
-5.385474420394384
 31
0.0
  0
LINE
  5
944
330
19
100
AcDbEntity
  8
TitleBlock&Notes
  6
Continuous
 62
     3
100
AcDbLine
 10
8.779861269558509
 20
-5.412080819969304
 30
0.0
 11
9.275554205074641
 21
-5.403428468032075
 31
0.0
  0
LINE
  5
945
330
19
100
AcDbEntity
  8
TitleBlock&Notes
  6
Continuous
 62
     3
100
AcDbLine
 10
8.779861269558509
 20
-5.430034867607009
 30
0.0
 11
9.275554205074641
 21
-5.421382515669769
 31
0.0
  0
LINE
  5
946
330
19
100
AcDbEntity
  8
TitleBlock&Notes
  6
Continuous
 62
     3
100
AcDbLine
 10
8.779861269558509
 20
-5.447988915244703
 30
0.0
 11
9.275554205074641
 21
-5.439336563307474
 31
0.0
  0
LINE
  5
947
330
19
100
AcDbEntity
  8
TitleBlock&Notes
  6
Continuous
 62
     3
100
AcDbLine
 10
8.779861269558509
 20
-5.084926047770824
 30
0.0
 11
9.275554205074641
 21
-5.076273695833585
 31
0.0
  0
LINE
  5
948
330
19
100
AcDbEntity
  8
TitleBlock&Notes
  6
Continuous
 62
     3
100
AcDbLine
 10
8.779861269558509
 20
-5.102880095408519
 30
0.0
 11
9.275554205074641
 21
-5.094227743471304
 31
0.0
  0
LINE
  5
949
330
19
100
AcDbEntity
  8
TitleBlock&Notes
  6
Continuous
 62
     3
100
AcDbLine
 10
8.779861269558509
 20
-5.120834143046209
 30
0.0
 11
9.275554205074641
 21
-5.112181791108998
 31
0.0
  0
LINE
  5
94A
330
19
100
AcDbEntity
  8
TitleBlock&Notes
  6
Continuous
 62
     3
100
AcDbLine
 10
8.779861269558509
 20
-5.138788190683929
 30
0.0
 11
9.275554205074641
 21
-5.130135838746703
 31
0.0
  0
LINE
  5
94B
330
19
100
AcDbEntity
  8
TitleBlock&Notes
  6
Continuous
 62
     3
100
AcDbLine
 10
8.779861269558509
 20
-5.156742238321623
 30
0.0
 11
9.275554205074641
 21
-5.148089886384394
 31
0.0
  0
LINE
  5
94C
330
19
100
AcDbEntity
  8
TitleBlock&Notes
  6
Continuous
 62
     3
100
AcDbLine
 10
8.779861269558509
 20
-5.174696285959328
 30
0.0
 11
9.275554205074641
 21
-5.166043934022088
 31
0.0
  0
LINE
  5
94D
330
19
100
AcDbEntity
  8
TitleBlock&Notes
  6
Continuous
 62
     3
100
AcDbLine
 10
8.779861269558509
 20
-5.192650333597022
 30
0.0
 11
9.275554205074641
 21
-5.183997981659793
 31
0.0
  0
LINE
  5
94E
330
19
100
AcDbEntity
  8
TitleBlock&Notes
  6
Continuous
 62
     3
100
AcDbLine
 10
8.779861269558509
 20
-5.210604381234716
 30
0.0
 11
9.275554205074641
 21
-5.201952029297498
 31
0.0
  0
LINE
  5
94F
330
19
100
AcDbEntity
  8
TitleBlock&Notes
  6
Continuous
 62
     3
100
AcDbLine
 10
8.779861269558509
 20
-5.228558428872421
 30
0.0
 11
9.275554205074641
 21
-5.219906076935195
 31
0.0
  0
LINE
  5
950
330
19
100
AcDbEntity
  8
TitleBlock&Notes
  6
Continuous
 62
     3
100
AcDbLine
 10
8.779861269558509
 20
-5.246512476510115
 30
0.0
 11
9.275554205074641
 21
-5.23786012457289
 31
0.0
  0
LINE
  5
951
330
19
100
AcDbEntity
  8
TitleBlock&Notes
  6
Continuous
 62
     3
100
AcDbLine
 10
8.779861269558509
 20
-5.031063949735997
 30
0.0
 11
9.275554205074641
 21
-5.031063949735997
 31
0.0
  0
LINE
  5
952
330
19
100
AcDbEntity
  8
TitleBlock&Notes
  6
Continuous
 62
     3
100
AcDbLine
 10
8.779861269558509
 20
-5.049017952495425
 30
0.0
 11
9.275554205074641
 21
-5.04036560055821
 31
0.0
  0
LINE
  5
953
330
19
100
AcDbEntity
  8
TitleBlock&Notes
  6
Continuous
 62
     3
100
AcDbLine
 10
8.779861269558509
 20
-5.066972000133119
 30
0.0
 11
9.275554205074641
 21
-5.058319648195901
 31
0.0
  0
LINE
  5
954
330
19
100
AcDbEntity
  8
TitleBlock&Notes
  6
Continuous
 62
     3
100
AcDbLine
 10
8.779861269558509
 20
-4.85437782141556
 30
0.0
 11
9.275554205074641
 21
-4.85437782141556
 31
0.0
  0
LINE
  5
955
330
19
100
AcDbEntity
  8
TitleBlock&Notes
  6
Continuous
 62
     3
100
AcDbLine
 10
8.779861269558509
 20
-4.589348628934875
 30
0.0
 11
9.275554205074641
 21
-4.589348628934875
 31
0.0
  0
LINE
  5
956
330
19
100
AcDbEntity
  8
TitleBlock&Notes
  6
Continuous
 62
     3
100
AcDbLine
 10
8.779861269558509
 20
-4.522031216198943
 30
0.0
 11
9.275554205074641
 21
-4.522031216198943
 31
0.0
  0
LINE
  5
957
330
19
100
AcDbEntity
  8
TitleBlock&Notes
  6
Continuous
 62
     3
100
AcDbLine
 10
8.779861269558509
 20
-4.544470353777608
 30
0.0
 11
9.275554205074641
 21
-4.544470353777608
 31
0.0
  0
LINE
  5
958
330
19
100
AcDbEntity
  8
TitleBlock&Notes
  6
Continuous
 62
     3
100
AcDbLine
 10
8.779861269558509
 20
-4.566909491356234
 30
0.0
 11
9.275554205074641
 21
-4.566909491356234
 31
0.0
  0
LINE
  5
959
330
19
100
AcDbEntity
  8
TitleBlock&Notes
  6
Continuous
 62
     3
100
AcDbLine
 10
8.779861269558509
 20
-4.87681695899419
 30
0.0
 11
9.275554205074641
 21
-4.87681695899419
 31
0.0
  0
LINE
  5
95A
330
19
100
AcDbEntity
  8
TitleBlock&Notes
  6
Continuous
 62
     3
100
AcDbLine
 10
8.779861269558509
 20
-4.942720885575788
 30
0.0
 11
9.275554205074641
 21
-4.942720885575788
 31
0.0
  0
LINE
  5
95B
330
19
100
AcDbEntity
  8
TitleBlock&Notes
  6
Continuous
 62
     3
100
AcDbLine
 10
8.779861269558509
 20
-4.920281747997123
 30
0.0
 11
9.275554205074641
 21
-4.920281747997123
 31
0.0
  0
LINE
  5
95C
330
19
100
AcDbEntity
  8
TitleBlock&Notes
  6
Continuous
 62
     3
100
AcDbLine
 10
8.779861269558509
 20
-4.899256096572841
 30
0.0
 11
9.275554205074641
 21
-4.899256096572841
 31
0.0
  0
LINE
  5
95D
330
19
100
AcDbEntity
  8
TitleBlock&Notes
  6
Continuous
 62
     3
100
AcDbLine
 10
9.275554205074641
 20
-4.30930110118593
 30
0.0
 11
9.872375486804052
 21
-4.30930110118593
 31
0.0
  0
LINE
  5
95E
330
19
100
AcDbEntity
  8
TitleBlock&Notes
  6
Continuous
 62
     3
100
AcDbLine
 10
9.320432480231943
 20
-4.354179376343221
 30
0.0
 11
9.836532644540739
 21
-4.354179376343221
 31
0.0
  0
LINE
  5
95F
330
19
100
AcDbEntity
  8
TitleBlock&Notes
  6
Continuous
 62
     3
100
AcDbLine
 10
9.854454065672427
 20
-4.331740238764584
 30
0.0
 11
9.297993342653327
 21
-4.331740238764584
 31
0.0
  0
LINE
  5
960
330
19
100
AcDbEntity
  8
TitleBlock&Notes
  6
Continuous
 62
     3
100
AcDbLine
 10
12.91069449281497
 20
-4.30930110118593
 30
0.0
 11
13.33703810680921
 21
-4.30930110118593
 31
0.0
  0
LINE
  5
961
330
19
100
AcDbEntity
  8
TitleBlock&Notes
  6
Continuous
 62
     3
100
AcDbLine
 10
12.93313363039359
 20
-4.331740238764584
 30
0.0
 11
13.31459896923059
 21
-4.331740238764584
 31
0.0
  0
LINE
  5
962
330
19
100
AcDbEntity
  8
TitleBlock&Notes
  6
Continuous
 62
     3
100
AcDbLine
 10
12.95557276797228
 20
-6.32882348326391
 30
0.0
 11
14.14484705964041
 21
-6.32882348326391
 31
0.0
  0
LINE
  5
963
330
19
100
AcDbEntity
  8
TitleBlock&Notes
  6
Continuous
 62
     3
100
AcDbLine
 10
14.16728619721905
 20
-6.351262620842547
 30
0.0
 11
12.93313363039359
 21
-6.351262620842547
 31
0.0
  0
LINE
  5
964
330
19
100
AcDbEntity
  8
TitleBlock&Notes
  6
Continuous
 62
     3
100
AcDbLine
 10
12.91069449281497
 20
-6.373701758421191
 30
0.0
 11
14.18972533479768
 21
-6.373701758421191
 31
0.0
  0
LINE
  5
965
330
19
100
AcDbEntity
  8
TitleBlock&Notes
  6
Continuous
 62
     3
100
AcDbLine
 10
13.29215983165195
 20
-5.992236419584237
 30
0.0
 11
14.14484705964041
 21
-5.992236419584237
 31
0.0
  0
TEXT
  5
966
330
19
100
AcDbEntity
  8
TitleBlock&Notes
  6
Continuous
 62
     3
100
AcDbText
 10
13.01916793168842
 20
-7.419297399486023
 30
0.0
 40
0.3141479261010163
  1
 with the
 41
0.8
 51
11.0
100
AcDbText
  0
LINE
  5
967
330
19
100
AcDbEntity
  8
TitleBlock&Notes
  6
Continuous
 62
     3
100
AcDbLine
 10
12.73118139218586
 20
-5.450834556915861
 30
0.0
 11
12.91069449281497
 21
-5.447701110866123
 31
0.0
  0
LINE
  5
968
330
19
100
AcDbEntity
  8
TitleBlock&Notes
  6
Continuous
 62
     3
100
AcDbLine
 10
11.72142020114684
 20
-5.450505958185171
 30
0.0
 11
12.30483777819162
 21
-5.440322359499578
 31
0.0
  0
LINE
  5
969
330
19
100
AcDbEntity
  8
TitleBlock&Notes
  6
Continuous
 62
     3
100
AcDbLine
 10
12.95557276797228
 20
-6.32882348326391
 30
0.0
 11
12.95557276797228
 21
-4.354179376343221
 31
0.0
  0
LINE
  5
96A
330
19
100
AcDbEntity
  8
TitleBlock&Notes
  6
Continuous
 62
     3
100
AcDbLine
 10
12.91069449281497
 20
-4.30930110118593
 30
0.0
 11
12.91069449281497
 21
-6.373701758421191
 31
0.0
  0
LINE
  5
96B
330
19
100
AcDbEntity
  8
TitleBlock&Notes
  6
Continuous
 62
     3
100
AcDbLine
 10
12.93313363039359
 20
-6.351262620842547
 30
0.0
 11
12.93313363039359
 21
-4.331740238764584
 31
0.0
  0
LINE
  5
96C
330
19
100
AcDbEntity
  8
TitleBlock&Notes
  6
Continuous
 62
     3
100
AcDbLine
 10
11.6765419259896
 20
-4.354179376343221
 30
0.0
 11
11.6765419259896
 21
-5.767845088676065
 31
0.0
  0
LINE
  5
96D
330
19
100
AcDbEntity
  8
TitleBlock&Notes
  6
Continuous
 62
     3
100
AcDbLine
 10
12.34971605334888
 20
-4.354179376343221
 30
0.0
 11
12.34971605334888
 21
-5.767845088676065
 31
0.0
  0
LINE
  5
96E
330
19
100
AcDbEntity
  8
TitleBlock&Notes
  6
Continuous
 62
     3
100
AcDbLine
 10
12.30483777819162
 20
-4.30930110118593
 30
0.0
 11
12.30483777819162
 21
-5.767845043797798
 31
0.0
  0
LINE
  5
96F
330
19
100
AcDbEntity
  8
TitleBlock&Notes
  6
Continuous
 62
     3
100
AcDbLine
 10
12.32727691577027
 20
-5.767845088676065
 30
0.0
 11
12.32727691577027
 21
-4.331740238764584
 31
0.0
  0
LINE
  5
970
330
19
100
AcDbEntity
  8
TitleBlock&Notes
  6
Continuous
 62
     3
100
AcDbLine
 10
12.68630311702855
 20
-4.354179376343221
 30
0.0
 11
12.68630311702855
 21
-5.767845043797798
 31
0.0
  0
LINE
  5
971
330
19
100
AcDbEntity
  8
TitleBlock&Notes
  6
Continuous
 62
     3
100
AcDbLine
 10
12.73118139218586
 20
-5.767845043797798
 30
0.0
 11
12.73118139218586
 21
-4.30930110118593
 31
0.0
  0
LINE
  5
972
330
19
100
AcDbEntity
  8
TitleBlock&Notes
  6
Continuous
 62
     3
100
AcDbLine
 10
12.70874225460724
 20
-5.767845043797798
 30
0.0
 11
12.70874225460724
 21
-4.331740238764584
 31
0.0
  0
LINE
  5
973
330
19
100
AcDbEntity
  8
TitleBlock&Notes
  6
Continuous
 62
     3
100
AcDbLine
 10
11.72142020114684
 20
-5.767845088676065
 30
0.0
 11
11.72142020114684
 21
-4.30930110118593
 31
0.0
  0
LINE
  5
974
330
19
100
AcDbEntity
  8
TitleBlock&Notes
  6
Continuous
 62
     3
100
AcDbLine
 10
11.69898106356821
 20
-5.767845088676065
 30
0.0
 11
11.69898106356821
 21
-4.331740238764584
 31
0.0
  0
LINE
  5
975
330
19
100
AcDbEntity
  8
TitleBlock&Notes
  6
Continuous
 62
     3
100
AcDbLine
 10
13.29215983165195
 20
-4.354179376343221
 30
0.0
 11
13.29215983165195
 21
-5.992236419584237
 31
0.0
  0
LINE
  5
976
330
19
100
AcDbEntity
  8
TitleBlock&Notes
  6
Continuous
 62
     3
100
AcDbLine
 10
10.66678073495058
 20
-6.32882348326391
 30
0.0
 11
10.66678073495058
 21
-5.363940567382194
 31
0.0
  0
LINE
  5
977
330
19
100
AcDbEntity
  8
TitleBlock&Notes
  6
Continuous
 62
     3
100
AcDbLine
 10
10.33019367127096
 20
-6.32882348326391
 30
0.0
 11
10.66678073495058
 21
-5.363940567382194
 31
0.0
  0
LINE
  5
978
330
19
100
AcDbEntity
  8
TitleBlock&Notes
  6
Continuous
 62
     3
100
AcDbLine
 10
11.00336779863025
 20
-6.32882348326391
 30
0.0
 11
11.00336779863025
 21
-4.354179376343221
 31
0.0
  0
LINE
  5
979
330
19
100
AcDbEntity
  8
TitleBlock&Notes
  6
Continuous
 62
     3
100
AcDbLine
 10
11.04824607378755
 20
-6.373701758421191
 30
0.0
 11
11.04824607378755
 21
-4.30930110118593
 31
0.0
  0
LINE
  5
97A
330
19
100
AcDbEntity
  8
TitleBlock&Notes
  6
Continuous
 62
     3
100
AcDbLine
 10
11.02580693620892
 20
-4.331740238764584
 30
0.0
 11
11.02580693620892
 21
-6.351262620842547
 31
0.0
  0
LINE
  5
97B
330
19
100
AcDbEntity
  8
TitleBlock&Notes
  6
Continuous
 62
     3
100
AcDbLine
 10
10.45142479205811
 20
-4.30930110118593
 30
0.0
 11
10.16190013943109
 21
-5.58638059088653
 31
0.0
  0
LINE
  5
97C
330
19
100
AcDbEntity
  8
TitleBlock&Notes
  6
Continuous
 62
     3
100
AcDbLine
 10
10.46934621318976
 20
-4.331740238764584
 30
0.0
 11
10.16190013943109
 21
-5.687870252093045
 31
0.0
  0
LINE
  5
97D
330
19
100
AcDbEntity
  8
TitleBlock&Notes
  6
Continuous
 62
     3
100
AcDbLine
 10
10.16190013943109
 20
-5.789359913299573
 30
0.0
 11
10.48726763432146
 21
-4.354179376343221
 31
0.0
  0
LINE
  5
97E
330
19
100
AcDbEntity
  8
TitleBlock&Notes
  6
Continuous
 62
     3
100
AcDbLine
 10
11.33995486230993
 20
-4.354179376343221
 30
0.0
 11
11.33995486230993
 21
-5.767845043797798
 31
0.0
  0
LINE
  5
97F
330
19
100
AcDbEntity
  8
TitleBlock&Notes
  6
Continuous
 62
     3
100
AcDbLine
 10
11.2950765871526
 20
-4.30930110118593
 30
0.0
 11
11.2950765871526
 21
-5.767845043797798
 31
0.0
  0
LINE
  5
980
330
19
100
AcDbEntity
  8
TitleBlock&Notes
  6
Continuous
 62
     3
100
AcDbLine
 10
11.31751572473129
 20
-5.767845043797798
 30
0.0
 11
11.31751572473129
 21
-4.331740238764584
 31
0.0
  0
ARC
  5
981
330
19
100
AcDbEntity
  8
TitleBlock&Notes
  6
Continuous
 62
     3
100
AcDbCircle
 10
11.90093330177602
 20
-5.767845043797802
 30
0.0
 40
0.5609784394661005
100
AcDbArc
 50
180.0000000000004
 51
269.9999931700005
  0
ARC
  5
982
330
19
100
AcDbEntity
  8
TitleBlock&Notes
  6
Continuous
 62
     3
100
AcDbCircle
 10
11.90093330177602
 20
-5.767845043797802
 30
0.0
 40
0.6058567146233887
100
AcDbArc
 50
180.0000000000004
 51
269.9999934300003
  0
ARC
  5
983
330
19
100
AcDbEntity
  8
TitleBlock&Notes
  6
Continuous
 62
     3
100
AcDbCircle
 10
11.90093330177602
 20
-5.767845043797802
 30
0.0
 40
0.5834175770447444
100
AcDbArc
 50
180.0000000000004
 51
269.9999934300003
  0
LINE
  5
984
330
19
100
AcDbEntity
  8
TitleBlock&Notes
  6
Continuous
 62
     3
100
AcDbLine
 10
11.04824607378755
 20
-6.361274739638748
 30
0.0
 11
11.73036690969085
 21
-6.349368308848145
 31
0.0
  0
TEXT
  5
985
330
19
100
AcDbEntity
  8
TitleBlock&Notes
  6
Continuous
 62
     3
100
AcDbText
 10
11.01351733470499
 20
-7.419297399486023
 30
0.0
 40
0.3141479261010163
  1
 of
 41
1.098901099999999
 51
11.0
100
AcDbText
  0
LINE
  5
986
330
19
100
AcDbEntity
  8
TitleBlock&Notes
  6
Continuous
 62
     3
100
AcDbLine
 10
11.04824607378755
 20
-6.307412641603935
 30
0.0
 11
11.60673296117343
 21
-6.297664182674264
 31
0.0
  0
LINE
  5
987
330
19
100
AcDbEntity
  8
TitleBlock&Notes
  6
Continuous
 62
     3
100
AcDbLine
 10
11.04824607378755
 20
-6.325366644363352
 30
0.0
 11
11.64045077222978
 21
-6.31502969661156
 31
0.0
  0
LINE
  5
988
330
19
100
AcDbEntity
  8
TitleBlock&Notes
  6
Continuous
 62
     3
100
AcDbLine
 10
11.04824607378755
 20
-6.343320692001057
 30
0.0
 11
11.68032803679496
 21
-6.332287682201563
 31
0.0
  0
TEXT
  5
989
330
19
100
AcDbEntity
  8
TitleBlock&Notes
  6
Continuous
 62
     3
100
AcDbText
 10
9.65774796319566
 20
-7.41929739948603
 30
0.0
 40
0.3141479261010163
  1
 SPEED
 41
0.8
 51
11.0
100
AcDbText
  0
LINE
  5
98A
330
19
100
AcDbEntity
  8
TitleBlock&Notes
  6
Continuous
 62
     3
100
AcDbLine
 10
11.00336779863025
 20
-6.32882348326391
 30
0.0
 11
10.66678073495058
 21
-6.32882348326391
 31
0.0
  0
LINE
  5
98B
330
19
100
AcDbEntity
  8
TitleBlock&Notes
  6
Continuous
 62
     3
100
AcDbLine
 10
10.62190245979333
 20
-6.373701758421191
 30
0.0
 11
11.04824607378755
 21
-6.373701758421191
 31
0.0
  0
LINE
  5
98C
330
19
100
AcDbEntity
  8
TitleBlock&Notes
  6
Continuous
 62
     3
100
AcDbLine
 10
10.64434159737194
 20
-6.351262620842547
 30
0.0
 11
11.02580693620892
 21
-6.351262620842547
 31
0.0
  0
LINE
  5
98D
330
19
100
AcDbEntity
  8
TitleBlock&Notes
  6
Continuous
 62
     3
100
AcDbLine
 10
10.36206891498417
 20
-6.373701758421191
 30
0.0
 11
10.62190245979333
 21
-5.62884562655379
 31
0.0
  0
LINE
  5
98E
330
19
100
AcDbEntity
  8
TitleBlock&Notes
  6
Continuous
 62
     3
100
AcDbLine
 10
10.62190245979333
 20
-5.62884562655379
 30
0.0
 11
10.62190245979333
 21
-6.373701758421191
 31
0.0
  0
LINE
  5
98F
330
19
100
AcDbEntity
  8
TitleBlock&Notes
  6
Continuous
 62
     3
100
AcDbLine
 10
10.64434159737194
 20
-5.496393096967999
 30
0.0
 11
10.34613129312756
 21
-6.351262620842547
 31
0.0
  0
LINE
  5
990
330
19
100
AcDbEntity
  8
TitleBlock&Notes
  6
Continuous
 62
     3
100
AcDbLine
 10
10.64434159737194
 20
-5.496393096967999
 30
0.0
 11
10.64434159737194
 21
-6.351262620842547
 31
0.0
  0
LINE
  5
991
330
19
100
AcDbEntity
  8
TitleBlock&Notes
  6
Continuous
 62
     3
100
AcDbLine
 10
9.993606607591289
 20
-6.32882348326391
 30
0.0
 11
10.33019367127096
 21
-6.32882348326391
 31
0.0
  0
LINE
  5
992
330
19
100
AcDbEntity
  8
TitleBlock&Notes
  6
Continuous
 62
     3
100
AcDbLine
 10
9.961731318999774
 20
-6.373701758421191
 30
0.0
 11
10.36206891498417
 21
-6.373701758421191
 31
0.0
  0
LINE
  5
993
330
19
100
AcDbEntity
  8
TitleBlock&Notes
  6
Continuous
 62
     3
100
AcDbLine
 10
9.977668940856382
 20
-6.351262620842547
 30
0.0
 11
10.34613129312756
 21
-6.351262620842547
 31
0.0
  0
LINE
  5
994
330
19
100
AcDbEntity
  8
TitleBlock&Notes
  6
Continuous
 62
     3
100
AcDbLine
 10
10.41893942819417
 20
-6.210672941918335
 30
0.0
 11
10.62190245979333
 21
-6.207130205999131
 31
0.0
  0
LINE
  5
995
330
19
100
AcDbEntity
  8
TitleBlock&Notes
  6
Continuous
 62
     3
100
AcDbLine
 10
10.412638024701
 20
-6.228736986208435
 30
0.0
 11
10.62190245979333
 21
-6.22508425363684
 31
0.0
  0
LINE
  5
996
330
19
100
AcDbEntity
  8
TitleBlock&Notes
  6
Continuous
 62
     3
100
AcDbLine
 10
10.40633662120793
 20
-6.246801030498545
 30
0.0
 11
10.62190245979333
 21
-6.243038301274534
 31
0.0
  0
LINE
  5
997
330
19
100
AcDbEntity
  8
TitleBlock&Notes
  6
Continuous
 62
     3
100
AcDbLine
 10
10.40003521771483
 20
-6.264865029910374
 30
0.0
 11
10.62190245979333
 21
-6.26099234891225
 31
0.0
  0
LINE
  5
998
330
19
100
AcDbEntity
  8
TitleBlock&Notes
  6
Continuous
 62
     3
100
AcDbLine
 10
10.39373381422169
 20
-6.282929074200499
 30
0.0
 11
10.62190245979333
 21
-6.278946396549947
 31
0.0
  0
LINE
  5
999
330
19
100
AcDbEntity
  8
TitleBlock&Notes
  6
Continuous
 62
     3
100
AcDbLine
 10
10.38743241072859
 20
-6.300993118490609
 30
0.0
 11
10.62190245979333
 21
-6.296900444187638
 31
0.0
  0
LINE
  5
99A
330
19
100
AcDbEntity
  8
TitleBlock&Notes
  6
Continuous
 62
     3
100
AcDbLine
 10
10.38113096235719
 20
-6.319057162780719
 30
0.0
 11
10.62190245979333
 21
-6.314854491825347
 31
0.0
  0
LINE
  5
99B
330
19
100
AcDbEntity
  8
TitleBlock&Notes
  6
Continuous
 62
     3
100
AcDbLine
 10
10.37482955886409
 20
-6.337121207070829
 30
0.0
 11
10.62190245979333
 21
-6.332808539463037
 31
0.0
  0
LINE
  5
99C
330
19
100
AcDbEntity
  8
TitleBlock&Notes
  6
Continuous
 62
     3
100
AcDbLine
 10
10.36852815537098
 20
-6.355185251360925
 30
0.0
 11
10.62190245979333
 21
-6.350762587100742
 31
0.0
  0
LINE
  5
99D
330
19
100
AcDbEntity
  8
TitleBlock&Notes
  6
Continuous
 62
     3
100
AcDbLine
 10
10.36222675187784
 20
-6.373249250772769
 30
0.0
 11
10.62190245979333
 21
-6.368716589860159
 31
0.0
  0
LINE
  5
99E
330
19
100
AcDbEntity
  8
TitleBlock&Notes
  6
Continuous
 62
     3
100
AcDbLine
 10
10.43784363867349
 20
-6.156480853926272
 30
0.0
 11
10.62190245979333
 21
-6.153268063086041
 31
0.0
  0
LINE
  5
99F
330
19
100
AcDbEntity
  8
TitleBlock&Notes
  6
Continuous
 62
     3
100
AcDbLine
 10
10.43154223518034
 20
-6.174544853338105
 30
0.0
 11
10.62190245979333
 21
-6.171222110723746
 31
0.0
  0
LINE
  5
9A0
330
19
100
AcDbEntity
  8
TitleBlock&Notes
  6
Continuous
 62
     3
100
AcDbLine
 10
10.42524083168725
 20
-6.192608897628229
 30
0.0
 11
10.62190245979333
 21
-6.189176158361441
 31
0.0
  0
LINE
  5
9A1
330
19
100
AcDbEntity
  8
TitleBlock&Notes
  6
Continuous
 62
     3
100
AcDbLine
 10
10.45044649053799
 20
-6.120352765346051
 30
0.0
 11
10.62190245979333
 21
-6.117359967810642
 31
0.0
  0
LINE
  5
9A2
330
19
100
AcDbEntity
  8
TitleBlock&Notes
  6
Continuous
 62
     3
100
AcDbLine
 10
10.44414504216659
 20
-6.138416809636161
 30
0.0
 11
10.62190245979333
 21
-6.135314015448336
 31
0.0
  0
LINE
  5
9A3
330
19
100
AcDbEntity
  8
TitleBlock&Notes
  6
Continuous
 62
     3
100
AcDbLine
 10
10.13331034448557
 20
-5.460272458181446
 30
0.0
 11
10.19071706332712
 21
-5.459270416053733
 31
0.0
  0
LINE
  5
9A4
330
19
100
AcDbEntity
  8
TitleBlock&Notes
  6
Continuous
 62
     3
100
AcDbLine
 10
10.13736464786328
 20
-5.478155732779228
 30
0.0
 11
10.18663058222618
 21
-5.477295775270665
 31
0.0
  0
LINE
  5
9A5
330
19
100
AcDbEntity
  8
TitleBlock&Notes
  6
Continuous
 62
     3
100
AcDbLine
 10
10.14141890636274
 20
-5.496039007376989
 30
0.0
 11
10.18254405624693
 21
-5.49532117936587
 31
0.0
  0
LINE
  5
9A6
330
19
100
AcDbEntity
  8
TitleBlock&Notes
  6
Continuous
 62
     3
100
AcDbLine
 10
10.14547320974042
 20
-5.513922281974775
 30
0.0
 11
10.17845757514592
 21
-5.513346538582784
 31
0.0
  0
LINE
  5
9A7
330
19
100
AcDbEntity
  8
TitleBlock&Notes
  6
Continuous
 62
     3
100
AcDbLine
 10
10.14952751311814
 20
-5.531805556572557
 30
0.0
 11
10.17437104916661
 21
-5.531371897799704
 31
0.0
  0
LINE
  5
9A8
330
19
100
AcDbEntity
  8
TitleBlock&Notes
  6
Continuous
 62
     3
100
AcDbLine
 10
10.15358177161761
 20
-5.549688831170346
 30
0.0
 11
10.17028452318735
 21
-5.549397301894899
 31
0.0
  0
LINE
  5
9A9
330
19
100
AcDbEntity
  8
TitleBlock&Notes
  6
Continuous
 62
     3
100
AcDbLine
 10
10.15763607499529
 20
-5.567572105768103
 30
0.0
 11
10.16619804208634
 21
-5.567422661111834
 31
0.0
  0
LINE
  5
9AA
330
19
100
AcDbEntity
  8
TitleBlock&Notes
  6
Continuous
 62
     3
100
AcDbLine
 10
10.161690378373
 20
-5.585455380365889
 30
0.0
 11
10.16211151610708
 21
-5.585448065207039
 31
0.0
  0
LINE
  5
9AB
330
19
100
AcDbEntity
  8
TitleBlock&Notes
  6
Continuous
 62
     3
100
AcDbLine
 10
10.57017320178534
 20
-5.777136058468776
 30
0.0
 11
10.62190245979333
 21
-5.776233152450899
 31
0.0
  0
LINE
  5
9AC
330
19
100
AcDbEntity
  8
TitleBlock&Notes
  6
Continuous
 62
     3
100
AcDbLine
 10
10.56387179829219
 20
-5.795200102758897
 30
0.0
 11
10.62190245979333
 21
-5.794187200088593
 31
0.0
  0
LINE
  5
9AD
330
19
100
AcDbEntity
  8
TitleBlock&Notes
  6
Continuous
 62
     3
100
AcDbLine
 10
10.5575703947991
 20
-5.813264147049007
 30
0.0
 11
10.62190245979333
 21
-5.812141247726287
 31
0.0
  0
LINE
  5
9AE
330
19
100
AcDbEntity
  8
TitleBlock&Notes
  6
Continuous
 62
     3
100
AcDbLine
 10
10.55126899130602
 20
-5.831328191339117
 30
0.0
 11
10.62190245979333
 21
-5.830095295363992
 31
0.0
  0
LINE
  5
9AF
330
19
100
AcDbEntity
  8
TitleBlock&Notes
  6
Continuous
 62
     3
100
AcDbLine
 10
10.54496758781285
 20
-5.849392235629217
 30
0.0
 11
10.62190245979333
 21
-5.848049298123417
 31
0.0
  0
LINE
  5
9B0
330
19
100
AcDbEntity
  8
TitleBlock&Notes
  6
Continuous
 62
     3
100
AcDbLine
 10
10.53866618431978
 20
-5.86745623504105
 30
0.0
 11
10.62190245979333
 21
-5.866003345761114
 31
0.0
  0
LINE
  5
9B1
330
19
100
AcDbEntity
  8
TitleBlock&Notes
  6
Continuous
 62
     3
100
AcDbLine
 10
10.6205844746085
 20
-5.632623793904453
 30
0.0
 11
10.62190245979333
 21
-5.632600771349292
 31
0.0
  0
LINE
  5
9B2
330
19
100
AcDbEntity
  8
TitleBlock&Notes
  6
Continuous
 62
     3
100
AcDbLine
 10
10.61428307111536
 20
-5.650687838194553
 30
0.0
 11
10.62190245979333
 21
-5.650554818986996
 31
0.0
  0
LINE
  5
9B3
330
19
100
AcDbEntity
  8
TitleBlock&Notes
  6
Continuous
 62
     3
100
AcDbLine
 10
10.60798166762227
 20
-5.668751882484674
 30
0.0
 11
10.62190245979333
 21
-5.668508866624691
 31
0.0
  0
LINE
  5
9B4
330
19
100
AcDbEntity
  8
TitleBlock&Notes
  6
Continuous
 62
     3
100
AcDbLine
 10
10.60168026412918
 20
-5.686815881896507
 30
0.0
 11
10.62190245979333
 21
-5.686462914262396
 31
0.0
  0
LINE
  5
9B5
330
19
100
AcDbEntity
  8
TitleBlock&Notes
  6
Continuous
 62
     3
100
AcDbLine
 10
10.59537886063601
 20
-5.704879926186627
 30
0.0
 11
10.62190245979333
 21
-5.70441696190009
 31
0.0
  0
LINE
  5
9B6
330
19
100
AcDbEntity
  8
TitleBlock&Notes
  6
Continuous
 62
     3
100
AcDbLine
 10
10.58907745714294
 20
-5.722943970476727
 30
0.0
 11
10.62190245979333
 21
-5.722371009537781
 31
0.0
  0
LINE
  5
9B7
330
19
100
AcDbEntity
  8
TitleBlock&Notes
  6
Continuous
 62
     3
100
AcDbLine
 10
10.58277605364984
 20
-5.741008014766848
 30
0.0
 11
10.62190245979333
 21
-5.7403250571755
 31
0.0
  0
LINE
  5
9B8
330
19
100
AcDbEntity
  8
TitleBlock&Notes
  6
Continuous
 62
     3
100
AcDbLine
 10
10.57647465015669
 20
-5.759072059056947
 30
0.0
 11
10.62190245979333
 21
-5.758279104813205
 31
0.0
  0
LINE
  5
9B9
330
19
100
AcDbEntity
  8
TitleBlock&Notes
  6
Continuous
 62
     3
100
AcDbLine
 10
10.45674789403107
 20
-6.102288721055941
 30
0.0
 11
10.62190245979333
 21
-6.099405920172948
 31
0.0
  0
LINE
  5
9BA
330
19
100
AcDbEntity
  8
TitleBlock&Notes
  6
Continuous
 62
     3
100
AcDbLine
 10
10.53236478082668
 20
-5.885520279331171
 30
0.0
 11
10.62190245979333
 21
-5.883957393398809
 31
0.0
  0
LINE
  5
9BB
330
19
100
AcDbEntity
  8
TitleBlock&Notes
  6
Continuous
 62
     3
100
AcDbLine
 10
10.52606337733353
 20
-5.903584323621291
 30
0.0
 11
10.62190245979333
 21
-5.901911441036524
 31
0.0
  0
LINE
  5
9BC
330
19
100
AcDbEntity
  8
TitleBlock&Notes
  6
Continuous
 62
     3
100
AcDbLine
 10
10.51976197384043
 20
-5.921648367911391
 30
0.0
 11
10.62190245979333
 21
-5.919865488674229
 31
0.0
  0
LINE
  5
9BD
330
19
100
AcDbEntity
  8
TitleBlock&Notes
  6
Continuous
 62
     3
100
AcDbLine
 10
10.51346057034733
 20
-5.939712412201501
 30
0.0
 11
10.62190245979333
 21
-5.937819536311923
 31
0.0
  0
LINE
  5
9BE
330
19
100
AcDbEntity
  8
TitleBlock&Notes
  6
Continuous
 62
     3
100
AcDbLine
 10
10.50715912197593
 20
-5.957776456491611
 30
0.0
 11
10.62190245979333
 21
-5.955773583949618
 31
0.0
  0
LINE
  5
9BF
330
19
100
AcDbEntity
  8
TitleBlock&Notes
  6
Continuous
 62
     3
100
AcDbLine
 10
10.50085771848286
 20
-5.975840455903441
 30
0.0
 11
10.62190245979333
 21
-5.973727631587308
 31
0.0
  0
LINE
  5
9C0
330
19
100
AcDbEntity
  8
TitleBlock&Notes
  6
Continuous
 62
     3
100
AcDbLine
 10
10.49455631498976
 20
-5.993904500193565
 30
0.0
 11
10.62190245979333
 21
-5.991681679225017
 31
0.0
  0
LINE
  5
9C1
330
19
100
AcDbEntity
  8
TitleBlock&Notes
  6
Continuous
 62
     3
100
AcDbLine
 10
10.48825491149661
 20
-6.011968544483675
 30
0.0
 11
10.62190245979333
 21
-6.009635726862722
 31
0.0
  0
LINE
  5
9C2
330
19
100
AcDbEntity
  8
TitleBlock&Notes
  6
Continuous
 62
     3
100
AcDbLine
 10
10.48195350800351
 20
-6.030032588773785
 30
0.0
 11
10.62190245979333
 21
-6.027589774500416
 31
0.0
  0
LINE
  5
9C3
330
19
100
AcDbEntity
  8
TitleBlock&Notes
  6
Continuous
 62
     3
100
AcDbLine
 10
10.47565210451041
 20
-6.048096633063881
 30
0.0
 11
10.62190245979333
 21
-6.04554382213811
 31
0.0
  0
LINE
  5
9C4
330
19
100
AcDbEntity
  8
TitleBlock&Notes
  6
Continuous
 62
     3
100
AcDbLine
 10
10.46935070101731
 20
-6.06616063247571
 30
0.0
 11
10.62190245979333
 21
-6.063497869775815
 31
0.0
  0
LINE
  5
9C5
330
19
100
AcDbEntity
  8
TitleBlock&Notes
  6
Continuous
 62
     3
100
AcDbLine
 10
10.46304929752417
 20
-6.084224676765835
 30
0.0
 11
10.62190245979333
 21
-6.081451917413509
 31
0.0
  0
LINE
  5
9C6
330
19
100
AcDbEntity
  8
TitleBlock&Notes
  6
Continuous
 62
     3
100
AcDbLine
 10
11.04824607378755
 20
-6.217642403415428
 30
0.0
 11
11.48648494388185
 21
-6.209992901414864
 31
0.0
  0
LINE
  5
9C7
330
19
100
AcDbEntity
  8
TitleBlock&Notes
  6
Continuous
 62
     3
100
AcDbLine
 10
11.04824607378755
 20
-6.235596451053126
 30
0.0
 11
11.50611236776538
 21
-6.227604348300019
 31
0.0
  0
LINE
  5
9C8
330
19
100
AcDbEntity
  8
TitleBlock&Notes
  6
Continuous
 62
     3
100
AcDbLine
 10
11.04824607378755
 20
-6.253550498690817
 30
0.0
 11
11.52755731691444
 21
-6.245184066244632
 31
0.0
  0
LINE
  5
9C9
330
19
100
AcDbEntity
  8
TitleBlock&Notes
  6
Continuous
 62
     3
100
AcDbLine
 10
11.04824607378755
 20
-6.271504546328536
 30
0.0
 11
11.55114111977922
 21
-6.262726445464313
 31
0.0
  0
LINE
  5
9CA
330
19
100
AcDbEntity
  8
TitleBlock&Notes
  6
Continuous
 62
     3
100
AcDbLine
 10
11.04824607378755
 20
-6.289458593966241
 30
0.0
 11
11.57731269374614
 21
-6.280223677139201
 31
0.0
  0
LINE
  5
9CB
330
19
100
AcDbEntity
  8
TitleBlock&Notes
  6
Continuous
 62
     3
100
AcDbLine
 10
11.04824607378755
 20
-6.127872165226939
 30
0.0
 11
11.40886069671675
 21
-6.121577628109925
 31
0.0
  0
LINE
  5
9CC
330
19
100
AcDbEntity
  8
TitleBlock&Notes
  6
Continuous
 62
     3
100
AcDbLine
 10
11.04824607378755
 20
-6.14582621286463
 30
0.0
 11
11.42209830690511
 21
-6.139300597508828
 31
0.0
  0
LINE
  5
9CD
330
19
100
AcDbEntity
  8
TitleBlock&Notes
  6
Continuous
 62
     3
100
AcDbLine
 10
11.04824607378755
 20
-6.163780260502324
 30
0.0
 11
11.43637291939744
 21
-6.157005480962862
 31
0.0
  0
LINE
  5
9CE
330
19
100
AcDbEntity
  8
TitleBlock&Notes
  6
Continuous
 62
     3
100
AcDbLine
 10
11.04824607378755
 20
-6.181734308140029
 30
0.0
 11
11.45177981077206
 21
-6.174690617975819
 31
0.0
  0
LINE
  5
9CF
330
19
100
AcDbEntity
  8
TitleBlock&Notes
  6
Continuous
 62
     3
100
AcDbLine
 10
11.04824607378755
 20
-6.199688355777734
 30
0.0
 11
11.46843544015288
 21
-6.192353899268773
 31
0.0
  0
LINE
  5
9D0
330
19
100
AcDbEntity
  8
TitleBlock&Notes
  6
Continuous
 62
     3
100
AcDbLine
 10
11.2950765871526
 20
-5.781979950219604
 30
0.0
 11
11.04824607378755
 21
-5.781979950219604
 31
0.0
  0
LINE
  5
9D1
330
19
100
AcDbEntity
  8
TitleBlock&Notes
  6
Continuous
 62
     3
100
AcDbLine
 10
11.04824607378755
 20
-5.786745349867185
 30
0.0
 11
11.29508740281696
 21
-5.782436676425888
 31
0.0
  0
LINE
  5
9D2
330
19
100
AcDbEntity
  8
TitleBlock&Notes
  6
Continuous
 62
     3
100
AcDbLine
 10
11.04824607378755
 20
-5.804699352626609
 30
0.0
 11
11.29578557414355
 21
-5.800378562051008
 31
0.0
  0
LINE
  5
9D3
330
19
100
AcDbEntity
  8
TitleBlock&Notes
  6
Continuous
 62
     3
100
AcDbLine
 10
11.04824607378755
 20
-5.822653400264304
 30
0.0
 11
11.29701663010941
 21
-5.818311112994912
 31
0.0
  0
LINE
  5
9D4
330
19
100
AcDbEntity
  8
TitleBlock&Notes
  6
Continuous
 62
     3
100
AcDbLine
 10
11.04824607378755
 20
-5.840607447902009
 30
0.0
 11
11.29878290438477
 21
-5.836234329257582
 31
0.0
  0
LINE
  5
9D5
330
19
100
AcDbEntity
  8
TitleBlock&Notes
  6
Continuous
 62
     3
100
AcDbLine
 10
11.04824607378755
 20
-5.858561495539703
 30
0.0
 11
11.30108834625785
 21
-5.854148121082459
 31
0.0
  0
LINE
  5
9D6
330
19
100
AcDbEntity
  8
TitleBlock&Notes
  6
Continuous
 62
     3
100
AcDbLine
 10
11.04824607378755
 20
-5.462256257456498
 30
0.0
 11
11.2950765871526
 21
-5.457947808406583
 31
0.0
  0
LINE
  5
9D7
330
19
100
AcDbEntity
  8
TitleBlock&Notes
  6
Continuous
 62
     3
100
AcDbLine
 10
11.04824607378755
 20
-5.480210305094203
 30
0.0
 11
11.2950765871526
 21
-5.475901856044274
 31
0.0
  0
LINE
  5
9D8
330
19
100
AcDbEntity
  8
TitleBlock&Notes
  6
Continuous
 62
     3
100
AcDbLine
 10
11.04824607378755
 20
-5.498164307853642
 30
0.0
 11
11.2950765871526
 21
-5.493855903681982
 31
0.0
  0
LINE
  5
9D9
330
19
100
AcDbEntity
  8
TitleBlock&Notes
  6
Continuous
 62
     3
100
AcDbLine
 10
11.04824607378755
 20
-5.516118355491325
 30
0.0
 11
11.2950765871526
 21
-5.511809951319676
 31
0.0
  0
LINE
  5
9DA
330
19
100
AcDbEntity
  8
TitleBlock&Notes
  6
Continuous
 62
     3
100
AcDbLine
 10
11.04824607378755
 20
-5.534072403129016
 30
0.0
 11
11.2950765871526
 21
-5.529763954079104
 31
0.0
  0
LINE
  5
9DB
330
19
100
AcDbEntity
  8
TitleBlock&Notes
  6
Continuous
 62
     3
100
AcDbLine
 10
11.04824607378755
 20
-5.55202645076671
 30
0.0
 11
11.2950765871526
 21
-5.547718001716795
 31
0.0
  0
LINE
  5
9DC
330
19
100
AcDbEntity
  8
TitleBlock&Notes
  6
Continuous
 62
     3
100
AcDbLine
 10
11.04824607378755
 20
-5.569980498404429
 30
0.0
 11
11.2950765871526
 21
-5.565672049354514
 31
0.0
  0
LINE
  5
9DD
330
19
100
AcDbEntity
  8
TitleBlock&Notes
  6
Continuous
 62
     3
100
AcDbLine
 10
11.04824607378755
 20
-5.587934546042134
 30
0.0
 11
11.2950765871526
 21
-5.583626096992205
 31
0.0
  0
LINE
  5
9DE
330
19
100
AcDbEntity
  8
TitleBlock&Notes
  6
Continuous
 62
     3
100
AcDbLine
 10
11.04824607378755
 20
-5.605888593679829
 30
0.0
 11
11.2950765871526
 21
-5.601580144629892
 31
0.0
  0
LINE
  5
9DF
330
19
100
AcDbEntity
  8
TitleBlock&Notes
  6
Continuous
 62
     3
100
AcDbLine
 10
11.04824607378755
 20
-5.623842641317523
 30
0.0
 11
11.2950765871526
 21
-5.619534192267607
 31
0.0
  0
LINE
  5
9E0
330
19
100
AcDbEntity
  8
TitleBlock&Notes
  6
Continuous
 62
     3
100
AcDbLine
 10
11.04824607378755
 20
-5.641796688955228
 30
0.0
 11
11.2950765871526
 21
-5.637488239905302
 31
0.0
  0
LINE
  5
9E1
330
19
100
AcDbEntity
  8
TitleBlock&Notes
  6
Continuous
 62
     3
100
AcDbLine
 10
11.04824607378755
 20
-5.659750736592922
 30
0.0
 11
11.2950765871526
 21
-5.655442287543007
 31
0.0
  0
LINE
  5
9E2
330
19
100
AcDbEntity
  8
TitleBlock&Notes
  6
Continuous
 62
     3
100
AcDbLine
 10
11.2950765871526
 20
-5.69363688605939
 30
0.0
 11
11.04824607378755
 21
-5.69363688605939
 31
0.0
  0
LINE
  5
9E3
330
19
100
AcDbEntity
  8
TitleBlock&Notes
  6
Continuous
 62
     3
100
AcDbLine
 10
11.04824607378755
 20
-5.677704784230627
 30
0.0
 11
11.2950765871526
 21
-5.673396335180701
 31
0.0
  0
LINE
  5
9E4
330
19
100
AcDbEntity
  8
TitleBlock&Notes
  6
Continuous
 62
     3
100
AcDbLine
 10
11.16408242199631
 20
-5.69363688605939
 30
0.0
 11
11.2950765871526
 21
-5.691350382818392
 31
0.0
  0
LINE
  5
9E5
330
19
100
AcDbEntity
  8
TitleBlock&Notes
  6
Continuous
 62
     3
100
AcDbLine
 10
11.04824607378755
 20
-6.109918117589234
 30
0.0
 11
11.39658128258133
 21
-6.103837919114376
 31
0.0
  0
LINE
  5
9E6
330
19
100
AcDbEntity
  8
TitleBlock&Notes
  6
Continuous
 62
     3
100
AcDbLine
 10
11.04824607378755
 20
-5.894469590815116
 30
0.0
 11
11.30733980023073
 21
-5.88994711727096
 31
0.0
  0
LINE
  5
9E7
330
19
100
AcDbEntity
  8
TitleBlock&Notes
  6
Continuous
 62
     3
100
AcDbLine
 10
11.04824607378755
 20
-5.912423638452807
 30
0.0
 11
11.3113013402137
 21
-5.907832007486639
 31
0.0
  0
LINE
  5
9E8
330
19
100
AcDbEntity
  8
TitleBlock&Notes
  6
Continuous
 62
     3
100
AcDbLine
 10
11.04824607378755
 20
-5.930377686090515
 30
0.0
 11
11.31583346258695
 21
-5.925706934725244
 31
0.0
  0
LINE
  5
9E9
330
19
100
AcDbEntity
  8
TitleBlock&Notes
  6
Continuous
 62
     3
100
AcDbLine
 10
11.04824607378755
 20
-5.948331733728206
 30
0.0
 11
11.32094855375461
 21
-5.943571674595368
 31
0.0
  0
LINE
  5
9EA
330
19
100
AcDbEntity
  8
TitleBlock&Notes
  6
Continuous
 62
     3
100
AcDbLine
 10
11.04824607378755
 20
-5.966285781365911
 30
0.0
 11
11.32666106452107
 21
-5.961426002705671
 31
0.0
  0
LINE
  5
9EB
330
19
100
AcDbEntity
  8
TitleBlock&Notes
  6
Continuous
 62
     3
100
AcDbLine
 10
11.04824607378755
 20
-5.984239829003609
 30
0.0
 11
11.33298804863102
 21
-5.979269649786473
 31
0.0
  0
LINE
  5
9EC
330
19
100
AcDbEntity
  8
TitleBlock&Notes
  6
Continuous
 62
     3
100
AcDbLine
 10
11.04824607378755
 20
-6.002193876641303
 30
0.0
 11
11.33994902813411
 21
-5.997102167055075
 31
0.0
  0
LINE
  5
9ED
330
19
100
AcDbEntity
  8
TitleBlock&Notes
  6
Continuous
 62
     3
100
AcDbLine
 10
11.04824607378755
 20
-6.020147924279008
 30
0.0
 11
11.34756675631586
 21
-6.014923240363465
 31
0.0
  0
LINE
  5
9EE
330
19
100
AcDbEntity
  8
TitleBlock&Notes
  6
Continuous
 62
     3
100
AcDbLine
 10
11.04824607378755
 20
-6.038101971916724
 30
0.0
 11
11.3558673523324
 21
-6.032732420928958
 31
0.0
  0
LINE
  5
9EF
330
19
100
AcDbEntity
  8
TitleBlock&Notes
  6
Continuous
 62
     3
100
AcDbLine
 10
11.04824607378755
 20
-6.056056019554418
 30
0.0
 11
11.3648811538978
 21
-6.050529125333955
 31
0.0
  0
LINE
  5
9F0
330
19
100
AcDbEntity
  8
TitleBlock&Notes
  6
Continuous
 62
     3
100
AcDbLine
 10
11.04824607378755
 20
-6.074010022313821
 30
0.0
 11
11.37464312118824
 21
-6.068312770160893
 31
0.0
  0
LINE
  5
9F1
330
19
100
AcDbEntity
  8
TitleBlock&Notes
  6
Continuous
 62
     3
100
AcDbLine
 10
11.04824607378755
 20
-6.091964069951536
 30
0.0
 11
11.38519400367775
 21
-6.086082637357336
 31
0.0
  0
LINE
  5
9F2
330
19
100
AcDbEntity
  8
TitleBlock&Notes
  6
Continuous
 62
     3
100
AcDbLine
 10
11.04824607378755
 20
-5.876515543177422
 30
0.0
 11
11.3039383411217
 21
-5.872052443591286
 31
0.0
  0
TEXT
  5
9F3
330
19
100
AcDbEntity
  8
TitleBlock&Notes
  6
Continuous
 62
     3
100
AcDbText
 10
11.82378503359723
 20
-7.419297399486023
 30
0.0
 40
0.3141479261010163
  1
 AIR
 41
1.098901099999999
 51
11.0
100
AcDbText
  0
ARC
  5
9F4
330
19
100
AcDbEntity
  8
TitleBlock&Notes
  6
Continuous
 62
     3
100
AcDbCircle
 10
12.12532467756245
 20
-5.767845043797802
 30
0.0
 40
0.5609784394661005
100
AcDbArc
 50
270.0000000000008
 51
0.0000000000008142
  0
ARC
  5
9F5
330
19
100
AcDbEntity
  8
TitleBlock&Notes
  6
Continuous
 62
     3
100
AcDbCircle
 10
12.12532467756245
 20
-5.767845043797802
 30
0.0
 40
0.6058567146233887
100
AcDbArc
 50
270.0000000000008
 51
0.0000000000008142
  0
ARC
  5
9F6
330
19
100
AcDbEntity
  8
TitleBlock&Notes
  6
Continuous
 62
     3
100
AcDbCircle
 10
12.12532467756245
 20
-5.767845043797802
 30
0.0
 40
0.5834175770447444
100
AcDbArc
 50
270.0000000000008
 51
0.0000000000008142
  0
LINE
  5
9F7
330
19
100
AcDbEntity
  8
TitleBlock&Notes
  6
Continuous
 62
     3
100
AcDbLine
 10
12.41204609848831
 20
-6.301561456967188
 30
0.0
 11
12.91069449281497
 21
-6.292857495013539
 31
0.0
  0
LINE
  5
9F8
330
19
100
AcDbEntity
  8
TitleBlock&Notes
  6
Continuous
 62
     3
100
AcDbLine
 10
12.3743125344926
 20
-6.320174138171111
 30
0.0
 11
12.91069449281497
 21
-6.310811542651254
 31
0.0
  0
LINE
  5
9F9
330
19
100
AcDbEntity
  8
TitleBlock&Notes
  6
Continuous
 62
     3
100
AcDbLine
 10
12.32758325487649
 20
-6.338943848459781
 30
0.0
 11
12.91069449281497
 21
-6.328765590288952
 31
0.0
  0
LINE
  5
9FA
330
19
100
AcDbEntity
  8
TitleBlock&Notes
  6
Continuous
 62
     3
100
AcDbLine
 10
12.26219381284129
 20
-6.358039240391288
 30
0.0
 11
12.91069449281497
 21
-6.346719637926643
 31
0.0
  0
LINE
  5
9FB
330
19
100
AcDbEntity
  8
TitleBlock&Notes
  6
Continuous
 62
     3
100
AcDbLine
 10
12.44411723587261
 20
-6.28304759772519
 30
0.0
 11
12.91069449281497
 21
-6.274903447375834
 31
0.0
  0
LINE
  5
9FC
330
19
100
AcDbEntity
  8
TitleBlock&Notes
  6
Continuous
 62
     3
100
AcDbLine
 10
11.90093321201947
 20
-6.32882348326391
 30
0.0
 11
12.12532467756245
 21
-6.32882348326391
 31
0.0
  0
LINE
  5
9FD
330
19
100
AcDbEntity
  8
TitleBlock&Notes
  6
Continuous
 62
     3
100
AcDbLine
 10
11.90093321201947
 20
-6.373701758421191
 30
0.0
 11
12.12532467756245
 21
-6.373701758421191
 31
0.0
  0
LINE
  5
9FE
330
19
100
AcDbEntity
  8
TitleBlock&Notes
  6
Continuous
 62
     3
100
AcDbLine
 10
11.90093321201947
 20
-6.351262620842547
 30
0.0
 11
12.12532467756245
 21
-6.351262620842547
 31
0.0
  0
LINE
  5
9FF
330
19
100
AcDbEntity
  8
TitleBlock&Notes
  6
Continuous
 62
     3
100
AcDbLine
 10
12.30428039001417
 20
-5.781979950219604
 30
0.0
 11
11.72197754444606
 21
-5.781979950219604
 31
0.0
  0
LINE
  5
A00
330
19
100
AcDbEntity
  8
TitleBlock&Notes
  6
Continuous
 62
     3
100
AcDbLine
 10
12.30483777819162
 20
-5.69363688605939
 30
0.0
 11
11.72142020114684
 21
-5.69363688605939
 31
0.0
  0
LINE
  5
A01
330
19
100
AcDbEntity
  8
TitleBlock&Notes
  6
Continuous
 62
     3
100
AcDbLine
 10
11.72142020114684
 20
-5.468460005822866
 30
0.0
 11
12.30483777819162
 21
-5.458276407137283
 31
0.0
  0
LINE
  5
A02
330
19
100
AcDbEntity
  8
TitleBlock&Notes
  6
Continuous
 62
     3
100
AcDbLine
 10
11.72142020114684
 20
-5.486414053460574
 30
0.0
 11
12.30483777819162
 21
-5.476230454774977
 31
0.0
  0
LINE
  5
A03
330
19
100
AcDbEntity
  8
TitleBlock&Notes
  6
Continuous
 62
     3
100
AcDbLine
 10
11.72142020114684
 20
-5.504368056219988
 30
0.0
 11
12.30483777819162
 21
-5.494184502412668
 31
0.0
  0
LINE
  5
A04
330
19
100
AcDbEntity
  8
TitleBlock&Notes
  6
Continuous
 62
     3
100
AcDbLine
 10
11.72142020114684
 20
-5.522322103857693
 30
0.0
 11
12.30483777819162
 21
-5.512138550050377
 31
0.0
  0
LINE
  5
A05
330
19
100
AcDbEntity
  8
TitleBlock&Notes
  6
Continuous
 62
     3
100
AcDbLine
 10
11.72142020114684
 20
-5.540276151495387
 30
0.0
 11
12.30483777819162
 21
-5.530092552809815
 31
0.0
  0
LINE
  5
A06
330
19
100
AcDbEntity
  8
TitleBlock&Notes
  6
Continuous
 62
     3
100
AcDbLine
 10
11.72142020114684
 20
-5.558230199133081
 30
0.0
 11
12.30483777819162
 21
-5.548046600447509
 31
0.0
  0
LINE
  5
A07
330
19
100
AcDbEntity
  8
TitleBlock&Notes
  6
Continuous
 62
     3
100
AcDbLine
 10
11.72142020114684
 20
-5.576184246770797
 30
0.0
 11
12.30483777819162
 21
-5.566000648085204
 31
0.0
  0
LINE
  5
A08
330
19
100
AcDbEntity
  8
TitleBlock&Notes
  6
Continuous
 62
     3
100
AcDbLine
 10
11.72142020114684
 20
-5.594138294408505
 30
0.0
 11
12.30483777819162
 21
-5.583954695722908
 31
0.0
  0
LINE
  5
A09
330
19
100
AcDbEntity
  8
TitleBlock&Notes
  6
Continuous
 62
     3
100
AcDbLine
 10
11.72142020114684
 20
-5.612092342046199
 30
0.0
 11
12.30483777819162
 21
-5.601908743360599
 31
0.0
  0
LINE
  5
A0A
330
19
100
AcDbEntity
  8
TitleBlock&Notes
  6
Continuous
 62
     3
100
AcDbLine
 10
11.72142020114684
 20
-5.63004638968389
 30
0.0
 11
12.30483777819162
 21
-5.619862790998308
 31
0.0
  0
LINE
  5
A0B
330
19
100
AcDbEntity
  8
TitleBlock&Notes
  6
Continuous
 62
     3
100
AcDbLine
 10
11.72142020114684
 20
-5.648000437321599
 30
0.0
 11
12.30483777819162
 21
-5.637816838636002
 31
0.0
  0
LINE
  5
A0C
330
19
100
AcDbEntity
  8
TitleBlock&Notes
  6
Continuous
 62
     3
100
AcDbLine
 10
11.72142020114684
 20
-5.665954484959289
 30
0.0
 11
12.30483777819162
 21
-5.655770886273696
 31
0.0
  0
LINE
  5
A0D
330
19
100
AcDbEntity
  8
TitleBlock&Notes
  6
Continuous
 62
     3
100
AcDbLine
 10
11.72142020114684
 20
-5.683908532596994
 30
0.0
 11
12.30483777819162
 21
-5.673724933911401
 31
0.0
  0
LINE
  5
A0E
330
19
100
AcDbEntity
  8
TitleBlock&Notes
  6
Continuous
 62
     3
100
AcDbLine
 10
11.72430412398673
 20
-5.799893383018289
 30
0.0
 11
12.30349214798933
 21
-5.789783609095323
 31
0.0
  0
LINE
  5
A0F
330
19
100
AcDbEntity
  8
TitleBlock&Notes
  6
Continuous
 62
     3
100
AcDbLine
 10
11.72850347394974
 20
-5.817774144432661
 30
0.0
 11
12.30033648719337
 21
-5.807792767254927
 31
0.0
  0
LINE
  5
A10
330
19
100
AcDbEntity
  8
TitleBlock&Notes
  6
Continuous
 62
     3
100
AcDbLine
 10
11.73470596572443
 20
-5.835619900792416
 30
0.0
 11
12.29521277939689
 21
-5.825836212416739
 31
0.0
  0
LINE
  5
A11
330
19
100
AcDbEntity
  8
TitleBlock&Notes
  6
Continuous
 62
     3
100
AcDbLine
 10
11.74313370189452
 20
-5.853426837444136
 30
0.0
 11
12.28792212408449
 21
-5.84391753484278
 31
0.0
  0
LINE
  5
A12
330
19
100
AcDbEntity
  8
TitleBlock&Notes
  6
Continuous
 62
     3
100
AcDbLine
 10
11.75415091454114
 20
-5.8711885816728
 30
0.0
 11
12.27813767277817
 21
-5.862042344317465
 31
0.0
  0
LINE
  5
A13
330
19
100
AcDbEntity
  8
TitleBlock&Notes
  6
Continuous
 62
     3
100
AcDbLine
 10
11.90093321201947
 20
-5.992236419584237
 30
0.0
 11
12.12532467756245
 21
-5.992236419584237
 31
0.0
  0
LINE
  5
A14
330
19
100
AcDbEntity
  8
TitleBlock&Notes
  6
Continuous
 62
     3
100
AcDbLine
 10
12.12532467756245
 20
-5.947358144426956
 30
0.0
 11
11.9009332568977
 21
-5.947358144426956
 31
0.0
  0
LINE
  5
A15
330
19
100
AcDbEntity
  8
TitleBlock&Notes
  6
Continuous
 62
     3
100
AcDbLine
 10
11.90093321201947
 20
-5.969797282005593
 30
0.0
 11
12.12532467756245
 21
-5.969797282005593
 31
0.0
  0
LINE
  5
A16
330
19
100
AcDbEntity
  8
TitleBlock&Notes
  6
Continuous
 62
     3
100
AcDbLine
 10
11.85451484909359
 20
-5.941252903874545
 30
0.0
 11
12.18974362689735
 21
-5.935401449968161
 31
0.0
  0
LINE
  5
A17
330
19
100
AcDbEntity
  8
TitleBlock&Notes
  6
Continuous
 62
     3
100
AcDbLine
 10
11.76837378238224
 20
-5.888894362692315
 30
0.0
 11
12.26531312223441
 21
-5.880220244791637
 31
0.0
  0
LINE
  5
A18
330
19
100
AcDbEntity
  8
TitleBlock&Notes
  6
Continuous
 62
     3
100
AcDbLine
 10
11.78694625265158
 20
-5.906524209670276
 30
0.0
 11
12.24846070161694
 21
-5.898468469522999
 31
0.0
  0
LINE
  5
A19
330
19
100
AcDbEntity
  8
TitleBlock&Notes
  6
Continuous
 62
     3
100
AcDbLine
 10
11.81244474224768
 20
-5.924033199453251
 30
0.0
 11
12.22547611348203
 21
-5.916823684062336
 31
0.0
  0
ARC
  5
A1A
330
19
100
AcDbEntity
  8
TitleBlock&Notes
  6
Continuous
 62
     3
100
AcDbCircle
 10
11.90093330177602
 20
-5.767845043797802
 30
0.0
 40
0.2243913757864401
100
AcDbArc
 50
180.0000046800004
 51
269.9999931700005
  0
ARC
  5
A1B
330
19
100
AcDbEntity
  8
TitleBlock&Notes
  6
Continuous
 62
     3
100
AcDbCircle
 10
11.90093330177602
 20
-5.767845043797802
 30
0.0
 40
0.1795131006291522
100
AcDbArc
 50
180.0000052300005
 51
269.9999947700005
  0
ARC
  5
A1C
330
19
100
AcDbEntity
  8
TitleBlock&Notes
  6
Continuous
 62
     3
100
AcDbCircle
 10
11.90093330177602
 20
-5.767845043797802
 30
0.0
 40
0.2019522382077961
100
AcDbArc
 50
180.0000046800004
 51
269.9999931700005
  0
LINE
  5
A1D
330
19
100
AcDbEntity
  8
TitleBlock&Notes
  6
Continuous
 62
     3
100
AcDbLine
 10
12.19266892750691
 20
-5.69363688605939
 30
0.0
 11
12.30483777819162
 21
-5.691678981549095
 31
0.0
  0
ARC
  5
A1E
330
19
100
AcDbEntity
  8
TitleBlock&Notes
  6
Continuous
 62
     3
100
AcDbCircle
 10
12.12532467756245
 20
-5.767845043797802
 30
0.0
 40
0.2243913757864401
100
AcDbArc
 50
270.0000000000008
 51
359.9999953200008
  0
ARC
  5
A1F
330
19
100
AcDbEntity
  8
TitleBlock&Notes
  6
Continuous
 62
     3
100
AcDbCircle
 10
12.12532467756245
 20
-5.767845043797802
 30
0.0
 40
0.1795131006291522
100
AcDbArc
 50
270.0000000000008
 51
0.0000000000008142
  0
ARC
  5
A20
330
19
100
AcDbEntity
  8
TitleBlock&Notes
  6
Continuous
 62
     3
100
AcDbCircle
 10
12.12532467756245
 20
-5.767845043797802
 30
0.0
 40
0.2019522382077961
100
AcDbArc
 50
270.0000000000008
 51
359.9999953200008
  0
LINE
  5
A21
330
19
100
AcDbEntity
  8
TitleBlock&Notes
  6
Continuous
 62
     3
100
AcDbLine
 10
12.61946352328824
 20
-6.118400515498436
 30
0.0
 11
12.91069449281497
 21
-6.113317063514806
 31
0.0
  0
LINE
  5
A22
330
19
100
AcDbEntity
  8
TitleBlock&Notes
  6
Continuous
 62
     3
100
AcDbLine
 10
12.53999581121443
 20
-6.2095578514155
 30
0.0
 11
12.91069449281497
 21
-6.203087301703323
 31
0.0
  0
LINE
  5
A23
330
19
100
AcDbEntity
  8
TitleBlock&Notes
  6
Continuous
 62
     3
100
AcDbLine
 10
12.51958485752499
 20
-6.227868187679671
 30
0.0
 11
12.91069449281497
 21
-6.221041349341017
 31
0.0
  0
LINE
  5
A24
330
19
100
AcDbEntity
  8
TitleBlock&Notes
  6
Continuous
 62
     3
100
AcDbLine
 10
12.49711093928315
 20
-6.24621451632052
 30
0.0
 11
12.91069449281497
 21
-6.238995352100445
 31
0.0
  0
LINE
  5
A25
330
19
100
AcDbEntity
  8
TitleBlock&Notes
  6
Continuous
 62
     3
100
AcDbLine
 10
12.47215718219088
 20
-6.26460410761862
 30
0.0
 11
12.91069449281497
 21
-6.25694939973814
 31
0.0
  0
LINE
  5
A26
330
19
100
AcDbEntity
  8
TitleBlock&Notes
  6
Continuous
 62
     3
100
AcDbLine
 10
12.60604330339831
 20
-6.13658882773246
 30
0.0
 11
12.91069449281497
 21
-6.131271111152525
 31
0.0
  0
LINE
  5
A27
330
19
100
AcDbEntity
  8
TitleBlock&Notes
  6
Continuous
 62
     3
100
AcDbLine
 10
12.59151234619816
 20
-6.154796482503083
 30
0.0
 11
12.91069449281497
 21
-6.14922515879023
 31
0.0
  0
LINE
  5
A28
330
19
100
AcDbEntity
  8
TitleBlock&Notes
  6
Continuous
 62
     3
100
AcDbLine
 10
12.57575908429593
 20
-6.173025499332659
 30
0.0
 11
12.91069449281497
 21
-6.167179206427924
 31
0.0
  0
LINE
  5
A29
330
19
100
AcDbEntity
  8
TitleBlock&Notes
  6
Continuous
 62
     3
100
AcDbLine
 10
12.55864515796913
 20
-6.191278301648079
 30
0.0
 11
12.91069449281497
 21
-6.185133254065622
 31
0.0
  0
LINE
  5
A2A
330
19
100
AcDbEntity
  8
TitleBlock&Notes
  6
Continuous
 62
     3
100
AcDbLine
 10
12.91069449281497
 20
-5.781979950219604
 30
0.0
 11
12.73101646452463
 21
-5.781979950219604
 31
0.0
  0
LINE
  5
A2B
330
19
100
AcDbEntity
  8
TitleBlock&Notes
  6
Continuous
 62
     3
100
AcDbLine
 10
12.73064693680701
 20
-5.793286986767217
 30
0.0
 11
12.91069449281497
 21
-5.790144250914504
 31
0.0
  0
LINE
  5
A2C
330
19
100
AcDbEntity
  8
TitleBlock&Notes
  6
Continuous
 62
     3
100
AcDbLine
 10
12.72962393652476
 20
-5.811258895958431
 30
0.0
 11
12.91069449281497
 21
-5.808098298552199
 31
0.0
  0
LINE
  5
A2D
330
19
100
AcDbEntity
  8
TitleBlock&Notes
  6
Continuous
 62
     3
100
AcDbLine
 10
12.72806257645382
 20
-5.829240184709139
 30
0.0
 11
12.91069449281497
 21
-5.826052346189904
 31
0.0
  0
LINE
  5
A2E
330
19
100
AcDbEntity
  8
TitleBlock&Notes
  6
Continuous
 62
     3
100
AcDbLine
 10
12.72595787510545
 20
-5.847230987654196
 30
0.0
 11
12.91069449281497
 21
-5.844006393827598
 31
0.0
  0
LINE
  5
A2F
330
19
100
AcDbEntity
  8
TitleBlock&Notes
  6
Continuous
 62
     3
100
AcDbLine
 10
12.72330314561679
 20
-5.865231349671855
 30
0.0
 11
12.91069449281497
 21
-5.861960441465292
 31
0.0
  0
LINE
  5
A30
330
19
100
AcDbEntity
  8
TitleBlock&Notes
  6
Continuous
 62
     3
100
AcDbLine
 10
12.73118139218586
 20
-5.468788604553566
 30
0.0
 11
12.91069449281497
 21
-5.465655158503818
 31
0.0
  0
LINE
  5
A31
330
19
100
AcDbEntity
  8
TitleBlock&Notes
  6
Continuous
 62
     3
100
AcDbLine
 10
12.73118139218586
 20
-5.486742607313008
 30
0.0
 11
12.91069449281497
 21
-5.483609206141512
 31
0.0
  0
LINE
  5
A32
330
19
100
AcDbEntity
  8
TitleBlock&Notes
  6
Continuous
 62
     3
100
AcDbLine
 10
12.73118139218586
 20
-5.504696654950702
 30
0.0
 11
12.91069449281497
 21
-5.50156325377922
 31
0.0
  0
LINE
  5
A33
330
19
100
AcDbEntity
  8
TitleBlock&Notes
  6
Continuous
 62
     3
100
AcDbLine
 10
12.73118139218586
 20
-5.522650702588382
 30
0.0
 11
12.91069449281497
 21
-5.519517301416911
 31
0.0
  0
LINE
  5
A34
330
19
100
AcDbEntity
  8
TitleBlock&Notes
  6
Continuous
 62
     3
100
AcDbLine
 10
12.73118139218586
 20
-5.540604750226101
 30
0.0
 11
12.91069449281497
 21
-5.537471349054616
 31
0.0
  0
LINE
  5
A35
330
19
100
AcDbEntity
  8
TitleBlock&Notes
  6
Continuous
 62
     3
100
AcDbLine
 10
12.73118139218586
 20
-5.558558797863806
 30
0.0
 11
12.91069449281497
 21
-5.55542539669231
 31
0.0
  0
LINE
  5
A36
330
19
100
AcDbEntity
  8
TitleBlock&Notes
  6
Continuous
 62
     3
100
AcDbLine
 10
12.73118139218586
 20
-5.576512845501497
 30
0.0
 11
12.91069449281497
 21
-5.573379444330004
 31
0.0
  0
LINE
  5
A37
330
19
100
AcDbEntity
  8
TitleBlock&Notes
  6
Continuous
 62
     3
100
AcDbLine
 10
12.73118139218586
 20
-5.594466893139191
 30
0.0
 11
12.91069449281497
 21
-5.591333491967709
 31
0.0
  0
LINE
  5
A38
330
19
100
AcDbEntity
  8
TitleBlock&Notes
  6
Continuous
 62
     3
100
AcDbLine
 10
12.73118139218586
 20
-5.612420940776889
 30
0.0
 11
12.91069449281497
 21
-5.609287539605404
 31
0.0
  0
LINE
  5
A39
330
19
100
AcDbEntity
  8
TitleBlock&Notes
  6
Continuous
 62
     3
100
AcDbLine
 10
12.73118139218586
 20
-5.630374988414594
 30
0.0
 11
12.91069449281497
 21
-5.627241587243123
 31
0.0
  0
LINE
  5
A3A
330
19
100
AcDbEntity
  8
TitleBlock&Notes
  6
Continuous
 62
     3
100
AcDbLine
 10
12.73118139218586
 20
-5.648329036052299
 30
0.0
 11
12.91069449281497
 21
-5.645195634880817
 31
0.0
  0
LINE
  5
A3B
330
19
100
AcDbEntity
  8
TitleBlock&Notes
  6
Continuous
 62
     3
100
AcDbLine
 10
12.73118139218586
 20
-5.66628308368999
 30
0.0
 11
12.91069449281497
 21
-5.663149682518508
 31
0.0
  0
LINE
  5
A3C
330
19
100
AcDbEntity
  8
TitleBlock&Notes
  6
Continuous
 62
     3
100
AcDbLine
 10
12.91069449281497
 20
-5.69363688605939
 30
0.0
 11
12.73118139218586
 21
-5.69363688605939
 31
0.0
  0
LINE
  5
A3D
330
19
100
AcDbEntity
  8
TitleBlock&Notes
  6
Continuous
 62
     3
100
AcDbLine
 10
12.73118139218586
 20
-5.684237131327684
 30
0.0
 11
12.91069449281497
 21
-5.681103685277935
 31
0.0
  0
LINE
  5
A3E
330
19
100
AcDbEntity
  8
TitleBlock&Notes
  6
Continuous
 62
     3
100
AcDbLine
 10
12.63186451267108
 20
-6.100230019939651
 30
0.0
 11
12.91069449281497
 21
-6.095363015877115
 31
0.0
  0
LINE
  5
A3F
330
19
100
AcDbEntity
  8
TitleBlock&Notes
  6
Continuous
 62
     3
100
AcDbLine
 10
12.64332202607526
 20
-6.082075994707846
 30
0.0
 11
12.91069449281497
 21
-6.077408968239421
 31
0.0
  0
LINE
  5
A40
330
19
100
AcDbEntity
  8
TitleBlock&Notes
  6
Continuous
 62
     3
100
AcDbLine
 10
12.72009017526346
 20
-5.883241495153509
 30
0.0
 11
12.91069449281497
 21
-5.879914489102997
 31
0.0
  0
LINE
  5
A41
330
19
100
AcDbEntity
  8
TitleBlock&Notes
  6
Continuous
 62
     3
100
AcDbLine
 10
12.71630891131184
 20
-5.901261558733974
 30
0.0
 11
12.91069449281497
 21
-5.897868536740702
 31
0.0
  0
LINE
  5
A42
330
19
100
AcDbEntity
  8
TitleBlock&Notes
  6
Continuous
 62
     3
100
AcDbLine
 10
12.71194741614066
 20
-5.919291719926327
 30
0.0
 11
12.91069449281497
 21
-5.915822584378396
 31
0.0
  0
LINE
  5
A43
330
19
100
AcDbEntity
  8
TitleBlock&Notes
  6
Continuous
 62
     3
100
AcDbLine
 10
12.70699159797158
 20
-5.937332248000256
 30
0.0
 11
12.91069449281497
 21
-5.93377663201609
 31
0.0
  0
LINE
  5
A44
330
19
100
AcDbEntity
  8
TitleBlock&Notes
  6
Continuous
 62
     3
100
AcDbLine
 10
12.70142507623418
 20
-5.955383457103682
 30
0.0
 11
12.91069449281497
 21
-5.951730679653785
 31
0.0
  0
LINE
  5
A45
330
19
100
AcDbEntity
  8
TitleBlock&Notes
  6
Continuous
 62
     3
100
AcDbLine
 10
12.69522882253978
 20
-5.973445661384506
 30
0.0
 11
12.91069449281497
 21
-5.9696847272915
 31
0.0
  0
LINE
  5
A46
330
19
100
AcDbEntity
  8
TitleBlock&Notes
  6
Continuous
 62
     3
100
AcDbLine
 10
12.68838080165526
 20
-5.991519264747228
 30
0.0
 11
12.91069449281497
 21
-5.987638730050928
 31
0.0
  0
LINE
  5
A47
330
19
100
AcDbEntity
  8
TitleBlock&Notes
  6
Continuous
 62
     3
100
AcDbLine
 10
12.68085561247684
 20
-6.009604626218038
 30
0.0
 11
12.91069449281497
 21
-6.005592777688622
 31
0.0
  0
LINE
  5
A48
330
19
100
AcDbEntity
  8
TitleBlock&Notes
  6
Continuous
 62
     3
100
AcDbLine
 10
12.67262394949097
 20
-6.02770237409279
 30
0.0
 11
12.91069449281497
 21
-6.023546825326317
 31
0.0
  0
LINE
  5
A49
330
19
100
AcDbEntity
  8
TitleBlock&Notes
  6
Continuous
 62
     3
100
AcDbLine
 10
12.66365183984328
 20
-6.04581304691078
 30
0.0
 11
12.91069449281497
 21
-6.041500872964022
 31
0.0
  0
LINE
  5
A4A
330
19
100
AcDbEntity
  8
TitleBlock&Notes
  6
Continuous
 62
     3
100
AcDbLine
 10
12.6538998804081
 20
-6.06393727296788
 30
0.0
 11
12.91069449281497
 21
-6.059454920601726
 31
0.0
  0
LINE
  5
A4B
330
19
100
AcDbEntity
  8
TitleBlock&Notes
  6
Continuous
 62
     3
100
AcDbLine
 10
11.2950765871526
 20
-4.30930110118593
 30
0.0
 11
11.72142020114684
 21
-4.30930110118593
 31
0.0
  0
LINE
  5
A4C
330
19
100
AcDbEntity
  8
TitleBlock&Notes
  6
Continuous
 62
     3
100
AcDbLine
 10
11.31751572473129
 20
-4.331740238764584
 30
0.0
 11
11.69898106356821
 21
-4.331740238764584
 31
0.0
  0
LINE
  5
A4D
330
19
100
AcDbEntity
  8
TitleBlock&Notes
  6
Continuous
 62
     3
100
AcDbLine
 10
11.33995486230993
 20
-4.354179376343221
 30
0.0
 11
11.6765419259896
 21
-4.354179376343221
 31
0.0
  0
LINE
  5
A4E
330
19
100
AcDbEntity
  8
TitleBlock&Notes
  6
Continuous
 62
     3
100
AcDbLine
 10
11.00336779863025
 20
-4.354179376343221
 30
0.0
 11
10.48726763432146
 21
-4.354179376343221
 31
0.0
  0
LINE
  5
A4F
330
19
100
AcDbEntity
  8
TitleBlock&Notes
  6
Continuous
 62
     3
100
AcDbLine
 10
11.04824607378755
 20
-4.30930110118593
 30
0.0
 11
10.45142479205811
 21
-4.30930110118593
 31
0.0
  0
LINE
  5
A50
330
19
100
AcDbEntity
  8
TitleBlock&Notes
  6
Continuous
 62
     3
100
AcDbLine
 10
10.46934621318976
 20
-4.331740238764584
 30
0.0
 11
11.02580693620892
 21
-4.331740238764584
 31
0.0
  0
LINE
  5
A51
330
19
100
AcDbEntity
  8
TitleBlock&Notes
  6
Continuous
 62
     3
100
AcDbLine
 10
10.01597703653067
 20
-4.942720885575788
 30
0.0
 11
10.30782319745326
 21
-4.942720885575788
 31
0.0
  0
LINE
  5
A52
330
19
100
AcDbEntity
  8
TitleBlock&Notes
  6
Continuous
 62
     3
100
AcDbLine
 10
10.31291032945543
 20
-4.920281747997123
 30
0.0
 11
10.01088990452843
 21
-4.920281747997123
 31
0.0
  0
LINE
  5
A53
330
19
100
AcDbEntity
  8
TitleBlock&Notes
  6
Continuous
 62
     3
100
AcDbLine
 10
9.995948939406531
 20
-4.85437782141556
 30
0.0
 11
10.32785129457733
 21
-4.85437782141556
 31
0.0
  0
LINE
  5
A54
330
19
100
AcDbEntity
  8
TitleBlock&Notes
  6
Continuous
 62
     3
100
AcDbLine
 10
10.0010360714087
 20
-4.87681695899419
 30
0.0
 11
10.32276416257516
 21
-4.87681695899419
 31
0.0
  0
LINE
  5
A55
330
19
100
AcDbEntity
  8
TitleBlock&Notes
  6
Continuous
 62
     3
100
AcDbLine
 10
10.00580277252626
 20
-4.897842610418479
 30
0.0
 11
10.3179974614576
 21
-4.897842610418479
 31
0.0
  0
LINE
  5
A56
330
19
100
AcDbEntity
  8
TitleBlock&Notes
  6
Continuous
 62
     3
100
AcDbLine
 10
10.036005178533
 20
-5.031063949735997
 30
0.0
 11
10.2877950554509
 21
-5.031063949735997
 31
0.0
  0
LINE
  5
A57
330
19
100
AcDbEntity
  8
TitleBlock&Notes
  6
Continuous
 62
     3
100
AcDbLine
 10
10.03916249982518
 20
-5.044990845352462
 30
0.0
 11
10.2856129839562
 21
-5.040689038287251
 31
0.0
  0
LINE
  5
A58
330
19
100
AcDbEntity
  8
TitleBlock&Notes
  6
Continuous
 62
     3
100
AcDbLine
 10
10.0860754662215
 20
-5.251921565258278
 30
0.0
 11
10.2377247677624
 21
-5.251921565258278
 31
0.0
  0
LINE
  5
A59
330
19
100
AcDbEntity
  8
TitleBlock&Notes
  6
Continuous
 62
     3
100
AcDbLine
 10
10.08375970234516
 20
-5.241706865928012
 30
0.0
 11
10.24066142257556
 21
-5.238968124308247
 31
0.0
  0
LINE
  5
A5A
330
19
100
AcDbEntity
  8
TitleBlock&Notes
  6
Continuous
 62
     3
100
AcDbLine
 10
10.04321680320288
 20
-5.062874119950233
 30
0.0
 11
10.28152650285525
 21
-5.058714397504186
 31
0.0
  0
LINE
  5
A5B
330
19
100
AcDbEntity
  8
TitleBlock&Notes
  6
Continuous
 62
     3
100
AcDbLine
 10
10.04727110658059
 20
-5.080757394548008
 30
0.0
 11
10.27743997687593
 21
-5.07673975672111
 31
0.0
  0
LINE
  5
A5C
330
19
100
AcDbEntity
  8
TitleBlock&Notes
  6
Continuous
 62
     3
100
AcDbLine
 10
10.05132536508004
 20
-5.09864066914578
 30
0.0
 11
10.27335349577494
 21
-5.094765160816304
 31
0.0
  0
LINE
  5
A5D
330
19
100
AcDbEntity
  8
TitleBlock&Notes
  6
Continuous
 62
     3
100
AcDbLine
 10
10.05537966845773
 20
-5.116523943743565
 30
0.0
 11
10.26926696979568
 21
-5.112790520033225
 31
0.0
  0
LINE
  5
A5E
330
19
100
AcDbEntity
  8
TitleBlock&Notes
  6
Continuous
 62
     3
100
AcDbLine
 10
10.05943397183545
 20
-5.134407218341351
 30
0.0
 11
10.26518048869467
 21
-5.130815879250164
 31
0.0
  0
LINE
  5
A5F
330
19
100
AcDbEntity
  8
TitleBlock&Notes
  6
Continuous
 62
     3
100
AcDbLine
 10
10.06348823033483
 20
-5.152290492939112
 30
0.0
 11
10.2610939627154
 21
-5.148841283345355
 31
0.0
  0
LINE
  5
A60
330
19
100
AcDbEntity
  8
TitleBlock&Notes
  6
Continuous
 62
     3
100
AcDbLine
 10
10.06754253371254
 20
-5.170173767536894
 30
0.0
 11
10.2570074367361
 21
-5.166866642562279
 31
0.0
  0
LINE
  5
A61
330
19
100
AcDbEntity
  8
TitleBlock&Notes
  6
Continuous
 62
     3
100
AcDbLine
 10
10.07159683709023
 20
-5.18805704213468
 30
0.0
 11
10.25292095563514
 21
-5.184892001779218
 31
0.0
  0
LINE
  5
A62
330
19
100
AcDbEntity
  8
TitleBlock&Notes
  6
Continuous
 62
     3
100
AcDbLine
 10
10.07565109558969
 20
-5.205940316732441
 30
0.0
 11
10.24883442965583
 21
-5.202917405874408
 31
0.0
  0
LINE
  5
A63
330
19
100
AcDbEntity
  8
TitleBlock&Notes
  6
Continuous
 62
     3
100
AcDbLine
 10
10.07970539896747
 20
-5.223823591330226
 30
0.0
 11
10.2447479485549
 21
-5.220942765091333
 31
0.0
  0
LINE
  5
A64
330
19
100
AcDbEntity
  8
TitleBlock&Notes
  6
Continuous
 62
     3
100
AcDbLine
 10
10.10610356334561
 20
-5.340264629418506
 30
0.0
 11
10.21769667063833
 21
-5.340264629418506
 31
0.0
  0
LINE
  5
A65
330
19
100
AcDbEntity
  8
TitleBlock&Notes
  6
Continuous
 62
     3
100
AcDbLine
 10
10.1089846139759
 20
-5.352972810594792
 30
0.0
 11
10.21523608456796
 21
-5.351118170995651
 31
0.0
  0
LINE
  5
A66
330
19
100
AcDbEntity
  8
TitleBlock&Notes
  6
Continuous
 62
     3
100
AcDbLine
 10
10.11303891735362
 20
-5.370856085192567
 30
0.0
 11
10.21114960346696
 21
-5.369143530212564
 31
0.0
  0
LINE
  5
A67
330
19
100
AcDbEntity
  8
TitleBlock&Notes
  6
Continuous
 62
     3
100
AcDbLine
 10
10.11709317585307
 20
-5.388739359790339
 30
0.0
 11
10.20706307748773
 21
-5.387168934307766
 31
0.0
  0
LINE
  5
A68
330
19
100
AcDbEntity
  8
TitleBlock&Notes
  6
Continuous
 62
     3
100
AcDbLine
 10
10.12114747923078
 20
-5.406622634388124
 30
0.0
 11
10.20297659638671
 21
-5.405194293524679
 31
0.0
  0
LINE
  5
A69
330
19
100
AcDbEntity
  8
TitleBlock&Notes
  6
Continuous
 62
     3
100
AcDbLine
 10
10.12520178260847
 20
-5.424505908985899
 30
0.0
 11
10.19889007040746
 21
-5.423219652741614
 31
0.0
  0
LINE
  5
A6A
330
19
100
AcDbEntity
  8
TitleBlock&Notes
  6
Continuous
 62
     3
100
AcDbLine
 10
10.12925604110786
 20
-5.442389183583681
 30
0.0
 11
10.19480358930646
 21
-5.44124505683682
 31
0.0
  0
LINE
  5
A6B
330
19
100
AcDbEntity
  8
TitleBlock&Notes
  6
Continuous
 62
     3
100
AcDbLine
 10
9.935864603156005
 20
-4.589348628934875
 30
0.0
 11
10.38793563082794
 21
-4.589348628934875
 31
0.0
  0
LINE
  5
A6C
330
19
100
AcDbEntity
  8
TitleBlock&Notes
  6
Continuous
 62
     3
100
AcDbLine
 10
9.920603162271191
 20
-4.522031216198943
 30
0.0
 11
10.40319707171275
 21
-4.522031216198943
 31
0.0
  0
LINE
  5
A6D
330
19
100
AcDbEntity
  8
TitleBlock&Notes
  6
Continuous
 62
     3
100
AcDbLine
 10
10.39302280770836
 20
-4.566909491356234
 30
0.0
 11
9.930777471153838
 21
-4.566909491356234
 31
0.0
  0
LINE
  5
A6E
330
19
100
AcDbEntity
  8
TitleBlock&Notes
  6
Continuous
 62
     3
100
AcDbLine
 10
10.39810993971058
 20
-4.544470353777608
 30
0.0
 11
9.925690294273366
 21
-4.544470353777608
 31
0.0
  0
LINE
  5
A6F
330
19
100
AcDbEntity
  8
TitleBlock&Notes
  6
Continuous
 62
     3
100
AcDbLine
 10
11.2950765871526
 20
-5.031063949735997
 30
0.0
 11
11.04824607378755
 21
-5.031063949735997
 31
0.0
  0
LINE
  5
A70
330
19
100
AcDbEntity
  8
TitleBlock&Notes
  6
Continuous
 62
     3
100
AcDbLine
 10
11.04824607378755
 20
-5.045331247069515
 30
0.0
 11
11.2950765871526
 21
-5.0410227980196
 31
0.0
  0
LINE
  5
A71
330
19
100
AcDbEntity
  8
TitleBlock&Notes
  6
Continuous
 62
     3
100
AcDbLine
 10
11.2950765871526
 20
-4.942720885575788
 30
0.0
 11
11.04824607378755
 21
-4.942720885575788
 31
0.0
  0
LINE
  5
A72
330
19
100
AcDbEntity
  8
TitleBlock&Notes
  6
Continuous
 62
     3
100
AcDbLine
 10
11.2950765871526
 20
-4.920281747997123
 30
0.0
 11
11.04824607378755
 21
-4.920281747997123
 31
0.0
  0
LINE
  5
A73
330
19
100
AcDbEntity
  8
TitleBlock&Notes
  6
Continuous
 62
     3
100
AcDbLine
 10
11.2950765871526
 20
-4.85437782141556
 30
0.0
 11
11.04824607378755
 21
-4.85437782141556
 31
0.0
  0
LINE
  5
A74
330
19
100
AcDbEntity
  8
TitleBlock&Notes
  6
Continuous
 62
     3
100
AcDbLine
 10
11.2950765871526
 20
-4.87681695899419
 30
0.0
 11
11.04824607378755
 21
-4.87681695899419
 31
0.0
  0
LINE
  5
A75
330
19
100
AcDbEntity
  8
TitleBlock&Notes
  6
Continuous
 62
     3
100
AcDbLine
 10
11.2950765871526
 20
-4.897842610418479
 30
0.0
 11
11.04824607378755
 21
-4.897842610418479
 31
0.0
  0
LINE
  5
A76
330
19
100
AcDbEntity
  8
TitleBlock&Notes
  6
Continuous
 62
     3
100
AcDbLine
 10
11.2950765871526
 20
-5.340264629418506
 30
0.0
 11
11.04824607378755
 21
-5.340264629418506
 31
0.0
  0
LINE
  5
A77
330
19
100
AcDbEntity
  8
TitleBlock&Notes
  6
Continuous
 62
     3
100
AcDbLine
 10
11.2950765871526
 20
-5.251921565258278
 30
0.0
 11
11.04824607378755
 21
-5.251921565258278
 31
0.0
  0
LINE
  5
A78
330
19
100
AcDbEntity
  8
TitleBlock&Notes
  6
Continuous
 62
     3
100
AcDbLine
 10
11.04824607378755
 20
-5.354531971630311
 30
0.0
 11
11.2950765871526
 21
-5.350223522580371
 31
0.0
  0
LINE
  5
A79
330
19
100
AcDbEntity
  8
TitleBlock&Notes
  6
Continuous
 62
     3
100
AcDbLine
 10
11.04824607378755
 20
-5.372486019268006
 30
0.0
 11
11.2950765871526
 21
-5.36817757021808
 31
0.0
  0
LINE
  5
A7A
330
19
100
AcDbEntity
  8
TitleBlock&Notes
  6
Continuous
 62
     3
100
AcDbLine
 10
11.04824607378755
 20
-5.390440066905689
 30
0.0
 11
11.2950765871526
 21
-5.386131617855774
 31
0.0
  0
LINE
  5
A7B
330
19
100
AcDbEntity
  8
TitleBlock&Notes
  6
Continuous
 62
     3
100
AcDbLine
 10
11.04824607378755
 20
-5.408394114543405
 30
0.0
 11
11.2950765871526
 21
-5.404085665493489
 31
0.0
  0
LINE
  5
A7C
330
19
100
AcDbEntity
  8
TitleBlock&Notes
  6
Continuous
 62
     3
100
AcDbLine
 10
11.04824607378755
 20
-5.42634816218111
 30
0.0
 11
11.2950765871526
 21
-5.422039713131184
 31
0.0
  0
LINE
  5
A7D
330
19
100
AcDbEntity
  8
TitleBlock&Notes
  6
Continuous
 62
     3
100
AcDbLine
 10
11.04824607378755
 20
-5.444302209818804
 30
0.0
 11
11.2950765871526
 21
-5.439993760768878
 31
0.0
  0
LINE
  5
A7E
330
19
100
AcDbEntity
  8
TitleBlock&Notes
  6
Continuous
 62
     3
100
AcDbLine
 10
11.04824607378755
 20
-5.081239342344936
 30
0.0
 11
11.2950765871526
 21
-5.076930893294999
 31
0.0
  0
LINE
  5
A7F
330
19
100
AcDbEntity
  8
TitleBlock&Notes
  6
Continuous
 62
     3
100
AcDbLine
 10
11.04824607378755
 20
-5.099193389982634
 30
0.0
 11
11.2950765871526
 21
-5.09488494093269
 31
0.0
  0
LINE
  5
A80
330
19
100
AcDbEntity
  8
TitleBlock&Notes
  6
Continuous
 62
     3
100
AcDbLine
 10
11.04824607378755
 20
-5.117147437620324
 30
0.0
 11
11.2950765871526
 21
-5.112838988570409
 31
0.0
  0
LINE
  5
A81
330
19
100
AcDbEntity
  8
TitleBlock&Notes
  6
Continuous
 62
     3
100
AcDbLine
 10
11.04824607378755
 20
-5.135101485258029
 30
0.0
 11
11.2950765871526
 21
-5.130793036208093
 31
0.0
  0
LINE
  5
A82
330
19
100
AcDbEntity
  8
TitleBlock&Notes
  6
Continuous
 62
     3
100
AcDbLine
 10
11.04824607378755
 20
-5.153055532895724
 30
0.0
 11
11.2950765871526
 21
-5.148747083845808
 31
0.0
  0
LINE
  5
A83
330
19
100
AcDbEntity
  8
TitleBlock&Notes
  6
Continuous
 62
     3
100
AcDbLine
 10
11.04824607378755
 20
-5.171009580533429
 30
0.0
 11
11.2950765871526
 21
-5.166701131483502
 31
0.0
  0
LINE
  5
A84
330
19
100
AcDbEntity
  8
TitleBlock&Notes
  6
Continuous
 62
     3
100
AcDbLine
 10
11.04824607378755
 20
-5.188963628171123
 30
0.0
 11
11.2950765871526
 21
-5.184655179121197
 31
0.0
  0
LINE
  5
A85
330
19
100
AcDbEntity
  8
TitleBlock&Notes
  6
Continuous
 62
     3
100
AcDbLine
 10
11.04824607378755
 20
-5.206917675808817
 30
0.0
 11
11.2950765871526
 21
-5.202609226758902
 31
0.0
  0
LINE
  5
A86
330
19
100
AcDbEntity
  8
TitleBlock&Notes
  6
Continuous
 62
     3
100
AcDbLine
 10
11.04824607378755
 20
-5.224871723446522
 30
0.0
 11
11.2950765871526
 21
-5.220563274396596
 31
0.0
  0
LINE
  5
A87
330
19
100
AcDbEntity
  8
TitleBlock&Notes
  6
Continuous
 62
     3
100
AcDbLine
 10
11.04824607378755
 20
-5.24282572620596
 30
0.0
 11
11.2950765871526
 21
-5.238517322034301
 31
0.0
  0
LINE
  5
A88
330
19
100
AcDbEntity
  8
TitleBlock&Notes
  6
Continuous
 62
     3
100
AcDbLine
 10
11.04824607378755
 20
-5.06328529470722
 30
0.0
 11
11.2950765871526
 21
-5.058976845657305
 31
0.0
  0
LINE
  5
A89
330
19
100
AcDbEntity
  8
TitleBlock&Notes
  6
Continuous
 62
     3
100
AcDbLine
 10
11.2950765871526
 20
-4.589348628934889
 30
0.0
 11
11.04824607378755
 21
-4.589348628934889
 31
0.0
  0
LINE
  5
A8A
330
19
100
AcDbEntity
  8
TitleBlock&Notes
  6
Continuous
 62
     3
100
AcDbLine
 10
11.2950765871526
 20
-4.522031216198943
 30
0.0
 11
11.04824607378755
 21
-4.522031216198943
 31
0.0
  0
LINE
  5
A8B
330
19
100
AcDbEntity
  8
TitleBlock&Notes
  6
Continuous
 62
     3
100
AcDbLine
 10
11.2950765871526
 20
-4.566909491356245
 30
0.0
 11
11.04824607378755
 21
-4.566909491356245
 31
0.0
  0
LINE
  5
A8C
330
19
100
AcDbEntity
  8
TitleBlock&Notes
  6
Continuous
 62
     3
100
AcDbLine
 10
11.2950765871526
 20
-4.544470353777608
 30
0.0
 11
11.04824607378755
 21
-4.544470353777608
 31
0.0
  0
LINE
  5
A8D
330
19
100
AcDbEntity
  8
TitleBlock&Notes
  6
Continuous
 62
     3
100
AcDbLine
 10
12.68630311702855
 20
-4.354179376343221
 30
0.0
 11
12.34971605334888
 21
-4.354179376343221
 31
0.0
  0
LINE
  5
A8E
330
19
100
AcDbEntity
  8
TitleBlock&Notes
  6
Continuous
 62
     3
100
AcDbLine
 10
12.73118139218586
 20
-4.30930110118593
 30
0.0
 11
12.30483777819162
 21
-4.30930110118593
 31
0.0
  0
LINE
  5
A8F
330
19
100
AcDbEntity
  8
TitleBlock&Notes
  6
Continuous
 62
     3
100
AcDbLine
 10
12.32727691577027
 20
-4.331740238764584
 30
0.0
 11
12.70874225460724
 21
-4.331740238764584
 31
0.0
  0
LINE
  5
A90
330
19
100
AcDbEntity
  8
TitleBlock&Notes
  6
Continuous
 62
     3
100
AcDbLine
 10
12.30483777819162
 20
-4.942720885575788
 30
0.0
 11
11.72142020114684
 21
-4.942720885575788
 31
0.0
  0
LINE
  5
A91
330
19
100
AcDbEntity
  8
TitleBlock&Notes
  6
Continuous
 62
     3
100
AcDbLine
 10
12.30483777819162
 20
-4.85437782141556
 30
0.0
 11
11.72142020114684
 21
-4.85437782141556
 31
0.0
  0
LINE
  5
A92
330
19
100
AcDbEntity
  8
TitleBlock&Notes
  6
Continuous
 62
     3
100
AcDbLine
 10
12.30483777819162
 20
-5.031063949735997
 30
0.0
 11
11.72142020114684
 21
-5.031063949735997
 31
0.0
  0
LINE
  5
A93
330
19
100
AcDbEntity
  8
TitleBlock&Notes
  6
Continuous
 62
     3
100
AcDbLine
 10
11.72142020114684
 20
-5.051534995435883
 30
0.0
 11
12.30483777819162
 21
-5.0413513967503
 31
0.0
  0
LINE
  5
A94
330
19
100
AcDbEntity
  8
TitleBlock&Notes
  6
Continuous
 62
     3
100
AcDbLine
 10
12.30483777819162
 20
-4.87681695899419
 30
0.0
 11
11.72142020114684
 21
-4.87681695899419
 31
0.0
  0
LINE
  5
A95
330
19
100
AcDbEntity
  8
TitleBlock&Notes
  6
Continuous
 62
     3
100
AcDbLine
 10
12.30483777819162
 20
-4.899256096572841
 30
0.0
 11
11.72142020114684
 21
-4.899256096572841
 31
0.0
  0
LINE
  5
A96
330
19
100
AcDbEntity
  8
TitleBlock&Notes
  6
Continuous
 62
     3
100
AcDbLine
 10
12.30483777819162
 20
-4.921695234151478
 30
0.0
 11
11.72142020114684
 21
-4.921695234151478
 31
0.0
  0
LINE
  5
A97
330
19
100
AcDbEntity
  8
TitleBlock&Notes
  6
Continuous
 62
     3
100
AcDbLine
 10
12.30483777819162
 20
-5.340264629418506
 30
0.0
 11
11.72142020114684
 21
-5.340264629418506
 31
0.0
  0
LINE
  5
A98
330
19
100
AcDbEntity
  8
TitleBlock&Notes
  6
Continuous
 62
     3
100
AcDbLine
 10
12.30483777819162
 20
-5.251921565258278
 30
0.0
 11
11.72142020114684
 21
-5.251921565258278
 31
0.0
  0
LINE
  5
A99
330
19
100
AcDbEntity
  8
TitleBlock&Notes
  6
Continuous
 62
     3
100
AcDbLine
 10
11.72142020114684
 20
-5.360735719996672
 30
0.0
 11
12.30483777819162
 21
-5.350552121311086
 31
0.0
  0
LINE
  5
A9A
330
19
100
AcDbEntity
  8
TitleBlock&Notes
  6
Continuous
 62
     3
100
AcDbLine
 10
11.72142020114684
 20
-5.378689767634362
 30
0.0
 11
12.30483777819162
 21
-5.36850616894879
 31
0.0
  0
LINE
  5
A9B
330
19
100
AcDbEntity
  8
TitleBlock&Notes
  6
Continuous
 62
     3
100
AcDbLine
 10
11.72142020114684
 20
-5.396643815272057
 30
0.0
 11
12.30483777819162
 21
-5.386460216586485
 31
0.0
  0
LINE
  5
A9C
330
19
100
AcDbEntity
  8
TitleBlock&Notes
  6
Continuous
 62
     3
100
AcDbLine
 10
11.72142020114684
 20
-5.414597862909772
 30
0.0
 11
12.30483777819162
 21
-5.404414264224179
 31
0.0
  0
LINE
  5
A9D
330
19
100
AcDbEntity
  8
TitleBlock&Notes
  6
Continuous
 62
     3
100
AcDbLine
 10
11.72142020114684
 20
-5.432551910547481
 30
0.0
 11
12.30483777819162
 21
-5.422368311861884
 31
0.0
  0
LINE
  5
A9E
330
19
100
AcDbEntity
  8
TitleBlock&Notes
  6
Continuous
 62
     3
100
AcDbLine
 10
11.72142020114684
 20
-5.087443090711307
 30
0.0
 11
12.30483777819162
 21
-5.07725949202571
 31
0.0
  0
LINE
  5
A9F
330
19
100
AcDbEntity
  8
TitleBlock&Notes
  6
Continuous
 62
     3
100
AcDbLine
 10
11.72142020114684
 20
-5.105397138348997
 30
0.0
 11
12.30483777819162
 21
-5.095213539663404
 31
0.0
  0
LINE
  5
AA0
330
19
100
AcDbEntity
  8
TitleBlock&Notes
  6
Continuous
 62
     3
100
AcDbLine
 10
11.72142020114684
 20
-5.123351185986695
 30
0.0
 11
12.30483777819162
 21
-5.113167587301113
 31
0.0
  0
LINE
  5
AA1
330
19
100
AcDbEntity
  8
TitleBlock&Notes
  6
Continuous
 62
     3
100
AcDbLine
 10
11.72142020114684
 20
-5.1413052336244
 30
0.0
 11
12.30483777819162
 21
-5.131121634938804
 31
0.0
  0
LINE
  5
AA2
330
19
100
AcDbEntity
  8
TitleBlock&Notes
  6
Continuous
 62
     3
100
AcDbLine
 10
11.72142020114684
 20
-5.159259281262094
 30
0.0
 11
12.30483777819162
 21
-5.149075682576498
 31
0.0
  0
LINE
  5
AA3
330
19
100
AcDbEntity
  8
TitleBlock&Notes
  6
Continuous
 62
     3
100
AcDbLine
 10
11.72142020114684
 20
-5.177213328899799
 30
0.0
 11
12.30483777819162
 21
-5.167029730214203
 31
0.0
  0
LINE
  5
AA4
330
19
100
AcDbEntity
  8
TitleBlock&Notes
  6
Continuous
 62
     3
100
AcDbLine
 10
11.72142020114684
 20
-5.195167376537494
 30
0.0
 11
12.30483777819162
 21
-5.184983777851897
 31
0.0
  0
LINE
  5
AA5
330
19
100
AcDbEntity
  8
TitleBlock&Notes
  6
Continuous
 62
     3
100
AcDbLine
 10
11.72142020114684
 20
-5.213121424175184
 30
0.0
 11
12.30483777819162
 21
-5.202937825489602
 31
0.0
  0
LINE
  5
AA6
330
19
100
AcDbEntity
  8
TitleBlock&Notes
  6
Continuous
 62
     3
100
AcDbLine
 10
11.72142020114684
 20
-5.231075471812889
 30
0.0
 11
12.30483777819162
 21
-5.220891873127296
 31
0.0
  0
LINE
  5
AA7
330
19
100
AcDbEntity
  8
TitleBlock&Notes
  6
Continuous
 62
     3
100
AcDbLine
 10
11.72142020114684
 20
-5.249029474572331
 30
0.0
 11
12.30483777819162
 21
-5.23884592076499
 31
0.0
  0
LINE
  5
AA8
330
19
100
AcDbEntity
  8
TitleBlock&Notes
  6
Continuous
 62
     3
100
AcDbLine
 10
11.72142020114684
 20
-5.069489043073588
 30
0.0
 11
12.30483777819162
 21
-5.059305444387995
 31
0.0
  0
LINE
  5
AA9
330
19
100
AcDbEntity
  8
TitleBlock&Notes
  6
Continuous
 62
     3
100
AcDbLine
 10
11.72142020114684
 20
-5.033580947798188
 30
0.0
 11
11.8656208309685
 21
-5.031063949735997
 31
0.0
  0
LINE
  5
AAA
330
19
100
AcDbEntity
  8
TitleBlock&Notes
  6
Continuous
 62
     3
100
AcDbLine
 10
11.72142020114684
 20
-5.342781672358984
 30
0.0
 11
11.8656208309685
 21
-5.340264629418506
 31
0.0
  0
LINE
  5
AAB
330
19
100
AcDbEntity
  8
TitleBlock&Notes
  6
Continuous
 62
     3
100
AcDbLine
 10
12.30483777819162
 20
-4.589348628934889
 30
0.0
 11
11.72142020114684
 21
-4.589348628934889
 31
0.0
  0
LINE
  5
AAC
330
19
100
AcDbEntity
  8
TitleBlock&Notes
  6
Continuous
 62
     3
100
AcDbLine
 10
12.30483777819162
 20
-4.522031216198943
 30
0.0
 11
11.72142020114684
 21
-4.522031216198943
 31
0.0
  0
LINE
  5
AAD
330
19
100
AcDbEntity
  8
TitleBlock&Notes
  6
Continuous
 62
     3
100
AcDbLine
 10
12.30483777819162
 20
-4.544470353777608
 30
0.0
 11
11.72142020114684
 21
-4.544470353777608
 31
0.0
  0
LINE
  5
AAE
330
19
100
AcDbEntity
  8
TitleBlock&Notes
  6
Continuous
 62
     3
100
AcDbLine
 10
12.30483777819162
 20
-4.566909491356245
 30
0.0
 11
11.72142020114684
 21
-4.566909491356245
 31
0.0
  0
LINE
  5
AAF
330
19
100
AcDbEntity
  8
TitleBlock&Notes
  6
Continuous
 62
     3
100
AcDbLine
 10
12.91069449281497
 20
-5.031063949735997
 30
0.0
 11
12.73118139218586
 21
-5.031063949735997
 31
0.0
  0
LINE
  5
AB0
330
19
100
AcDbEntity
  8
TitleBlock&Notes
  6
Continuous
 62
     3
100
AcDbLine
 10
12.73118139218586
 20
-5.033909546528903
 30
0.0
 11
12.89420738135736
 21
-5.031063949735997
 31
0.0
  0
LINE
  5
AB1
330
19
100
AcDbEntity
  8
TitleBlock&Notes
  6
Continuous
 62
     3
100
AcDbLine
 10
12.73118139218586
 20
-5.051863594166608
 30
0.0
 11
12.91069449281497
 21
-5.048730192995115
 31
0.0
  0
LINE
  5
AB2
330
19
100
AcDbEntity
  8
TitleBlock&Notes
  6
Continuous
 62
     3
100
AcDbLine
 10
12.91069449281497
 20
-4.942720885575788
 30
0.0
 11
12.73118139218586
 21
-4.942720885575788
 31
0.0
  0
LINE
  5
AB3
330
19
100
AcDbEntity
  8
TitleBlock&Notes
  6
Continuous
 62
     3
100
AcDbLine
 10
12.91069449281497
 20
-4.921695234151478
 30
0.0
 11
12.73118139218586
 21
-4.921695234151478
 31
0.0
  0
LINE
  5
AB4
330
19
100
AcDbEntity
  8
TitleBlock&Notes
  6
Continuous
 62
     3
100
AcDbLine
 10
12.91069449281497
 20
-4.85437782141556
 30
0.0
 11
12.73118139218586
 21
-4.85437782141556
 31
0.0
  0
LINE
  5
AB5
330
19
100
AcDbEntity
  8
TitleBlock&Notes
  6
Continuous
 62
     3
100
AcDbLine
 10
12.91069449281497
 20
-4.87681695899419
 30
0.0
 11
12.73118139218586
 21
-4.87681695899419
 31
0.0
  0
LINE
  5
AB6
330
19
100
AcDbEntity
  8
TitleBlock&Notes
  6
Continuous
 62
     3
100
AcDbLine
 10
12.91069449281497
 20
-4.899256096572841
 30
0.0
 11
12.73118139218586
 21
-4.899256096572841
 31
0.0
  0
LINE
  5
AB7
330
19
100
AcDbEntity
  8
TitleBlock&Notes
  6
Continuous
 62
     3
100
AcDbLine
 10
12.91069449281497
 20
-5.340264629418506
 30
0.0
 11
12.73118139218586
 21
-5.340264629418506
 31
0.0
  0
LINE
  5
AB8
330
19
100
AcDbEntity
  8
TitleBlock&Notes
  6
Continuous
 62
     3
100
AcDbLine
 10
12.91069449281497
 20
-5.251921565258278
 30
0.0
 11
12.73118139218586
 21
-5.251921565258278
 31
0.0
  0
LINE
  5
AB9
330
19
100
AcDbEntity
  8
TitleBlock&Notes
  6
Continuous
 62
     3
100
AcDbLine
 10
12.73118139218586
 20
-5.343110271089674
 30
0.0
 11
12.89420738135736
 21
-5.340264629418506
 31
0.0
  0
LINE
  5
ABA
330
19
100
AcDbEntity
  8
TitleBlock&Notes
  6
Continuous
 62
     3
100
AcDbLine
 10
12.73118139218586
 20
-5.361064318727368
 30
0.0
 11
12.91069449281497
 21
-5.357930917555886
 31
0.0
  0
LINE
  5
ABB
330
19
100
AcDbEntity
  8
TitleBlock&Notes
  6
Continuous
 62
     3
100
AcDbLine
 10
12.73118139218586
 20
-5.379018366365077
 30
0.0
 11
12.91069449281497
 21
-5.375884965193595
 31
0.0
  0
LINE
  5
ABC
330
19
100
AcDbEntity
  8
TitleBlock&Notes
  6
Continuous
 62
     3
100
AcDbLine
 10
12.73118139218586
 20
-5.396972414002782
 30
0.0
 11
12.91069449281497
 21
-5.393839012831289
 31
0.0
  0
LINE
  5
ABD
330
19
100
AcDbEntity
  8
TitleBlock&Notes
  6
Continuous
 62
     3
100
AcDbLine
 10
12.73118139218586
 20
-5.414926461640476
 30
0.0
 11
12.91069449281497
 21
-5.411793015590703
 31
0.0
  0
LINE
  5
ABE
330
19
100
AcDbEntity
  8
TitleBlock&Notes
  6
Continuous
 62
     3
100
AcDbLine
 10
12.73118139218586
 20
-5.432880509278167
 30
0.0
 11
12.91069449281497
 21
-5.429747063228418
 31
0.0
  0
LINE
  5
ABF
330
19
100
AcDbEntity
  8
TitleBlock&Notes
  6
Continuous
 62
     3
100
AcDbLine
 10
12.73118139218586
 20
-5.087771689441996
 30
0.0
 11
12.91069449281497
 21
-5.084638288270515
 31
0.0
  0
LINE
  5
AC0
330
19
100
AcDbEntity
  8
TitleBlock&Notes
  6
Continuous
 62
     3
100
AcDbLine
 10
12.73118139218586
 20
-5.105725737079687
 30
0.0
 11
12.91069449281497
 21
-5.102592335908205
 31
0.0
  0
LINE
  5
AC1
330
19
100
AcDbEntity
  8
TitleBlock&Notes
  6
Continuous
 62
     3
100
AcDbLine
 10
12.73118139218586
 20
-5.123679784717392
 30
0.0
 11
12.91069449281497
 21
-5.12054638354591
 31
0.0
  0
LINE
  5
AC2
330
19
100
AcDbEntity
  8
TitleBlock&Notes
  6
Continuous
 62
     3
100
AcDbLine
 10
12.73118139218586
 20
-5.1416338323551
 30
0.0
 11
12.91069449281497
 21
-5.138500431183604
 31
0.0
  0
LINE
  5
AC3
330
19
100
AcDbEntity
  8
TitleBlock&Notes
  6
Continuous
 62
     3
100
AcDbLine
 10
12.73118139218586
 20
-5.159587879992795
 30
0.0
 11
12.91069449281497
 21
-5.156454478821302
 31
0.0
  0
LINE
  5
AC4
330
19
100
AcDbEntity
  8
TitleBlock&Notes
  6
Continuous
 62
     3
100
AcDbLine
 10
12.73118139218586
 20
-5.177541927630489
 30
0.0
 11
12.91069449281497
 21
-5.174408481580737
 31
0.0
  0
LINE
  5
AC5
330
19
100
AcDbEntity
  8
TitleBlock&Notes
  6
Continuous
 62
     3
100
AcDbLine
 10
12.73118139218586
 20
-5.195495975268194
 30
0.0
 11
12.91069449281497
 21
-5.192362529218446
 31
0.0
  0
LINE
  5
AC6
330
19
100
AcDbEntity
  8
TitleBlock&Notes
  6
Continuous
 62
     3
100
AcDbLine
 10
12.73118139218586
 20
-5.213450022905888
 30
0.0
 11
12.91069449281497
 21
-5.210316576856136
 31
0.0
  0
LINE
  5
AC7
330
19
100
AcDbEntity
  8
TitleBlock&Notes
  6
Continuous
 62
     3
100
AcDbLine
 10
12.73118139218586
 20
-5.231404025665323
 30
0.0
 11
12.91069449281497
 21
-5.228270624493831
 31
0.0
  0
LINE
  5
AC8
330
19
100
AcDbEntity
  8
TitleBlock&Notes
  6
Continuous
 62
     3
100
AcDbLine
 10
12.73118139218586
 20
-5.249358073303021
 30
0.0
 11
12.91069449281497
 21
-5.246224672131535
 31
0.0
  0
LINE
  5
AC9
330
19
100
AcDbEntity
  8
TitleBlock&Notes
  6
Continuous
 62
     3
100
AcDbLine
 10
12.73118139218586
 20
-5.069817641804302
 30
0.0
 11
12.91069449281497
 21
-5.066684240632806
 31
0.0
  0
LINE
  5
ACA
330
19
100
AcDbEntity
  8
TitleBlock&Notes
  6
Continuous
 62
     3
100
AcDbLine
 10
12.91069449281497
 20
-4.589348628934889
 30
0.0
 11
12.73118139218586
 21
-4.589348628934889
 31
0.0
  0
LINE
  5
ACB
330
19
100
AcDbEntity
  8
TitleBlock&Notes
  6
Continuous
 62
     3
100
AcDbLine
 10
12.91069449281497
 20
-4.522031216198943
 30
0.0
 11
12.73118139218586
 21
-4.522031216198943
 31
0.0
  0
LINE
  5
ACC
330
19
100
AcDbEntity
  8
TitleBlock&Notes
  6
Continuous
 62
     3
100
AcDbLine
 10
12.91069449281497
 20
-4.544470353777608
 30
0.0
 11
12.73118139218586
 21
-4.544470353777608
 31
0.0
  0
LINE
  5
ACD
330
19
100
AcDbEntity
  8
TitleBlock&Notes
  6
Continuous
 62
     3
100
AcDbLine
 10
12.91069449281497
 20
-4.566909491356245
 30
0.0
 11
12.73118139218586
 21
-4.566909491356245
 31
0.0
  0
LINE
  5
ACE
330
19
100
AcDbEntity
  8
TitleBlock&Notes
  6
Continuous
 62
     3
100
AcDbLine
 10
12.95557276797228
 20
-4.354179376343221
 30
0.0
 11
13.29215983165195
 21
-4.354179376343221
 31
0.0
  0
LINE
  5
ACF
330
19
100
AcDbEntity
  8
TitleBlock&Notes
  6
Continuous
 62
     3
100
AcDbLine
 10
16.50095650539806
 20
-5.593610750284021
 30
0.0
 11
16.50095650539806
 21
-5.07301355841308
 31
0.0
  0
LINE
  5
AD0
330
19
100
AcDbEntity
  8
TitleBlock&Notes
  6
Continuous
 62
     3
100
AcDbLine
 10
15.8277823780387
 20
-4.354179376343221
 30
0.0
 11
15.8277823780387
 21
-6.32882348326391
 31
0.0
  0
LINE
  5
AD1
330
19
100
AcDbEntity
  8
TitleBlock&Notes
  6
Continuous
 62
     3
100
AcDbLine
 10
15.87266065319596
 20
-6.373701758421191
 30
0.0
 11
15.87266065319596
 21
-4.30930110118593
 31
0.0
  0
LINE
  5
AD2
330
19
100
AcDbEntity
  8
TitleBlock&Notes
  6
Continuous
 62
     3
100
AcDbLine
 10
15.85022151561735
 20
-4.331740238764584
 30
0.0
 11
15.85022151561735
 21
-6.351262620842547
 31
0.0
  0
LINE
  5
AD3
330
19
100
AcDbEntity
  8
TitleBlock&Notes
  6
Continuous
 62
     3
100
AcDbLine
 10
16.55025672676311
 20
-5.047470908594196
 30
0.0
 11
16.54583478055531
 21
-5.590954450055736
 31
0.0
  0
LINE
  5
AD4
330
19
100
AcDbEntity
  8
TitleBlock&Notes
  6
Continuous
 62
     3
100
AcDbLine
 10
16.52781835211519
 20
-5.047288343770851
 30
0.0
 11
16.52339636102908
 21
-5.590771885232392
 31
0.0
  0
LINE
  5
AD5
330
19
100
AcDbEntity
  8
TitleBlock&Notes
  6
Continuous
 62
     3
100
AcDbLine
 10
16.16436944171838
 20
-5.610771080747284
 30
0.0
 11
16.16436944171838
 21
-5.049792641281186
 31
0.0
  0
LINE
  5
AD6
330
19
100
AcDbEntity
  8
TitleBlock&Notes
  6
Continuous
 62
     3
100
AcDbLine
 10
16.11949116656108
 20
-5.612752725865131
 30
0.0
 11
16.11949116656108
 21
-5.047072748536997
 31
0.0
  0
LINE
  5
AD7
330
19
100
AcDbEntity
  8
TitleBlock&Notes
  6
Continuous
 62
     3
100
AcDbLine
 10
16.14193030413971
 20
-5.612752725865131
 30
0.0
 11
16.14193030413971
 21
-5.047072748536997
 31
0.0
  0
LINE
  5
AD8
330
19
100
AcDbEntity
  8
TitleBlock&Notes
  6
Continuous
 62
     3
100
AcDbLine
 10
14.80680161821038
 20
-5.450512555291624
 30
0.0
 11
15.44631703920173
 21
-5.439349757520364
 31
0.0
  0
LINE
  5
AD9
330
19
100
AcDbEntity
  8
TitleBlock&Notes
  6
Continuous
 62
     3
100
AcDbLine
 10
14.76192334305315
 20
-4.690766440022883
 30
0.0
 11
14.76192334305315
 21
-6.32882348326391
 31
0.0
  0
LINE
  5
ADA
330
19
100
AcDbEntity
  8
TitleBlock&Notes
  6
Continuous
 62
     3
100
AcDbLine
 10
15.49119531435904
 20
-4.354179376343221
 30
0.0
 11
15.49119531435904
 21
-6.32882348326391
 31
0.0
  0
LINE
  5
ADB
330
19
100
AcDbEntity
  8
TitleBlock&Notes
  6
Continuous
 62
     3
100
AcDbLine
 10
14.80680161821038
 20
-6.373701758421191
 30
0.0
 11
14.80680161821038
 21
-4.735644715180164
 31
0.0
  0
LINE
  5
ADC
330
19
100
AcDbEntity
  8
TitleBlock&Notes
  6
Continuous
 62
     3
100
AcDbLine
 10
15.44631703920173
 20
-4.30930110118593
 30
0.0
 11
15.44631703920173
 21
-6.373701758421191
 31
0.0
  0
LINE
  5
ADD
330
19
100
AcDbEntity
  8
TitleBlock&Notes
  6
Continuous
 62
     3
100
AcDbLine
 10
15.46875617678042
 20
-4.331740238764584
 30
0.0
 11
15.46875617678042
 21
-6.351262620842547
 31
0.0
  0
LINE
  5
ADE
330
19
100
AcDbEntity
  8
TitleBlock&Notes
  6
Continuous
 62
     3
100
AcDbLine
 10
14.78436248063177
 20
-4.713205577601524
 30
0.0
 11
14.78436248063177
 21
-6.351262620842547
 31
0.0
  0
LINE
  5
ADF
330
19
100
AcDbEntity
  8
TitleBlock&Notes
  6
Continuous
 62
     3
100
AcDbLine
 10
14.42533627937348
 20
-4.690766440022883
 30
0.0
 11
14.42533627937348
 21
-6.32882348326391
 31
0.0
  0
LINE
  5
AE0
330
19
100
AcDbEntity
  8
TitleBlock&Notes
  6
Continuous
 62
     3
100
AcDbLine
 10
14.38045800421615
 20
-4.735644715180164
 30
0.0
 11
14.38045800421615
 21
-6.373701758421191
 31
0.0
  0
LINE
  5
AE1
330
19
100
AcDbEntity
  8
TitleBlock&Notes
  6
Continuous
 62
     3
100
AcDbLine
 10
14.40289714179484
 20
-4.713205577601524
 30
0.0
 11
14.40289714179484
 21
-6.351262620842547
 31
0.0
  0
LINE
  5
AE2
330
19
100
AcDbEntity
  8
TitleBlock&Notes
  6
Continuous
 62
     3
100
AcDbLine
 10
13.33703810680921
 20
-5.947358144426956
 30
0.0
 11
13.33703810680921
 21
-4.30930110118593
 31
0.0
  0
LINE
  5
AE3
330
19
100
AcDbEntity
  8
TitleBlock&Notes
  6
Continuous
 62
     3
100
AcDbLine
 10
13.31459896923059
 20
-5.969797282005593
 30
0.0
 11
13.31459896923059
 21
-4.331740238764584
 31
0.0
  0
LINE
  5
AE4
330
19
100
AcDbEntity
  8
TitleBlock&Notes
  6
Continuous
 62
     3
100
AcDbLine
 10
13.33703810680921
 20
-5.45821330828241
 30
0.0
 11
14.38045800421615
 21
-5.44000035787533
 31
0.0
  0
LINE
  5
AE5
330
19
100
AcDbEntity
  8
TitleBlock&Notes
  6
Continuous
 62
     3
100
AcDbLine
 10
14.80680161821038
 20
-5.781979950219604
 30
0.0
 11
15.44631703920173
 21
-5.781979950219604
 31
0.0
  0
LINE
  5
AE6
330
19
100
AcDbEntity
  8
TitleBlock&Notes
  6
Continuous
 62
     3
100
AcDbLine
 10
14.80680161821038
 20
-5.792955695340005
 30
0.0
 11
15.43560055587691
 21
-5.781979950219604
 31
0.0
  0
LINE
  5
AE7
330
19
100
AcDbEntity
  8
TitleBlock&Notes
  6
Continuous
 62
     3
100
AcDbLine
 10
14.80680161821038
 20
-5.81090974297771
 30
0.0
 11
15.44631703920173
 21
-5.799746945206447
 31
0.0
  0
LINE
  5
AE8
330
19
100
AcDbEntity
  8
TitleBlock&Notes
  6
Continuous
 62
     3
100
AcDbLine
 10
14.80680161821038
 20
-5.828863745737123
 30
0.0
 11
15.44631703920173
 21
-5.817700992844144
 31
0.0
  0
LINE
  5
AE9
330
19
100
AcDbEntity
  8
TitleBlock&Notes
  6
Continuous
 62
     3
100
AcDbLine
 10
14.80680161821038
 20
-5.846817793374817
 30
0.0
 11
15.44631703920173
 21
-5.835655040481849
 31
0.0
  0
LINE
  5
AEA
330
19
100
AcDbEntity
  8
TitleBlock&Notes
  6
Continuous
 62
     3
100
AcDbLine
 10
14.80680161821038
 20
-5.864771841012522
 30
0.0
 11
15.44631703920173
 21
-5.853609088119565
 31
0.0
  0
LINE
  5
AEB
330
19
100
AcDbEntity
  8
TitleBlock&Notes
  6
Continuous
 62
     3
100
AcDbLine
 10
14.80680161821038
 20
-5.69363688605939
 30
0.0
 11
15.44631703920173
 21
-5.69363688605939
 31
0.0
  0
LINE
  5
AEC
330
19
100
AcDbEntity
  8
TitleBlock&Notes
  6
Continuous
 62
     3
100
AcDbLine
 10
14.80680161821038
 20
-5.468466602929318
 30
0.0
 11
15.44631703920173
 21
-5.457303805158069
 31
0.0
  0
LINE
  5
AED
330
19
100
AcDbEntity
  8
TitleBlock&Notes
  6
Continuous
 62
     3
100
AcDbLine
 10
14.80680161821038
 20
-5.486420650567012
 30
0.0
 11
15.44631703920173
 21
-5.475257852795763
 31
0.0
  0
LINE
  5
AEE
330
19
100
AcDbEntity
  8
TitleBlock&Notes
  6
Continuous
 62
     3
100
AcDbLine
 10
14.80680161821038
 20
-5.504374698204717
 30
0.0
 11
15.44631703920173
 21
-5.493211900433479
 31
0.0
  0
LINE
  5
AEF
330
19
100
AcDbEntity
  8
TitleBlock&Notes
  6
Continuous
 62
     3
100
AcDbLine
 10
14.80680161821038
 20
-5.522328700964155
 30
0.0
 11
15.44631703920173
 21
-5.511165948071177
 31
0.0
  0
LINE
  5
AF0
330
19
100
AcDbEntity
  8
TitleBlock&Notes
  6
Continuous
 62
     3
100
AcDbLine
 10
14.80680161821038
 20
-5.54028274860185
 30
0.0
 11
15.44631703920173
 21
-5.529119995708857
 31
0.0
  0
LINE
  5
AF1
330
19
100
AcDbEntity
  8
TitleBlock&Notes
  6
Continuous
 62
     3
100
AcDbLine
 10
14.80680161821038
 20
-5.55823679623953
 30
0.0
 11
15.44631703920173
 21
-5.547074043346576
 31
0.0
  0
LINE
  5
AF2
330
19
100
AcDbEntity
  8
TitleBlock&Notes
  6
Continuous
 62
     3
100
AcDbLine
 10
14.80680161821038
 20
-5.576190843877249
 30
0.0
 11
15.44631703920173
 21
-5.565028090984267
 31
0.0
  0
LINE
  5
AF3
330
19
100
AcDbEntity
  8
TitleBlock&Notes
  6
Continuous
 62
     3
100
AcDbLine
 10
14.80680161821038
 20
-5.594144891514943
 30
0.0
 11
15.44631703920173
 21
-5.582982093743694
 31
0.0
  0
LINE
  5
AF4
330
19
100
AcDbEntity
  8
TitleBlock&Notes
  6
Continuous
 62
     3
100
AcDbLine
 10
14.80680161821038
 20
-5.612098939152648
 30
0.0
 11
15.44631703920173
 21
-5.600936141381389
 31
0.0
  0
LINE
  5
AF5
330
19
100
AcDbEntity
  8
TitleBlock&Notes
  6
Continuous
 62
     3
100
AcDbLine
 10
14.80680161821038
 20
-5.630052986790342
 30
0.0
 11
15.44631703920173
 21
-5.618890189019094
 31
0.0
  0
LINE
  5
AF6
330
19
100
AcDbEntity
  8
TitleBlock&Notes
  6
Continuous
 62
     3
100
AcDbLine
 10
14.80680161821038
 20
-5.648007034428037
 30
0.0
 11
15.44631703920173
 21
-5.636844236656788
 31
0.0
  0
LINE
  5
AF7
330
19
100
AcDbEntity
  8
TitleBlock&Notes
  6
Continuous
 62
     3
100
AcDbLine
 10
14.80680161821038
 20
-5.665961082065742
 30
0.0
 11
15.44631703920173
 21
-5.654798284294493
 31
0.0
  0
LINE
  5
AF8
330
19
100
AcDbEntity
  8
TitleBlock&Notes
  6
Continuous
 62
     3
100
AcDbLine
 10
14.80680161821038
 20
-5.683915129703432
 30
0.0
 11
15.44631703920173
 21
-5.672752331932187
 31
0.0
  0
LINE
  5
AF9
330
19
100
AcDbEntity
  8
TitleBlock&Notes
  6
Continuous
 62
     3
100
AcDbLine
 10
14.80680161821038
 20
-6.205898701250546
 30
0.0
 11
15.44631703920173
 21
-6.194735903479312
 31
0.0
  0
LINE
  5
AFA
330
19
100
AcDbEntity
  8
TitleBlock&Notes
  6
Continuous
 62
     3
100
AcDbLine
 10
14.80680161821038
 20
-6.223852748888258
 30
0.0
 11
15.44631703920173
 21
-6.212689951116992
 31
0.0
  0
LINE
  5
AFB
330
19
100
AcDbEntity
  8
TitleBlock&Notes
  6
Continuous
 62
     3
100
AcDbLine
 10
14.80680161821038
 20
-6.241806796525942
 30
0.0
 11
15.44631703920173
 21
-6.230643998754707
 31
0.0
  0
LINE
  5
AFC
330
19
100
AcDbEntity
  8
TitleBlock&Notes
  6
Continuous
 62
     3
100
AcDbLine
 10
14.80680161821038
 20
-6.259760844163636
 30
0.0
 11
15.44631703920173
 21
-6.248598046392402
 31
0.0
  0
LINE
  5
AFD
330
19
100
AcDbEntity
  8
TitleBlock&Notes
  6
Continuous
 62
     3
100
AcDbLine
 10
14.80680161821038
 20
-6.277714891801355
 30
0.0
 11
15.44631703920173
 21
-6.266552094030107
 31
0.0
  0
LINE
  5
AFE
330
19
100
AcDbEntity
  8
TitleBlock&Notes
  6
Continuous
 62
     3
100
AcDbLine
 10
14.80680161821038
 20
-6.295668939439046
 30
0.0
 11
15.44631703920173
 21
-6.284506141667801
 31
0.0
  0
LINE
  5
AFF
330
19
100
AcDbEntity
  8
TitleBlock&Notes
  6
Continuous
 62
     3
100
AcDbLine
 10
14.80680161821038
 20
-6.313622987076755
 30
0.0
 11
15.44631703920173
 21
-6.302460189305492
 31
0.0
  0
LINE
  5
B00
330
19
100
AcDbEntity
  8
TitleBlock&Notes
  6
Continuous
 62
     3
100
AcDbLine
 10
14.80680161821038
 20
-6.331577034714449
 30
0.0
 11
15.44631703920173
 21
-6.320414236943204
 31
0.0
  0
LINE
  5
B01
330
19
100
AcDbEntity
  8
TitleBlock&Notes
  6
Continuous
 62
     3
100
AcDbLine
 10
14.80680161821038
 20
-6.349531037473873
 30
0.0
 11
15.44631703920173
 21
-6.338368284580894
 31
0.0
  0
LINE
  5
B02
330
19
100
AcDbEntity
  8
TitleBlock&Notes
  6
Continuous
 62
     3
100
AcDbLine
 10
14.80680161821038
 20
-6.367485085111567
 30
0.0
 11
15.44631703920173
 21
-6.356322332218599
 31
0.0
  0
LINE
  5
B03
330
19
100
AcDbEntity
  8
TitleBlock&Notes
  6
Continuous
 62
     3
100
AcDbLine
 10
14.80680161821038
 20
-6.11612846306205
 30
0.0
 11
15.44631703920173
 21
-6.104965710169082
 31
0.0
  0
LINE
  5
B04
330
19
100
AcDbEntity
  8
TitleBlock&Notes
  6
Continuous
 62
     3
100
AcDbLine
 10
14.80680161821038
 20
-6.134082510699759
 30
0.0
 11
15.44631703920173
 21
-6.122919757806776
 31
0.0
  0
LINE
  5
B05
330
19
100
AcDbEntity
  8
TitleBlock&Notes
  6
Continuous
 62
     3
100
AcDbLine
 10
14.80680161821038
 20
-6.152036558337449
 30
0.0
 11
15.44631703920173
 21
-6.140873805444471
 31
0.0
  0
LINE
  5
B06
330
19
100
AcDbEntity
  8
TitleBlock&Notes
  6
Continuous
 62
     3
100
AcDbLine
 10
14.80680161821038
 20
-6.169990605975147
 30
0.0
 11
15.44631703920173
 21
-6.158827808203898
 31
0.0
  0
LINE
  5
B07
330
19
100
AcDbEntity
  8
TitleBlock&Notes
  6
Continuous
 62
     3
100
AcDbLine
 10
14.80680161821038
 20
-6.187944653612849
 30
0.0
 11
15.44631703920173
 21
-6.176781855841614
 31
0.0
  0
LINE
  5
B08
330
19
100
AcDbEntity
  8
TitleBlock&Notes
  6
Continuous
 62
     3
100
AcDbLine
 10
14.80680161821038
 20
-5.900679936287936
 30
0.0
 11
15.44631703920173
 21
-5.889517138516673
 31
0.0
  0
LINE
  5
B09
330
19
100
AcDbEntity
  8
TitleBlock&Notes
  6
Continuous
 62
     3
100
AcDbLine
 10
14.80680161821038
 20
-5.918633983925627
 30
0.0
 11
15.44631703920173
 21
-5.907471186154381
 31
0.0
  0
LINE
  5
B0A
330
19
100
AcDbEntity
  8
TitleBlock&Notes
  6
Continuous
 62
     3
100
AcDbLine
 10
14.80680161821038
 20
-5.936588031563321
 30
0.0
 11
15.44631703920173
 21
-5.925425233792076
 31
0.0
  0
LINE
  5
B0B
330
19
100
AcDbEntity
  8
TitleBlock&Notes
  6
Continuous
 62
     3
100
AcDbLine
 10
14.80680161821038
 20
-5.954542079201026
 30
0.0
 11
15.44631703920173
 21
-5.943379281429781
 31
0.0
  0
LINE
  5
B0C
330
19
100
AcDbEntity
  8
TitleBlock&Notes
  6
Continuous
 62
     3
100
AcDbLine
 10
14.80680161821038
 20
-5.972496126838734
 30
0.0
 11
15.44631703920173
 21
-5.961333329067475
 31
0.0
  0
LINE
  5
B0D
330
19
100
AcDbEntity
  8
TitleBlock&Notes
  6
Continuous
 62
     3
100
AcDbLine
 10
14.80680161821038
 20
-5.990450174476428
 30
0.0
 11
15.44631703920173
 21
-5.979287376705169
 31
0.0
  0
LINE
  5
B0E
330
19
100
AcDbEntity
  8
TitleBlock&Notes
  6
Continuous
 62
     3
100
AcDbLine
 10
14.80680161821038
 20
-6.008404222114119
 30
0.0
 11
15.44631703920173
 21
-5.997241424342874
 31
0.0
  0
LINE
  5
B0F
330
19
100
AcDbEntity
  8
TitleBlock&Notes
  6
Continuous
 62
     3
100
AcDbLine
 10
14.80680161821038
 20
-6.026358269751828
 30
0.0
 11
15.44631703920173
 21
-6.015195471980593
 31
0.0
  0
LINE
  5
B10
330
19
100
AcDbEntity
  8
TitleBlock&Notes
  6
Continuous
 62
     3
100
AcDbLine
 10
14.80680161821038
 20
-6.044312317389518
 30
0.0
 11
15.44631703920173
 21
-6.033149519618284
 31
0.0
  0
LINE
  5
B11
330
19
100
AcDbEntity
  8
TitleBlock&Notes
  6
Continuous
 62
     3
100
AcDbLine
 10
14.80680161821038
 20
-6.062266365027237
 30
0.0
 11
15.44631703920173
 21
-6.051103567255978
 31
0.0
  0
LINE
  5
B12
330
19
100
AcDbEntity
  8
TitleBlock&Notes
  6
Continuous
 62
     3
100
AcDbLine
 10
14.80680161821038
 20
-6.080220367786655
 30
0.0
 11
15.44631703920173
 21
-6.069057614893683
 31
0.0
  0
LINE
  5
B13
330
19
100
AcDbEntity
  8
TitleBlock&Notes
  6
Continuous
 62
     3
100
AcDbLine
 10
14.80680161821038
 20
-6.098174415424345
 30
0.0
 11
15.44631703920173
 21
-6.087011662531381
 31
0.0
  0
LINE
  5
B14
330
19
100
AcDbEntity
  8
TitleBlock&Notes
  6
Continuous
 62
     3
100
AcDbLine
 10
14.80680161821038
 20
-5.882725888650217
 30
0.0
 11
15.44631703920173
 21
-5.871563135757259
 31
0.0
  0
LINE
  5
B15
330
19
100
AcDbEntity
  8
TitleBlock&Notes
  6
Continuous
 62
     3
100
AcDbLine
 10
14.18972533479768
 20
-5.947358144426956
 30
0.0
 11
13.33703810680921
 21
-5.947358144426956
 31
0.0
  0
LINE
  5
B16
330
19
100
AcDbEntity
  8
TitleBlock&Notes
  6
Continuous
 62
     3
100
AcDbLine
 10
13.33703810680921
 20
-5.781979950219604
 30
0.0
 11
14.38045800421615
 21
-5.781979950219604
 31
0.0
  0
LINE
  5
B17
330
19
100
AcDbEntity
  8
TitleBlock&Notes
  6
Continuous
 62
     3
100
AcDbLine
 10
13.33703810680921
 20
-5.800656448330791
 30
0.0
 11
14.38045800421615
 21
-5.782443497923718
 31
0.0
  0
LINE
  5
B18
330
19
100
AcDbEntity
  8
TitleBlock&Notes
  6
Continuous
 62
     3
100
AcDbLine
 10
13.33703810680921
 20
-5.818610495968496
 30
0.0
 11
14.38045800421615
 21
-5.800397545561413
 31
0.0
  0
LINE
  5
B19
330
19
100
AcDbEntity
  8
TitleBlock&Notes
  6
Continuous
 62
     3
100
AcDbLine
 10
13.33703810680921
 20
-5.83656454360619
 30
0.0
 11
14.38045800421615
 21
-5.818351593199107
 31
0.0
  0
LINE
  5
B1A
330
19
100
AcDbEntity
  8
TitleBlock&Notes
  6
Continuous
 62
     3
100
AcDbLine
 10
13.33703810680921
 20
-5.854518591243895
 30
0.0
 11
14.38045800421615
 21
-5.836305640836812
 31
0.0
  0
LINE
  5
B1B
330
19
100
AcDbEntity
  8
TitleBlock&Notes
  6
Continuous
 62
     3
100
AcDbLine
 10
13.33703810680921
 20
-5.872472638881585
 30
0.0
 11
14.38045800421615
 21
-5.85425964359624
 31
0.0
  0
LINE
  5
B1C
330
19
100
AcDbEntity
  8
TitleBlock&Notes
  6
Continuous
 62
     3
100
AcDbLine
 10
13.33703810680921
 20
-5.89042668651928
 30
0.0
 11
14.38045800421615
 21
-5.872213691233934
 31
0.0
  0
LINE
  5
B1D
330
19
100
AcDbEntity
  8
TitleBlock&Notes
  6
Continuous
 62
     3
100
AcDbLine
 10
13.33703810680921
 20
-5.908380734156988
 30
0.0
 11
14.38045800421615
 21
-5.890167738871625
 31
0.0
  0
LINE
  5
B1E
330
19
100
AcDbEntity
  8
TitleBlock&Notes
  6
Continuous
 62
     3
100
AcDbLine
 10
13.33703810680921
 20
-5.926334781794682
 30
0.0
 11
14.38045800421615
 21
-5.908121786509344
 31
0.0
  0
LINE
  5
B1F
330
19
100
AcDbEntity
  8
TitleBlock&Notes
  6
Continuous
 62
     3
100
AcDbLine
 10
13.33703810680921
 20
-5.944288784554121
 30
0.0
 11
14.38045800421615
 21
-5.926075834147038
 31
0.0
  0
LINE
  5
B20
330
19
100
AcDbEntity
  8
TitleBlock&Notes
  6
Continuous
 62
     3
100
AcDbLine
 10
13.33703810680921
 20
-5.69363688605939
 30
0.0
 11
14.38045800421615
 21
-5.69363688605939
 31
0.0
  0
LINE
  5
B21
330
19
100
AcDbEntity
  8
TitleBlock&Notes
  6
Continuous
 62
     3
100
AcDbLine
 10
13.33703810680921
 20
-5.476167355920118
 30
0.0
 11
14.38045800421615
 21
-5.457954405513021
 31
0.0
  0
LINE
  5
B22
330
19
100
AcDbEntity
  8
TitleBlock&Notes
  6
Continuous
 62
     3
100
AcDbLine
 10
13.33703810680921
 20
-5.494121403557809
 30
0.0
 11
14.38045800421615
 21
-5.475908453150726
 31
0.0
  0
LINE
  5
B23
330
19
100
AcDbEntity
  8
TitleBlock&Notes
  6
Continuous
 62
     3
100
AcDbLine
 10
13.33703810680921
 20
-5.512075451195503
 30
0.0
 11
14.38045800421615
 21
-5.493862500788431
 31
0.0
  0
LINE
  5
B24
330
19
100
AcDbEntity
  8
TitleBlock&Notes
  6
Continuous
 62
     3
100
AcDbLine
 10
13.33703810680921
 20
-5.530029498833208
 30
0.0
 11
14.38045800421615
 21
-5.511816548426125
 31
0.0
  0
LINE
  5
B25
330
19
100
AcDbEntity
  8
TitleBlock&Notes
  6
Continuous
 62
     3
100
AcDbLine
 10
13.33703810680921
 20
-5.547983546470902
 30
0.0
 11
14.38045800421615
 21
-5.529770596063819
 31
0.0
  0
LINE
  5
B26
330
19
100
AcDbEntity
  8
TitleBlock&Notes
  6
Continuous
 62
     3
100
AcDbLine
 10
13.33703810680921
 20
-5.565937594108618
 30
0.0
 11
14.38045800421615
 21
-5.547724598823247
 31
0.0
  0
LINE
  5
B27
330
19
100
AcDbEntity
  8
TitleBlock&Notes
  6
Continuous
 62
     3
100
AcDbLine
 10
13.33703810680921
 20
-5.583891641746312
 30
0.0
 11
14.38045800421615
 21
-5.565678646460938
 31
0.0
  0
LINE
  5
B28
330
19
100
AcDbEntity
  8
TitleBlock&Notes
  6
Continuous
 62
     3
100
AcDbLine
 10
13.33703810680921
 20
-5.601845689384006
 30
0.0
 11
14.38045800421615
 21
-5.583632694098657
 31
0.0
  0
LINE
  5
B29
330
19
100
AcDbEntity
  8
TitleBlock&Notes
  6
Continuous
 62
     3
100
AcDbLine
 10
13.33703810680921
 20
-5.619799737021715
 30
0.0
 11
14.38045800421615
 21
-5.601586741736351
 31
0.0
  0
LINE
  5
B2A
330
19
100
AcDbEntity
  8
TitleBlock&Notes
  6
Continuous
 62
     3
100
AcDbLine
 10
13.33703810680921
 20
-5.637753739781139
 30
0.0
 11
14.38045800421615
 21
-5.619540789374045
 31
0.0
  0
LINE
  5
B2B
330
19
100
AcDbEntity
  8
TitleBlock&Notes
  6
Continuous
 62
     3
100
AcDbLine
 10
13.33703810680921
 20
-5.655707787418833
 30
0.0
 11
14.38045800421615
 21
-5.63749483701175
 31
0.0
  0
LINE
  5
B2C
330
19
100
AcDbEntity
  8
TitleBlock&Notes
  6
Continuous
 62
     3
100
AcDbLine
 10
13.33703810680921
 20
-5.673661835056527
 30
0.0
 11
14.38045800421615
 21
-5.655448884649455
 31
0.0
  0
LINE
  5
B2D
330
19
100
AcDbEntity
  8
TitleBlock&Notes
  6
Continuous
 62
     3
100
AcDbLine
 10
13.33703810680921
 20
-5.691615882694232
 30
0.0
 11
14.38045800421615
 21
-5.673402932287153
 31
0.0
  0
LINE
  5
B2E
330
19
100
AcDbEntity
  8
TitleBlock&Notes
  6
Continuous
 62
     3
100
AcDbLine
 10
14.14484705964041
 20
-6.32882348326391
 30
0.0
 11
14.14484705964041
 21
-5.992236419584237
 31
0.0
  0
LINE
  5
B2F
330
19
100
AcDbEntity
  8
TitleBlock&Notes
  6
Continuous
 62
     3
100
AcDbLine
 10
14.16728619721905
 20
-5.969797282005593
 30
0.0
 11
14.16728619721905
 21
-6.351262620842547
 31
0.0
  0
LINE
  5
B30
330
19
100
AcDbEntity
  8
TitleBlock&Notes
  6
Continuous
 62
     3
100
AcDbLine
 10
14.16728619721905
 20
-5.969797282005593
 30
0.0
 11
13.31459896923059
 21
-5.969797282005593
 31
0.0
  0
LINE
  5
B31
330
19
100
AcDbEntity
  8
TitleBlock&Notes
  6
Continuous
 62
     3
100
AcDbLine
 10
13.33703810680921
 20
-5.782702400693096
 30
0.0
 11
13.37842754485577
 21
-5.781979950219604
 31
0.0
  0
LINE
  5
B32
330
19
100
AcDbEntity
  8
TitleBlock&Notes
  6
Continuous
 62
     3
100
AcDbLine
 10
14.18972533479768
 20
-6.373701758421191
 30
0.0
 11
14.18972533479768
 21
-5.947358144426956
 31
0.0
  0
LINE
  5
B33
330
19
100
AcDbEntity
  8
TitleBlock&Notes
  6
Continuous
 62
     3
100
AcDbLine
 10
14.38045800421615
 20
-6.373701758421191
 30
0.0
 11
14.80680161821038
 21
-6.373701758421191
 31
0.0
  0
LINE
  5
B34
330
19
100
AcDbEntity
  8
TitleBlock&Notes
  6
Continuous
 62
     3
100
AcDbLine
 10
14.40289714179484
 20
-6.351262620842547
 30
0.0
 11
14.78436248063177
 21
-6.351262620842547
 31
0.0
  0
LINE
  5
B35
330
19
100
AcDbEntity
  8
TitleBlock&Notes
  6
Continuous
 62
     3
100
AcDbLine
 10
14.42533627937348
 20
-6.32882348326391
 30
0.0
 11
14.76192334305315
 21
-6.32882348326391
 31
0.0
  0
LINE
  5
B36
330
19
100
AcDbEntity
  8
TitleBlock&Notes
  6
Continuous
 62
     3
100
AcDbLine
 10
14.18972533479768
 20
-6.216669801436218
 30
0.0
 11
14.38045800421615
 21
-6.213340551471954
 31
0.0
  0
LINE
  5
B37
330
19
100
AcDbEntity
  8
TitleBlock&Notes
  6
Continuous
 62
     3
100
AcDbLine
 10
14.18972533479768
 20
-6.234623849073937
 30
0.0
 11
14.38045800421615
 21
-6.231294599109649
 31
0.0
  0
LINE
  5
B38
330
19
100
AcDbEntity
  8
TitleBlock&Notes
  6
Continuous
 62
     3
100
AcDbLine
 10
14.18972533479768
 20
-6.252577896711628
 30
0.0
 11
14.38045800421615
 21
-6.249248646747354
 31
0.0
  0
LINE
  5
B39
330
19
100
AcDbEntity
  8
TitleBlock&Notes
  6
Continuous
 62
     3
100
AcDbLine
 10
14.18972533479768
 20
-6.270531944349322
 30
0.0
 11
14.38045800421615
 21
-6.267202694385048
 31
0.0
  0
LINE
  5
B3A
330
19
100
AcDbEntity
  8
TitleBlock&Notes
  6
Continuous
 62
     3
100
AcDbLine
 10
14.18972533479768
 20
-6.288485991987027
 30
0.0
 11
14.38045800421615
 21
-6.285156742022767
 31
0.0
  0
LINE
  5
B3B
330
19
100
AcDbEntity
  8
TitleBlock&Notes
  6
Continuous
 62
     3
100
AcDbLine
 10
14.18972533479768
 20
-6.306440039624717
 30
0.0
 11
14.38045800421615
 21
-6.303110789660458
 31
0.0
  0
LINE
  5
B3C
330
19
100
AcDbEntity
  8
TitleBlock&Notes
  6
Continuous
 62
     3
100
AcDbLine
 10
14.18972533479768
 20
-6.32439408726243
 30
0.0
 11
14.38045800421615
 21
-6.321064837298152
 31
0.0
  0
LINE
  5
B3D
330
19
100
AcDbEntity
  8
TitleBlock&Notes
  6
Continuous
 62
     3
100
AcDbLine
 10
14.18972533479768
 20
-6.34234813490012
 30
0.0
 11
14.38045800421615
 21
-6.339018884935857
 31
0.0
  0
LINE
  5
B3E
330
19
100
AcDbEntity
  8
TitleBlock&Notes
  6
Continuous
 62
     3
100
AcDbLine
 10
14.18972533479768
 20
-6.360302182537814
 30
0.0
 11
14.38045800421615
 21
-6.356972932573548
 31
0.0
  0
LINE
  5
B3F
330
19
100
AcDbEntity
  8
TitleBlock&Notes
  6
Continuous
 62
     3
100
AcDbLine
 10
14.18972533479768
 20
-6.126899563247722
 30
0.0
 11
14.38045800421615
 21
-6.123570313283462
 31
0.0
  0
LINE
  5
B40
330
19
100
AcDbEntity
  8
TitleBlock&Notes
  6
Continuous
 62
     3
100
AcDbLine
 10
14.18972533479768
 20
-6.14485361088543
 30
0.0
 11
14.38045800421615
 21
-6.141524360921156
 31
0.0
  0
LINE
  5
B41
330
19
100
AcDbEntity
  8
TitleBlock&Notes
  6
Continuous
 62
     3
100
AcDbLine
 10
14.18972533479768
 20
-6.162807658523124
 30
0.0
 11
14.38045800421615
 21
-6.159478408558861
 31
0.0
  0
LINE
  5
B42
330
19
100
AcDbEntity
  8
TitleBlock&Notes
  6
Continuous
 62
     3
100
AcDbLine
 10
14.18972533479768
 20
-6.180761706160819
 30
0.0
 11
14.38045800421615
 21
-6.177432456196552
 31
0.0
  0
LINE
  5
B43
330
19
100
AcDbEntity
  8
TitleBlock&Notes
  6
Continuous
 62
     3
100
AcDbLine
 10
14.18972533479768
 20
-6.198715753798509
 30
0.0
 11
14.38045800421615
 21
-6.19538650383426
 31
0.0
  0
LINE
  5
B44
330
19
100
AcDbEntity
  8
TitleBlock&Notes
  6
Continuous
 62
     3
100
AcDbLine
 10
14.24984198340638
 20
-5.69363688605939
 30
0.0
 11
14.38045800421615
 21
-5.691356979924844
 31
0.0
  0
LINE
  5
B45
330
19
100
AcDbEntity
  8
TitleBlock&Notes
  6
Continuous
 62
     3
100
AcDbLine
 10
14.18972533479768
 20
-6.108945560488297
 30
0.0
 11
14.38045800421615
 21
-6.105616310524023
 31
0.0
  0
LINE
  5
B46
330
19
100
AcDbEntity
  8
TitleBlock&Notes
  6
Continuous
 62
     3
100
AcDbLine
 10
14.18972533479768
 20
-5.947359131748996
 30
0.0
 11
14.38045800421615
 21
-5.944029881784743
 31
0.0
  0
LINE
  5
B47
330
19
100
AcDbEntity
  8
TitleBlock&Notes
  6
Continuous
 62
     3
100
AcDbLine
 10
14.18972533479768
 20
-5.965313179386701
 30
0.0
 11
14.38045800421615
 21
-5.961983929422437
 31
0.0
  0
LINE
  5
B48
330
19
100
AcDbEntity
  8
TitleBlock&Notes
  6
Continuous
 62
     3
100
AcDbLine
 10
14.18972533479768
 20
-5.983267227024406
 30
0.0
 11
14.38045800421615
 21
-5.979937977060131
 31
0.0
  0
LINE
  5
B49
330
19
100
AcDbEntity
  8
TitleBlock&Notes
  6
Continuous
 62
     3
100
AcDbLine
 10
14.18972533479768
 20
-6.0012212746621
 30
0.0
 11
14.38045800421615
 21
-5.997892024697836
 31
0.0
  0
LINE
  5
B4A
330
19
100
AcDbEntity
  8
TitleBlock&Notes
  6
Continuous
 62
     3
100
AcDbLine
 10
14.18972533479768
 20
-6.019175322299791
 30
0.0
 11
14.38045800421615
 21
-6.015846072335531
 31
0.0
  0
LINE
  5
B4B
330
19
100
AcDbEntity
  8
TitleBlock&Notes
  6
Continuous
 62
     3
100
AcDbLine
 10
14.18972533479768
 20
-6.037129369937488
 30
0.0
 11
14.38045800421615
 21
-6.033800119973236
 31
0.0
  0
LINE
  5
B4C
330
19
100
AcDbEntity
  8
TitleBlock&Notes
  6
Continuous
 62
     3
100
AcDbLine
 10
14.18972533479768
 20
-6.055083417575204
 30
0.0
 11
14.38045800421615
 21
-6.05175416761093
 31
0.0
  0
LINE
  5
B4D
330
19
100
AcDbEntity
  8
TitleBlock&Notes
  6
Continuous
 62
     3
100
AcDbLine
 10
14.18972533479768
 20
-6.073037465212909
 30
0.0
 11
14.38045800421615
 21
-6.069708215248621
 31
0.0
  0
LINE
  5
B4E
330
19
100
AcDbEntity
  8
TitleBlock&Notes
  6
Continuous
 62
     3
100
AcDbLine
 10
14.18972533479768
 20
-6.090991512850607
 30
0.0
 11
14.38045800421615
 21
-6.087662262886329
 31
0.0
  0
TEXT
  5
B4F
330
19
100
AcDbEntity
  8
TitleBlock&Notes
  6
Continuous
 62
     3
100
AcDbText
 10
15.1806597752603
 20
-7.419297399486023
 30
0.0
 40
0.3141479261010163
  1
 POWER
 41
0.8
 51
11.0
100
AcDbText
  0
LINE
  5
B50
330
19
100
AcDbEntity
  8
TitleBlock&Notes
  6
Continuous
 62
     3
100
AcDbLine
 10
15.87266065319596
 20
-5.781979950219604
 30
0.0
 11
16.15214818982755
 21
-5.781979950219604
 31
0.0
  0
LINE
  5
B51
330
19
100
AcDbEntity
  8
TitleBlock&Notes
  6
Continuous
 62
     3
100
AcDbLine
 10
15.87266065319596
 20
-5.792305094985039
 30
0.0
 11
16.15380994260006
 21
-5.787397610718322
 31
0.0
  0
LINE
  5
B52
330
19
100
AcDbEntity
  8
TitleBlock&Notes
  6
Continuous
 62
     3
100
AcDbLine
 10
15.87266065319596
 20
-5.810259142622758
 30
0.0
 11
16.15957374923504
 21
-5.805251041263119
 31
0.0
  0
LINE
  5
B53
330
19
100
AcDbEntity
  8
TitleBlock&Notes
  6
Continuous
 62
     3
100
AcDbLine
 10
15.87266065319596
 20
-5.828213190260452
 30
0.0
 11
16.16578351129032
 21
-5.823096707866316
 31
0.0
  0
LINE
  5
B54
330
19
100
AcDbEntity
  8
TitleBlock&Notes
  6
Continuous
 62
     3
100
AcDbLine
 10
15.87266065319596
 20
-5.846167237898132
 30
0.0
 11
16.17244946101249
 21
-5.840934386136524
 31
0.0
  0
LINE
  5
B55
330
19
100
AcDbEntity
  8
TitleBlock&Notes
  6
Continuous
 62
     3
100
AcDbLine
 10
15.87266065319596
 20
-5.864121240657571
 30
0.0
 11
16.17958268333565
 21
-5.858763896560667
 31
0.0
  0
LINE
  5
B56
330
19
100
AcDbEntity
  8
TitleBlock&Notes
  6
Continuous
 62
     3
100
AcDbLine
 10
15.87266065319596
 20
-5.467816002574355
 30
0.0
 11
16.11949116656108
 21
-5.46350755352444
 31
0.0
  0
LINE
  5
B57
330
19
100
AcDbEntity
  8
TitleBlock&Notes
  6
Continuous
 62
     3
100
AcDbLine
 10
15.87266065319596
 20
-5.485770050212071
 30
0.0
 11
16.11949116656108
 21
-5.481461601162134
 31
0.0
  0
LINE
  5
B58
330
19
100
AcDbEntity
  8
TitleBlock&Notes
  6
Continuous
 62
     3
100
AcDbLine
 10
15.87266065319596
 20
-5.503724097849765
 30
0.0
 11
16.11949116656108
 21
-5.499415648799839
 31
0.0
  0
LINE
  5
B59
330
19
100
AcDbEntity
  8
TitleBlock&Notes
  6
Continuous
 62
     3
100
AcDbLine
 10
15.87266065319596
 20
-5.521678145487474
 30
0.0
 11
16.11949116656108
 21
-5.51736969643753
 31
0.0
  0
LINE
  5
B5A
330
19
100
AcDbEntity
  8
TitleBlock&Notes
  6
Continuous
 62
     3
100
AcDbLine
 10
15.87266065319596
 20
-5.539632193125164
 30
0.0
 11
16.11949116656108
 21
-5.535323744075224
 31
0.0
  0
LINE
  5
B5B
330
19
100
AcDbEntity
  8
TitleBlock&Notes
  6
Continuous
 62
     3
100
AcDbLine
 10
15.87266065319596
 20
-5.557586195884582
 30
0.0
 11
16.11949116656108
 21
-5.553277791712943
 31
0.0
  0
LINE
  5
B5C
330
19
100
AcDbEntity
  8
TitleBlock&Notes
  6
Continuous
 62
     3
100
AcDbLine
 10
15.87266065319596
 20
-5.575540243522286
 30
0.0
 11
16.11949116656108
 21
-5.571231839350637
 31
0.0
  0
LINE
  5
B5D
330
19
100
AcDbEntity
  8
TitleBlock&Notes
  6
Continuous
 62
     3
100
AcDbLine
 10
15.87266065319596
 20
-5.593494291159991
 30
0.0
 11
16.11949116656108
 21
-5.589185842110065
 31
0.0
  0
LINE
  5
B5E
330
19
100
AcDbEntity
  8
TitleBlock&Notes
  6
Continuous
 62
     3
100
AcDbLine
 10
15.87266065319596
 20
-5.611448338797686
 30
0.0
 11
16.11949116656108
 21
-5.607139889747756
 31
0.0
  0
LINE
  5
B5F
330
19
100
AcDbEntity
  8
TitleBlock&Notes
  6
Continuous
 62
     3
100
AcDbLine
 10
15.87266065319596
 20
-5.629402386435376
 30
0.0
 11
16.12065863001101
 21
-5.625073562648534
 31
0.0
  0
LINE
  5
B60
330
19
100
AcDbEntity
  8
TitleBlock&Notes
  6
Continuous
 62
     3
100
AcDbLine
 10
15.87266065319596
 20
-5.647356434073095
 30
0.0
 11
16.12268694853505
 21
-5.642992201327146
 31
0.0
  0
LINE
  5
B61
330
19
100
AcDbEntity
  8
TitleBlock&Notes
  6
Continuous
 62
     3
100
AcDbLine
 10
15.87266065319596
 20
-5.665310481710779
 30
0.0
 11
16.12510853538426
 21
-5.660903973629633
 31
0.0
  0
LINE
  5
B62
330
19
100
AcDbEntity
  8
TitleBlock&Notes
  6
Continuous
 62
     3
100
AcDbLine
 10
15.87266065319596
 20
-5.69363688605939
 30
0.0
 11
16.13056357948612
 21
-5.69363688605939
 31
0.0
  0
LINE
  5
B63
330
19
100
AcDbEntity
  8
TitleBlock&Notes
  6
Continuous
 62
     3
100
AcDbLine
 10
15.87266065319596
 20
-5.683264529348495
 30
0.0
 11
16.12792639740313
 21
-5.67880883467777
 31
0.0
  0
LINE
  5
B64
330
19
100
AcDbEntity
  8
TitleBlock&Notes
  6
Continuous
 62
     3
100
AcDbLine
 10
15.87266065319596
 20
-6.115477862707091
 30
0.0
 11
16.33897977029968
 21
-6.107338245063548
 31
0.0
  0
LINE
  5
B65
330
19
100
AcDbEntity
  8
TitleBlock&Notes
  6
Continuous
 62
     3
100
AcDbLine
 10
15.87266065319596
 20
-6.133431910344793
 30
0.0
 11
16.35586369546624
 21
-6.124997577068274
 31
0.0
  0
LINE
  5
B66
330
19
100
AcDbEntity
  8
TitleBlock&Notes
  6
Continuous
 62
     3
100
AcDbLine
 10
15.87266065319596
 20
-6.15138595798249
 30
0.0
 11
16.37376451746963
 21
-6.142639182154333
 31
0.0
  0
LINE
  5
B67
330
19
100
AcDbEntity
  8
TitleBlock&Notes
  6
Continuous
 62
     3
100
AcDbLine
 10
15.87266065319596
 20
-6.169340005620181
 30
0.0
 11
16.39277674995724
 21
-6.160261354947259
 31
0.0
  0
LINE
  5
B68
330
19
100
AcDbEntity
  8
TitleBlock&Notes
  6
Continuous
 62
     3
100
AcDbLine
 10
15.87266065319596
 20
-6.1872940532579
 30
0.0
 11
16.41301424911326
 21
-6.17786216568118
 31
0.0
  0
LINE
  5
B69
330
19
100
AcDbEntity
  8
TitleBlock&Notes
  6
Continuous
 62
     3
100
AcDbLine
 10
15.87266065319596
 20
-6.205248100895595
 30
0.0
 11
16.43461609271227
 21
-6.195439146051015
 31
0.0
  0
LINE
  5
B6A
330
19
100
AcDbEntity
  8
TitleBlock&Notes
  6
Continuous
 62
     3
100
AcDbLine
 10
15.87266065319596
 20
-6.2232021485333
 30
0.0
 11
16.45775528650506
 21
-6.212989289212291
 31
0.0
  0
LINE
  5
B6B
330
19
100
AcDbEntity
  8
TitleBlock&Notes
  6
Continuous
 62
     3
100
AcDbLine
 10
15.87266065319596
 20
-6.24115619617099
 30
0.0
 11
16.4826515545269
 21
-6.230508780511645
 31
0.0
  0
LINE
  5
B6C
330
19
100
AcDbEntity
  8
TitleBlock&Notes
  6
Continuous
 62
     3
100
AcDbLine
 10
15.87266065319596
 20
-6.259110243808684
 30
0.0
 11
16.50959130992963
 21
-6.24799259358225
 31
0.0
  0
LINE
  5
B6D
330
19
100
AcDbEntity
  8
TitleBlock&Notes
  6
Continuous
 62
     3
100
AcDbLine
 10
15.87266065319596
 20
-6.277064291446393
 30
0.0
 11
16.53895996734051
 21
-6.265433996682837
 31
0.0
  0
LINE
  5
B6E
330
19
100
AcDbEntity
  8
TitleBlock&Notes
  6
Continuous
 62
     3
100
AcDbLine
 10
15.87266065319596
 20
-6.295018339084094
 30
0.0
 11
16.57129822021851
 21
-6.282823565375608
 31
0.0
  0
LINE
  5
B6F
330
19
100
AcDbEntity
  8
TitleBlock&Notes
  6
Continuous
 62
     3
100
AcDbLine
 10
15.87266065319596
 20
-6.312972386721792
 30
0.0
 11
16.60740777407115
 21
-6.300147297638719
 31
0.0
  0
LINE
  5
B70
330
19
100
AcDbEntity
  8
TitleBlock&Notes
  6
Continuous
 62
     3
100
AcDbLine
 10
15.87266065319596
 20
-6.330926434359486
 30
0.0
 11
16.64857313488982
 21
-6.317382799212868
 31
0.0
  0
LINE
  5
B71
330
19
100
AcDbEntity
  8
TitleBlock&Notes
  6
Continuous
 62
     3
100
AcDbLine
 10
15.87266065319596
 20
-6.348880481997202
 30
0.0
 11
16.69711011142928
 21
-6.33448963477215
 31
0.0
  0
LINE
  5
B72
330
19
100
AcDbEntity
  8
TitleBlock&Notes
  6
Continuous
 62
     3
100
AcDbLine
 10
15.87266065319596
 20
-5.882075288295276
 30
0.0
 11
16.18719569929855
 21
-5.876585059625629
 31
0.0
  0
LINE
  5
B73
330
19
100
AcDbEntity
  8
TitleBlock&Notes
  6
Continuous
 62
     3
100
AcDbLine
 10
15.87266065319596
 20
-5.90002933593297
 30
0.0
 11
16.19530228653155
 21
-5.894397606061762
 31
0.0
  0
LINE
  5
B74
330
19
100
AcDbEntity
  8
TitleBlock&Notes
  6
Continuous
 62
     3
100
AcDbLine
 10
15.87266065319596
 20
-5.917983383570668
 30
0.0
 11
16.20391779340488
 21
-5.912201266599403
 31
0.0
  0
LINE
  5
B75
330
19
100
AcDbEntity
  8
TitleBlock&Notes
  6
Continuous
 62
     3
100
AcDbLine
 10
15.87266065319596
 20
-5.935937431208373
 30
0.0
 11
16.21305927366307
 21
-5.929995771968926
 31
0.0
  0
LINE
  5
B76
330
19
100
AcDbEntity
  8
TitleBlock&Notes
  6
Continuous
 62
     3
100
AcDbLine
 10
15.87266065319596
 20
-5.953891478846063
 30
0.0
 11
16.2227457556947
 21
-5.947780718265832
 31
0.0
  0
LINE
  5
B77
330
19
100
AcDbEntity
  8
TitleBlock&Notes
  6
Continuous
 62
     3
100
AcDbLine
 10
15.87266065319596
 20
-5.971845526483772
 30
0.0
 11
16.23299833228925
 21
-5.965555791342197
 31
0.0
  0
LINE
  5
B78
330
19
100
AcDbEntity
  8
TitleBlock&Notes
  6
Continuous
 62
     3
100
AcDbLine
 10
15.87266065319596
 20
-5.989799574121462
 30
0.0
 11
16.24384074405411
 21
-5.983320587293551
 31
0.0
  0
LINE
  5
B79
330
19
100
AcDbEntity
  8
TitleBlock&Notes
  6
Continuous
 62
     3
100
AcDbLine
 10
15.87266065319596
 20
-6.007753621759157
 30
0.0
 11
16.25529946917178
 21
-6.001074612458889
 31
0.0
  0
LINE
  5
B7A
330
19
100
AcDbEntity
  8
TitleBlock&Notes
  6
Continuous
 62
     3
100
AcDbLine
 10
15.87266065319596
 20
-6.025707669396872
 30
0.0
 11
16.26740435169515
 21
-6.018817373177149
 31
0.0
  0
LINE
  5
B7B
330
19
100
AcDbEntity
  8
TitleBlock&Notes
  6
Continuous
 62
     3
100
AcDbLine
 10
15.87266065319596
 20
-6.043661717034581
 30
0.0
 11
16.28018909520882
 21
-6.036548286030754
 31
0.0
  0
LINE
  5
B7C
330
19
100
AcDbEntity
  8
TitleBlock&Notes
  6
Continuous
 62
     3
100
AcDbLine
 10
15.87266065319596
 20
-6.061615764672275
 30
0.0
 11
16.29369198088159
 21
-6.05426663296734
 31
0.0
  0
LINE
  5
B7D
330
19
100
AcDbEntity
  8
TitleBlock&Notes
  6
Continuous
 62
     3
100
AcDbLine
 10
15.87266065319596
 20
-6.079569812309969
 30
0.0
 11
16.30795667527515
 21
-6.071971695934458
 31
0.0
  0
LINE
  5
B7E
330
19
100
AcDbEntity
  8
TitleBlock&Notes
  6
Continuous
 62
     3
100
AcDbLine
 10
15.87266065319596
 20
-6.09752385994766
 30
0.0
 11
16.32303330742289
 21
-6.089662577366645
 31
0.0
  0
LINE
  5
B7F
330
19
100
AcDbEntity
  8
TitleBlock&Notes
  6
Continuous
 62
     3
100
AcDbLine
 10
15.44631703920173
 20
-6.373701758421191
 30
0.0
 11
15.87266065319596
 21
-6.373701758421191
 31
0.0
  0
LINE
  5
B80
330
19
100
AcDbEntity
  8
TitleBlock&Notes
  6
Continuous
 62
     3
100
AcDbLine
 10
15.49119531435904
 20
-6.32882348326391
 30
0.0
 11
15.8277823780387
 21
-6.32882348326391
 31
0.0
  0
LINE
  5
B81
330
19
100
AcDbEntity
  8
TitleBlock&Notes
  6
Continuous
 62
     3
100
AcDbLine
 10
15.85022151561735
 20
-6.351262620842547
 30
0.0
 11
15.46875617678042
 21
-6.351262620842547
 31
0.0
  0
LINE
  5
B82
330
19
100
AcDbEntity
  8
TitleBlock&Notes
  6
Continuous
 62
     3
100
AcDbLine
 10
15.27842848891692
 20
-5.69363688605939
 30
0.0
 11
15.44631703920173
 21
-5.690706379569881
 31
0.0
  0
LINE
  5
B83
330
19
100
AcDbEntity
  8
TitleBlock&Notes
  6
Continuous
 62
     3
100
AcDbLine
 10
14.80680161821038
 20
-5.031063949735997
 30
0.0
 11
15.44631703920173
 21
-5.031063949735997
 31
0.0
  0
LINE
  5
B84
330
19
100
AcDbEntity
  8
TitleBlock&Notes
  6
Continuous
 62
     3
100
AcDbLine
 10
14.80680161821038
 20
-5.051541592542335
 30
0.0
 11
15.44631703920173
 21
-5.040378839649363
 31
0.0
  0
LINE
  5
B85
330
19
100
AcDbEntity
  8
TitleBlock&Notes
  6
Continuous
 62
     3
100
AcDbLine
 10
14.80680161821038
 20
-4.85437782141556
 30
0.0
 11
15.44631703920173
 21
-4.85437782141556
 31
0.0
  0
LINE
  5
B86
330
19
100
AcDbEntity
  8
TitleBlock&Notes
  6
Continuous
 62
     3
100
AcDbLine
 10
14.80680161821038
 20
-4.87681695899419
 30
0.0
 11
15.44631703920173
 21
-4.87681695899419
 31
0.0
  0
LINE
  5
B87
330
19
100
AcDbEntity
  8
TitleBlock&Notes
  6
Continuous
 62
     3
100
AcDbLine
 10
14.80680161821038
 20
-4.942720885575788
 30
0.0
 11
15.44631703920173
 21
-4.942720885575788
 31
0.0
  0
LINE
  5
B88
330
19
100
AcDbEntity
  8
TitleBlock&Notes
  6
Continuous
 62
     3
100
AcDbLine
 10
14.80680161821038
 20
-4.899256096572841
 30
0.0
 11
15.44631703920173
 21
-4.899256096572841
 31
0.0
  0
LINE
  5
B89
330
19
100
AcDbEntity
  8
TitleBlock&Notes
  6
Continuous
 62
     3
100
AcDbLine
 10
14.80680161821038
 20
-4.921695234151478
 30
0.0
 11
15.44631703920173
 21
-4.921695234151478
 31
0.0
  0
LINE
  5
B8A
330
19
100
AcDbEntity
  8
TitleBlock&Notes
  6
Continuous
 62
     3
100
AcDbLine
 10
14.80680161821038
 20
-4.735644715180164
 30
0.0
 11
15.31168221372987
 21
-4.735644715180164
 31
0.0
  0
LINE
  5
B8B
330
19
100
AcDbEntity
  8
TitleBlock&Notes
  6
Continuous
 62
     3
100
AcDbLine
 10
14.78436248063177
 20
-4.713205577601524
 30
0.0
 11
15.28924307615126
 21
-4.713205577601524
 31
0.0
  0
LINE
  5
B8C
330
19
100
AcDbEntity
  8
TitleBlock&Notes
  6
Continuous
 62
     3
100
AcDbLine
 10
15.26680393857262
 20
-4.690766440022883
 30
0.0
 11
14.76192334305315
 21
-4.690766440022883
 31
0.0
  0
LINE
  5
B8D
330
19
100
AcDbEntity
  8
TitleBlock&Notes
  6
Continuous
 62
     3
100
AcDbLine
 10
13.92045568385399
 20
-4.354179376343221
 30
0.0
 11
15.26680393857262
 21
-4.354179376343221
 31
0.0
  0
LINE
  5
B8E
330
19
100
AcDbEntity
  8
TitleBlock&Notes
  6
Continuous
 62
     3
100
AcDbLine
 10
13.87557740869669
 20
-4.30930110118593
 30
0.0
 11
15.31168221372987
 21
-4.30930110118593
 31
0.0
  0
LINE
  5
B8F
330
19
100
AcDbEntity
  8
TitleBlock&Notes
  6
Continuous
 62
     3
100
AcDbLine
 10
13.8980165462753
 20
-4.331740238764584
 30
0.0
 11
15.28924307615126
 21
-4.331740238764584
 31
0.0
  0
LINE
  5
B90
330
19
100
AcDbEntity
  8
TitleBlock&Notes
  6
Continuous
 62
     3
100
AcDbLine
 10
14.80680161821038
 20
-5.251921565258278
 30
0.0
 11
15.44631703920173
 21
-5.251921565258278
 31
0.0
  0
LINE
  5
B91
330
19
100
AcDbEntity
  8
TitleBlock&Notes
  6
Continuous
 62
     3
100
AcDbLine
 10
14.80680161821038
 20
-5.340264629418506
 30
0.0
 11
15.44631703920173
 21
-5.340264629418506
 31
0.0
  0
LINE
  5
B92
330
19
100
AcDbEntity
  8
TitleBlock&Notes
  6
Continuous
 62
     3
100
AcDbLine
 10
14.80680161821038
 20
-5.360742317103131
 30
0.0
 11
15.44631703920173
 21
-5.349579519331872
 31
0.0
  0
LINE
  5
B93
330
19
100
AcDbEntity
  8
TitleBlock&Notes
  6
Continuous
 62
     3
100
AcDbLine
 10
14.80680161821038
 20
-5.378696364740825
 30
0.0
 11
15.44631703920173
 21
-5.367533566969576
 31
0.0
  0
LINE
  5
B94
330
19
100
AcDbEntity
  8
TitleBlock&Notes
  6
Continuous
 62
     3
100
AcDbLine
 10
14.80680161821038
 20
-5.396650412378519
 30
0.0
 11
15.44631703920173
 21
-5.385487614607271
 31
0.0
  0
LINE
  5
B95
330
19
100
AcDbEntity
  8
TitleBlock&Notes
  6
Continuous
 62
     3
100
AcDbLine
 10
14.80680161821038
 20
-5.414604460016224
 30
0.0
 11
15.44631703920173
 21
-5.403441662244979
 31
0.0
  0
LINE
  5
B96
330
19
100
AcDbEntity
  8
TitleBlock&Notes
  6
Continuous
 62
     3
100
AcDbLine
 10
14.80680161821038
 20
-5.432558507653919
 30
0.0
 11
15.44631703920173
 21
-5.42139570988267
 31
0.0
  0
LINE
  5
B97
330
19
100
AcDbEntity
  8
TitleBlock&Notes
  6
Continuous
 62
     3
100
AcDbLine
 10
14.80680161821038
 20
-5.087449687817731
 30
0.0
 11
15.44631703920173
 21
-5.076286890046496
 31
0.0
  0
LINE
  5
B98
330
19
100
AcDbEntity
  8
TitleBlock&Notes
  6
Continuous
 62
     3
100
AcDbLine
 10
14.80680161821038
 20
-5.10540373545545
 30
0.0
 11
15.44631703920173
 21
-5.09424093768419
 31
0.0
  0
LINE
  5
B99
330
19
100
AcDbEntity
  8
TitleBlock&Notes
  6
Continuous
 62
     3
100
AcDbLine
 10
14.80680161821038
 20
-5.123357783093144
 30
0.0
 11
15.44631703920173
 21
-5.112194985321895
 31
0.0
  0
LINE
  5
B9A
330
19
100
AcDbEntity
  8
TitleBlock&Notes
  6
Continuous
 62
     3
100
AcDbLine
 10
14.80680161821038
 20
-5.141311830730838
 30
0.0
 11
15.44631703920173
 21
-5.13014903295959
 31
0.0
  0
LINE
  5
B9B
330
19
100
AcDbEntity
  8
TitleBlock&Notes
  6
Continuous
 62
     3
100
AcDbLine
 10
14.80680161821038
 20
-5.159265878368543
 30
0.0
 11
15.44631703920173
 21
-5.148103080597294
 31
0.0
  0
LINE
  5
B9C
330
19
100
AcDbEntity
  8
TitleBlock&Notes
  6
Continuous
 62
     3
100
AcDbLine
 10
14.80680161821038
 20
-5.177219926006237
 30
0.0
 11
15.44631703920173
 21
-5.166057128234992
 31
0.0
  0
LINE
  5
B9D
330
19
100
AcDbEntity
  8
TitleBlock&Notes
  6
Continuous
 62
     3
100
AcDbLine
 10
14.80680161821038
 20
-5.195173973643942
 30
0.0
 11
15.44631703920173
 21
-5.184011175872683
 31
0.0
  0
LINE
  5
B9E
330
19
100
AcDbEntity
  8
TitleBlock&Notes
  6
Continuous
 62
     3
100
AcDbLine
 10
14.80680161821038
 20
-5.213128021281637
 30
0.0
 11
15.44631703920173
 21
-5.201965223510388
 31
0.0
  0
LINE
  5
B9F
330
19
100
AcDbEntity
  8
TitleBlock&Notes
  6
Continuous
 62
     3
100
AcDbLine
 10
14.80680161821038
 20
-5.231082068919327
 30
0.0
 11
15.44631703920173
 21
-5.219919271148082
 31
0.0
  0
LINE
  5
BA0
330
19
100
AcDbEntity
  8
TitleBlock&Notes
  6
Continuous
 62
     3
100
AcDbLine
 10
14.80680161821038
 20
-5.249036116557036
 30
0.0
 11
15.44631703920173
 21
-5.237873318785801
 31
0.0
  0
LINE
  5
BA1
330
19
100
AcDbEntity
  8
TitleBlock&Notes
  6
Continuous
 62
     3
100
AcDbLine
 10
14.80680161821038
 20
-5.06949564018004
 30
0.0
 11
15.44631703920173
 21
-5.058332887287061
 31
0.0
  0
LINE
  5
BA2
330
19
100
AcDbEntity
  8
TitleBlock&Notes
  6
Continuous
 62
     3
100
AcDbLine
 10
13.87557740869669
 20
-4.735644715180164
 30
0.0
 11
14.38045800421615
 21
-4.735644715180164
 31
0.0
  0
LINE
  5
BA3
330
19
100
AcDbEntity
  8
TitleBlock&Notes
  6
Continuous
 62
     3
100
AcDbLine
 10
13.92045568385399
 20
-4.690766440022883
 30
0.0
 11
14.42533627937348
 21
-4.690766440022883
 31
0.0
  0
LINE
  5
BA4
330
19
100
AcDbEntity
  8
TitleBlock&Notes
  6
Continuous
 62
     3
100
AcDbLine
 10
13.8980165462753
 20
-4.713205577601524
 30
0.0
 11
14.40289714179484
 21
-4.713205577601524
 31
0.0
  0
LINE
  5
BA5
330
19
100
AcDbEntity
  8
TitleBlock&Notes
  6
Continuous
 62
     3
100
AcDbLine
 10
13.61290567201001
 20
-5.251921565258278
 30
0.0
 11
14.38045800421615
 21
-5.238523919140753
 31
0.0
  0
LINE
  5
BA6
330
19
100
AcDbEntity
  8
TitleBlock&Notes
  6
Continuous
 62
     3
100
AcDbLine
 10
13.33703810680921
 20
-5.077196438049103
 30
0.0
 11
14.38045800421615
 21
-5.058983442763743
 31
0.0
  0
LINE
  5
BA7
330
19
100
AcDbEntity
  8
TitleBlock&Notes
  6
Continuous
 62
     3
100
AcDbLine
 10
13.33703810680921
 20
-5.340264629418506
 30
0.0
 11
14.38045800421615
 21
-5.340264629418506
 31
0.0
  0
LINE
  5
BA8
330
19
100
AcDbEntity
  8
TitleBlock&Notes
  6
Continuous
 62
     3
100
AcDbLine
 10
13.33703810680921
 20
-5.251921565258278
 30
0.0
 11
14.38045800421615
 21
-5.251921565258278
 31
0.0
  0
LINE
  5
BA9
330
19
100
AcDbEntity
  8
TitleBlock&Notes
  6
Continuous
 62
     3
100
AcDbLine
 10
13.33703810680921
 20
-5.368443114972183
 30
0.0
 11
14.38045800421615
 21
-5.350230119686823
 31
0.0
  0
LINE
  5
BAA
330
19
100
AcDbEntity
  8
TitleBlock&Notes
  6
Continuous
 62
     3
100
AcDbLine
 10
13.33703810680921
 20
-5.386397117731597
 30
0.0
 11
14.38045800421615
 21
-5.368184167324518
 31
0.0
  0
LINE
  5
BAB
330
19
100
AcDbEntity
  8
TitleBlock&Notes
  6
Continuous
 62
     3
100
AcDbLine
 10
13.33703810680921
 20
-5.404351165369316
 30
0.0
 11
14.38045800421615
 21
-5.386138214962223
 31
0.0
  0
LINE
  5
BAC
330
19
100
AcDbEntity
  8
TitleBlock&Notes
  6
Continuous
 62
     3
100
AcDbLine
 10
13.33703810680921
 20
-5.42230521300701
 30
0.0
 11
14.38045800421615
 21
-5.404092262599917
 31
0.0
  0
LINE
  5
BAD
330
19
100
AcDbEntity
  8
TitleBlock&Notes
  6
Continuous
 62
     3
100
AcDbLine
 10
13.33703810680921
 20
-5.440259260644705
 30
0.0
 11
14.38045800421615
 21
-5.422046310237632
 31
0.0
  0
LINE
  5
BAE
330
19
100
AcDbEntity
  8
TitleBlock&Notes
  6
Continuous
 62
     3
100
AcDbLine
 10
13.33703810680921
 20
-5.095150485686797
 30
0.0
 11
14.38045800421615
 21
-5.076937490401448
 31
0.0
  0
LINE
  5
BAF
330
19
100
AcDbEntity
  8
TitleBlock&Notes
  6
Continuous
 62
     3
100
AcDbLine
 10
13.33703810680921
 20
-5.113104533324513
 30
0.0
 11
14.38045800421615
 21
-5.094891538039142
 31
0.0
  0
LINE
  5
BB0
330
19
100
AcDbEntity
  8
TitleBlock&Notes
  6
Continuous
 62
     3
100
AcDbLine
 10
13.33703810680921
 20
-5.131058536083944
 30
0.0
 11
14.38045800421615
 21
-5.112845585676833
 31
0.0
  0
LINE
  5
BB1
330
19
100
AcDbEntity
  8
TitleBlock&Notes
  6
Continuous
 62
     3
100
AcDbLine
 10
13.33703810680921
 20
-5.149012583721635
 30
0.0
 11
14.38045800421615
 21
-5.130799633314552
 31
0.0
  0
LINE
  5
BB2
330
19
100
AcDbEntity
  8
TitleBlock&Notes
  6
Continuous
 62
     3
100
AcDbLine
 10
13.33703810680921
 20
-5.166966631359329
 30
0.0
 11
14.38045800421615
 21
-5.14875368095226
 31
0.0
  0
LINE
  5
BB3
330
19
100
AcDbEntity
  8
TitleBlock&Notes
  6
Continuous
 62
     3
100
AcDbLine
 10
13.33703810680921
 20
-5.184920678997023
 30
0.0
 11
14.38045800421615
 21
-5.166707728589951
 31
0.0
  0
LINE
  5
BB4
330
19
100
AcDbEntity
  8
TitleBlock&Notes
  6
Continuous
 62
     3
100
AcDbLine
 10
13.33703810680921
 20
-5.202874726634728
 30
0.0
 11
14.38045800421615
 21
-5.184661776227645
 31
0.0
  0
LINE
  5
BB5
330
19
100
AcDbEntity
  8
TitleBlock&Notes
  6
Continuous
 62
     3
100
AcDbLine
 10
13.33703810680921
 20
-5.220828774272433
 30
0.0
 11
14.38045800421615
 21
-5.20261582386534
 31
0.0
  0
LINE
  5
BB6
330
19
100
AcDbEntity
  8
TitleBlock&Notes
  6
Continuous
 62
     3
100
AcDbLine
 10
13.33703810680921
 20
-5.238782821910128
 30
0.0
 11
14.38045800421615
 21
-5.220569871503048
 31
0.0
  0
LINE
  5
BB7
330
19
100
AcDbEntity
  8
TitleBlock&Notes
  6
Continuous
 62
     3
100
AcDbLine
 10
13.33703810680921
 20
-5.031063949735997
 30
0.0
 11
14.38045800421615
 21
-5.031063949735997
 31
0.0
  0
LINE
  5
BB8
330
19
100
AcDbEntity
  8
TitleBlock&Notes
  6
Continuous
 62
     3
100
AcDbLine
 10
13.33703810680921
 20
-4.942720885575788
 30
0.0
 11
14.38045800421615
 21
-4.942720885575788
 31
0.0
  0
LINE
  5
BB9
330
19
100
AcDbEntity
  8
TitleBlock&Notes
  6
Continuous
 62
     3
100
AcDbLine
 10
13.33703810680921
 20
-4.85437782141556
 30
0.0
 11
14.38045800421615
 21
-4.85437782141556
 31
0.0
  0
LINE
  5
BBA
330
19
100
AcDbEntity
  8
TitleBlock&Notes
  6
Continuous
 62
     3
100
AcDbLine
 10
13.33703810680921
 20
-5.059242390411409
 30
0.0
 11
14.38045800421615
 21
-5.041029395126049
 31
0.0
  0
LINE
  5
BBB
330
19
100
AcDbEntity
  8
TitleBlock&Notes
  6
Continuous
 62
     3
100
AcDbLine
 10
13.33703810680921
 20
-4.87681695899419
 30
0.0
 11
14.38045800421615
 21
-4.87681695899419
 31
0.0
  0
LINE
  5
BBC
330
19
100
AcDbEntity
  8
TitleBlock&Notes
  6
Continuous
 62
     3
100
AcDbLine
 10
13.33703810680921
 20
-4.899256096572841
 30
0.0
 11
14.38045800421615
 21
-4.899256096572841
 31
0.0
  0
LINE
  5
BBD
330
19
100
AcDbEntity
  8
TitleBlock&Notes
  6
Continuous
 62
     3
100
AcDbLine
 10
13.33703810680921
 20
-4.921695234151478
 30
0.0
 11
14.38045800421615
 21
-4.921695234151478
 31
0.0
  0
LINE
  5
BBE
330
19
100
AcDbEntity
  8
TitleBlock&Notes
  6
Continuous
 62
     3
100
AcDbLine
 10
13.33703810680921
 20
-5.350489067334478
 30
0.0
 11
13.92279388686797
 21
-5.340264629418506
 31
0.0
  0
LINE
  5
BBF
330
19
100
AcDbEntity
  8
TitleBlock&Notes
  6
Continuous
 62
     3
100
AcDbLine
 10
13.33703810680921
 20
-5.041288342773704
 30
0.0
 11
13.92279388686797
 21
-5.031063949735997
 31
0.0
  0
LINE
  5
BC0
330
19
100
AcDbEntity
  8
TitleBlock&Notes
  6
Continuous
 62
     3
100
AcDbLine
 10
13.33703810680921
 20
-4.589348628934889
 30
0.0
 11
13.87557740869669
 21
-4.589348628934889
 31
0.0
  0
LINE
  5
BC1
330
19
100
AcDbEntity
  8
TitleBlock&Notes
  6
Continuous
 62
     3
100
AcDbLine
 10
13.33703810680921
 20
-4.522031216198943
 30
0.0
 11
13.87557740869669
 21
-4.522031216198943
 31
0.0
  0
LINE
  5
BC2
330
19
100
AcDbEntity
  8
TitleBlock&Notes
  6
Continuous
 62
     3
100
AcDbLine
 10
13.33703810680921
 20
-4.544470353777608
 30
0.0
 11
13.87557740869669
 21
-4.544470353777608
 31
0.0
  0
LINE
  5
BC3
330
19
100
AcDbEntity
  8
TitleBlock&Notes
  6
Continuous
 62
     3
100
AcDbLine
 10
13.33703810680921
 20
-4.566909491356245
 30
0.0
 11
13.87557740869669
 21
-4.566909491356245
 31
0.0
  0
LINE
  5
BC4
330
19
100
AcDbEntity
  8
TitleBlock&Notes
  6
Continuous
 62
     3
100
AcDbLine
 10
13.87557740869669
 20
-4.30930110118593
 30
0.0
 11
13.87557740869669
 21
-4.735644715180164
 31
0.0
  0
LINE
  5
BC5
330
19
100
AcDbEntity
  8
TitleBlock&Notes
  6
Continuous
 62
     3
100
AcDbLine
 10
13.92045568385399
 20
-4.690766440022883
 30
0.0
 11
13.92045568385399
 21
-4.354179376343221
 31
0.0
  0
LINE
  5
BC6
330
19
100
AcDbEntity
  8
TitleBlock&Notes
  6
Continuous
 62
     3
100
AcDbLine
 10
13.8980165462753
 20
-4.331740238764584
 30
0.0
 11
13.8980165462753
 21
-4.713205577601524
 31
0.0
  0
LINE
  5
BC7
330
19
100
AcDbEntity
  8
TitleBlock&Notes
  6
Continuous
 62
     3
100
AcDbLine
 10
14.80680161821038
 20
-5.033587544904641
 30
0.0
 11
14.95138039237851
 21
-5.031063949735997
 31
0.0
  0
LINE
  5
BC8
330
19
100
AcDbEntity
  8
TitleBlock&Notes
  6
Continuous
 62
     3
100
AcDbLine
 10
14.80680161821038
 20
-5.342788269465412
 30
0.0
 11
14.95138039237851
 21
-5.340264629418506
 31
0.0
  0
LINE
  5
BC9
330
19
100
AcDbEntity
  8
TitleBlock&Notes
  6
Continuous
 62
     3
100
AcDbLine
 10
15.87266065319596
 20
-5.031063949735997
 30
0.0
 11
16.12154282178816
 21
-5.031063949735997
 31
0.0
  0
LINE
  5
BCA
330
19
100
AcDbEntity
  8
TitleBlock&Notes
  6
Continuous
 62
     3
100
AcDbLine
 10
15.87266065319596
 20
-5.05089099218738
 30
0.0
 11
16.11954941856227
 21
-5.046581555815407
 31
0.0
  0
LINE
  5
BCB
330
19
100
AcDbEntity
  8
TitleBlock&Notes
  6
Continuous
 62
     3
100
AcDbLine
 10
15.87266065319596
 20
-4.942720885575788
 30
0.0
 11
16.1386203518338
 21
-4.942720885575788
 31
0.0
  0
LINE
  5
BCC
330
19
100
AcDbEntity
  8
TitleBlock&Notes
  6
Continuous
 62
     3
100
AcDbLine
 10
15.87266065319596
 20
-4.921695234151478
 30
0.0
 11
16.14416407540739
 21
-4.921695234151478
 31
0.0
  0
LINE
  5
BCD
330
19
100
AcDbEntity
  8
TitleBlock&Notes
  6
Continuous
 62
     3
100
AcDbLine
 10
15.87266065319596
 20
-4.85437782141556
 30
0.0
 11
16.1659603316944
 21
-4.85437782141556
 31
0.0
  0
LINE
  5
BCE
330
19
100
AcDbEntity
  8
TitleBlock&Notes
  6
Continuous
 62
     3
100
AcDbLine
 10
15.87266065319596
 20
-4.87681695899419
 30
0.0
 11
16.1579919695489
 21
-4.87681695899419
 31
0.0
  0
LINE
  5
BCF
330
19
100
AcDbEntity
  8
TitleBlock&Notes
  6
Continuous
 62
     3
100
AcDbLine
 10
15.87266065319596
 20
-4.899256096572841
 30
0.0
 11
16.15073295342048
 21
-4.899256096572841
 31
0.0
  0
LINE
  5
BD0
330
19
100
AcDbEntity
  8
TitleBlock&Notes
  6
Continuous
 62
     3
100
AcDbLine
 10
15.87266065319596
 20
-5.032936944549689
 30
0.0
 11
15.97996694276742
 21
-5.031063949735997
 31
0.0
  0
LINE
  5
BD1
330
19
100
AcDbEntity
  8
TitleBlock&Notes
  6
Continuous
 62
     3
100
AcDbLine
 10
15.87266065319596
 20
-4.589348628934889
 30
0.0
 11
16.32536599040903
 21
-4.589348628934889
 31
0.0
  0
LINE
  5
BD2
330
19
100
AcDbEntity
  8
TitleBlock&Notes
  6
Continuous
 62
     3
100
AcDbLine
 10
15.87266065319596
 20
-4.522031216198943
 30
0.0
 11
16.39255478200831
 21
-4.522031216198943
 31
0.0
  0
LINE
  5
BD3
330
19
100
AcDbEntity
  8
TitleBlock&Notes
  6
Continuous
 62
     3
100
AcDbLine
 10
15.87266065319596
 20
-4.544470353777608
 30
0.0
 11
16.36842687493553
 21
-4.544470353777608
 31
0.0
  0
LINE
  5
BD4
330
19
100
AcDbEntity
  8
TitleBlock&Notes
  6
Continuous
 62
     3
100
AcDbLine
 10
15.87266065319596
 20
-4.566909491356245
 30
0.0
 11
16.34609486179969
 21
-4.566909491356245
 31
0.0
  0
LINE
  5
BD5
330
19
100
AcDbEntity
  8
TitleBlock&Notes
  6
Continuous
 62
     3
100
AcDbLine
 10
15.87266065319596
 20
-5.251921565258278
 30
0.0
 11
16.11949116656108
 21
-5.251921565258278
 31
0.0
  0
LINE
  5
BD6
330
19
100
AcDbEntity
  8
TitleBlock&Notes
  6
Continuous
 62
     3
100
AcDbLine
 10
15.87266065319596
 20
-5.340264629418506
 30
0.0
 11
16.11949116656108
 21
-5.340264629418506
 31
0.0
  0
LINE
  5
BD7
330
19
100
AcDbEntity
  8
TitleBlock&Notes
  6
Continuous
 62
     3
100
AcDbLine
 10
15.87266065319596
 20
-5.360091716748168
 30
0.0
 11
16.11949116656108
 21
-5.355783267698242
 31
0.0
  0
LINE
  5
BD8
330
19
100
AcDbEntity
  8
TitleBlock&Notes
  6
Continuous
 62
     3
100
AcDbLine
 10
15.87266065319596
 20
-5.378045764385863
 30
0.0
 11
16.11949116656108
 21
-5.373737315335947
 31
0.0
  0
LINE
  5
BD9
330
19
100
AcDbEntity
  8
TitleBlock&Notes
  6
Continuous
 62
     3
100
AcDbLine
 10
15.87266065319596
 20
-5.395999812023553
 30
0.0
 11
16.11949116656108
 21
-5.391691362973638
 31
0.0
  0
LINE
  5
BDA
330
19
100
AcDbEntity
  8
TitleBlock&Notes
  6
Continuous
 62
     3
100
AcDbLine
 10
15.87266065319596
 20
-5.413953859661258
 30
0.0
 11
16.11949116656108
 21
-5.409645410611346
 31
0.0
  0
LINE
  5
BDB
330
19
100
AcDbEntity
  8
TitleBlock&Notes
  6
Continuous
 62
     3
100
AcDbLine
 10
15.87266065319596
 20
-5.431907907298967
 30
0.0
 11
16.11949116656108
 21
-5.427599458249041
 31
0.0
  0
LINE
  5
BDC
330
19
100
AcDbEntity
  8
TitleBlock&Notes
  6
Continuous
 62
     3
100
AcDbLine
 10
15.87266065319596
 20
-5.449861954936661
 30
0.0
 11
16.11949116656108
 21
-5.445553505886735
 31
0.0
  0
LINE
  5
BDD
330
19
100
AcDbEntity
  8
TitleBlock&Notes
  6
Continuous
 62
     3
100
AcDbLine
 10
15.87266065319596
 20
-5.068845039825088
 30
0.0
 11
16.11949116656108
 21
-5.064536590775173
 31
0.0
  0
LINE
  5
BDE
330
19
100
AcDbEntity
  8
TitleBlock&Notes
  6
Continuous
 62
     3
100
AcDbLine
 10
15.87266065319596
 20
-5.086799087462793
 30
0.0
 11
16.11949116656108
 21
-5.082490638412867
 31
0.0
  0
LINE
  5
BDF
330
19
100
AcDbEntity
  8
TitleBlock&Notes
  6
Continuous
 62
     3
100
AcDbLine
 10
15.87266065319596
 20
-5.104753135100487
 30
0.0
 11
16.11949116656108
 21
-5.100444686050561
 31
0.0
  0
LINE
  5
BE0
330
19
100
AcDbEntity
  8
TitleBlock&Notes
  6
Continuous
 62
     3
100
AcDbLine
 10
15.87266065319596
 20
-5.122707182738182
 30
0.0
 11
16.11949116656108
 21
-5.118398733688266
 31
0.0
  0
LINE
  5
BE1
330
19
100
AcDbEntity
  8
TitleBlock&Notes
  6
Continuous
 62
     3
100
AcDbLine
 10
15.87266065319596
 20
-5.140661230375886
 30
0.0
 11
16.11949116656108
 21
-5.13635278132596
 31
0.0
  0
LINE
  5
BE2
330
19
100
AcDbEntity
  8
TitleBlock&Notes
  6
Continuous
 62
     3
100
AcDbLine
 10
15.87266065319596
 20
-5.158615278013581
 30
0.0
 11
16.11949116656108
 21
-5.154306828963665
 31
0.0
  0
LINE
  5
BE3
330
19
100
AcDbEntity
  8
TitleBlock&Notes
  6
Continuous
 62
     3
100
AcDbLine
 10
15.87266065319596
 20
-5.1765693256513
 30
0.0
 11
16.11949116656108
 21
-5.172260876601356
 31
0.0
  0
LINE
  5
BE4
330
19
100
AcDbEntity
  8
TitleBlock&Notes
  6
Continuous
 62
     3
100
AcDbLine
 10
15.87266065319596
 20
-5.194523373288991
 30
0.0
 11
16.11949116656108
 21
-5.190214924239054
 31
0.0
  0
LINE
  5
BE5
330
19
100
AcDbEntity
  8
TitleBlock&Notes
  6
Continuous
 62
     3
100
AcDbLine
 10
15.87266065319596
 20
-5.212477420926674
 30
0.0
 11
16.11949116656108
 21
-5.208168971876759
 31
0.0
  0
LINE
  5
BE6
330
19
100
AcDbEntity
  8
TitleBlock&Notes
  6
Continuous
 62
     3
100
AcDbLine
 10
15.87266065319596
 20
-5.23043146856439
 30
0.0
 11
16.11949116656108
 21
-5.226123019514453
 31
0.0
  0
LINE
  5
BE7
330
19
100
AcDbEntity
  8
TitleBlock&Notes
  6
Continuous
 62
     3
100
AcDbLine
 10
15.87266065319596
 20
-5.248385516202084
 30
0.0
 11
16.11949116656108
 21
-5.244077067152169
 31
0.0
  0
LINE
  5
BE8
330
19
100
AcDbEntity
  8
TitleBlock&Notes
  6
Continuous
 62
     3
100
AcDbLine
 10
15.87266065319596
 20
-5.342137669110474
 30
0.0
 11
15.97996694276742
 21
-5.340264629418506
 31
0.0
  0
LINE
  5
BE9
330
19
100
AcDbEntity
  8
TitleBlock&Notes
  6
Continuous
 62
     3
100
AcDbLine
 10
15.44631703920173
 20
-4.30930110118593
 30
0.0
 11
15.87266065319596
 21
-4.30930110118593
 31
0.0
  0
LINE
  5
BEA
330
19
100
AcDbEntity
  8
TitleBlock&Notes
  6
Continuous
 62
     3
100
AcDbLine
 10
15.31168221372987
 20
-4.589348628934889
 30
0.0
 11
15.44631703920173
 21
-4.589348628934889
 31
0.0
  0
LINE
  5
BEB
330
19
100
AcDbEntity
  8
TitleBlock&Notes
  6
Continuous
 62
     3
100
AcDbLine
 10
15.31168221372987
 20
-4.522031216198943
 30
0.0
 11
15.44631703920173
 21
-4.522031216198943
 31
0.0
  0
LINE
  5
BEC
330
19
100
AcDbEntity
  8
TitleBlock&Notes
  6
Continuous
 62
     3
100
AcDbLine
 10
15.31168221372987
 20
-4.566909491356245
 30
0.0
 11
15.44631703920173
 21
-4.566909491356245
 31
0.0
  0
LINE
  5
BED
330
19
100
AcDbEntity
  8
TitleBlock&Notes
  6
Continuous
 62
     3
100
AcDbLine
 10
15.31168221372987
 20
-4.544470353777608
 30
0.0
 11
15.44631703920173
 21
-4.544470353777608
 31
0.0
  0
LINE
  5
BEE
330
19
100
AcDbEntity
  8
TitleBlock&Notes
  6
Continuous
 62
     3
100
AcDbLine
 10
15.26680393857262
 20
-4.354179376343221
 30
0.0
 11
15.26680393857262
 21
-4.690766440022883
 31
0.0
  0
LINE
  5
BEF
330
19
100
AcDbEntity
  8
TitleBlock&Notes
  6
Continuous
 62
     3
100
AcDbLine
 10
15.31168221372987
 20
-4.735644715180164
 30
0.0
 11
15.31168221372987
 21
-4.30930110118593
 31
0.0
  0
LINE
  5
BF0
330
19
100
AcDbEntity
  8
TitleBlock&Notes
  6
Continuous
 62
     3
100
AcDbLine
 10
15.28924307615126
 20
-4.713205577601524
 30
0.0
 11
15.28924307615126
 21
-4.331740238764584
 31
0.0
  0
LINE
  5
BF1
330
19
100
AcDbEntity
  8
TitleBlock&Notes
  6
Continuous
 62
     3
100
AcDbLine
 10
15.49119531435904
 20
-4.354179376343221
 30
0.0
 11
15.8277823780387
 21
-4.354179376343221
 31
0.0
  0
LINE
  5
BF2
330
19
100
AcDbEntity
  8
TitleBlock&Notes
  6
Continuous
 62
     3
100
AcDbLine
 10
15.46875617678042
 20
-4.331740238764584
 30
0.0
 11
15.85022151561735
 21
-4.331740238764584
 31
0.0
  0
TEXT
  5
BF3
330
19
100
AcDbEntity
  8
TitleBlock&Notes
  6
Continuous
 62
     3
100
AcDbText
 10
23.58471316707646
 20
-6.706878280907254
 30
0.0
 40
0.2872209610066434
  1
(905) 951-0670 
 41
1.282051279999999
100
AcDbText
  0
TEXT
  5
BF4
330
19
100
AcDbEntity
  8
TitleBlock&Notes
  6
Continuous
 62
     3
100
AcDbText
 10
22.80036041611129
 20
-7.211638561556515
 30
0.0
 40
0.2872209610066434
  1
FAX (905) 951-0672
 41
1.282051279999999
100
AcDbText
  0
TEXT
  5
BF5
330
19
100
AcDbEntity
  8
TitleBlock&Notes
  6
Continuous
 62
     3
100
AcDbText
 10
22.3071089318336
 20
-4.268853526305722
 30
0.0
 40
0.6731741273593205
  1
MULTICYL  Inc.
 41
0.85470085
100
AcDbText
  0
TEXT
  5
BF6
330
19
100
AcDbEntity
  8
TitleBlock&Notes
  6
Continuous
 62
     3
100
AcDbText
 10
22.89169964015732
 20
-4.948485596610971
 30
0.0
 40
0.3590262012583044
  1
640 Hardwick Road, Unit 5
 41
0.7000000000000001
100
AcDbText
  0
CIRCLE
  5
BF7
330
19
100
AcDbEntity
  8
TitleBlock&Notes
  6
Continuous
 62
     3
100
AcDbCircle
 10
20.33601712256012
 20
-4.645888164865606
 30
0.0
 40
0.2804892197330502
  0
LINE
  5
BF8
330
19
100
AcDbEntity
  8
TitleBlock&Notes
  6
Continuous
 62
     3
100
AcDbLine
 10
17.28180730273361
 20
-6.665410546943547
 30
0.0
 11
21.1478898480851
 21
-6.597927847520207
 31
0.0
  0
LINE
  5
BF9
330
19
100
AcDbEntity
  8
TitleBlock&Notes
  6
Continuous
 62
     3
100
AcDbLine
 10
18.31039385312246
 20
-6.665410546943547
 30
0.0
 11
21.1478898480851
 21
-6.615881895157926
 31
0.0
  0
LINE
  5
BFA
330
19
100
AcDbEntity
  8
TitleBlock&Notes
  6
Continuous
 62
     3
100
AcDbLine
 10
19.41804439062174
 20
-6.32882348326391
 30
0.0
 11
20.60731868228988
 21
-6.32882348326391
 31
0.0
  0
LINE
  5
BFB
330
19
100
AcDbEntity
  8
TitleBlock&Notes
  6
Continuous
 62
     3
100
AcDbLine
 10
19.37316611546444
 20
-6.373701758421191
 30
0.0
 11
20.65219695744721
 21
-6.373701758421191
 31
0.0
  0
LINE
  5
BFC
330
19
100
AcDbEntity
  8
TitleBlock&Notes
  6
Continuous
 62
     3
100
AcDbLine
 10
19.39560525304313
 20
-6.351262620842547
 30
0.0
 11
20.62975781986852
 21
-6.351262620842547
 31
0.0
  0
LINE
  5
BFD
330
19
100
AcDbEntity
  8
TitleBlock&Notes
  6
Continuous
 62
     3
100
AcDbLine
 10
19.33898035863306
 20
-6.665410546943547
 30
0.0
 11
21.1478898480851
 21
-6.633835942795627
 31
0.0
  0
LINE
  5
BFE
330
19
100
AcDbEntity
  8
TitleBlock&Notes
  6
Continuous
 62
     3
100
AcDbLine
 10
19.75463145430142
 20
-5.992236419584237
 30
0.0
 11
20.60731868228988
 21
-5.992236419584237
 31
0.0
  0
LINE
  5
BFF
330
19
100
AcDbEntity
  8
TitleBlock&Notes
  6
Continuous
 62
     3
100
AcDbLine
 10
20.65219695744721
 20
-5.947358144426956
 30
0.0
 11
19.79950972945867
 21
-5.947358144426956
 31
0.0
  0
LINE
  5
C00
330
19
100
AcDbEntity
  8
TitleBlock&Notes
  6
Continuous
 62
     3
100
AcDbLine
 10
21.1478898480851
 20
-5.781979950219614
 30
0.0
 11
19.79950972945867
 21
-5.781979950219604
 31
0.0
  0
LINE
  5
C01
330
19
100
AcDbEntity
  8
TitleBlock&Notes
  6
Continuous
 62
     3
100
AcDbLine
 10
19.79950972945867
 20
-5.795577843200902
 30
0.0
 11
20.57853317318643
 21
-5.781979950219614
 31
0.0
  0
LINE
  5
C02
330
19
100
AcDbEntity
  8
TitleBlock&Notes
  6
Continuous
 62
     3
100
AcDbLine
 10
19.79950972945867
 20
-5.813531890838596
 30
0.0
 11
21.1478898480851
 21
-5.789995838458551
 31
0.0
  0
LINE
  5
C03
330
19
100
AcDbEntity
  8
TitleBlock&Notes
  6
Continuous
 62
     3
100
AcDbLine
 10
19.79950972945867
 20
-5.831485938476294
 30
0.0
 11
21.1478898480851
 21
-5.80794988609626
 31
0.0
  0
LINE
  5
C04
330
19
100
AcDbEntity
  8
TitleBlock&Notes
  6
Continuous
 62
     3
100
AcDbLine
 10
19.79950972945867
 20
-5.849439986113999
 30
0.0
 11
21.1478898480851
 21
-5.82590393373395
 31
0.0
  0
LINE
  5
C05
330
19
100
AcDbEntity
  8
TitleBlock&Notes
  6
Continuous
 62
     3
100
AcDbLine
 10
19.79950972945867
 20
-5.86739403375169
 30
0.0
 11
21.1478898480851
 21
-5.843857981371645
 31
0.0
  0
LINE
  5
C06
330
19
100
AcDbEntity
  8
TitleBlock&Notes
  6
Continuous
 62
     3
100
AcDbLine
 10
19.79950972945867
 20
-5.885348081389395
 30
0.0
 11
21.1478898480851
 21
-5.861812029009364
 31
0.0
  0
LINE
  5
C07
330
19
100
AcDbEntity
  8
TitleBlock&Notes
  6
Continuous
 62
     3
100
AcDbLine
 10
19.79950972945867
 20
-5.903302129027089
 30
0.0
 11
21.1478898480851
 21
-5.879766076647054
 31
0.0
  0
LINE
  5
C08
330
19
100
AcDbEntity
  8
TitleBlock&Notes
  6
Continuous
 62
     3
100
AcDbLine
 10
19.79950972945867
 20
-5.921256176664783
 30
0.0
 11
21.1478898480851
 21
-5.897720124284759
 31
0.0
  0
LINE
  5
C09
330
19
100
AcDbEntity
  8
TitleBlock&Notes
  6
Continuous
 62
     3
100
AcDbLine
 10
19.79950972945867
 20
-5.939210224302488
 30
0.0
 11
21.1478898480851
 21
-5.915674127044177
 31
0.0
  0
LINE
  5
C0A
330
19
100
AcDbEntity
  8
TitleBlock&Notes
  6
Continuous
 62
     3
100
AcDbLine
 10
20.62975781986852
 20
-5.969797282005593
 30
0.0
 11
19.77707059188006
 21
-5.969797282005593
 31
0.0
  0
LINE
  5
C0B
330
19
100
AcDbEntity
  8
TitleBlock&Notes
  6
Continuous
 62
     3
100
AcDbLine
 10
21.1478898480851
 20
-4.942720885575788
 30
0.0
 11
19.79950972945867
 21
-4.942720885575788
 31
0.0
  0
LINE
  5
C0C
330
19
100
AcDbEntity
  8
TitleBlock&Notes
  6
Continuous
 62
     3
100
AcDbLine
 10
21.1478898480851
 20
-5.031063949735997
 30
0.0
 11
19.79950972945867
 21
-5.031063949735997
 31
0.0
  0
LINE
  5
C0D
330
19
100
AcDbEntity
  8
TitleBlock&Notes
  6
Continuous
 62
     3
100
AcDbLine
 10
21.1478898480851
 20
-5.251921565258278
 30
0.0
 11
19.79950972945867
 21
-5.251921565258278
 31
0.0
  0
LINE
  5
C0E
330
19
100
AcDbEntity
  8
TitleBlock&Notes
  6
Continuous
 62
     3
100
AcDbLine
 10
21.1478898480851
 20
-5.340264629418506
 30
0.0
 11
19.79950972945867
 21
-5.340264629418506
 31
0.0
  0
LINE
  5
C0F
330
19
100
AcDbEntity
  8
TitleBlock&Notes
  6
Continuous
 62
     3
100
AcDbLine
 10
21.1478898480851
 20
-5.69363688605939
 30
0.0
 11
19.79950972945867
 21
-5.69363688605939
 31
0.0
  0
LINE
  5
C10
330
19
100
AcDbEntity
  8
TitleBlock&Notes
  6
Continuous
 62
     3
100
AcDbLine
 10
19.79950972945867
 20
-5.363364509842288
 30
0.0
 11
21.12289956007682
 21
-5.340264629418506
 31
0.0
  0
LINE
  5
C11
330
19
100
AcDbEntity
  8
TitleBlock&Notes
  6
Continuous
 62
     3
100
AcDbLine
 10
19.79950972945867
 20
-5.381318557479982
 30
0.0
 11
21.1478898480851
 21
-5.357782460221681
 31
0.0
  0
LINE
  5
C12
330
19
100
AcDbEntity
  8
TitleBlock&Notes
  6
Continuous
 62
     3
100
AcDbLine
 10
19.79950972945867
 20
-5.399272605117687
 30
0.0
 11
21.1478898480851
 21
-5.375736507859372
 31
0.0
  0
LINE
  5
C13
330
19
100
AcDbEntity
  8
TitleBlock&Notes
  6
Continuous
 62
     3
100
AcDbLine
 10
19.79950972945867
 20
-5.417226652755381
 30
0.0
 11
21.1478898480851
 21
-5.393690555497066
 31
0.0
  0
LINE
  5
C14
330
19
100
AcDbEntity
  8
TitleBlock&Notes
  6
Continuous
 62
     3
100
AcDbLine
 10
19.79950972945867
 20
-5.435180655514816
 30
0.0
 11
21.1478898480851
 21
-5.411644603134774
 31
0.0
  0
LINE
  5
C15
330
19
100
AcDbEntity
  8
TitleBlock&Notes
  6
Continuous
 62
     3
100
AcDbLine
 10
19.79950972945867
 20
-5.453134703152514
 30
0.0
 11
21.1478898480851
 21
-5.429598650772469
 31
0.0
  0
LINE
  5
C16
330
19
100
AcDbEntity
  8
TitleBlock&Notes
  6
Continuous
 62
     3
100
AcDbLine
 10
19.79950972945867
 20
-5.471088750790194
 30
0.0
 11
21.1478898480851
 21
-5.447552698410174
 31
0.0
  0
LINE
  5
C17
330
19
100
AcDbEntity
  8
TitleBlock&Notes
  6
Continuous
 62
     3
100
AcDbLine
 10
19.79950972945867
 20
-5.489042798427913
 30
0.0
 11
21.1478898480851
 21
-5.465506746047864
 31
0.0
  0
LINE
  5
C18
330
19
100
AcDbEntity
  8
TitleBlock&Notes
  6
Continuous
 62
     3
100
AcDbLine
 10
19.79950972945867
 20
-5.506996846065618
 30
0.0
 11
21.1478898480851
 21
-5.483460793685559
 31
0.0
  0
LINE
  5
C19
330
19
100
AcDbEntity
  8
TitleBlock&Notes
  6
Continuous
 62
     3
100
AcDbLine
 10
19.79950972945867
 20
-5.524950893703312
 30
0.0
 11
21.1478898480851
 21
-5.501414841323278
 31
0.0
  0
LINE
  5
C1A
330
19
100
AcDbEntity
  8
TitleBlock&Notes
  6
Continuous
 62
     3
100
AcDbLine
 10
19.79950972945867
 20
-5.542904941341003
 30
0.0
 11
21.1478898480851
 21
-5.519368888960958
 31
0.0
  0
LINE
  5
C1B
330
19
100
AcDbEntity
  8
TitleBlock&Notes
  6
Continuous
 62
     3
100
AcDbLine
 10
19.79950972945867
 20
-5.560858988978697
 30
0.0
 11
21.1478898480851
 21
-5.537322936598677
 31
0.0
  0
LINE
  5
C1C
330
19
100
AcDbEntity
  8
TitleBlock&Notes
  6
Continuous
 62
     3
100
AcDbLine
 10
19.79950972945867
 20
-5.578813036616406
 30
0.0
 11
21.1478898480851
 21
-5.555276984236371
 31
0.0
  0
LINE
  5
C1D
330
19
100
AcDbEntity
  8
TitleBlock&Notes
  6
Continuous
 62
     3
100
AcDbLine
 10
19.79950972945867
 20
-5.596767084254111
 30
0.0
 11
21.1478898480851
 21
-5.573231031874065
 31
0.0
  0
LINE
  5
C1E
330
19
100
AcDbEntity
  8
TitleBlock&Notes
  6
Continuous
 62
     3
100
AcDbLine
 10
19.79950972945867
 20
-5.614721131891805
 30
0.0
 11
21.1478898480851
 21
-5.59118507951177
 31
0.0
  0
LINE
  5
C1F
330
19
100
AcDbEntity
  8
TitleBlock&Notes
  6
Continuous
 62
     3
100
AcDbLine
 10
19.79950972945867
 20
-5.632675179529496
 30
0.0
 11
21.1478898480851
 21
-5.609139082271195
 31
0.0
  0
LINE
  5
C20
330
19
100
AcDbEntity
  8
TitleBlock&Notes
  6
Continuous
 62
     3
100
AcDbLine
 10
19.79950972945867
 20
-5.650629227167215
 30
0.0
 11
21.1478898480851
 21
-5.627093129908889
 31
0.0
  0
LINE
  5
C21
330
19
100
AcDbEntity
  8
TitleBlock&Notes
  6
Continuous
 62
     3
100
AcDbLine
 10
19.79950972945867
 20
-5.668583274804909
 30
0.0
 11
21.1478898480851
 21
-5.645047177546587
 31
0.0
  0
LINE
  5
C22
330
19
100
AcDbEntity
  8
TitleBlock&Notes
  6
Continuous
 62
     3
100
AcDbLine
 10
19.79950972945867
 20
-5.686537322442614
 30
0.0
 11
21.1478898480851
 21
-5.663001225184292
 31
0.0
  0
LINE
  5
C23
330
19
100
AcDbEntity
  8
TitleBlock&Notes
  6
Continuous
 62
     3
100
AcDbLine
 10
19.79950972945867
 20
-5.054163785281502
 30
0.0
 11
21.12289956007682
 21
-5.031063949735997
 31
0.0
  0
LINE
  5
C24
330
19
100
AcDbEntity
  8
TitleBlock&Notes
  6
Continuous
 62
     3
100
AcDbLine
 10
19.79950972945867
 20
-5.072117832919207
 30
0.0
 11
21.1478898480851
 21
-5.048581780539159
 31
0.0
  0
LINE
  5
C25
330
19
100
AcDbEntity
  8
TitleBlock&Notes
  6
Continuous
 62
     3
100
AcDbLine
 10
19.79950972945867
 20
-5.090071880556912
 30
0.0
 11
21.1478898480851
 21
-5.066535828176853
 31
0.0
  0
LINE
  5
C26
330
19
100
AcDbEntity
  8
TitleBlock&Notes
  6
Continuous
 62
     3
100
AcDbLine
 10
19.79950972945867
 20
-5.108025928194606
 30
0.0
 11
21.1478898480851
 21
-5.084489875814572
 31
0.0
  0
LINE
  5
C27
330
19
100
AcDbEntity
  8
TitleBlock&Notes
  6
Continuous
 62
     3
100
AcDbLine
 10
19.79950972945867
 20
-5.125979975832301
 30
0.0
 11
21.1478898480851
 21
-5.102443878574
 31
0.0
  0
LINE
  5
C28
330
19
100
AcDbEntity
  8
TitleBlock&Notes
  6
Continuous
 62
     3
100
AcDbLine
 10
19.79950972945867
 20
-5.143934023470006
 30
0.0
 11
21.1478898480851
 21
-5.120397926211694
 31
0.0
  0
LINE
  5
C29
330
19
100
AcDbEntity
  8
TitleBlock&Notes
  6
Continuous
 62
     3
100
AcDbLine
 10
19.79950972945867
 20
-5.1618880711077
 30
0.0
 11
21.1478898480851
 21
-5.138351973849385
 31
0.0
  0
LINE
  5
C2A
330
19
100
AcDbEntity
  8
TitleBlock&Notes
  6
Continuous
 62
     3
100
AcDbLine
 10
19.79950972945867
 20
-5.179842073867138
 30
0.0
 11
21.1478898480851
 21
-5.15630602148709
 31
0.0
  0
LINE
  5
C2B
330
19
100
AcDbEntity
  8
TitleBlock&Notes
  6
Continuous
 62
     3
100
AcDbLine
 10
19.79950972945867
 20
-5.197796121504829
 30
0.0
 11
21.1478898480851
 21
-5.174260069124784
 31
0.0
  0
LINE
  5
C2C
330
19
100
AcDbEntity
  8
TitleBlock&Notes
  6
Continuous
 62
     3
100
AcDbLine
 10
19.79950972945867
 20
-5.215750169142538
 30
0.0
 11
21.1478898480851
 21
-5.192214116762492
 31
0.0
  0
LINE
  5
C2D
330
19
100
AcDbEntity
  8
TitleBlock&Notes
  6
Continuous
 62
     3
100
AcDbLine
 10
19.79950972945867
 20
-5.233704216780232
 30
0.0
 11
21.1478898480851
 21
-5.210168164400187
 31
0.0
  0
LINE
  5
C2E
330
19
100
AcDbEntity
  8
TitleBlock&Notes
  6
Continuous
 62
     3
100
AcDbLine
 10
19.79950972945867
 20
-5.251658264417937
 30
0.0
 11
21.1478898480851
 21
-5.228122212037877
 31
0.0
  0
LINE
  5
C2F
330
19
100
AcDbEntity
  8
TitleBlock&Notes
  6
Continuous
 62
     3
100
AcDbLine
 10
19.79950972945867
 20
-4.899256096572841
 30
0.0
 11
20.21568877315603
 21
-4.899256096572841
 31
0.0
  0
LINE
  5
C30
330
19
100
AcDbEntity
  8
TitleBlock&Notes
  6
Continuous
 62
     3
100
AcDbLine
 10
19.79950972945867
 20
-4.921695234151478
 30
0.0
 11
20.28498105439024
 21
-4.921695234151478
 31
0.0
  0
LINE
  5
C31
330
19
100
AcDbEntity
  8
TitleBlock&Notes
  6
Continuous
 62
     3
100
AcDbLine
 10
18.76881928553049
 20
-5.453171458459877
 30
0.0
 11
19.37316611546444
 21
-5.442622550614483
 31
0.0
  0
LINE
  5
C32
330
19
100
AcDbEntity
  8
TitleBlock&Notes
  6
Continuous
 62
     3
100
AcDbLine
 10
19.41804439062174
 20
-6.32882348326391
 30
0.0
 11
19.41804439062174
 21
-4.354179376343221
 31
0.0
  0
LINE
  5
C33
330
19
100
AcDbEntity
  8
TitleBlock&Notes
  6
Continuous
 62
     3
100
AcDbLine
 10
19.37316611546444
 20
-4.30930110118593
 30
0.0
 11
19.37316611546444
 21
-6.373701758421191
 31
0.0
  0
LINE
  5
C34
330
19
100
AcDbEntity
  8
TitleBlock&Notes
  6
Continuous
 62
     3
100
AcDbLine
 10
19.39560525304313
 20
-4.331740238764584
 30
0.0
 11
19.39560525304313
 21
-6.351262620842547
 31
0.0
  0
LINE
  5
C35
330
19
100
AcDbEntity
  8
TitleBlock&Notes
  6
Continuous
 62
     3
100
AcDbLine
 10
18.63267457536922
 20
-5.655649355904575
 30
0.0
 11
19.19365301483532
 21
-4.354179376343221
 31
0.0
  0
LINE
  5
C36
330
19
100
AcDbEntity
  8
TitleBlock&Notes
  6
Continuous
 62
     3
100
AcDbLine
 10
18.67755285052648
 20
-5.664909628957076
 30
0.0
 11
19.26186682623924
 21
-4.30930110118593
 31
0.0
  0
LINE
  5
C37
330
19
100
AcDbEntity
  8
TitleBlock&Notes
  6
Continuous
 62
     3
100
AcDbLine
 10
18.65511371294783
 20
-5.660279492430824
 30
0.0
 11
19.22775992053726
 21
-4.331740238764584
 31
0.0
  0
LINE
  5
C38
330
19
100
AcDbEntity
  8
TitleBlock&Notes
  6
Continuous
 62
     3
100
AcDbLine
 10
19.75463145430142
 20
-4.354179376343221
 30
0.0
 11
19.75463145430142
 21
-5.992236419584237
 31
0.0
  0
LINE
  5
C39
330
19
100
AcDbEntity
  8
TitleBlock&Notes
  6
Continuous
 62
     3
100
AcDbLine
 10
19.79950972945867
 20
-5.947358144426956
 30
0.0
 11
19.79950972945867
 21
-4.30930110118593
 31
0.0
  0
LINE
  5
C3A
330
19
100
AcDbEntity
  8
TitleBlock&Notes
  6
Continuous
 62
     3
100
AcDbLine
 10
19.77707059188006
 20
-5.969797282005593
 30
0.0
 11
19.77707059188006
 21
-4.331740238764584
 31
0.0
  0
LINE
  5
C3B
330
19
100
AcDbEntity
  8
TitleBlock&Notes
  6
Continuous
 62
     3
100
AcDbLine
 10
18.29608751168954
 20
-5.655649355904575
 30
0.0
 11
17.73510907222346
 21
-4.354179376343221
 31
0.0
  0
LINE
  5
C3C
330
19
100
AcDbEntity
  8
TitleBlock&Notes
  6
Continuous
 62
     3
100
AcDbLine
 10
17.66689521594121
 20
-4.30930110118593
 30
0.0
 11
18.25120923653224
 21
-5.664909628957076
 31
0.0
  0
LINE
  5
C3D
330
19
100
AcDbEntity
  8
TitleBlock&Notes
  6
Continuous
 62
     3
100
AcDbLine
 10
17.7010021216432
 20
-4.331740238764584
 30
0.0
 11
18.27364837411093
 21
-5.660279492430824
 31
0.0
  0
LINE
  5
C3E
330
19
100
AcDbEntity
  8
TitleBlock&Notes
  6
Continuous
 62
     3
100
AcDbLine
 10
18.25120923653224
 20
-6.373701758421191
 30
0.0
 11
18.67755285052648
 21
-6.373701758421191
 31
0.0
  0
LINE
  5
C3F
330
19
100
AcDbEntity
  8
TitleBlock&Notes
  6
Continuous
 62
     3
100
AcDbLine
 10
18.29608751168954
 20
-6.32882348326391
 30
0.0
 11
18.63267457536922
 21
-6.32882348326391
 31
0.0
  0
LINE
  5
C40
330
19
100
AcDbEntity
  8
TitleBlock&Notes
  6
Continuous
 62
     3
100
AcDbLine
 10
18.65511371294783
 20
-6.351262620842547
 30
0.0
 11
18.27364837411093
 21
-6.351262620842547
 31
0.0
  0
TEXT
  5
C41
330
19
100
AcDbEntity
  8
TitleBlock&Notes
  6
Continuous
 62
     3
100
AcDbText
 10
17.23852287951852
 20
-7.419297399486023
 30
0.0
 40
0.3141479261010163
  1
 HYDRAULICS
 41
0.8
 51
11.0
100
AcDbText
  0
TEXT
  5
C42
330
19
100
AcDbEntity
  8
TitleBlock&Notes
  6
Continuous
 62
     3
100
AcDbText
 10
16.53317767085617
 20
-7.419297399486023
 30
0.0
 40
0.3141479261010163
  1
 of
 41
0.8
 51
11.0
100
AcDbText
  0
LINE
  5
C43
330
19
100
AcDbEntity
  8
TitleBlock&Notes
  6
Continuous
 62
     3
100
AcDbLine
 10
17.73510907222346
 20
-5.610771080747284
 30
0.0
 11
17.39614906974483
 21
-5.610771080747284
 31
0.0
  0
LINE
  5
C44
330
19
100
AcDbEntity
  8
TitleBlock&Notes
  6
Continuous
 62
     3
100
AcDbLine
 10
17.37655265674946
 20
-5.588331943168643
 30
0.0
 11
17.75927992780559
 21
-5.588331943168643
 31
0.0
  0
LINE
  5
C45
330
19
100
AcDbEntity
  8
TitleBlock&Notes
  6
Continuous
 62
     3
100
AcDbLine
 10
17.44063039655835
 20
-6.213787180066308
 30
0.0
 11
18.25120923653224
 21
-6.199638496014028
 31
0.0
  0
LINE
  5
C46
330
19
100
AcDbEntity
  8
TitleBlock&Notes
  6
Continuous
 62
     3
100
AcDbLine
 10
17.41431723163334
 20
-6.232200511971978
 30
0.0
 11
18.25120923653224
 21
-6.217592498773456
 31
0.0
  0
LINE
  5
C47
330
19
100
AcDbEntity
  8
TitleBlock&Notes
  6
Continuous
 62
     3
100
AcDbLine
 10
17.38557516470021
 20
-6.250656253847665
 30
0.0
 11
18.25120923653224
 21
-6.23554654641115
 31
0.0
  0
LINE
  5
C48
330
19
100
AcDbEntity
  8
TitleBlock&Notes
  6
Continuous
 62
     3
100
AcDbLine
 10
17.35386350229996
 20
-6.269163830131155
 30
0.0
 11
18.25120923653224
 21
-6.253500594048869
 31
0.0
  0
LINE
  5
C49
330
19
100
AcDbEntity
  8
TitleBlock&Notes
  6
Continuous
 62
     3
100
AcDbLine
 10
17.31838053892514
 20
-6.28773724284429
 30
0.0
 11
18.25120923653224
 21
-6.27145464168656
 31
0.0
  0
LINE
  5
C4A
330
19
100
AcDbEntity
  8
TitleBlock&Notes
  6
Continuous
 62
     3
100
AcDbLine
 10
17.27784172370586
 20
-6.306398886246405
 30
0.0
 11
18.25120923653224
 21
-6.289408689324258
 31
0.0
  0
LINE
  5
C4B
330
19
100
AcDbEntity
  8
TitleBlock&Notes
  6
Continuous
 62
     3
100
AcDbLine
 10
17.22993133764416
 20
-6.325189195663398
 30
0.0
 11
18.25120923653224
 21
-6.307362736961959
 31
0.0
  0
LINE
  5
C4C
330
19
100
AcDbEntity
  8
TitleBlock&Notes
  6
Continuous
 62
     3
100
AcDbLine
 10
17.16952841051823
 20
-6.34419761349763
 30
0.0
 11
18.25120923653224
 21
-6.325316784599657
 31
0.0
  0
LINE
  5
C4D
330
19
100
AcDbEntity
  8
TitleBlock&Notes
  6
Continuous
 62
     3
100
AcDbLine
 10
17.07817118676362
 20
-6.363746276008225
 30
0.0
 11
18.25120923653224
 21
-6.343270832237362
 31
0.0
  0
LINE
  5
C4E
330
19
100
AcDbEntity
  8
TitleBlock&Notes
  6
Continuous
 62
     3
100
AcDbLine
 10
17.52799883921699
 20
-6.140445980847388
 30
0.0
 11
18.25120923653224
 21
-6.127822305463233
 31
0.0
  0
LINE
  5
C4F
330
19
100
AcDbEntity
  8
TitleBlock&Notes
  6
Continuous
 62
     3
100
AcDbLine
 10
17.50838793053878
 20
-6.158742315089725
 30
0.0
 11
18.25120923653224
 21
-6.145776353100938
 31
0.0
  0
LINE
  5
C50
330
19
100
AcDbEntity
  8
TitleBlock&Notes
  6
Continuous
 62
     3
100
AcDbLine
 10
17.48741267741748
 20
-6.177062524574431
 30
0.0
 11
18.25120923653224
 21
-6.163730400738629
 31
0.0
  0
LINE
  5
C51
330
19
100
AcDbEntity
  8
TitleBlock&Notes
  6
Continuous
 62
     3
100
AcDbLine
 10
17.46490007410245
 20
-6.195409526389411
 30
0.0
 11
18.25120923653224
 21
-6.181684448376337
 31
0.0
  0
LINE
  5
C52
330
19
100
AcDbEntity
  8
TitleBlock&Notes
  6
Continuous
 62
     3
100
AcDbLine
 10
17.35600244577218
 20
-5.565892805590003
 30
0.0
 11
17.78274973985154
 21
-5.565892805590003
 31
0.0
  0
LINE
  5
C53
330
19
100
AcDbEntity
  8
TitleBlock&Notes
  6
Continuous
 62
     3
100
AcDbLine
 10
17.45394856325061
 20
-5.565892805590003
 30
0.0
 11
18.20289467672444
 21
-5.552819898671508
 31
0.0
  0
LINE
  5
C54
330
19
100
AcDbEntity
  8
TitleBlock&Notes
  6
Continuous
 62
     3
100
AcDbLine
 10
17.56365871275249
 20
-6.103915468773848
 30
0.0
 11
18.25120923653224
 21
-6.091914210187848
 31
0.0
  0
LINE
  5
C55
330
19
100
AcDbEntity
  8
TitleBlock&Notes
  6
Continuous
 62
     3
100
AcDbLine
 10
17.54638448122693
 20
-6.122171008664064
 30
0.0
 11
18.25120923653224
 21
-6.109868257825539
 31
0.0
  0
LINE
  5
C56
330
19
100
AcDbEntity
  8
TitleBlock&Notes
  6
Continuous
 62
     3
100
AcDbLine
 10
17.60968596151036
 20
-6.049249914978886
 30
0.0
 11
18.25120923653224
 21
-6.038052067274726
 31
0.0
  0
LINE
  5
C57
330
19
100
AcDbEntity
  8
TitleBlock&Notes
  6
Continuous
 62
     3
100
AcDbLine
 10
17.59523596471867
 20
-6.067456178522959
 30
0.0
 11
18.25120923653224
 21
-6.056006114912435
 31
0.0
  0
LINE
  5
C58
330
19
100
AcDbEntity
  8
TitleBlock&Notes
  6
Continuous
 62
     3
100
AcDbLine
 10
17.5799160474413
 20
-6.085677610924047
 30
0.0
 11
18.25120923653224
 21
-6.073960162550129
 31
0.0
  0
LINE
  5
C59
330
19
100
AcDbEntity
  8
TitleBlock&Notes
  6
Continuous
 62
     3
100
AcDbLine
 10
16.76381789767548
 20
-5.90242816949669
 30
0.0
 11
17.14818546968862
 21
-5.895719046873768
 31
0.0
  0
LINE
  5
C5A
330
19
100
AcDbEntity
  8
TitleBlock&Notes
  6
Continuous
 62
     3
100
AcDbLine
 10
16.80225838426149
 20
-5.919711242042506
 30
0.0
 11
17.11037157358036
 21
-5.914333119304203
 31
0.0
  0
LINE
  5
C5B
330
19
100
AcDbEntity
  8
TitleBlock&Notes
  6
Continuous
 62
     3
100
AcDbLine
 10
16.85719002134987
 20
-5.936706465331468
 30
0.0
 11
17.05606652696973
 21
-5.933235040991505
 31
0.0
  0
LINE
  5
C5C
330
19
100
AcDbEntity
  8
TitleBlock&Notes
  6
Continuous
 62
     3
100
AcDbLine
 10
18.29608751168954
 20
-6.32882348326391
 30
0.0
 11
18.29608751168954
 21
-5.655649355904575
 31
0.0
  0
LINE
  5
C5D
330
19
100
AcDbEntity
  8
TitleBlock&Notes
  6
Continuous
 62
     3
100
AcDbLine
 10
18.25120923653224
 20
-5.664909628957076
 30
0.0
 11
18.25120923653224
 21
-6.373701758421191
 31
0.0
  0
LINE
  5
C5E
330
19
100
AcDbEntity
  8
TitleBlock&Notes
  6
Continuous
 62
     3
100
AcDbLine
 10
18.27364837411093
 20
-6.351262620842547
 30
0.0
 11
18.27364837411093
 21
-5.660279492430824
 31
0.0
  0
LINE
  5
C5F
330
19
100
AcDbEntity
  8
TitleBlock&Notes
  6
Continuous
 62
     3
100
AcDbLine
 10
17.78228435213812
 20
-5.578115762855293
 30
0.0
 11
18.21057572815247
 21
-5.570639894901315
 31
0.0
  0
LINE
  5
C60
330
19
100
AcDbEntity
  8
TitleBlock&Notes
  6
Continuous
 62
     3
100
AcDbLine
 10
17.78127342411193
 20
-5.596087447655122
 30
0.0
 11
18.21825673470219
 21
-5.588459846252856
 31
0.0
  0
LINE
  5
C61
330
19
100
AcDbEntity
  8
TitleBlock&Notes
  6
Continuous
 62
     3
100
AcDbLine
 10
17.77987169606565
 20
-5.614065953952781
 30
0.0
 11
18.2259377412519
 21
-5.606279842482649
 31
0.0
  0
LINE
  5
C62
330
19
100
AcDbEntity
  8
TitleBlock&Notes
  6
Continuous
 62
     3
100
AcDbLine
 10
17.77807665481591
 20
-5.632051326626555
 30
0.0
 11
18.2336187926799
 21
-5.624099793834179
 31
0.0
  0
LINE
  5
C63
330
19
100
AcDbEntity
  8
TitleBlock&Notes
  6
Continuous
 62
     3
100
AcDbLine
 10
17.77588542815309
 20
-5.650043610554682
 30
0.0
 11
18.2412997992296
 21
-5.641919790063987
 31
0.0
  0
LINE
  5
C64
330
19
100
AcDbEntity
  8
TitleBlock&Notes
  6
Continuous
 62
     3
100
AcDbLine
 10
17.74733027923601
 20
-5.781979950219604
 30
0.0
 11
18.25120923653224
 21
-5.781979950219604
 31
0.0
  0
LINE
  5
C65
330
19
100
AcDbEntity
  8
TitleBlock&Notes
  6
Continuous
 62
     3
100
AcDbLine
 10
17.74308690368506
 20
-5.795564738744548
 30
0.0
 11
18.25120923653224
 21
-5.786695445225209
 31
0.0
  0
LINE
  5
C66
330
19
100
AcDbEntity
  8
TitleBlock&Notes
  6
Continuous
 62
     3
100
AcDbLine
 10
17.73704758931884
 20
-5.813624205450587
 30
0.0
 11
18.25120923653224
 21
-5.804649492862914
 31
0.0
  0
LINE
  5
C67
330
19
100
AcDbEntity
  8
TitleBlock&Notes
  6
Continuous
 62
     3
100
AcDbLine
 10
17.73054091259516
 20
-5.831691840002719
 30
0.0
 11
18.25120923653224
 21
-5.822603540500612
 31
0.0
  0
LINE
  5
C68
330
19
100
AcDbEntity
  8
TitleBlock&Notes
  6
Continuous
 62
     3
100
AcDbLine
 10
17.72355453198839
 20
-5.849767821914028
 30
0.0
 11
18.25120923653224
 21
-5.840557588138317
 31
0.0
  0
LINE
  5
C69
330
19
100
AcDbEntity
  8
TitleBlock&Notes
  6
Continuous
 62
     3
100
AcDbLine
 10
17.71607453523307
 20
-5.867852420454148
 30
0.0
 11
18.25120923653224
 21
-5.858511635776011
 31
0.0
  0
LINE
  5
C6A
330
19
100
AcDbEntity
  8
TitleBlock&Notes
  6
Continuous
 62
     3
100
AcDbLine
 10
17.70808557395923
 20
-5.885945949771034
 30
0.0
 11
18.25120923653224
 21
-5.876465683413702
 31
0.0
  0
LINE
  5
C6B
330
19
100
AcDbEntity
  8
TitleBlock&Notes
  6
Continuous
 62
     3
100
AcDbLine
 10
17.69957068417879
 20
-5.904048589377772
 30
0.0
 11
18.25120923653224
 21
-5.89441973105141
 31
0.0
  0
LINE
  5
C6C
330
19
100
AcDbEntity
  8
TitleBlock&Notes
  6
Continuous
 62
     3
100
AcDbLine
 10
17.6905107926249
 20
-5.922160788057137
 30
0.0
 11
18.25120923653224
 21
-5.912373778689101
 31
0.0
  0
LINE
  5
C6D
330
19
100
AcDbEntity
  8
TitleBlock&Notes
  6
Continuous
 62
     3
100
AcDbLine
 10
17.68088476162982
 20
-5.940282859957019
 30
0.0
 11
18.25120923653224
 21
-5.93032782632682
 31
0.0
  0
LINE
  5
C6E
330
19
100
AcDbEntity
  8
TitleBlock&Notes
  6
Continuous
 62
     3
100
AcDbLine
 10
17.67066898522094
 20
-5.958415208981932
 30
0.0
 11
18.25120923653224
 21
-5.948281873964514
 31
0.0
  0
LINE
  5
C6F
330
19
100
AcDbEntity
  8
TitleBlock&Notes
  6
Continuous
 62
     3
100
AcDbLine
 10
17.65983685058106
 20
-5.976558328792862
 30
0.0
 11
18.25120923653224
 21
-5.966235876723942
 31
0.0
  0
LINE
  5
C70
330
19
100
AcDbEntity
  8
TitleBlock&Notes
  6
Continuous
 62
     3
100
AcDbLine
 10
17.64835855853547
 20
-5.994712757929153
 30
0.0
 11
18.25120923653224
 21
-5.984189924361633
 31
0.0
  0
LINE
  5
C71
330
19
100
AcDbEntity
  8
TitleBlock&Notes
  6
Continuous
 62
     3
100
AcDbLine
 10
17.63620040549953
 20
-6.012878990051785
 30
0.0
 11
18.25120923653224
 21
-6.002143971999341
 31
0.0
  0
LINE
  5
C72
330
19
100
AcDbEntity
  8
TitleBlock&Notes
  6
Continuous
 62
     3
100
AcDbLine
 10
17.62332406542618
 20
-6.031057788091473
 30
0.0
 11
18.25120923653224
 21
-6.020098019637032
 31
0.0
  0
LINE
  5
C73
330
19
100
AcDbEntity
  8
TitleBlock&Notes
  6
Continuous
 62
     3
100
AcDbLine
 10
17.76891493445566
 20
-5.69363688605939
 30
0.0
 11
18.25120923653224
 21
-5.69363688605939
 31
0.0
  0
LINE
  5
C74
330
19
100
AcDbEntity
  8
TitleBlock&Notes
  6
Continuous
 62
     3
100
AcDbLine
 10
17.77029893558322
 20
-5.686049226321987
 30
0.0
 11
18.25120923653224
 21
-5.677654879588644
 31
0.0
  0
LINE
  5
C75
330
19
100
AcDbEntity
  8
TitleBlock&Notes
  6
Continuous
 62
     3
100
AcDbLine
 10
17.77329424630202
 20
-5.668042895493744
 30
0.0
 11
18.24898085065758
 21
-5.659739741415503
 31
0.0
  0
LINE
  5
C76
330
19
100
AcDbEntity
  8
TitleBlock&Notes
  6
Continuous
 62
     3
100
AcDbLine
 10
18.67755285052648
 20
-6.210150648552048
 30
0.0
 11
19.37316611546444
 21
-6.198008696573428
 31
0.0
  0
LINE
  5
C77
330
19
100
AcDbEntity
  8
TitleBlock&Notes
  6
Continuous
 62
     3
100
AcDbLine
 10
18.67755285052648
 20
-6.228104696189738
 30
0.0
 11
19.37316611546444
 21
-6.215962744211118
 31
0.0
  0
LINE
  5
C78
330
19
100
AcDbEntity
  8
TitleBlock&Notes
  6
Continuous
 62
     3
100
AcDbLine
 10
18.67755285052648
 20
-6.246058743827457
 30
0.0
 11
19.37316611546444
 21
-6.23391679184883
 31
0.0
  0
LINE
  5
C79
330
19
100
AcDbEntity
  8
TitleBlock&Notes
  6
Continuous
 62
     3
100
AcDbLine
 10
18.67755285052648
 20
-6.264012791465152
 30
0.0
 11
19.37316611546444
 21
-6.251870839486521
 31
0.0
  0
LINE
  5
C7A
330
19
100
AcDbEntity
  8
TitleBlock&Notes
  6
Continuous
 62
     3
100
AcDbLine
 10
18.67755285052648
 20
-6.28196683910286
 30
0.0
 11
19.37316611546444
 21
-6.269824887124226
 31
0.0
  0
LINE
  5
C7B
330
19
100
AcDbEntity
  8
TitleBlock&Notes
  6
Continuous
 62
     3
100
AcDbLine
 10
18.67755285052648
 20
-6.299920886740554
 30
0.0
 11
19.37316611546444
 21
-6.28777893476192
 31
0.0
  0
LINE
  5
C7C
330
19
100
AcDbEntity
  8
TitleBlock&Notes
  6
Continuous
 62
     3
100
AcDbLine
 10
18.67755285052648
 20
-6.317874934378245
 30
0.0
 11
19.37316611546444
 21
-6.305732937521337
 31
0.0
  0
LINE
  5
C7D
330
19
100
AcDbEntity
  8
TitleBlock&Notes
  6
Continuous
 62
     3
100
AcDbLine
 10
18.67755285052648
 20
-6.33582898201595
 30
0.0
 11
19.37316611546444
 21
-6.323686985159042
 31
0.0
  0
LINE
  5
C7E
330
19
100
AcDbEntity
  8
TitleBlock&Notes
  6
Continuous
 62
     3
100
AcDbLine
 10
18.67755285052648
 20
-6.353783029653644
 30
0.0
 11
19.37316611546444
 21
-6.341641032796761
 31
0.0
  0
LINE
  5
C7F
330
19
100
AcDbEntity
  8
TitleBlock&Notes
  6
Continuous
 62
     3
100
AcDbLine
 10
18.67755285052648
 20
-6.371737077291349
 30
0.0
 11
19.37316611546444
 21
-6.359595080434452
 31
0.0
  0
LINE
  5
C80
330
19
100
AcDbEntity
  8
TitleBlock&Notes
  6
Continuous
 62
     3
100
AcDbLine
 10
18.67755285052648
 20
-6.102426407604127
 30
0.0
 11
19.37316611546444
 21
-6.090284410747219
 31
0.0
  0
LINE
  5
C81
330
19
100
AcDbEntity
  8
TitleBlock&Notes
  6
Continuous
 62
     3
100
AcDbLine
 10
18.67755285052648
 20
-6.120380455241836
 30
0.0
 11
19.37316611546444
 21
-6.108238458384924
 31
0.0
  0
LINE
  5
C82
330
19
100
AcDbEntity
  8
TitleBlock&Notes
  6
Continuous
 62
     3
100
AcDbLine
 10
18.67755285052648
 20
-6.138334502879526
 30
0.0
 11
19.37316611546444
 21
-6.126192506022615
 31
0.0
  0
LINE
  5
C83
330
19
100
AcDbEntity
  8
TitleBlock&Notes
  6
Continuous
 62
     3
100
AcDbLine
 10
18.67755285052648
 20
-6.156288550517221
 30
0.0
 11
19.37316611546444
 21
-6.144146553660309
 31
0.0
  0
LINE
  5
C84
330
19
100
AcDbEntity
  8
TitleBlock&Notes
  6
Continuous
 62
     3
100
AcDbLine
 10
18.67755285052648
 20
-6.174242598154929
 30
0.0
 11
19.37316611546444
 21
-6.162100601298014
 31
0.0
  0
LINE
  5
C85
330
19
100
AcDbEntity
  8
TitleBlock&Notes
  6
Continuous
 62
     3
100
AcDbLine
 10
18.67755285052648
 20
-6.192196600914353
 30
0.0
 11
19.37316611546444
 21
-6.180054648935733
 31
0.0
  0
LINE
  5
C86
330
19
100
AcDbEntity
  8
TitleBlock&Notes
  6
Continuous
 62
     3
100
AcDbLine
 10
18.67755285052648
 20
-5.781979950219604
 30
0.0
 11
19.37316611546444
 21
-5.781979950219604
 31
0.0
  0
LINE
  5
C87
330
19
100
AcDbEntity
  8
TitleBlock&Notes
  6
Continuous
 62
     3
100
AcDbLine
 10
18.67755285052648
 20
-5.69363688605939
 30
0.0
 11
19.37316611546444
 21
-5.69363688605939
 31
0.0
  0
LINE
  5
C88
330
19
100
AcDbEntity
  8
TitleBlock&Notes
  6
Continuous
 62
     3
100
AcDbLine
 10
18.67755285052648
 20
-5.797207642641506
 30
0.0
 11
19.37316611546444
 21
-5.785065645784595
 31
0.0
  0
LINE
  5
C89
330
19
100
AcDbEntity
  8
TitleBlock&Notes
  6
Continuous
 62
     3
100
AcDbLine
 10
18.67755285052648
 20
-5.8151616902792
 30
0.0
 11
19.37316611546444
 21
-5.803019693422289
 31
0.0
  0
LINE
  5
C8A
330
19
100
AcDbEntity
  8
TitleBlock&Notes
  6
Continuous
 62
     3
100
AcDbLine
 10
18.67755285052648
 20
-5.833115737916894
 30
0.0
 11
19.37316611546444
 21
-5.820973741060004
 31
0.0
  0
LINE
  5
C8B
330
19
100
AcDbEntity
  8
TitleBlock&Notes
  6
Continuous
 62
     3
100
AcDbLine
 10
18.67755285052648
 20
-5.851069785554599
 30
0.0
 11
19.37316611546444
 21
-5.838927788697702
 31
0.0
  0
LINE
  5
C8C
330
19
100
AcDbEntity
  8
TitleBlock&Notes
  6
Continuous
 62
     3
100
AcDbLine
 10
18.67755285052648
 20
-5.869023833192319
 30
0.0
 11
19.37316611546444
 21
-5.856881836335407
 31
0.0
  0
LINE
  5
C8D
330
19
100
AcDbEntity
  8
TitleBlock&Notes
  6
Continuous
 62
     3
100
AcDbLine
 10
18.67755285052648
 20
-5.886977880830013
 30
0.0
 11
19.37316611546444
 21
-5.874835883973101
 31
0.0
  0
LINE
  5
C8E
330
19
100
AcDbEntity
  8
TitleBlock&Notes
  6
Continuous
 62
     3
100
AcDbLine
 10
18.67755285052648
 20
-5.904931928467703
 30
0.0
 11
19.37316611546444
 21
-5.892789931610792
 31
0.0
  0
LINE
  5
C8F
330
19
100
AcDbEntity
  8
TitleBlock&Notes
  6
Continuous
 62
     3
100
AcDbLine
 10
18.67755285052648
 20
-5.922885931227131
 30
0.0
 11
19.37316611546444
 21
-5.910743979248501
 31
0.0
  0
LINE
  5
C90
330
19
100
AcDbEntity
  8
TitleBlock&Notes
  6
Continuous
 62
     3
100
AcDbLine
 10
18.67755285052648
 20
-5.940839978864826
 30
0.0
 11
19.37316611546444
 21
-5.928698026886205
 31
0.0
  0
LINE
  5
C91
330
19
100
AcDbEntity
  8
TitleBlock&Notes
  6
Continuous
 62
     3
100
AcDbLine
 10
18.67755285052648
 20
-5.95879402650253
 30
0.0
 11
19.37316611546444
 21
-5.946652074523896
 31
0.0
  0
LINE
  5
C92
330
19
100
AcDbEntity
  8
TitleBlock&Notes
  6
Continuous
 62
     3
100
AcDbLine
 10
18.67755285052648
 20
-5.976748074140225
 30
0.0
 11
19.37316611546444
 21
-5.964606122161594
 31
0.0
  0
LINE
  5
C93
330
19
100
AcDbEntity
  8
TitleBlock&Notes
  6
Continuous
 62
     3
100
AcDbLine
 10
18.67755285052648
 20
-5.994702121777919
 30
0.0
 11
19.37316611546444
 21
-5.982560169799288
 31
0.0
  0
LINE
  5
C94
330
19
100
AcDbEntity
  8
TitleBlock&Notes
  6
Continuous
 62
     3
100
AcDbLine
 10
18.67755285052648
 20
-6.012656169415624
 30
0.0
 11
19.37316611546444
 21
-6.000514217436993
 31
0.0
  0
LINE
  5
C95
330
19
100
AcDbEntity
  8
TitleBlock&Notes
  6
Continuous
 62
     3
100
AcDbLine
 10
18.67755285052648
 20
-6.030610217053339
 30
0.0
 11
19.37316611546444
 21
-6.018468265074709
 31
0.0
  0
LINE
  5
C96
330
19
100
AcDbEntity
  8
TitleBlock&Notes
  6
Continuous
 62
     3
100
AcDbLine
 10
18.67755285052648
 20
-6.048564264691037
 30
0.0
 11
19.37316611546444
 21
-6.036422267834122
 31
0.0
  0
LINE
  5
C97
330
19
100
AcDbEntity
  8
TitleBlock&Notes
  6
Continuous
 62
     3
100
AcDbLine
 10
18.67755285052648
 20
-6.066518312328717
 30
0.0
 11
19.37316611546444
 21
-6.054376315471817
 31
0.0
  0
LINE
  5
C98
330
19
100
AcDbEntity
  8
TitleBlock&Notes
  6
Continuous
 62
     3
100
AcDbLine
 10
18.67755285052648
 20
-6.084472359966436
 30
0.0
 11
19.37316611546444
 21
-6.072330363109525
 31
0.0
  0
LINE
  5
C99
330
19
100
AcDbEntity
  8
TitleBlock&Notes
  6
Continuous
 62
     3
100
AcDbLine
 10
18.7610218198567
 20
-5.471261577027846
 30
0.0
 11
19.37316611546444
 21
-5.460576598252188
 31
0.0
  0
LINE
  5
C9A
330
19
100
AcDbEntity
  8
TitleBlock&Notes
  6
Continuous
 62
     3
100
AcDbLine
 10
18.75322430930469
 20
-5.489351740474099
 30
0.0
 11
19.37316611546444
 21
-5.478530601011627
 31
0.0
  0
LINE
  5
C9B
330
19
100
AcDbEntity
  8
TitleBlock&Notes
  6
Continuous
 62
     3
100
AcDbLine
 10
18.7454268436309
 20
-5.507441903920348
 30
0.0
 11
19.37316611546444
 21
-5.496484648649321
 31
0.0
  0
LINE
  5
C9C
330
19
100
AcDbEntity
  8
TitleBlock&Notes
  6
Continuous
 62
     3
100
AcDbLine
 10
18.73762937795719
 20
-5.525532067366597
 30
0.0
 11
19.37316611546444
 21
-5.514438696287015
 31
0.0
  0
LINE
  5
C9D
330
19
100
AcDbEntity
  8
TitleBlock&Notes
  6
Continuous
 62
     3
100
AcDbLine
 10
18.72983191228344
 20
-5.54362218593457
 30
0.0
 11
19.37316611546444
 21
-5.53239274392472
 31
0.0
  0
LINE
  5
C9E
330
19
100
AcDbEntity
  8
TitleBlock&Notes
  6
Continuous
 62
     3
100
AcDbLine
 10
18.72203440173142
 20
-5.561712349380819
 30
0.0
 11
19.37316611546444
 21
-5.550346791562414
 31
0.0
  0
LINE
  5
C9F
330
19
100
AcDbEntity
  8
TitleBlock&Notes
  6
Continuous
 62
     3
100
AcDbLine
 10
18.71423693605768
 20
-5.579802512827072
 30
0.0
 11
19.37316611546444
 21
-5.568300839200119
 31
0.0
  0
LINE
  5
CA0
330
19
100
AcDbEntity
  8
TitleBlock&Notes
  6
Continuous
 62
     3
100
AcDbLine
 10
18.70643947038388
 20
-5.597892631395044
 30
0.0
 11
19.37316611546444
 21
-5.586254886837814
 31
0.0
  0
LINE
  5
CA1
330
19
100
AcDbEntity
  8
TitleBlock&Notes
  6
Continuous
 62
     3
100
AcDbLine
 10
18.69864195983184
 20
-5.615982794841293
 30
0.0
 11
19.37316611546444
 21
-5.604208934475508
 31
0.0
  0
LINE
  5
CA2
330
19
100
AcDbEntity
  8
TitleBlock&Notes
  6
Continuous
 62
     3
100
AcDbLine
 10
18.69084449415812
 20
-5.634072958287546
 30
0.0
 11
19.37316611546444
 21
-5.622162982113213
 31
0.0
  0
LINE
  5
CA3
330
19
100
AcDbEntity
  8
TitleBlock&Notes
  6
Continuous
 62
     3
100
AcDbLine
 10
18.68304702848432
 20
-5.652163076855529
 30
0.0
 11
19.37316611546444
 21
-5.640117029750907
 31
0.0
  0
LINE
  5
CA4
330
19
100
AcDbEntity
  8
TitleBlock&Notes
  6
Continuous
 62
     3
100
AcDbLine
 10
18.67755285052648
 20
-5.670213029367246
 30
0.0
 11
19.37316611546444
 21
-5.658071077388623
 31
0.0
  0
LINE
  5
CA5
330
19
100
AcDbEntity
  8
TitleBlock&Notes
  6
Continuous
 62
     3
100
AcDbLine
 10
18.67755285052648
 20
-5.688167077004941
 30
0.0
 11
19.37316611546444
 21
-5.67602512502632
 31
0.0
  0
LINE
  5
CA6
330
19
100
AcDbEntity
  8
TitleBlock&Notes
  6
Continuous
 62
     3
100
AcDbLine
 10
18.63267457536922
 20
-6.32882348326391
 30
0.0
 11
18.63267457536922
 21
-5.655649355904575
 31
0.0
  0
LINE
  5
CA7
330
19
100
AcDbEntity
  8
TitleBlock&Notes
  6
Continuous
 62
     3
100
AcDbLine
 10
18.67755285052648
 20
-6.373701758421191
 30
0.0
 11
18.67755285052648
 21
-5.664909628957076
 31
0.0
  0
LINE
  5
CA8
330
19
100
AcDbEntity
  8
TitleBlock&Notes
  6
Continuous
 62
     3
100
AcDbLine
 10
18.65511371294783
 20
-5.660279492430824
 30
0.0
 11
18.65511371294783
 21
-6.351262620842547
 31
0.0
  0
LINE
  5
CA9
330
19
100
AcDbEntity
  8
TitleBlock&Notes
  6
Continuous
 62
     3
100
AcDbLine
 10
18.48649948095376
 20
-5.031063949735997
 30
0.0
 11
18.44226256122677
 21
-5.031063949735997
 31
0.0
  0
LINE
  5
CAA
330
19
100
AcDbEntity
  8
TitleBlock&Notes
  6
Continuous
 62
     3
100
AcDbLine
 10
18.44691832324814
 20
-5.04186525300085
 30
0.0
 11
18.48210850075577
 21
-5.041251004048778
 31
0.0
  0
LINE
  5
CAB
330
19
100
AcDbEntity
  8
TitleBlock&Notes
  6
Continuous
 62
     3
100
AcDbLine
 10
18.36610475658068
 20
-4.85437782141556
 30
0.0
 11
18.56265728559984
 21
-4.85437782141556
 31
0.0
  0
LINE
  5
CAC
330
19
100
AcDbEntity
  8
TitleBlock&Notes
  6
Continuous
 62
     3
100
AcDbLine
 10
18.55298525437273
 20
-4.87681695899419
 30
0.0
 11
18.37577678780773
 21
-4.87681695899419
 31
0.0
  0
LINE
  5
CAD
330
19
100
AcDbEntity
  8
TitleBlock&Notes
  6
Continuous
 62
     3
100
AcDbLine
 10
18.38544881903479
 20
-4.899256096572841
 30
0.0
 11
18.54331322314568
 21
-4.899256096572841
 31
0.0
  0
LINE
  5
CAE
330
19
100
AcDbEntity
  8
TitleBlock&Notes
  6
Continuous
 62
     3
100
AcDbLine
 10
18.39512089514021
 20
-4.921695234151478
 30
0.0
 11
18.53364119191864
 21
-4.921695234151478
 31
0.0
  0
LINE
  5
CAF
330
19
100
AcDbEntity
  8
TitleBlock&Notes
  6
Continuous
 62
     3
100
AcDbLine
 10
18.40479292636725
 20
-4.944134371730122
 30
0.0
 11
18.52396911581328
 21
-4.944134371730122
 31
0.0
  0
LINE
  5
CB0
330
19
100
AcDbEntity
  8
TitleBlock&Notes
  6
Continuous
 62
     3
100
AcDbLine
 10
18.25186804961158
 20
-4.589348628934889
 30
0.0
 11
18.67689399256892
 21
-4.589348628934889
 31
0.0
  0
LINE
  5
CB1
330
19
100
AcDbEntity
  8
TitleBlock&Notes
  6
Continuous
 62
     3
100
AcDbLine
 10
18.22285191105206
 20
-4.522031216198943
 30
0.0
 11
18.7059101311284
 21
-4.522031216198943
 31
0.0
  0
LINE
  5
CB2
330
19
100
AcDbEntity
  8
TitleBlock&Notes
  6
Continuous
 62
     3
100
AcDbLine
 10
18.69623809990133
 20
-4.544470353777608
 30
0.0
 11
18.23252394227918
 21
-4.544470353777608
 31
0.0
  0
LINE
  5
CB3
330
19
100
AcDbEntity
  8
TitleBlock&Notes
  6
Continuous
 62
     3
100
AcDbLine
 10
18.68656606867423
 20
-4.566909491356245
 30
0.0
 11
18.24219597350624
 21
-4.566909491356245
 31
0.0
  0
LINE
  5
CB4
330
19
100
AcDbEntity
  8
TitleBlock&Notes
  6
Continuous
 62
     3
100
AcDbLine
 10
18.45459932979781
 20
-5.059685249230657
 30
0.0
 11
18.47431103508205
 21
-5.059341167495027
 31
0.0
  0
LINE
  5
CB5
330
19
100
AcDbEntity
  8
TitleBlock&Notes
  6
Continuous
 62
     3
100
AcDbLine
 10
18.46438104352941
 20
-5.195756583412034
 30
0.0
 11
18.82712980795544
 21
-4.354179376343221
 31
0.0
  0
LINE
  5
CB6
330
19
100
AcDbEntity
  8
TitleBlock&Notes
  6
Continuous
 62
     3
100
AcDbLine
 10
18.79760416633807
 20
-4.30930110118593
 30
0.0
 11
18.46438104352941
 21
-5.082378756872884
 31
0.0
  0
LINE
  5
CB7
330
19
100
AcDbEntity
  8
TitleBlock&Notes
  6
Continuous
 62
     3
100
AcDbLine
 10
18.46438104352941
 20
-5.139067692581591
 30
0.0
 11
18.81236696470759
 21
-4.331740238764584
 31
0.0
  0
LINE
  5
CB8
330
19
100
AcDbEntity
  8
TitleBlock&Notes
  6
Continuous
 62
     3
100
AcDbLine
 10
17.39415773091958
 20
-5.049792641281186
 30
0.0
 11
17.73510907222346
 21
-5.049792641281186
 31
0.0
  0
LINE
  5
CB9
330
19
100
AcDbEntity
  8
TitleBlock&Notes
  6
Continuous
 62
     3
100
AcDbLine
 10
17.50692373193351
 20
-4.522031216198943
 30
0.0
 11
17.75858920627266
 21
-4.522031216198943
 31
0.0
  0
LINE
  5
CBA
330
19
100
AcDbEntity
  8
TitleBlock&Notes
  6
Continuous
 62
     3
100
AcDbLine
 10
17.7682612374997
 20
-4.544470353777608
 30
0.0
 11
17.531051594128
 21
-4.544470353777608
 31
0.0
  0
LINE
  5
CBB
330
19
100
AcDbEntity
  8
TitleBlock&Notes
  6
Continuous
 62
     3
100
AcDbLine
 10
17.37726886914274
 20
-5.072231778859837
 30
0.0
 11
17.76005205852968
 21
-5.072231778859837
 31
0.0
  0
LINE
  5
CBC
330
19
100
AcDbEntity
  8
TitleBlock&Notes
  6
Continuous
 62
     3
100
AcDbLine
 10
17.7842456673973
 20
-5.094670916438477
 30
0.0
 11
17.35790250218581
 21
-5.094670916438477
 31
0.0
  0
LINE
  5
CBD
330
19
100
AcDbEntity
  8
TitleBlock&Notes
  6
Continuous
 62
     3
100
AcDbLine
 10
17.78760534483211
 20
-4.589348628934889
 30
0.0
 11
17.5741125235328
 21
-4.589348628934889
 31
0.0
  0
LINE
  5
CBE
330
19
100
AcDbEntity
  8
TitleBlock&Notes
  6
Continuous
 62
     3
100
AcDbLine
 10
17.77793331360508
 20
-4.566909491356245
 30
0.0
 11
17.55338360726387
 21
-4.566909491356245
 31
0.0
  0
LINE
  5
CBF
330
19
100
AcDbEntity
  8
TitleBlock&Notes
  6
Continuous
 62
     3
100
AcDbLine
 10
18.46438104352941
 20
-5.195756583412034
 30
0.0
 11
18.10163223422503
 21
-4.354179376343221
 31
0.0
  0
LINE
  5
CC0
330
19
100
AcDbEntity
  8
TitleBlock&Notes
  6
Continuous
 62
     3
100
AcDbLine
 10
18.46438104352941
 20
-5.082378756872884
 30
0.0
 11
18.13115792072069
 21
-4.30930110118593
 31
0.0
  0
LINE
  5
CC1
330
19
100
AcDbEntity
  8
TitleBlock&Notes
  6
Continuous
 62
     3
100
AcDbLine
 10
18.46438104352941
 20
-5.139067692581591
 30
0.0
 11
18.11639507747287
 21
-4.331740238764584
 31
0.0
  0
LINE
  5
CC2
330
19
100
AcDbEntity
  8
TitleBlock&Notes
  6
Continuous
 62
     3
100
AcDbLine
 10
17.72725178380893
 20
-5.251921565258278
 30
0.0
 11
18.07061376166288
 21
-5.245928161367583
 31
0.0
  0
LINE
  5
CC3
330
19
100
AcDbEntity
  8
TitleBlock&Notes
  6
Continuous
 62
     3
100
AcDbLine
 10
17.97799985644729
 20
-5.031063949735997
 30
0.0
 11
17.77793564727539
 21
-5.031063949735997
 31
0.0
  0
LINE
  5
CC4
330
19
100
AcDbEntity
  8
TitleBlock&Notes
  6
Continuous
 62
     3
100
AcDbLine
 10
17.77854594693926
 20
-5.035577716894763
 30
0.0
 11
17.97844150355313
 21
-5.032088520757842
 31
0.0
  0
LINE
  5
CC5
330
19
100
AcDbEntity
  8
TitleBlock&Notes
  6
Continuous
 62
     3
100
AcDbLine
 10
17.78390531055853
 20
-5.089346288604165
 30
0.0
 11
18.00148456808054
 21
-5.085548419690709
 31
0.0
  0
LINE
  5
CC6
330
19
100
AcDbEntity
  8
TitleBlock&Notes
  6
Continuous
 62
     3
100
AcDbLine
 10
17.78250793570494
 20
-5.071416654748148
 30
0.0
 11
17.99380356153084
 21
-5.067728468339179
 31
0.0
  0
LINE
  5
CC7
330
19
100
AcDbEntity
  8
TitleBlock&Notes
  6
Continuous
 62
     3
100
AcDbLine
 10
17.7807221393799
 20
-5.053493752633418
 30
0.0
 11
17.98612251010287
 21
-5.049908472109386
 31
0.0
  0
LINE
  5
CC8
330
19
100
AcDbEntity
  8
TitleBlock&Notes
  6
Continuous
 62
     3
100
AcDbLine
 10
17.93992095412427
 20
-4.942720885575788
 30
0.0
 11
17.76085811722981
 21
-4.942720885575788
 31
0.0
  0
LINE
  5
CC9
330
19
100
AcDbEntity
  8
TitleBlock&Notes
  6
Continuous
 62
     3
100
AcDbLine
 10
17.93085819036072
 20
-4.921695234151478
 30
0.0
 11
17.75531439365614
 21
-4.921695234151478
 31
0.0
  0
LINE
  5
CCA
330
19
100
AcDbEntity
  8
TitleBlock&Notes
  6
Continuous
 62
     3
100
AcDbLine
 10
17.9018420518012
 20
-4.85437782141556
 30
0.0
 11
17.73351813736913
 21
-4.85437782141556
 31
0.0
  0
LINE
  5
CCB
330
19
100
AcDbEntity
  8
TitleBlock&Notes
  6
Continuous
 62
     3
100
AcDbLine
 10
17.91151408302832
 20
-4.87681695899419
 30
0.0
 11
17.74148649951469
 21
-4.87681695899419
 31
0.0
  0
LINE
  5
CCC
330
19
100
AcDbEntity
  8
TitleBlock&Notes
  6
Continuous
 62
     3
100
AcDbLine
 10
17.74874551564312
 20
-4.899256096572841
 30
0.0
 11
17.92118615913367
 21
-4.899256096572841
 31
0.0
  0
LINE
  5
CCD
330
19
100
AcDbEntity
  8
TitleBlock&Notes
  6
Continuous
 62
     3
100
AcDbLine
 10
18.46228038122582
 20
-5.077505200582198
 30
0.0
 11
18.46651352453001
 21
-5.077431330941276
 31
0.0
  0
LINE
  5
CCE
330
19
100
AcDbEntity
  8
TitleBlock&Notes
  6
Continuous
 62
     3
100
AcDbLine
 10
17.73510907222346
 20
-4.354179376343221
 30
0.0
 11
18.10163223422503
 21
-4.354179376343221
 31
0.0
  0
LINE
  5
CCF
330
19
100
AcDbEntity
  8
TitleBlock&Notes
  6
Continuous
 62
     3
100
AcDbLine
 10
18.11639507747287
 20
-4.331740238764584
 30
0.0
 11
17.7010021216432
 21
-4.331740238764584
 31
0.0
  0
LINE
  5
CD0
330
19
100
AcDbEntity
  8
TitleBlock&Notes
  6
Continuous
 62
     3
100
AcDbLine
 10
17.66689521594121
 20
-4.30930110118593
 30
0.0
 11
18.13115792072069
 21
-4.30930110118593
 31
0.0
  0
LINE
  5
CD1
330
19
100
AcDbEntity
  8
TitleBlock&Notes
  6
Continuous
 62
     3
100
AcDbLine
 10
18.95076218573318
 20
-5.031063949735997
 30
0.0
 11
19.37316611546444
 21
-5.031063949735997
 31
0.0
  0
LINE
  5
CD2
330
19
100
AcDbEntity
  8
TitleBlock&Notes
  6
Continuous
 62
     3
100
AcDbLine
 10
18.98884108805624
 20
-4.942720885575788
 30
0.0
 11
19.37316611546444
 21
-4.942720885575788
 31
0.0
  0
LINE
  5
CD3
330
19
100
AcDbEntity
  8
TitleBlock&Notes
  6
Continuous
 62
     3
100
AcDbLine
 10
18.94209318395586
 20
-5.051176014112922
 30
0.0
 11
19.37316611546444
 21
-5.043651587865216
 31
0.0
  0
LINE
  5
CD4
330
19
100
AcDbEntity
  8
TitleBlock&Notes
  6
Continuous
 62
     3
100
AcDbLine
 10
19.37316611546444
 20
-4.920281747997123
 30
0.0
 11
18.9985131192833
 21
-4.920281747997123
 31
0.0
  0
LINE
  5
CD5
330
19
100
AcDbEntity
  8
TitleBlock&Notes
  6
Continuous
 62
     3
100
AcDbLine
 10
19.14115669734833
 20
-4.589348628934889
 30
0.0
 11
19.37316611546444
 21
-4.589348628934889
 31
0.0
  0
LINE
  5
CD6
330
19
100
AcDbEntity
  8
TitleBlock&Notes
  6
Continuous
 62
     3
100
AcDbLine
 10
19.37316611546444
 20
-4.522031216198943
 30
0.0
 11
19.17017283590786
 21
-4.522031216198943
 31
0.0
  0
LINE
  5
CD7
330
19
100
AcDbEntity
  8
TitleBlock&Notes
  6
Continuous
 62
     3
100
AcDbLine
 10
19.37316611546444
 20
-4.544470353777608
 30
0.0
 11
19.16050080468077
 21
-4.544470353777608
 31
0.0
  0
LINE
  5
CD8
330
19
100
AcDbEntity
  8
TitleBlock&Notes
  6
Continuous
 62
     3
100
AcDbLine
 10
19.37316611546444
 20
-4.566909491356245
 30
0.0
 11
19.15082872857539
 21
-4.566909491356245
 31
0.0
  0
LINE
  5
CD9
330
19
100
AcDbEntity
  8
TitleBlock&Notes
  6
Continuous
 62
     3
100
AcDbLine
 10
19.37316611546444
 20
-4.85437782141556
 30
0.0
 11
19.02691999037927
 21
-4.85437782141556
 31
0.0
  0
LINE
  5
CDA
330
19
100
AcDbEntity
  8
TitleBlock&Notes
  6
Continuous
 62
     3
100
AcDbLine
 10
19.37316611546444
 20
-4.87681695899419
 30
0.0
 11
19.01724795915223
 21
-4.87681695899419
 31
0.0
  0
LINE
  5
CDB
330
19
100
AcDbEntity
  8
TitleBlock&Notes
  6
Continuous
 62
     3
100
AcDbLine
 10
19.37316611546444
 20
-4.899256096572841
 30
0.0
 11
19.00757588304684
 21
-4.899256096572841
 31
0.0
  0
LINE
  5
CDC
330
19
100
AcDbEntity
  8
TitleBlock&Notes
  6
Continuous
 62
     3
100
AcDbLine
 10
18.93429571828211
 20
-5.069266132680898
 30
0.0
 11
19.37316611546444
 21
-5.061605635502921
 31
0.0
  0
LINE
  5
CDD
330
19
100
AcDbEntity
  8
TitleBlock&Notes
  6
Continuous
 62
     3
100
AcDbLine
 10
18.92649820773009
 20
-5.087356296127147
 30
0.0
 11
19.37316611546444
 21
-5.079559683140619
 31
0.0
  0
LINE
  5
CDE
330
19
100
AcDbEntity
  8
TitleBlock&Notes
  6
Continuous
 62
     3
100
AcDbLine
 10
18.91870074205635
 20
-5.105446459573396
 30
0.0
 11
19.37316611546444
 21
-5.09751373077831
 31
0.0
  0
LINE
  5
CDF
330
19
100
AcDbEntity
  8
TitleBlock&Notes
  6
Continuous
 62
     3
100
AcDbLine
 10
18.91090327638262
 20
-5.123536623019646
 30
0.0
 11
19.37316611546444
 21
-5.115467778416014
 31
0.0
  0
LINE
  5
CE0
330
19
100
AcDbEntity
  8
TitleBlock&Notes
  6
Continuous
 62
     3
100
AcDbLine
 10
18.90310581070883
 20
-5.141626741587618
 30
0.0
 11
19.37316611546444
 21
-5.133421826053709
 31
0.0
  0
LINE
  5
CE1
330
19
100
AcDbEntity
  8
TitleBlock&Notes
  6
Continuous
 62
     3
100
AcDbLine
 10
18.89530830015686
 20
-5.159716905033867
 30
0.0
 11
19.37316611546444
 21
-5.151375873691414
 31
0.0
  0
LINE
  5
CE2
330
19
100
AcDbEntity
  8
TitleBlock&Notes
  6
Continuous
 62
     3
100
AcDbLine
 10
18.88751083448304
 20
-5.17780706848012
 30
0.0
 11
19.37316611546444
 21
-5.169329921329108
 31
0.0
  0
LINE
  5
CE3
330
19
100
AcDbEntity
  8
TitleBlock&Notes
  6
Continuous
 62
     3
100
AcDbLine
 10
18.87971336880932
 20
-5.195897187048093
 30
0.0
 11
19.37316611546444
 21
-5.187283968966802
 31
0.0
  0
LINE
  5
CE4
330
19
100
AcDbEntity
  8
TitleBlock&Notes
  6
Continuous
 62
     3
100
AcDbLine
 10
18.87191585825728
 20
-5.213987350494353
 30
0.0
 11
19.37316611546444
 21
-5.205238016604521
 31
0.0
  0
LINE
  5
CE5
330
19
100
AcDbEntity
  8
TitleBlock&Notes
  6
Continuous
 62
     3
100
AcDbLine
 10
18.86411839258349
 20
-5.232077513940602
 30
0.0
 11
19.37316611546444
 21
-5.223192019363946
 31
0.0
  0
LINE
  5
CE6
330
19
100
AcDbEntity
  8
TitleBlock&Notes
  6
Continuous
 62
     3
100
AcDbLine
 10
18.85556490748648
 20
-5.251921565258278
 30
0.0
 11
19.37316611546444
 21
-5.251921565258278
 31
0.0
  0
LINE
  5
CE7
330
19
100
AcDbEntity
  8
TitleBlock&Notes
  6
Continuous
 62
     3
100
AcDbLine
 10
18.85632092690977
 20
-5.250167632508578
 30
0.0
 11
19.37316611546444
 21
-5.24114606700164
 31
0.0
  0
LINE
  5
CE8
330
19
100
AcDbEntity
  8
TitleBlock&Notes
  6
Continuous
 62
     3
100
AcDbLine
 10
18.81748600516341
 20
-5.340264629418506
 30
0.0
 11
19.37316611546444
 21
-5.340264629418506
 31
0.0
  0
LINE
  5
CE9
330
19
100
AcDbEntity
  8
TitleBlock&Notes
  6
Continuous
 62
     3
100
AcDbLine
 10
18.80780665877751
 20
-5.362720686106879
 30
0.0
 11
19.37316611546444
 21
-5.352852312425991
 31
0.0
  0
LINE
  5
CEA
330
19
100
AcDbEntity
  8
TitleBlock&Notes
  6
Continuous
 62
     3
100
AcDbLine
 10
18.80000919310377
 20
-5.380810849553128
 30
0.0
 11
19.37316611546444
 21
-5.370806360063696
 31
0.0
  0
LINE
  5
CEB
330
19
100
AcDbEntity
  8
TitleBlock&Notes
  6
Continuous
 62
     3
100
AcDbLine
 10
18.79221172743004
 20
-5.398901012999377
 30
0.0
 11
19.37316611546444
 21
-5.38876040770139
 31
0.0
  0
LINE
  5
CEC
330
19
100
AcDbEntity
  8
TitleBlock&Notes
  6
Continuous
 62
     3
100
AcDbLine
 10
18.78441426175625
 20
-5.41699113156735
 30
0.0
 11
19.37316611546444
 21
-5.406714455339095
 31
0.0
  0
LINE
  5
CED
330
19
100
AcDbEntity
  8
TitleBlock&Notes
  6
Continuous
 62
     3
100
AcDbLine
 10
18.77661675120421
 20
-5.435081295013603
 30
0.0
 11
19.37316611546444
 21
-5.424668502976789
 31
0.0
  0
LINE
  5
CEE
330
19
100
AcDbEntity
  8
TitleBlock&Notes
  6
Continuous
 62
     3
100
AcDbLine
 10
18.81560416932956
 20
-5.344630522660626
 30
0.0
 11
19.06572650417742
 21
-5.340264629418506
 31
0.0
  0
LINE
  5
CEF
330
19
100
AcDbEntity
  8
TitleBlock&Notes
  6
Continuous
 62
     3
100
AcDbLine
 10
18.94989064962964
 20
-5.033085850666672
 30
0.0
 11
19.06572650417742
 21
-5.031063949735997
 31
0.0
  0
LINE
  5
CF0
330
19
100
AcDbEntity
  8
TitleBlock&Notes
  6
Continuous
 62
     3
100
AcDbLine
 10
19.26186682623924
 20
-4.30930110118593
 30
0.0
 11
18.79760416633807
 21
-4.30930110118593
 31
0.0
  0
LINE
  5
CF1
330
19
100
AcDbEntity
  8
TitleBlock&Notes
  6
Continuous
 62
     3
100
AcDbLine
 10
18.81236696470759
 20
-4.331740238764584
 30
0.0
 11
19.22775992053726
 21
-4.331740238764584
 31
0.0
  0
LINE
  5
CF2
330
19
100
AcDbEntity
  8
TitleBlock&Notes
  6
Continuous
 62
     3
100
AcDbLine
 10
18.82712980795544
 20
-4.354179376343221
 30
0.0
 11
19.19365301483532
 21
-4.354179376343221
 31
0.0
  0
LINE
  5
CF3
330
19
100
AcDbEntity
  8
TitleBlock&Notes
  6
Continuous
 62
     3
100
AcDbLine
 10
19.79950972945867
 20
-5.345410462204593
 30
0.0
 11
20.09431300968803
 21
-5.340264629418506
 31
0.0
  0
LINE
  5
CF4
330
19
100
AcDbEntity
  8
TitleBlock&Notes
  6
Continuous
 62
     3
100
AcDbLine
 10
19.79950972945867
 20
-5.036209737643808
 30
0.0
 11
20.09431300968803
 21
-5.031063949735997
 31
0.0
  0
LINE
  5
CF5
330
19
100
AcDbEntity
  8
TitleBlock&Notes
  6
Continuous
 62
     3
100
AcDbLine
 10
19.79950972945867
 20
-4.85437782141556
 30
0.0
 11
20.14838374682403
 21
-4.85437782141556
 31
0.0
  0
LINE
  5
CF6
330
19
100
AcDbEntity
  8
TitleBlock&Notes
  6
Continuous
 62
     3
100
AcDbLine
 10
19.79950972945867
 20
-4.87681695899419
 30
0.0
 11
20.17681251851824
 21
-4.87681695899419
 31
0.0
  0
LINE
  5
CF7
330
19
100
AcDbEntity
  8
TitleBlock&Notes
  6
Continuous
 62
     3
100
AcDbLine
 10
19.37316611546444
 20
-4.30930110118593
 30
0.0
 11
19.79950972945867
 21
-4.30930110118593
 31
0.0
  0
LINE
  5
CF8
330
19
100
AcDbEntity
  8
TitleBlock&Notes
  6
Continuous
 62
     3
100
AcDbLine
 10
19.39560525304313
 20
-4.331740238764584
 30
0.0
 11
19.77707059188006
 21
-4.331740238764584
 31
0.0
  0
LINE
  5
CF9
330
19
100
AcDbEntity
  8
TitleBlock&Notes
  6
Continuous
 62
     3
100
AcDbLine
 10
19.41804439062174
 20
-4.354179376343221
 30
0.0
 11
19.75463145430142
 21
-4.354179376343221
 31
0.0
  0
LINE
  5
CFA
330
19
100
AcDbEntity
  8
TitleBlock&Notes
  6
Continuous
 62
     3
100
AcDbLine
 10
19.79950972945867
 20
-4.589348628934889
 30
0.0
 11
20.06128547138183
 21
-4.589348628934889
 31
0.0
  0
LINE
  5
CFB
330
19
100
AcDbEntity
  8
TitleBlock&Notes
  6
Continuous
 62
     3
100
AcDbLine
 10
19.79950972945867
 20
-4.522031216198943
 30
0.0
 11
20.08435532823954
 21
-4.522031216198943
 31
0.0
  0
LINE
  5
CFC
330
19
100
AcDbEntity
  8
TitleBlock&Notes
  6
Continuous
 62
     3
100
AcDbLine
 10
19.79950972945867
 20
-4.544470353777608
 30
0.0
 11
20.07450495074699
 21
-4.544470353777608
 31
0.0
  0
LINE
  5
CFD
330
19
100
AcDbEntity
  8
TitleBlock&Notes
  6
Continuous
 62
     3
100
AcDbLine
 10
19.79950972945867
 20
-4.566909491356245
 30
0.0
 11
20.06687667617056
 21
-4.566909491356245
 31
0.0
  0
LINE
  5
CFE
330
19
100
AcDbEntity
  8
TitleBlock&Notes
  6
Continuous
 62
     3
100
AcDbLine
 10
21.1478898480851
 20
-2.955001986849048
 30
0.0
 11
21.1478898480851
 21
-8.003807942043962
 31
0.0
  0
LINE
  5
CFF
330
19
100
AcDbEntity
  8
TitleBlock&Notes
  6
Continuous
 62
     3
100
AcDbLine
 10
20.65219695744721
 20
-6.211591196306322
 30
0.0
 11
21.1478898480851
 21
-6.202938844369089
 31
0.0
  0
LINE
  5
D00
330
19
100
AcDbEntity
  8
TitleBlock&Notes
  6
Continuous
 62
     3
100
AcDbLine
 10
20.36756690902193
 20
-6.665410546943547
 30
0.0
 11
21.1478898480851
 21
-6.651789990433325
 31
0.0
  0
LINE
  5
D01
330
19
100
AcDbEntity
  8
TitleBlock&Notes
  6
Continuous
 62
     3
100
AcDbLine
 10
20.65219695744721
 20
-6.229545243944013
 30
0.0
 11
21.1478898480851
 21
-6.220892892006808
 31
0.0
  0
LINE
  5
D02
330
19
100
AcDbEntity
  8
TitleBlock&Notes
  6
Continuous
 62
     3
100
AcDbLine
 10
20.65219695744721
 20
-6.247499291581718
 30
0.0
 11
21.1478898480851
 21
-6.238846939644503
 31
0.0
  0
LINE
  5
D03
330
19
100
AcDbEntity
  8
TitleBlock&Notes
  6
Continuous
 62
     3
100
AcDbLine
 10
20.65219695744721
 20
-6.265453339219437
 30
0.0
 11
21.1478898480851
 21
-6.256800987282201
 31
0.0
  0
LINE
  5
D04
330
19
100
AcDbEntity
  8
TitleBlock&Notes
  6
Continuous
 62
     3
100
AcDbLine
 10
20.65219695744721
 20
-6.283407386857131
 30
0.0
 11
21.1478898480851
 21
-6.274755034919905
 31
0.0
  0
LINE
  5
D05
330
19
100
AcDbEntity
  8
TitleBlock&Notes
  6
Continuous
 62
     3
100
AcDbLine
 10
20.65219695744721
 20
-6.301361434494822
 30
0.0
 11
21.1478898480851
 21
-6.292709082557596
 31
0.0
  0
LINE
  5
D06
330
19
100
AcDbEntity
  8
TitleBlock&Notes
  6
Continuous
 62
     3
100
AcDbLine
 10
20.65219695744721
 20
-6.31931548213253
 30
0.0
 11
21.1478898480851
 21
-6.310663130195301
 31
0.0
  0
LINE
  5
D07
330
19
100
AcDbEntity
  8
TitleBlock&Notes
  6
Continuous
 62
     3
100
AcDbLine
 10
20.65219695744721
 20
-6.337269529770225
 30
0.0
 11
21.1478898480851
 21
-6.328617177832995
 31
0.0
  0
LINE
  5
D08
330
19
100
AcDbEntity
  8
TitleBlock&Notes
  6
Continuous
 62
     3
100
AcDbLine
 10
20.65219695744721
 20
-6.355223577407926
 30
0.0
 11
21.1478898480851
 21
-6.346571225470693
 31
0.0
  0
LINE
  5
D09
330
19
100
AcDbEntity
  8
TitleBlock&Notes
  6
Continuous
 62
     3
100
AcDbLine
 10
20.65219695744721
 20
-6.373177625045624
 30
0.0
 11
21.1478898480851
 21
-6.364525273108394
 31
0.0
  0
LINE
  5
D0A
330
19
100
AcDbEntity
  8
TitleBlock&Notes
  6
Continuous
 62
     3
100
AcDbLine
 10
20.36130055546172
 20
-5.947358144426956
 30
0.0
 11
21.1478898480851
 21
-5.933628174681871
 31
0.0
  0
LINE
  5
D0B
330
19
100
AcDbEntity
  8
TitleBlock&Notes
  6
Continuous
 62
     3
100
AcDbLine
 10
20.42136110622644
 20
-5.69363688605939
 30
0.0
 11
21.1478898480851
 21
-5.680955272821982
 31
0.0
  0
LINE
  5
D0C
330
19
100
AcDbEntity
  8
TitleBlock&Notes
  6
Continuous
 62
     3
100
AcDbLine
 10
20.65219695744721
 20
-6.103866955358412
 30
0.0
 11
21.1478898480851
 21
-6.095214603421172
 31
0.0
  0
LINE
  5
D0D
330
19
100
AcDbEntity
  8
TitleBlock&Notes
  6
Continuous
 62
     3
100
AcDbLine
 10
20.65219695744721
 20
-6.121821002996103
 30
0.0
 11
21.1478898480851
 21
-6.113168651058877
 31
0.0
  0
LINE
  5
D0E
330
19
100
AcDbEntity
  8
TitleBlock&Notes
  6
Continuous
 62
     3
100
AcDbLine
 10
20.65219695744721
 20
-6.139775050633801
 30
0.0
 11
21.1478898480851
 21
-6.131122698696572
 31
0.0
  0
LINE
  5
D0F
330
19
100
AcDbEntity
  8
TitleBlock&Notes
  6
Continuous
 62
     3
100
AcDbLine
 10
20.65219695744721
 20
-6.157729098271506
 30
0.0
 11
21.1478898480851
 21
-6.14907674633428
 31
0.0
  0
LINE
  5
D10
330
19
100
AcDbEntity
  8
TitleBlock&Notes
  6
Continuous
 62
     3
100
AcDbLine
 10
20.65219695744721
 20
-6.1756831459092
 30
0.0
 11
21.1478898480851
 21
-6.167030793971974
 31
0.0
  0
LINE
  5
D11
330
19
100
AcDbEntity
  8
TitleBlock&Notes
  6
Continuous
 62
     3
100
AcDbLine
 10
20.65219695744721
 20
-6.193637148668624
 30
0.0
 11
21.1478898480851
 21
-6.184984796731413
 31
0.0
  0
LINE
  5
D12
330
19
100
AcDbEntity
  8
TitleBlock&Notes
  6
Continuous
 62
     3
100
AcDbLine
 10
20.65219695744721
 20
-5.960234574256805
 30
0.0
 11
21.1478898480851
 21
-5.951582222319576
 31
0.0
  0
LINE
  5
D13
330
19
100
AcDbEntity
  8
TitleBlock&Notes
  6
Continuous
 62
     3
100
AcDbLine
 10
20.65219695744721
 20
-5.978188621894499
 30
0.0
 11
21.1478898480851
 21
-5.969536269957281
 31
0.0
  0
LINE
  5
D14
330
19
100
AcDbEntity
  8
TitleBlock&Notes
  6
Continuous
 62
     3
100
AcDbLine
 10
20.65219695744721
 20
-5.996142669532204
 30
0.0
 11
21.1478898480851
 21
-5.987490317594975
 31
0.0
  0
LINE
  5
D15
330
19
100
AcDbEntity
  8
TitleBlock&Notes
  6
Continuous
 62
     3
100
AcDbLine
 10
20.65219695744721
 20
-6.014096717169909
 30
0.0
 11
21.1478898480851
 21
-6.005444365232669
 31
0.0
  0
LINE
  5
D16
330
19
100
AcDbEntity
  8
TitleBlock&Notes
  6
Continuous
 62
     3
100
AcDbLine
 10
20.65219695744721
 20
-6.032050764807603
 30
0.0
 11
21.1478898480851
 21
-6.023398412870388
 31
0.0
  0
LINE
  5
D17
330
19
100
AcDbEntity
  8
TitleBlock&Notes
  6
Continuous
 62
     3
100
AcDbLine
 10
20.65219695744721
 20
-6.050004812445294
 30
0.0
 11
21.1478898480851
 21
-6.041352460508083
 31
0.0
  0
LINE
  5
D18
330
19
100
AcDbEntity
  8
TitleBlock&Notes
  6
Continuous
 62
     3
100
AcDbLine
 10
20.65219695744721
 20
-6.067958860082992
 30
0.0
 11
21.1478898480851
 21
-6.059306508145787
 31
0.0
  0
LINE
  5
D19
330
19
100
AcDbEntity
  8
TitleBlock&Notes
  6
Continuous
 62
     3
100
AcDbLine
 10
20.65219695744721
 20
-6.085912907720693
 30
0.0
 11
21.1478898480851
 21
-6.077260555783478
 31
0.0
  0
LINE
  5
D1A
330
19
100
AcDbEntity
  8
TitleBlock&Notes
  6
Continuous
 62
     3
100
AcDbLine
 10
20.65219695744721
 20
-6.373701758421191
 30
0.0
 11
20.65219695744721
 21
-5.947358144426956
 31
0.0
  0
LINE
  5
D1B
330
19
100
AcDbEntity
  8
TitleBlock&Notes
  6
Continuous
 62
     3
100
AcDbLine
 10
20.62975781986852
 20
-6.351262620842547
 30
0.0
 11
20.62975781986852
 21
-5.969797282005593
 31
0.0
  0
LINE
  5
D1C
330
19
100
AcDbEntity
  8
TitleBlock&Notes
  6
Continuous
 62
     3
100
AcDbLine
 10
20.60731868228988
 20
-6.32882348326391
 30
0.0
 11
20.60731868228988
 21
-5.992236419584237
 31
0.0
  0
LINE
  5
D1D
330
19
100
AcDbEntity
  8
TitleBlock&Notes
  6
Continuous
 62
     3
100
AcDbLine
 10
21.1478898480851
 20
-4.921695234151478
 30
0.0
 11
20.38705319073
 21
-4.921695234151478
 31
0.0
  0
LINE
  5
D1E
330
19
100
AcDbEntity
  8
TitleBlock&Notes
  6
Continuous
 62
     3
100
AcDbLine
 10
21.1478898480851
 20
-4.899256096572841
 30
0.0
 11
20.45634547196427
 21
-4.899256096572841
 31
0.0
  0
TEXT
  5
D1F
330
19
100
AcDbEntity
  8
TitleBlock&Notes
  6
Continuous
 62
     3
100
AcDbText
 10
20.70669848114647
 20
-4.78298420470363
 30
0.0
 40
0.1121956878932201
  1
INC.
 41
1.282051279999999
100
AcDbText
  0
LINE
  5
D20
330
19
100
AcDbEntity
  8
TitleBlock&Notes
  6
Continuous
 62
     3
100
AcDbLine
 10
21.1478898480851
 20
-4.589348628934889
 30
0.0
 11
20.61074877373842
 21
-4.589348628934889
 31
0.0
  0
LINE
  5
D21
330
19
100
AcDbEntity
  8
TitleBlock&Notes
  6
Continuous
 62
     3
100
AcDbLine
 10
21.1478898480851
 20
-4.522031216198943
 30
0.0
 11
20.58767891688078
 21
-4.522031216198943
 31
0.0
  0
LINE
  5
D22
330
19
100
AcDbEntity
  8
TitleBlock&Notes
  6
Continuous
 62
     3
100
AcDbLine
 10
21.1478898480851
 20
-4.544470353777608
 30
0.0
 11
20.59752929437326
 21
-4.544470353777608
 31
0.0
  0
LINE
  5
D23
330
19
100
AcDbEntity
  8
TitleBlock&Notes
  6
Continuous
 62
     3
100
AcDbLine
 10
21.1478898480851
 20
-4.566909491356245
 30
0.0
 11
20.60515756894967
 21
-4.566909491356245
 31
0.0
  0
LINE
  5
D24
330
19
100
AcDbEntity
  8
TitleBlock&Notes
  6
Continuous
 62
     3
100
AcDbLine
 10
21.1478898480851
 20
-4.85437782141556
 30
0.0
 11
20.52365049829626
 21
-4.85437782141556
 31
0.0
  0
LINE
  5
D25
330
19
100
AcDbEntity
  8
TitleBlock&Notes
  6
Continuous
 62
     3
100
AcDbLine
 10
21.1478898480851
 20
-4.87681695899419
 30
0.0
 11
20.49522172660199
 21
-4.87681695899419
 31
0.0
  0
LINE
  5
D26
330
19
100
AcDbEntity
  8
TitleBlock&Notes
  6
Continuous
 62
     3
100
AcDbLine
 10
20.81301134521892
 20
-5.251921565258278
 30
0.0
 11
21.1478898480851
 21
-5.246076259675596
 31
0.0
  0
TEXT
  5
D27
330
19
100
AcDbEntity
  8
TitleBlock&Notes
  6
Continuous
 62
     3
100
AcDbText
 10
20.19586101265227
 20
-4.819778242008919
 30
0.0
 40
0.3365870636796602
  1
R
 41
1.1965812
100
AcDbText
  0
LINE
  5
D28
330
19
100
AcDbEntity
  8
TitleBlock&Notes
 62
     3
100
AcDbLine
 10
30.09704196927033
 20
1.053443953335991
 30
0.0
 11
30.09704196927033
 21
-8.003807942043948
 31
0.0
  0
CIRCLE
  5
D29
330
19
100
AcDbEntity
  8
TitleBlock&Notes
  6
Continuous
 62
     3
100
AcDbCircle
 10
27.05907176772488
 20
-3.825051398221621
 30
0.0
 40
0.2019522382077961
  0
TEXT
  5
D2A
330
19
100
AcDbEntity
  8
TitleBlock&Notes
  6
Continuous
 62
     3
100
AcDbText
 10
26.96530031715817
 20
-3.947906933056401
 30
0.0
 40
0.2468305133650842
  1
R
 41
1.165501169999999
100
AcDbText
  0
TEXT
  5
D2B
330
19
100
AcDbEntity
  8
TitleBlock&Notes
  6
Continuous
 62
     3
100
AcDbText
 10
23.91712497801049
 20
-5.504142961754478
 30
0.0
 40
0.3590262012583044
  1
 Bolton, Ontario
 41
0.7000000000000001
100
AcDbText
  0
TEXT
  5
D2C
330
19
100
AcDbEntity
  8
TitleBlock&Notes
  6
Continuous
 62
     3
100
AcDbText
 10
21.63491788346306
 20
-6.104731313603956
 30
0.0
 40
0.3590262012583044
  1
          Canada L7E 5R1
 41
0.7000000000000001
100
AcDbText
  0
MTEXT
  5
D66
330
19
100
AcDbEntity
  8
0
  6
Continuous
 62
     1
100
AcDbMText
 10
5.456749337406391
 20
6.276806220773309
 30
0.0
 40
0.25
 41
0.0
 71
     1
 72
     1
  1
\A1;75mm-1.5mm THREAD
 73
     1
 44
1.0
  0
LINE
  5
D67
330
19
100
AcDbEntity
  8
0
  6
Continuous
 62
     7
100
AcDbLine
 10
3.986400000000003
 20
13.856234
 30
0.0
 11
3.986400000000001
 21
2.134999999999999
 31
0.0
  0
LINE
  5
D68
330
19
100
AcDbEntity
  8
0
  6
Continuous
 62
     7
100
AcDbLine
 10
1.033600000000001
 20
13.856234
 30
0.0
 11
1.033600000000001
 21
2.134999999999999
 31
0.0
  0
DIMENSION
  5
D69
330
19
100
AcDbEntity
  8
0
  6
Continuous
 62
     7
100
AcDbDimension
  2
*D14
 10
-0.0012553729661544
 20
7.106234
 30
0.0
 11
-0.0012553729661557
 21
4.620616999999999
 31
0.0
 70
    32
 71
     5
 42
4.971234000000002
  3
STANDARD
100
AcDbAlignedDimension
 13
1.033600000000001
 23
2.134999999999998
 33
0.0
 14
1.030000000000002
 24
7.106234
 34
0.0
 50
90.0
100
AcDbRotatedDimension
1001
ACAD
1000
DSTYLE
1002
{
1070
    41
1040
0.25
1070
    42
1040
0.1
1070
    43
1040
0.3
1070
    44
1040
0.1
1070
    45
1040
0.000001
1070
   140
1040
0.25
1070
   171
1070
     6
1070
   176
1070
     1
1070
   177
1070
     1
1070
   178
1070
     1
1070
   271
1070
     3
1070
   272
1070
     3
1070
   274
1070
     6
1070
   277
1070
     5
1002
}
  0
DIMENSION
  5
D6A
330
19
100
AcDbEntity
  8
0
  6
Continuous
 62
     7
100
AcDbDimension
  2
*D15
 10
0.3787944164167545
 20
2.134999999999998
 30
0.0
 11
0.3787944164167541
 21
1.572499999999999
 31
0.0
 70
    32
 71
     5
 42
1.124999999999998
  3
STANDARD
100
AcDbAlignedDimension
 13
1.685
 23
1.009999999999999
 33
0.0
 14
1.033600000000001
 24
2.134999999999998
 34
0.0
 50
90.0
100
AcDbRotatedDimension
1001
ACAD
1000
DSTYLE
1002
{
1070
    41
1040
0.25
1070
    42
1040
0.1
1070
    43
1040
0.3
1070
    44
1040
0.1
1070
    45
1040
0.000001
1070
   140
1040
0.25
1070
   171
1070
     6
1070
   176
1070
     1
1070
   177
1070
     1
1070
   178
1070
     1
1070
   271
1070
     3
1070
   272
1070
     3
1070
   274
1070
     6
1070
   277
1070
     5
1002
}
  0
LINE
  5
D6B
330
19
100
AcDbEntity
  8
0
  6
Continuous
 62
   255
100
AcDbLine
 10
1.635000000000003
 20
1.884999999999999
 30
0.0
 11
1.635000000000003
 21
1.059999999999998
 31
0.0
  0
LINE
  5
D6C
330
19
100
AcDbEntity
  8
0
  6
Continuous
 62
   255
100
AcDbLine
 10
3.385000000000003
 20
1.059999999999998
 30
0.0
 11
3.385000000000003
 21
1.884999999999999
 31
0.0
  0
LINE
  5
D6D
330
19
100
AcDbEntity
  8
0
  6
Continuous
 62
   255
100
AcDbLine
 10
1.685
 20
1.009999999999999
 30
0.0
 11
3.335000000000002
 21
1.009999999999999
 31
0.0
  0
LINE
  5
D6E
330
19
100
AcDbEntity
  8
0
  6
Continuous
 62
   255
100
AcDbLine
 10
1.635000000000003
 20
1.059999999999998
 30
0.0
 11
1.685
 21
1.009999999999999
 31
0.0
  0
CIRCLE
  5
D6F
330
19
100
AcDbEntity
  8
0
  6
Continuous
 62
   255
100
AcDbCircle
 10
2.510000000000003
 20
1.634999999999999
 30
0.0
 40
0.065
  0
CIRCLE
  5
D70
330
19
100
AcDbEntity
  8
0
  6
Continuous
 62
   255
100
AcDbCircle
 10
2.510000000000003
 20
1.634999999999999
 30
0.0
 40
0.045
  0
LINE
  5
D71
330
19
100
AcDbEntity
  8
0
  6
Continuous
 62
   255
100
AcDbLine
 10
3.385000000000003
 20
1.059999999999998
 30
0.0
 11
3.335000000000002
 21
1.009999999999999
 31
0.0
  0
LINE
  5
D72
330
19
100
AcDbEntity
  8
0
  6
Continuous
 62
   255
100
AcDbLine
 10
1.3525
 20
1.884999999999999
 30
0.0
 11
3.667500000000002
 21
1.884999999999999
 31
0.0
  0
LINE
  5
D73
330
19
100
AcDbEntity
  8
0
  6
Continuous
 62
     7
100
AcDbLine
 10
3.986400000000001
 20
2.134999999999999
 30
0.0
 11
1.033600000000001
 21
2.134999999999999
 31
0.0
  0
LINE
  5
D74
330
19
100
AcDbEntity
  8
0
  6
Continuous
 62
     7
100
AcDbLine
 10
1.030000000000002
 20
7.106234
 30
0.0
 11
3.962725
 21
7.106234
 31
0.0
  0
LINE
  5
D75
330
19
100
AcDbEntity
  8
0
  6
HIDDEN
 62
     7
100
AcDbLine
 10
1.061250000000002
 20
7.106234
 30
0.0
 11
1.061250000000002
 21
2.134999999999999
 31
0.0
  0
LINE
  5
D76
330
19
100
AcDbEntity
  8
0
  6
Continuous
 62
   255
100
AcDbLine
 10
1.322500000000001
 20
2.134999999999999
 30
0.0
 11
1.322500000000001
 21
1.915
 31
0.0
  0
LINE
  5
D77
330
19
100
AcDbEntity
  8
0
  6
Continuous
 62
   255
100
AcDbLine
 10
1.322500000000001
 20
1.915
 30
0.0
 11
1.3525
 21
1.884999999999999
 31
0.0
  0
LINE
  5
D78
330
19
100
AcDbEntity
  8
0
  6
Continuous
 62
     1
100
AcDbLine
 10
4.084505181829536
 20
4.81830808085399
 30
0.0
 11
5.116749337406391
 21
6.151806220773309
 31
0.0
  0
LINE
  5
D79
330
19
100
AcDbEntity
  8
0
  6
HIDDEN
 62
     7
100
AcDbLine
 10
3.931475
 20
7.106234
 30
0.0
 11
3.931475
 21
2.134999999999999
 31
0.0
  0
LINE
  5
D7A
330
19
100
AcDbEntity
  8
0
  6
Continuous
 62
   255
100
AcDbLine
 10
3.697499999999999
 20
2.134999999999999
 30
0.0
 11
3.697499999999999
 21
1.915
 31
0.0
  0
LINE
  5
D7B
330
19
100
AcDbEntity
  8
0
  6
Continuous
 62
   255
100
AcDbLine
 10
3.697499999999999
 20
1.915
 30
0.0
 11
3.667500000000002
 21
1.884999999999999
 31
0.0
  0
SOLID
  5
D7C
330
19
100
AcDbEntity
  8
0
  6
Continuous
 62
     1
100
AcDbTrace
 10
4.117453695305202
 20
4.792803050549068
 30
0.0
 11
4.051556668353873
 21
4.843813111158913
 31
0.0
 12
3.931475
 22
4.620617000000001
 32
0.0
 13
3.931475
 23
4.620617000000001
 33
0.0
  0
LINE
  5
D7D
330
19
100
AcDbEntity
  8
0
  6
Continuous
 62
     1
100
AcDbLine
 10
5.116749337406391
 20
6.151806220773309
 30
0.0
 11
5.366749337406391
 21
6.151806220773309
 31
0.0
  0
MTEXT
  5
DCA
330
19
100
AcDbEntity
  8
0
  6
Continuous
 62
     1
100
AcDbMText
 10
5.627015396318467
 20
29.00732341566306
 30
0.0
 40
0.25
 41
0.0
 71
     1
 72
     1
  1
\A1;3/8 NPT INLET FOR INCOMING AIR
 73
     1
 44
1.0
  0
DIMENSION
  5
DCB
330
19
100
AcDbEntity
  8
0
  6
Continuous
 62
     7
100
AcDbDimension
  2
*D17
 10
4.884999999999999
 20
27.75876627581666
 30
0.0
 11
2.509999999999999
 21
27.75876627581666
 31
0.0
 70
    32
 71
     5
 42
4.75
  3
STANDARD
100
AcDbAlignedDimension
 13
0.135
 23
26.731234
 33
0.0
 14
4.884999999999999
 24
26.731234
 34
0.0
100
AcDbRotatedDimension
1001
ACAD
1000
DSTYLE
1002
{
1070
    41
1040
0.25
1070
    42
1040
0.1
1070
    43
1040
0.3
1070
    44
1040
0.1
1070
    45
1040
0.000001
1070
   140
1040
0.25
1070
   171
1070
     6
1070
   176
1070
     1
1070
   177
1070
     1
1070
   178
1070
     1
1070
   271
1070
     3
1070
   272
1070
     3
1070
   274
1070
     6
1070
   277
1070
     5
1002
}
  0
LINE
  5
DCC
330
19
100
AcDbEntity
  8
0
  6
Continuous
 62
     1
100
AcDbLine
 10
2.707641577162282
 20
26.88432811150272
 30
0.0
 11
5.287015396318467
 21
28.88232341566306
 31
0.0
  0
LINE
  5
DCD
330
19
100
AcDbEntity
  8
0
  6
Continuous
 62
     1
100
AcDbLine
 10
5.287015396318467
 20
28.88232341566306
 30
0.0
 11
5.537015396318467
 21
28.88232341566306
 31
0.0
  0
SOLID
  5
DCE
330
19
100
AcDbEntity
  8
0
  6
Continuous
 62
     1
100
AcDbTrace
 10
2.733157262412734
 20
26.85138784864234
 30
0.0
 11
2.682125891911829
 21
26.9172683743631
 31
0.0
 12
2.51
 22
26.731234
 32
0.0
 13
2.51
 23
26.731234
 33
0.0
  0
LINE
  5
DCF
330
19
100
AcDbEntity
  8
0
  6
HIDDEN
 62
     7
 48
0.625
100
AcDbLine
 10
2.3225
 20
26.731234
 30
0.0
 11
2.3225
 21
26.356234
 31
0.0
  0
LINE
  5
DD0
330
19
100
AcDbEntity
  8
0
  6
HIDDEN
 62
     7
 48
0.625
100
AcDbLine
 10
2.6975
 20
26.731234
 30
0.0
 11
2.6975
 21
26.356234
 31
0.0
  0
TEXT
  5
DD2
330
19
100
AcDbEntity
  8
0
100
AcDbText
 10
-12.22104910948098
 20
25.11277941908016
 30
0.0
 40
0.325
  1
10 TON MAX OUTPUT
100
AcDbText
  0
TEXT
  5
DD3
330
19
100
AcDbEntity
  8
0
100
AcDbText
 10
-12.22104910948098
 20
25.70850001386059
 30
0.0
 40
0.325
  1
7/32 POWER STROKE
100
AcDbText
  0
TEXT
  5
DD4
330
19
100
AcDbEntity
  8
0
100
AcDbText
 10
-12.22104910948098
 20
26.25016668052726
 30
0.0
 40
0.325
  1
2" OVERALL STROKE
100
AcDbText
  0
TEXT
  5
DD5
330
19
100
AcDbEntity
  8
0
100
AcDbText
 10
-12.22104910948098
 20
27.33139973400802
 30
0.0
 40
0.325
  1
XL 20-16-7 CYLINDER
100
AcDbText
  0
LINE
  5
DD6
330
19
100
AcDbEntity
  8
0
100
AcDbLine
 10
-12.31175505676094
 20
27.16027643195504
 30
0.0
 11
-6.487663671685323
 21
27.16027643195504
 31
0.0
  0
DIMENSION
  5
E22
330
19
100
AcDbEntity
  8
0
  6
Continuous
 62
     7
100
AcDbDimension
  2
*D18
 10
-1.7175790300121
 20
27.166234
 30
0.0
 11
-1.717579030012105
 21
14.088117
 31
0.0
 70
    32
 71
     5
 42
26.156234
  3
STANDARD
100
AcDbAlignedDimension
 13
1.685
 23
1.009999999999999
 33
0.0
 14
0.3425
 24
27.166234
 34
0.0
 50
90.0
100
AcDbRotatedDimension
1001
ACAD
1000
DSTYLE
1002
{
1070
    41
1040
0.25
1070
    42
1040
0.1
1070
    43
1040
0.3
1070
    44
1040
0.1
1070
    45
1040
0.000001
1070
   140
1040
0.25
1070
   171
1070
     6
1070
   176
1070
     1
1070
   177
1070
     1
1070
   178
1070
     1
1070
   271
1070
     1
1070
   272
1070
     1
1070
   274
1070
     6
1070
   277
1070
     5
1002
}
  0
LINE
  5
E32
330
19
100
AcDbEntity
  8
0
  6
Continuous
 62
   255
100
AcDbLine
 10
0.135
 20
26.73123400000001
 30
0.0
 11
0.135
 21
13.85623399999999
 31
0.0
  0
LINE
  5
E33
330
19
100
AcDbEntity
  8
0
  6
Continuous
 62
   255
100
AcDbLine
 10
4.884999999999999
 20
26.73123400000001
 30
0.0
 11
4.884999999999998
 21
13.85623399999999
 31
0.0
  0
ENDSEC
  0
SECTION
  2
OBJECTS
  0
DICTIONARY
  5
C
330
0
100
AcDbDictionary
281
     1
  3
ACAD_GROUP
350
D
  3
ACAD_LAYOUT
350
398
  3
ACAD_MLINESTYLE
350
E
  3
ACAD_PLOTSETTINGS
350
399
  3
ACAD_PLOTSTYLENAME
350
396
  3
ASE_INDEX_DICTIONARY
350
3A7
  0
DICTIONARY
  5
D
102
{ACAD_REACTORS
330
C
102
}
330
C
100
AcDbDictionary
281
     1
  0
DICTIONARY
  5
398
102
{ACAD_REACTORS
330
C
102
}
330
C
100
AcDbDictionary
281
     1
  3
Layout1
350
39B
  3
Model
350
39A
  0
DICTIONARY
  5
E
102
{ACAD_REACTORS
330
C
102
}
330
C
100
AcDbDictionary
281
     1
  3
STANDARD
350
1C
  0
DICTIONARY
  5
399
102
{ACAD_REACTORS
330
C
102
}
330
C
100
AcDbDictionary
281
     1
  0
ACDBDICTIONARYWDFLT
  5
396
102
{ACAD_REACTORS
330
C
102
}
330
C
100
AcDbDictionary
281
     1
  3
Normal
350
397
100
AcDbDictionaryWithDefault
340
397
  0
DICTIONARY
  5
3A7
102
{ACAD_REACTORS
330
C
102
}
330
C
100
AcDbDictionary
281
     1
  3
ASEBlockHierarchyIndexRecord
350
3A9
1001
DCO15
1040
1374493806.33
  0
LAYOUT
  5
39B
102
{ACAD_REACTORS
330
398
102
}
330
398
100
AcDbPlotSettings
  1

  2
HP LaserJet III
  4

  6

 40
0.0
 41
0.0
 42
0.0
 43
0.0
 44
0.0
 45
0.0
 46
0.0
 47
0.0
 48
0.0
 49
0.0
140
0.0
141
0.0
142
1.0
143
1.0
 70
   688
 72
     0
 73
     0
 74
     5
  7

 75
    16
147
1.0
148
0.0
149
0.0
100
AcDbLayout
  1
Layout1
 70
     1
 71
     1
 10
0.0
 20
0.0
 11
12.0
 21
9.0
 12
0.0
 22
0.0
 32
0.0
 14
1.000000000000000E+20
 24
1.000000000000000E+20
 34
1.000000000000000E+20
 15
-1.000000000000000E+20
 25
-1.000000000000000E+20
 35
-1.000000000000000E+20
146
0.0
 13
0.0
 23
0.0
 33
0.0
 16
1.0
 26
0.0
 36
0.0
 17
0.0
 27
1.0
 37
0.0
 76
     0
330
16
  0
LAYOUT
  5
39A
102
{ACAD_REACTORS
330
398
102
}
330
398
100
AcDbPlotSettings
  1

  2
HP LaserJet III
  4

  6

 40
0.0
 41
0.0
 42
0.0
 43
0.0
 44
0.0
 45
0.0
 46
0.0
 47
0.0
 48
0.0
 49
0.0
140
0.0
141
0.0
142
1.0
143
1.0
 70
  1712
 72
     0
 73
     0
 74
     0
  7

 75
     0
147
1.0
148
0.0
149
0.0
100
AcDbLayout
  1
Model
 70
     1
 71
     0
 10
0.0
 20
0.0
 11
12.0
 21
9.0
 12
0.0
 22
0.0
 32
0.0
 14
0.0
 24
0.0
 34
0.0
 15
0.0
 25
0.0
 35
0.0
146
0.0
 13
0.0
 23
0.0
 33
0.0
 16
1.0
 26
0.0
 36
0.0
 17
0.0
 27
1.0
 37
0.0
 76
     0
330
19
  0
MLINESTYLE
  5
1C
102
{ACAD_REACTORS
330
E
102
}
330
E
100
AcDbMlineStyle
  2
STANDARD
 70
     0
  3

 62
     0
 51
90.0
 52
90.0
 71
     2
 49
0.5
 62
   256
  6
BYLAYER
 49
-0.5
 62
   256
  6
BYLAYER
  0
ACDBPLACEHOLDER
  5
397
102
{ACAD_REACTORS
330
396
102
}
330
396
  0
XRECORD
  5
3A9
102
{ACAD_REACTORS
330
3A7
102
}
330
3A7
100
AcDbXrecord
280
     1
  0
ENDSEC
  0
EOF
